  0
SECTION
  2
HEADER
  9
$ACADVER
  1
AC1018
  9
$ACADMAINTVER
 70
     0
  9
$DWGCODEPAGE
  3
ANSI_1252
  9
$INSBASE
 10
0.0
 20
0.0
 30
0.0
  9
$EXTMIN
 10
157.117944327152
 20
79.1690207318652
 30
0.0
  9
$EXTMAX
 10
262.281062733937
 20
234.7533311714
 30
0.0
  9
$LIMMIN
 10
0.0
 20
0.0
  9
$LIMMAX
 10
12.0
 20
9.0
  9
$ORTHOMODE
 70
     0
  9
$REGENMODE
 70
     1
  9
$FILLMODE
 70
     1
  9
$QTEXTMODE
 70
     0
  9
$MIRRTEXT
 70
     1
  9
$LTSCALE
 40
1.0
  9
$ATTMODE
 70
     1
  9
$TEXTSIZE
 40
0.2
  9
$TRACEWID
 40
0.05
  9
$TEXTSTYLE
  7
Standard
  9
$CLAYER
  8
0
  9
$CELTYPE
  6
ByLayer
  9
$CECOLOR
 62
   256
  9
$CELTSCALE
 40
1.0
  9
$DISPSILH
 70
     0
  9
$DIMSCALE
 40
1.0
  9
$DIMASZ
 40
0.18
  9
$DIMEXO
 40
0.0625
  9
$DIMDLI
 40
0.38
  9
$DIMRND
 40
0.0
  9
$DIMDLE
 40
0.0
  9
$DIMEXE
 40
0.18
  9
$DIMTP
 40
0.0
  9
$DIMTM
 40
0.0
  9
$DIMTXT
 40
0.18
  9
$DIMCEN
 40
0.09
  9
$DIMTSZ
 40
0.0
  9
$DIMTOL
 70
     0
  9
$DIMLIM
 70
     0
  9
$DIMTIH
 70
     1
  9
$DIMTOH
 70
     1
  9
$DIMSE1
 70
     0
  9
$DIMSE2
 70
     0
  9
$DIMTAD
 70
     0
  9
$DIMZIN
 70
     0
  9
$DIMBLK
  1

  9
$DIMASO
 70
     1
  9
$DIMSHO
 70
     1
  9
$DIMPOST
  1

  9
$DIMAPOST
  1

  9
$DIMALT
 70
     0
  9
$DIMALTD
 70
     2
  9
$DIMALTF
 40
25.4
  9
$DIMLFAC
 40
1.0
  9
$DIMTOFL
 70
     0
  9
$DIMTVP
 40
0.0
  9
$DIMTIX
 70
     0
  9
$DIMSOXD
 70
     0
  9
$DIMSAH
 70
     0
  9
$DIMBLK1
  1

  9
$DIMBLK2
  1

  9
$DIMSTYLE
  2
Standard
  9
$DIMCLRD
 70
     0
  9
$DIMCLRE
 70
     0
  9
$DIMCLRT
 70
     0
  9
$DIMTFAC
 40
1.0
  9
$DIMGAP
 40
0.09
  9
$DIMJUST
 70
     0
  9
$DIMSD1
 70
     0
  9
$DIMSD2
 70
     0
  9
$DIMTOLJ
 70
     1
  9
$DIMTZIN
 70
     0
  9
$DIMALTZ
 70
     0
  9
$DIMALTTZ
 70
     0
  9
$DIMUPT
 70
     0
  9
$DIMDEC
 70
     4
  9
$DIMTDEC
 70
     4
  9
$DIMALTU
 70
     2
  9
$DIMALTTD
 70
     2
  9
$DIMTXSTY
  7
Standard
  9
$DIMAUNIT
 70
     0
  9
$DIMADEC
 70
     0
  9
$DIMALTRND
 40
0.0
  9
$DIMAZIN
 70
     0
  9
$DIMDSEP
 70
    46
  9
$DIMATFIT
 70
     3
  9
$DIMFRAC
 70
     0
  9
$DIMLDRBLK
  1

  9
$DIMLUNIT
 70
     2
  9
$DIMLWD
 70
    -2
  9
$DIMLWE
 70
    -2
  9
$DIMTMOVE
 70
     0
  9
$LUNITS
 70
     2
  9
$LUPREC
 70
     4
  9
$SKETCHINC
 40
0.1
  9
$FILLETRAD
 40
0.5
  9
$AUNITS
 70
     0
  9
$AUPREC
 70
     0
  9
$MENU
  1
.
  9
$ELEVATION
 40
0.0
  9
$PELEVATION
 40
0.0
  9
$THICKNESS
 40
0.0
  9
$LIMCHECK
 70
     0
  9
$CHAMFERA
 40
0.5
  9
$CHAMFERB
 40
0.5
  9
$CHAMFERC
 40
1.0
  9
$CHAMFERD
 40
0.0
  9
$SKPOLY
 70
     0
  9
$TDCREATE
 40
2456966.486178183
  9
$TDUCREATE
 40
2456966.444511516
  9
$TDUPDATE
 40
2456966.486178195
  9
$TDUUPDATE
 40
2456966.444511528
  9
$TDINDWG
 40
0.0000000116
  9
$TDUSRTIMER
 40
0.0000000116
  9
$USRTIMER
 70
     1
  9
$ANGBASE
 50
0.0
  9
$ANGDIR
 70
     0
  9
$PDMODE
 70
     0
  9
$PDSIZE
 40
0.0
  9
$PLINEWID
 40
0.0
  9
$SPLFRAME
 70
     0
  9
$SPLINETYPE
 70
     6
  9
$SPLINESEGS
 70
     8
  9
$HANDSEED
  5
216
  9
$SURFTAB1
 70
     6
  9
$SURFTAB2
 70
     6
  9
$SURFTYPE
 70
     6
  9
$SURFU
 70
     6
  9
$SURFV
 70
     6
  9
$UCSBASE
  2

  9
$UCSNAME
  2

  9
$UCSORG
 10
0.0
 20
0.0
 30
0.0
  9
$UCSXDIR
 10
1.0
 20
0.0
 30
0.0
  9
$UCSYDIR
 10
0.0
 20
1.0
 30
0.0
  9
$UCSORTHOREF
  2

  9
$UCSORTHOVIEW
 70
     0
  9
$UCSORGTOP
 10
0.0
 20
0.0
 30
0.0
  9
$UCSORGBOTTOM
 10
0.0
 20
0.0
 30
0.0
  9
$UCSORGLEFT
 10
0.0
 20
0.0
 30
0.0
  9
$UCSORGRIGHT
 10
0.0
 20
0.0
 30
0.0
  9
$UCSORGFRONT
 10
0.0
 20
0.0
 30
0.0
  9
$UCSORGBACK
 10
0.0
 20
0.0
 30
0.0
  9
$PUCSBASE
  2

  9
$PUCSNAME
  2

  9
$PUCSORG
 10
0.0
 20
0.0
 30
0.0
  9
$PUCSXDIR
 10
1.0
 20
0.0
 30
0.0
  9
$PUCSYDIR
 10
0.0
 20
1.0
 30
0.0
  9
$PUCSORTHOREF
  2

  9
$PUCSORTHOVIEW
 70
     0
  9
$PUCSORGTOP
 10
0.0
 20
0.0
 30
0.0
  9
$PUCSORGBOTTOM
 10
0.0
 20
0.0
 30
0.0
  9
$PUCSORGLEFT
 10
0.0
 20
0.0
 30
0.0
  9
$PUCSORGRIGHT
 10
0.0
 20
0.0
 30
0.0
  9
$PUCSORGFRONT
 10
0.0
 20
0.0
 30
0.0
  9
$PUCSORGBACK
 10
0.0
 20
0.0
 30
0.0
  9
$USERI1
 70
     0
  9
$USERI2
 70
     0
  9
$USERI3
 70
     0
  9
$USERI4
 70
     0
  9
$USERI5
 70
     0
  9
$USERR1
 40
14.5
  9
$USERR2
 40
0.0
  9
$USERR3
 40
0.0
  9
$USERR4
 40
0.0
  9
$USERR5
 40
0.0
  9
$WORLDVIEW
 70
     1
  9
$SHADEDGE
 70
     3
  9
$SHADEDIF
 70
    70
  9
$TILEMODE
 70
     1
  9
$MAXACTVP
 70
    64
  9
$PINSBASE
 10
0.0
 20
0.0
 30
0.0
  9
$PLIMCHECK
 70
     0
  9
$PEXTMIN
 10
1.00000000000000E+20
 20
1.00000000000000E+20
 30
1.00000000000000E+20
  9
$PEXTMAX
 10
-1.00000000000000E+20
 20
-1.00000000000000E+20
 30
-1.00000000000000E+20
  9
$PLIMMIN
 10
0.0
 20
0.0
  9
$PLIMMAX
 10
12.0
 20
9.0
  9
$UNITMODE
 70
     0
  9
$VISRETAIN
 70
     1
  9
$PLINEGEN
 70
     0
  9
$PSLTSCALE
 70
     1
  9
$TREEDEPTH
 70
  3020
  9
$CMLSTYLE
  2
Standard
  9
$CMLJUST
 70
     0
  9
$CMLSCALE
 40
1.0
  9
$PROXYGRAPHICS
 70
     1
  9
$MEASUREMENT
 70
     1
  9
$CELWEIGHT
370
    -1
  9
$ENDCAPS
280
     0
  9
$JOINSTYLE
280
     0
  9
$LWDISPLAY
290
     0
  9
$INSUNITS
 70
     1
  9
$HYPERLINKBASE
  1

  9
$STYLESHEET
  1

  9
$XEDIT
290
     1
  9
$CEPSNTYPE
380
     0
  9
$PSTYLEMODE
290
     1
  9
$FINGERPRINTGUID
  2
{6F8C4821-6F32-4FCE-A540-7BBCC64B7194}
  9
$VERSIONGUID
  2
{FAEB1C32-E019-11D5-929B-00C0DF256EC4}
  9
$EXTNAMES
290
     1
  9
$PSVPSCALE
 40
0.0
  9
$OLESTARTUP
290
     0
  9
$SORTENTS
280
   127
  9
$INDEXCTL
280
     0
  9
$HIDETEXT
280
     1
  9
$XCLIPFRAME
290
     0
  9
$HALOGAP
280
     0
  9
$OBSCOLOR
 70
   257
  9
$OBSLTYPE
280
     0
  9
$INTERSECTIONDISPLAY
280
     0
  9
$INTERSECTIONCOLOR
 70
   257
  9
$DIMASSOC
280
     2
  9
$PROJECTNAME
  1

  0
ENDSEC
  0
SECTION
  2
CLASSES
  0
CLASS
  1
ACDBDICTIONARYWDFLT
  2
AcDbDictionaryWithDefault
  3
ObjectDBX Classes
 90
        0
 91
        3
280
     0
281
     0
  0
CLASS
  1

  2
exOdDbCircle
  3

 90
        0
 91
        3
280
     0
281
     1
  0
CLASS
  1

  2
exOdDbPolyline
  3

 90
        0
 91
        3
280
     0
281
     1
  0
ENDSEC
  0
SECTION
  2
TABLES
  0
TABLE
  2
VPORT
  5
8
330
0
100
AcDbSymbolTable
 70
     1
  0
VPORT
  5
29
330
8
100
AcDbSymbolTableRecord
100
AcDbViewportTableRecord
  2
*Active
 70
     0
 10
0.0
 20
0.0
 11
1.0
 21
1.0
 12
209.6995035305445
 22
156.9611759516326
 13
0.0
 23
0.0
 14
0.5
 24
0.5
 15
0.5
 25
0.5
 16
0.0
 26
0.0
 36
1.0
 17
0.0
 27
0.0
 37
0.0
 40
171.1427414834883
 41
1.60267857142857
 42
50.0
 43
0.0
 44
0.0
 50
0.0
 51
0.0
 71
     0
 72
   100
 73
     1
 74
     3
 75
     0
 76
     0
 77
     0
 78
     0
281
     0
 65
     1
110
0.0
120
0.0
130
0.0
111
1.0
121
0.0
131
0.0
112
0.0
122
1.0
132
0.0
 79
     0
146
0.0
  0
ENDTAB
  0
TABLE
  2
LTYPE
  5
5
330
0
100
AcDbSymbolTable
 70
     8
  0
LTYPE
  5
14
330
5
100
AcDbSymbolTableRecord
100
AcDbLinetypeTableRecord
  2
ByBlock
 70
     0
  3

 72
    65
 73
     0
 40
0.0
  0
LTYPE
  5
15
330
5
100
AcDbSymbolTableRecord
100
AcDbLinetypeTableRecord
  2
ByLayer
 70
     0
  3

 72
    65
 73
     0
 40
0.0
  0
LTYPE
  5
16
330
5
100
AcDbSymbolTableRecord
100
AcDbLinetypeTableRecord
  2
Continuous
 70
     0
  3
Solid line
 72
    65
 73
     0
 40
0.0
  0
LTYPE
  5
2A
330
5
100
AcDbSymbolTableRecord
100
AcDbLinetypeTableRecord
  2
DASHED
 70
     0
  3
Dashed
 72
    65
 73
     2
 40
15.0
 49
7.0
 74
     0
 49
-8.0
 74
     0
  0
LTYPE
  5
2B
330
5
100
AcDbSymbolTableRecord
100
AcDbLinetypeTableRecord
  2
DOTTED
 70
     0
  3
Dotted
 72
    65
 73
     2
 40
1.0
 49
0.0
 74
     0
 49
-1.0
 74
     0
  0
LTYPE
  5
2C
330
5
100
AcDbSymbolTableRecord
100
AcDbLinetypeTableRecord
  2
DOT_CENTER
 70
     0
  3
Dot_Center
 72
    65
 73
     4
 40
14.0
 49
12.0
 74
     0
 49
-1.0
 74
     0
 49
0.0
 74
     0
 49
-1.0
 74
     0
  0
LTYPE
  5
2D
330
5
100
AcDbSymbolTableRecord
100
AcDbLinetypeTableRecord
  2
LONG_DASHED
 70
     0
  3
Long_Dashed
 72
    65
 73
     2
 40
15.0
 49
10.0
 74
     0
 49
-5.0
 74
     0
  0
LTYPE
  5
2E
330
5
100
AcDbSymbolTableRecord
100
AcDbLinetypeTableRecord
  2
DASH_CENTER
 70
     0
  3
Dash_Center
 72
    65
 73
     4
 40
14.0
 49
11.0
 74
     0
 49
-1.0
 74
     0
 49
1.0
 74
     0
 49
-1.0
 74
     0
  0
LTYPE
  5
2F
330
5
100
AcDbSymbolTableRecord
100
AcDbLinetypeTableRecord
  2
PHANTOM
 70
     0
  3
Phantom
 72
    65
 73
     6
 40
13.0
 49
10.0
 74
     0
 49
-1.0
 74
     0
 49
0.0
 74
     0
 49
-1.0
 74
     0
 49
0.0
 74
     0
 49
-1.0
 74
     0
  0
LTYPE
  5
30
330
5
100
AcDbSymbolTableRecord
100
AcDbLinetypeTableRecord
  2
CENTER_DASH_DASH
 70
     0
  3
Center_Dash_Dash
 72
    65
 73
     6
 40
14.0
 49
9.0
 74
     0
 49
-1.0
 74
     0
 49
1.0
 74
     0
 49
-1.0
 74
     0
 49
1.0
 74
     0
 49
-1.0
 74
     0
  0
ENDTAB
  0
TABLE
  2
LAYER
  5
2
330
0
100
AcDbSymbolTable
 70
     6
  0
LAYER
  5
10
330
2
100
AcDbSymbolTableRecord
100
AcDbLayerTableRecord
  2
0
 70
     0
 62
     7
  6
Continuous
370
    -3
390
F
  0
LAYER
  5
31
330
2
100
AcDbSymbolTableRecord
100
AcDbLayerTableRecord
  2
1
 70
     0
 62
     7
  6
Continuous
370
    -3
390
F
  0
LAYER
  5
32
330
2
100
AcDbSymbolTableRecord
100
AcDbLayerTableRecord
  2
A_ACHSEN
 70
     0
 62
     7
  6
Continuous
370
    -3
390
F
  0
LAYER
  5
33
330
2
100
AcDbSymbolTableRecord
100
AcDbLayerTableRecord
  2
A_BEMASSUNGEN
 70
     0
 62
     7
  6
Continuous
370
    -3
390
F
  0
LAYER
  5
34
330
2
100
AcDbSymbolTableRecord
100
AcDbLayerTableRecord
  2
A_RUNDUNGEN
 70
     0
 62
     7
  6
Continuous
370
    -3
390
F
  0
LAYER
  5
35
330
2
100
AcDbSymbolTableRecord
100
AcDbLayerTableRecord
  2
PLATTE_U_ZUBEHOER
 70
     0
 62
     7
  6
Continuous
370
    -3
390
F
  0
ENDTAB
  0
TABLE
  2
STYLE
  5
3
330
0
100
AcDbSymbolTable
 70
     2
  0
STYLE
  5
11
330
3
100
AcDbSymbolTableRecord
100
AcDbTextStyleTableRecord
  2
Standard
 70
     0
 40
0.0
 41
1.0
 50
0.0
 71
     0
 42
0.2
  3
txt
  4

  0
STYLE
  5
1DB
330
3
100
AcDbSymbolTableRecord
100
AcDbTextStyleTableRecord
  2
CONVERTER_11
 70
     0
 40
0.0
 41
0.9
 50
0.0
 71
     0
 42
0.2
  3
txt.shx
  4

  0
ENDTAB
  0
TABLE
  2
VIEW
  5
6
330
0
100
AcDbSymbolTable
 70
     0
  0
ENDTAB
  0
TABLE
  2
UCS
  5
7
330
0
100
AcDbSymbolTable
 70
     0
  0
ENDTAB
  0
TABLE
  2
APPID
  5
9
330
0
100
AcDbSymbolTable
 70
     1
  0
APPID
  5
12
330
9
100
AcDbSymbolTableRecord
100
AcDbRegAppTableRecord
  2
ACAD
 70
     0
  0
ENDTAB
  0
TABLE
  2
DIMSTYLE
  5
A
330
0
100
AcDbSymbolTable
 70
     6
100
AcDbDimStyleTable
  0
DIMSTYLE
105
27
330
A
100
AcDbSymbolTableRecord
100
AcDbDimStyleTableRecord
  2
Standard
 70
     0
340
11
  0
DIMSTYLE
105
1E6
102
{ACAD_REACTORS
330
1E7
102
}
330
A
100
AcDbSymbolTableRecord
100
AcDbDimStyleTableRecord
  2
ME10_DIM_10
 70
     0
 41
3.5
 42
0.0
 44
2.0
 73
     0
 74
     0
 77
     1
 78
     8
140
3.5
147
2.0
172
     1
173
     1
176
     2
177
     2
178
     2
271
     1
340
1DB
  0
DIMSTYLE
105
1F1
102
{ACAD_REACTORS
330
1F2
102
}
330
A
100
AcDbSymbolTableRecord
100
AcDbDimStyleTableRecord
  2
ME10_DIM_11
 70
     0
 41
3.5
 42
0.0
 44
2.0
 73
     0
 74
     0
 77
     1
 78
     8
140
3.5
147
2.0
172
     1
173
     1
176
     2
177
     2
178
     2
271
     3
340
1DB
  0
DIMSTYLE
105
1FC
102
{ACAD_REACTORS
330
1FD
102
}
330
A
100
AcDbSymbolTableRecord
100
AcDbDimStyleTableRecord
  2
ME10_DIM_12
 70
     0
 41
3.5
 42
0.0
 44
2.0
 73
     0
 74
     0
 77
     1
 78
     8
140
3.5
147
2.0
172
     1
173
     1
176
     2
177
     2
178
     2
271
     1
340
1DB
  0
DIMSTYLE
105
208
102
{ACAD_REACTORS
330
209
102
}
330
A
100
AcDbSymbolTableRecord
100
AcDbDimStyleTableRecord
  2
ME10_DIM_13
 70
     0
 41
3.5
 42
0.0
 44
2.0
 73
     0
 74
     0
 77
     1
 78
     8
140
3.5
147
2.0
172
     1
173
     1
176
     2
177
     2
178
     2
271
     3
340
1DB
  0
DIMSTYLE
105
214
102
{ACAD_REACTORS
330
215
102
}
330
A
100
AcDbSymbolTableRecord
100
AcDbDimStyleTableRecord
  2
ME10_DIM_14
 70
     0
 41
3.5
 42
0.0
 44
2.0
 73
     0
 74
     0
 77
     1
 78
     8
140
3.5
147
2.0
172
     1
173
     1
176
     2
177
     2
178
     2
271
     3
340
1DB
  0
ENDTAB
  0
TABLE
  2
BLOCK_RECORD
  5
1
330
0
100
AcDbSymbolTable
 70
     6
  0
BLOCK_RECORD
  5
1F
330
1
100
AcDbSymbolTableRecord
100
AcDbBlockTableRecord
  2
*Model_Space
340
22
  0
BLOCK_RECORD
  5
1B
330
1
100
AcDbSymbolTableRecord
100
AcDbBlockTableRecord
  2
*Paper_Space
340
1E
  0
BLOCK_RECORD
  5
23
330
1
100
AcDbSymbolTableRecord
100
AcDbBlockTableRecord
  2
*Paper_Space0
340
26
  0
BLOCK_RECORD
  5
1DD
330
1
100
AcDbSymbolTableRecord
100
AcDbBlockTableRecord
  2
*D1
340
0
  0
BLOCK_RECORD
  5
1E8
330
1
100
AcDbSymbolTableRecord
100
AcDbBlockTableRecord
  2
*D2
340
0
  0
BLOCK_RECORD
  5
1F3
330
1
100
AcDbSymbolTableRecord
100
AcDbBlockTableRecord
  2
*D3
340
0
  0
BLOCK_RECORD
  5
1FE
330
1
100
AcDbSymbolTableRecord
100
AcDbBlockTableRecord
  2
*D4
340
0
  0
BLOCK_RECORD
  5
20A
330
1
100
AcDbSymbolTableRecord
100
AcDbBlockTableRecord
  2
*D5
340
0
  0
ENDTAB
  0
ENDSEC
  0
SECTION
  2
BLOCKS
  0
BLOCK
  5
20
330
1F
100
AcDbEntity
  8
0
100
AcDbBlockBegin
  2
*Model_Space
 70
     0
 71
     0
 10
0.0
 20
0.0
 30
0.0
  3
*Model_Space
  1

  0
ENDBLK
  5
21
330
1F
100
AcDbEntity
  8
0
100
AcDbBlockEnd
  0
BLOCK
  5
1C
330
1B
100
AcDbEntity
 67
     1
  8
0
100
AcDbBlockBegin
  2
*Paper_Space
 70
     0
 71
     0
 10
0.0
 20
0.0
 30
0.0
  3
*Paper_Space
  1

  0
ENDBLK
  5
1D
330
1B
100
AcDbEntity
 67
     1
  8
0
100
AcDbBlockEnd
  0
BLOCK
  5
24
330
23
100
AcDbEntity
  8
0
100
AcDbBlockBegin
  2
*Paper_Space0
 70
     0
 71
     0
 10
0.0
 20
0.0
 30
0.0
  3
*Paper_Space0
  1

  0
ENDBLK
  5
25
330
23
100
AcDbEntity
  8
0
100
AcDbBlockEnd
  0
BLOCK
  5
1E4
330
1DD
100
AcDbEntity
  8
0
100
AcDbBlockBegin
  2
*D1
 70
     1
 71
     0
 10
0.0
 20
0.0
 30
0.0
  3
*D1
  1

  0
LINE
  5
1DE
330
1DD
100
AcDbEntity
  8
1
  6
Continuous
 62
     2
100
AcDbLine
 10
176.3153704961
 20
81.1690207318652
 30
0.0
 11
203.7737229739
 21
81.1690207318652
 31
0.0
  0
LINE
  5
1DF
330
1DD
100
AcDbEntity
  8
1
  6
Continuous
 62
     2
100
AcDbLine
 10
176.3153704961
 20
108.2855564580012
 30
0.0
 11
176.3153704961
 21
79.1690207318652
 31
0.0
  0
LINE
  5
1E0
330
1DD
100
AcDbEntity
  8
1
  6
Continuous
 62
     2
100
AcDbLine
 10
203.7737229739
 20
107.6855564580012
 30
0.0
 11
203.7737229739
 21
79.1690207318652
 31
0.0
  0
SOLID
  5
1E1
330
1DD
100
AcDbEntity
  8
1
 62
     2
100
AcDbTrace
 10
179.8153704961
 20
81.62980447342109
 30
0.0
 11
179.8153704961
 21
80.70823699030932
 31
0.0
 12
176.3153704961
 22
81.1690207318652
 32
0.0
 13
176.3153704961
 23
81.1690207318652
 33
0.0
  0
SOLID
  5
1E2
330
1DD
100
AcDbEntity
  8
1
 62
     2
100
AcDbTrace
 10
200.2737229739
 20
80.70823699030932
 30
0.0
 11
200.2737229739
 21
81.62980447342109
 31
0.0
 12
203.7737229739
 22
81.1690207318652
 32
0.0
 13
203.7737229739
 23
81.1690207318652
 33
0.0
  0
MTEXT
  5
1E3
330
1DD
100
AcDbEntity
  8
1
 62
     2
100
AcDbMText
 10
185.840479150707
 20
83.1690207318652
 30
0.0
 40
3.5
 41
0.0
 71
     7
 72
     1
  1
27.5
  7
CONVERTER_11
 11
0.9999999999970621
 21
2.424068405545307E-6
 31
0.0
 73
     1
 44
0.60024009603842
  0
ENDBLK
  5
1E5
330
1DD
100
AcDbEntity
  8
0
100
AcDbBlockEnd
  0
BLOCK
  5
1EF
330
1E8
100
AcDbEntity
  8
0
100
AcDbBlockBegin
  2
*D2
 70
     1
 71
     0
 10
0.0
 20
0.0
 30
0.0
  3
*D2
  1

  0
LINE
  5
1E9
330
1E8
100
AcDbEntity
  8
1
  6
Continuous
 62
     2
100
AcDbLine
 10
203.7737229739
 20
81.1690207318652
 30
0.0
 11
217.1237229739
 21
81.1690207318652
 31
0.0
  0
LINE
  5
1EA
330
1E8
100
AcDbEntity
  8
1
  6
Continuous
 62
     2
100
AcDbLine
 10
203.7737229739
 20
107.6855564580012
 30
0.0
 11
203.7737229739
 21
79.1690207318652
 31
0.0
  0
LINE
  5
1EB
330
1E8
100
AcDbEntity
  8
1
  6
Continuous
 62
     2
100
AcDbLine
 10
217.1237229739
 20
110.7533311714
 30
0.0
 11
217.1237229739
 21
79.1690207318652
 31
0.0
  0
SOLID
  5
1EC
330
1E8
100
AcDbEntity
  8
1
 62
     2
100
AcDbTrace
 10
207.2737229739
 20
81.62980447342109
 30
0.0
 11
207.2737229739
 21
80.70823699030932
 31
0.0
 12
203.7737229739
 22
81.1690207318652
 32
0.0
 13
203.7737229739
 23
81.1690207318652
 33
0.0
  0
SOLID
  5
1ED
330
1E8
100
AcDbEntity
  8
1
 62
     2
100
AcDbTrace
 10
213.6237229739
 20
80.70823699030932
 30
0.0
 11
213.6237229739
 21
81.62980447342109
 31
0.0
 12
217.1237229739
 22
81.1690207318652
 32
0.0
 13
217.1237229739
 23
81.1690207318652
 33
0.0
  0
MTEXT
  5
1EE
330
1E8
100
AcDbEntity
  8
1
 62
     2
100
AcDbMText
 10
206.434993398158
 20
83.1690207318652
 30
0.0
 40
3.5
 41
0.0
 71
     7
 72
     1
  1
13.3
  7
CONVERTER_11
 11
0.9999999999970621
 21
2.424068405545307E-6
 31
0.0
 73
     1
 44
0.60024009603842
  0
ENDBLK
  5
1F0
330
1E8
100
AcDbEntity
  8
0
100
AcDbBlockEnd
  0
BLOCK
  5
1FA
330
1F3
100
AcDbEntity
  8
0
100
AcDbBlockBegin
  2
*D3
 70
     1
 71
     0
 10
0.0
 20
0.0
 30
0.0
  3
*D3
  1

  0
LINE
  5
1F4
330
1F3
100
AcDbEntity
  8
1
  6
Continuous
 62
     2
100
AcDbLine
 10
217.1237229739
 20
81.1690207318652
 30
0.0
 11
246.0237229739
 21
81.1690207318652
 31
0.0
  0
LINE
  5
1F5
330
1F3
100
AcDbEntity
  8
1
  6
Continuous
 62
     2
100
AcDbLine
 10
217.1237229739
 20
110.7533311714
 30
0.0
 11
217.1237229739
 21
79.1690207318652
 31
0.0
  0
LINE
  5
1F6
330
1F3
100
AcDbEntity
  8
1
  6
Continuous
 62
     2
100
AcDbLine
 10
246.0237229739
 20
110.7533311714
 30
0.0
 11
246.0237229739
 21
79.1690207318652
 31
0.0
  0
SOLID
  5
1F7
330
1F3
100
AcDbEntity
  8
1
 62
     2
100
AcDbTrace
 10
220.6237229739
 20
81.62980447342109
 30
0.0
 11
220.6237229739
 21
80.70823699030932
 31
0.0
 12
217.1237229739
 22
81.1690207318652
 32
0.0
 13
217.1237229739
 23
81.1690207318652
 33
0.0
  0
SOLID
  5
1F8
330
1F3
100
AcDbEntity
  8
1
 62
     2
100
AcDbTrace
 10
242.5237229739
 20
80.70823699030932
 30
0.0
 11
242.5237229739
 21
81.62980447342109
 31
0.0
 12
246.0237229739
 22
81.1690207318652
 32
0.0
 13
246.0237229739
 23
81.1690207318652
 33
0.0
  0
MTEXT
  5
1F9
330
1F3
100
AcDbEntity
  8
1
 62
     2
100
AcDbMText
 10
230.164354406282
 20
83.1690207318652
 30
0.0
 40
3.5
 41
0.0
 71
     7
 72
     1
  1
29
  7
CONVERTER_11
 11
0.9999999999970621
 21
2.424068405545307E-6
 31
0.0
 73
     1
 44
0.60024009603842
  0
ENDBLK
  5
1FB
330
1F3
100
AcDbEntity
  8
0
100
AcDbBlockEnd
  0
BLOCK
  5
206
330
1FE
100
AcDbEntity
  8
0
100
AcDbBlockBegin
  2
*D4
 70
     1
 71
     0
 10
0.0
 20
0.0
 30
0.0
  3
*D4
  1

  0
LINE
  5
1FF
330
1FE
100
AcDbEntity
  8
1
  6
Continuous
 62
     2
100
AcDbLine
 10
260.281062733937
 20
93.75333117140002
 30
0.0
 11
260.281062733937
 21
234.7533311714
 31
0.0
  0
LINE
  5
200
330
1FE
100
AcDbEntity
  8
1
  6
Continuous
 62
     2
100
AcDbLine
 10
247.91128110062
 20
93.75333117140002
 30
0.0
 11
262.281062733937
 21
93.75333117140002
 31
0.0
  0
LINE
  5
201
330
1FE
100
AcDbEntity
  8
1
  6
Continuous
 62
     2
100
AcDbLine
 10
231.4737229739
 20
93.75333117140002
 30
0.0
 11
244.945087988411
 21
93.75333117140002
 31
0.0
  0
LINE
  5
202
330
1FE
100
AcDbEntity
  8
1
  6
Continuous
 62
     2
100
AcDbLine
 10
231.4737229739
 20
234.7533311714
 30
0.0
 11
262.281062733937
 21
234.7533311714
 31
0.0
  0
SOLID
  5
203
330
1FE
100
AcDbEntity
  8
1
 62
     2
100
AcDbTrace
 10
259.8202789923811
 20
97.25333117140002
 30
0.0
 11
260.7418464754929
 21
97.25333117140002
 31
0.0
 12
260.281062733937
 22
93.75333117140002
 32
0.0
 13
260.281062733937
 23
93.75333117140002
 33
0.0
  0
SOLID
  5
204
330
1FE
100
AcDbEntity
  8
1
 62
     2
100
AcDbTrace
 10
260.7418464754929
 20
231.2533311714
 30
0.0
 11
259.8202789923811
 21
231.2533311714
 31
0.0
 12
260.281062733937
 22
234.7533311714
 32
0.0
 13
260.281062733937
 23
234.7533311714
 33
0.0
  0
MTEXT
  5
205
330
1FE
100
AcDbEntity
  8
1
 62
     2
100
AcDbMText
 10
258.281062733937
 20
159.1708696455283
 30
0.0
 40
3.5
 41
0.0
 71
     7
 72
     1
  1
141
  7
CONVERTER_11
 11
0.0
 21
1.0
 31
0.0
 73
     1
 44
0.60024009603842
  0
ENDBLK
  5
207
330
1FE
100
AcDbEntity
  8
0
100
AcDbBlockEnd
  0
BLOCK
  5
212
330
20A
100
AcDbEntity
  8
0
100
AcDbBlockBegin
  2
*D5
 70
     1
 71
     0
 10
0.0
 20
0.0
 30
0.0
  3
*D5
  1

  0
LINE
  5
20B
330
20A
100
AcDbEntity
  8
1
  6
Continuous
 62
     2
100
AcDbLine
 10
162.617944327152
 20
234.2533311714
 30
0.0
 11
162.617944327152
 21
94.25333117139999
 31
0.0
  0
LINE
  5
20C
330
20A
100
AcDbEntity
  8
1
  6
Continuous
 62
     2
100
AcDbLine
 10
190.1237229739
 20
234.2533311714
 30
0.0
 11
160.617944327152
 21
234.2533311714
 31
0.0
  0
LINE
  5
20D
330
20A
100
AcDbEntity
  8
1
  6
Continuous
 62
     2
100
AcDbLine
 10
174.997846701073
 20
94.25333117139999
 30
0.0
 11
160.617944327152
 21
94.25333117139999
 31
0.0
  0
LINE
  5
20E
330
20A
100
AcDbEntity
  8
1
  6
Continuous
 62
     2
100
AcDbLine
 10
190.1237229739
 20
94.25333117139999
 30
0.0
 11
177.932668416207
 21
94.25333117139999
 31
0.0
  0
SOLID
  5
20F
330
20A
100
AcDbEntity
  8
1
 62
     2
100
AcDbTrace
 10
163.0787280687079
 20
230.7533311714
 30
0.0
 11
162.1571605855961
 21
230.7533311714
 31
0.0
 12
162.617944327152
 22
234.2533311714
 32
0.0
 13
162.617944327152
 23
234.2533311714
 33
0.0
  0
SOLID
  5
210
330
20A
100
AcDbEntity
  8
1
 62
     2
100
AcDbTrace
 10
162.1571605855961
 20
97.75333117139999
 30
0.0
 11
163.0787280687079
 21
97.75333117139999
 31
0.0
 12
162.617944327152
 22
94.25333117139999
 32
0.0
 13
162.617944327152
 23
94.25333117139999
 33
0.0
  0
MTEXT
  5
211
330
20A
100
AcDbEntity
  8
1
 62
     2
100
AcDbMText
 10
160.617944327152
 20
162.0615894201432
 30
0.0
 40
3.5
 41
0.0
 71
     7
 72
     1
  1
140
  7
CONVERTER_11
 11
0.0
 21
1.0
 31
0.0
 73
     1
 44
0.60024009603842
  0
ENDBLK
  5
213
330
20A
100
AcDbEntity
  8
0
100
AcDbBlockEnd
  0
ENDSEC
  0
SECTION
  2
ENTITIES
  0
POINT
  5
36
330
1F
100
AcDbEntity
  8
A_BEMASSUNGEN
 62
     7
100
AcDbPoint
 10
245.3737229739
 20
195.2533311714
 30
0.0
  0
POINT
  5
37
330
1F
100
AcDbEntity
  8
A_BEMASSUNGEN
 62
     7
100
AcDbPoint
 10
231.4737229739
 20
234.7533311714
 30
0.0
  0
POINT
  5
38
330
1F
100
AcDbEntity
  8
1
 62
     3
 60
     1
100
AcDbPoint
 10
190.0153704961
 20
104.2533311714001
 30
0.0
  0
POINT
  5
39
330
1F
100
AcDbEntity
  8
1
 62
     3
 60
     1
100
AcDbPoint
 10
183.0153704961
 20
104.2533311714001
 30
0.0
  0
POINT
  5
3A
330
1F
100
AcDbEntity
  8
1
 62
     3
 60
     1
100
AcDbPoint
 10
197.0153704961
 20
104.2533311714001
 30
0.0
  0
POINT
  5
3B
330
1F
100
AcDbEntity
  8
1
 62
     3
 60
     1
100
AcDbPoint
 10
231.5737229739
 20
221.2533311714
 30
0.0
  0
POINT
  5
3C
330
1F
100
AcDbEntity
  8
1
 62
     3
 60
     1
100
AcDbPoint
 10
237.4737229739
 20
221.2533311714
 30
0.0
  0
POINT
  5
3D
330
1F
100
AcDbEntity
  8
1
 62
     3
 60
     1
100
AcDbPoint
 10
217.0737229739
 20
107.6533311714
 30
0.0
  0
POINT
  5
3E
330
1F
100
AcDbEntity
  8
1
 62
     3
 60
     1
100
AcDbPoint
 10
217.1237229739
 20
107.6533311714
 30
0.0
  0
POINT
  5
3F
330
1F
100
AcDbEntity
  8
A_BEMASSUNGEN
 62
     7
100
AcDbPoint
 10
245.3737229739
 20
133.2533311714001
 30
0.0
  0
POINT
  5
40
330
1F
100
AcDbEntity
  8
1
 62
     3
 60
     1
100
AcDbPoint
 10
190.6553382316
 20
187.45535728508
 30
0.0
  0
POINT
  5
41
330
1F
100
AcDbEntity
  8
1
 62
     3
 60
     1
100
AcDbPoint
 10
190.6553382316
 20
140.45535728508
 30
0.0
  0
POINT
  5
42
330
1F
100
AcDbEntity
  8
1
 62
     3
 60
     1
100
AcDbPoint
 10
210.9445467349
 20
184.963590247282
 30
0.0
  0
POINT
  5
43
330
1F
100
AcDbEntity
  8
1
 62
     3
 60
     1
100
AcDbPoint
 10
210.9445467349
 20
141.963590247282
 30
0.0
  0
POINT
  5
44
330
1F
100
AcDbEntity
  8
1
 62
     3
 60
     1
100
AcDbPoint
 10
231.23374198895
 20
187.377489565149
 30
0.0
  0
POINT
  5
45
330
1F
100
AcDbEntity
  8
1
 62
     3
 60
     1
100
AcDbPoint
 10
231.23374198895
 20
140.377489565149
 30
0.0
  0
POINT
  5
46
330
1F
100
AcDbEntity
  8
1
 62
     3
 60
     1
100
AcDbPoint
 10
167.50431022643
 20
164.2533311714
 30
0.0
  0
POINT
  5
47
330
1F
100
AcDbEntity
  8
1
 62
     3
 60
     1
100
AcDbPoint
 10
249.50431022643
 20
164.2533311714
 30
0.0
  0
LINE
  5
48
330
1F
100
AcDbEntity
  8
PLATTE_U_ZUBEHOER
  6
Continuous
 62
     7
100
AcDbLine
 10
245.3737229739
 20
195.2533311714
 30
0.0
 11
217.5737229739
 21
195.2533311714
 31
0.0
  0
LINE
  5
49
330
1F
100
AcDbEntity
  8
0
  6
Continuous
 62
     7
100
AcDbLine
 10
176.3153704961
 20
108.2855564580012
 30
0.0
 11
176.3153704961
 21
220.2211058847988
 31
0.0
  0
LINE
  5
4A
330
1F
100
AcDbEntity
  8
0
  6
Continuous
 62
     7
100
AcDbLine
 10
241.0737229739
 20
192.6533311714
 30
0.0
 11
218.2737229739
 21
192.6533311714
 31
0.0
  0
LINE
  5
4B
330
1F
100
AcDbEntity
  8
A_RUNDUNGEN
  6
Continuous
 62
     7
100
AcDbLine
 10
217.1280102554
 20
193.450080085
 30
0.0
 11
217.2285215398
 21
193.2490422054
 31
0.0
  0
LINE
  5
4C
330
1F
100
AcDbEntity
  8
0
  6
Continuous
 62
     7
100
AcDbLine
 10
179.8153704961
 20
135.8533311714
 30
0.0
 11
179.8153704961
 21
142.7533311714
 31
0.0
  0
LINE
  5
4D
330
1F
100
AcDbEntity
  8
0
  6
Continuous
 62
     7
100
AcDbLine
 10
179.8153704961
 20
185.7533311714
 30
0.0
 11
179.8153704961
 21
192.6533311714
 31
0.0
  0
LINE
  5
4E
330
1F
100
AcDbEntity
  8
A_RUNDUNGEN
  6
Continuous
 62
     7
100
AcDbLine
 10
179.8153704961
 20
135.8533311714
 30
0.0
 11
179.8153704961
 21
134.7533311714
 31
0.0
  0
LINE
  5
4F
330
1F
100
AcDbEntity
  8
0
  6
Continuous
 62
     7
100
AcDbLine
 10
241.0737229739
 20
185.7533311714
 30
0.0
 11
218.2737229739
 21
185.7533311714
 31
0.0
  0
LINE
  5
50
330
1F
100
AcDbEntity
  8
0
  6
Continuous
 62
     7
100
AcDbLine
 10
179.8153704961
 20
185.7533311714
 30
0.0
 11
203.6153704961
 21
185.7533311714
 31
0.0
  0
LINE
  5
51
330
1F
100
AcDbEntity
  8
0
  6
Continuous
 62
     7
100
AcDbLine
 10
236.1528773443
 20
184.2533311714
 30
0.0
 11
226.2907076856
 21
184.2533311714
 31
0.0
  0
LINE
  5
52
330
1F
100
AcDbEntity
  8
0
  6
Continuous
 62
     7
100
AcDbLine
 10
195.598327206
 20
184.2533311714
 30
0.0
 11
185.7361575473
 21
184.2533311714
 31
0.0
  0
LINE
  5
53
330
1F
100
AcDbEntity
  8
A_ACHSEN
  6
Continuous
 62
     7
100
AcDbLine
 10
185.9053647303
 20
184.1533311714
 30
0.0
 11
195.4053117329
 21
184.1533311714
 31
0.0
  0
LINE
  5
54
330
1F
100
AcDbEntity
  8
A_ACHSEN
  6
Continuous
 62
     7
100
AcDbLine
 10
226.4837817371
 20
184.1533311714
 30
0.0
 11
235.9837287396
 21
184.1533311714
 31
0.0
  0
LINE
  5
55
330
1F
100
AcDbEntity
  8
0
  6
Continuous
 62
     7
100
AcDbLine
 10
185.7361519296
 20
185.7533311714
 30
0.0
 11
185.7361519296
 21
184.2533311714
 31
0.0
  0
LINE
  5
56
330
1F
100
AcDbEntity
  8
0
  6
Continuous
 62
     7
100
AcDbLine
 10
185.7362105079
 20
142.7533311714
 30
0.0
 11
185.7362105079
 21
144.2533311714
 31
0.0
  0
LINE
  5
57
330
1F
100
AcDbEntity
  8
A_ACHSEN
  6
Continuous
 62
     7
100
AcDbLine
 10
185.9053382316
 20
144.3533311714
 30
0.0
 11
185.9053382316
 21
145.2533311714
 31
0.0
  0
LINE
  5
58
330
1F
100
AcDbEntity
  8
A_ACHSEN
  6
Continuous
 62
     7
100
AcDbLine
 10
185.9053382316
 20
184.1533311714
 30
0.0
 11
185.9053382316
 21
183.2533311714
 31
0.0
  0
LINE
  5
59
330
1F
100
AcDbEntity
  8
0
  6
Continuous
 62
     7
100
AcDbLine
 10
186.6553382316
 20
145.2533311714
 30
0.0
 11
186.6553382316
 21
183.2533311714
 31
0.0
  0
LINE
  5
5A
330
1F
100
AcDbEntity
  8
A_ACHSEN
  6
Continuous
 62
     7
100
AcDbLine
 10
187.6553382316
 20
144.2533311714
 30
0.0
 11
187.6553382316
 21
144.3533311714
 31
0.0
  0
LINE
  5
5B
330
1F
100
AcDbEntity
  8
A_ACHSEN
  6
Continuous
 62
     7
100
AcDbLine
 10
187.6553382316
 20
184.2533311714
 30
0.0
 11
187.6553382316
 21
184.1533311714
 31
0.0
  0
LINE
  5
5C
330
1F
100
AcDbEntity
  8
A_ACHSEN
  6
Continuous
 62
     7
100
AcDbLine
 10
235.9837287396
 20
183.2533311714
 30
0.0
 11
234.5811808328
 21
183.2533311714
 31
0.0
  0
LINE
  5
5D
330
1F
100
AcDbEntity
  8
A_ACHSEN
  6
Continuous
 62
     7
100
AcDbLine
 10
187.3079126371
 20
183.2533311714
 30
0.0
 11
185.9053647303
 21
183.2533311714
 31
0.0
  0
LINE
  5
5E
330
1F
100
AcDbEntity
  8
0
  6
Continuous
 62
     7
100
AcDbLine
 10
187.3079126371
 20
183.2533311714
 30
0.0
 11
234.5811808328
 21
183.2533311714
 31
0.0
  0
LINE
  5
5F
330
1F
100
AcDbEntity
  8
0
  6
Continuous
 62
     7
100
AcDbLine
 10
205.5232001671
 20
173.2533311714
 30
0.0
 11
223.7047145679
 21
173.2533311714
 31
0.0
  0
LINE
  5
60
330
1F
100
AcDbEntity
  8
A_RUNDUNGEN
  6
Continuous
 62
     7
100
AcDbLine
 10
199.2866359506
 20
173.2533311714
 30
0.0
 11
205.5232001671
 21
173.2533311714
 31
0.0
  0
LINE
  5
61
330
1F
100
AcDbEntity
  8
0
  6
Continuous
 62
     7
100
AcDbLine
 10
219.2737627631
 20
173.1533311714
 30
0.0
 11
223.7047145679
 21
173.1533311714
 31
0.0
  0
LINE
  5
62
330
1F
100
AcDbEntity
  8
A_ACHSEN
  6
Continuous
 62
     7
100
AcDbLine
 10
193.6553382316
 20
184.2533311714
 30
0.0
 11
193.6553382316
 21
184.1533311714
 31
0.0
  0
LINE
  5
63
330
1F
100
AcDbEntity
  8
A_RUNDUNGEN
  6
Continuous
 62
     7
100
AcDbLine
 10
193.7153704961
 20
135.8533311714
 30
0.0
 11
193.7153704961
 21
134.7533311714
 31
0.0
  0
LINE
  5
64
330
1F
100
AcDbEntity
  8
A_ACHSEN
  6
Continuous
 62
     7
100
AcDbLine
 10
195.4053382316
 20
144.3533311714
 30
0.0
 11
195.4053382316
 21
145.2533311714
 31
0.0
  0
LINE
  5
65
330
1F
100
AcDbEntity
  8
A_ACHSEN
  6
Continuous
 62
     7
100
AcDbLine
 10
195.4053382316
 20
184.1533311714
 30
0.0
 11
195.4053382316
 21
183.2533311714
 31
0.0
  0
LINE
  5
66
330
1F
100
AcDbEntity
  8
0
  6
Continuous
 62
     7
100
AcDbLine
 10
195.5983328237
 20
185.7533311714
 30
0.0
 11
195.5983328237
 21
184.2533311714
 31
0.0
  0
LINE
  5
67
330
1F
100
AcDbEntity
  8
0
  6
Continuous
 62
     7
100
AcDbLine
 10
195.5983914021
 20
142.7533311714
 30
0.0
 11
195.5983914021
 21
144.2533311714
 31
0.0
  0
LINE
  5
68
330
1F
100
AcDbEntity
  8
A_ACHSEN
  6
Continuous
 62
     7
100
AcDbLine
 10
195.6153704961
 20
142.7533311714
 30
0.0
 11
195.6153704961
 21
145.2533311714
 31
0.0
  0
LINE
  5
69
330
1F
100
AcDbEntity
  8
A_ACHSEN
  6
Continuous
 62
     7
100
AcDbLine
 10
195.6153704961
 20
183.2533311714
 30
0.0
 11
195.6153704961
 21
185.7533311714
 31
0.0
  0
LINE
  5
6A
330
1F
100
AcDbEntity
  8
A_RUNDUNGEN
  6
Continuous
 62
     7
100
AcDbLine
 10
223.7047145679
 20
155.5033311714
 30
0.0
 11
223.7047145679
 21
145.2533311714
 31
0.0
  0
LINE
  5
6B
330
1F
100
AcDbEntity
  8
A_RUNDUNGEN
  6
Continuous
 62
     7
100
AcDbLine
 10
223.7047145679
 20
173.0033311714
 30
0.0
 11
223.7047145679
 21
183.2533311714
 31
0.0
  0
LINE
  5
6C
330
1F
100
AcDbEntity
  8
A_RUNDUNGEN
  6
Continuous
 62
     7
100
AcDbLine
 10
222.6024575193
 20
172.0033311714
 30
0.0
 11
216.3658933028
 21
172.0033311714
 31
0.0
  0
LINE
  5
6D
330
1F
100
AcDbEntity
  8
0
  6
Continuous
 62
     7
100
AcDbLine
 10
199.2617631552
 20
172.0033311714
 30
0.0
 11
216.3658933028
 21
172.0033311714
 31
0.0
  0
LINE
  5
6E
330
1F
100
AcDbEntity
  8
A_RUNDUNGEN
  6
Continuous
 62
     7
100
AcDbLine
 10
198.184378902
 20
172.0033311714
 30
0.0
 11
199.2617631552
 21
172.0033311714
 31
0.0
  0
LINE
  5
6F
330
1F
100
AcDbEntity
  8
A_ACHSEN
  6
Continuous
 62
     7
100
AcDbLine
 10
220.3237229738
 20
155.3533311714
 30
0.0
 11
220.3237229738
 21
155.2533311714
 31
0.0
  0
LINE
  5
70
330
1F
100
AcDbEntity
  8
A_ACHSEN
  6
Continuous
 62
     7
100
AcDbLine
 10
220.3237229738
 20
173.2533311714
 30
0.0
 11
220.3237229738
 21
173.1533311714
 31
0.0
  0
LINE
  5
71
330
1F
100
AcDbEntity
  8
0
  6
Continuous
 62
     7
100
AcDbLine
 10
219.2737229738
 20
156.5033311714
 30
0.0
 11
219.2737229738
 21
155.3533311714
 31
0.0
  0
LINE
  5
72
330
1F
100
AcDbEntity
  8
0
  6
Continuous
 62
     7
100
AcDbLine
 10
219.2737229738
 20
173.1533311714
 30
0.0
 11
219.2737229738
 21
172.0033311714
 31
0.0
  0
LINE
  5
73
330
1F
100
AcDbEntity
  8
A_RUNDUNGEN
  6
Continuous
 62
     7
100
AcDbLine
 10
203.6066095355
 20
135.5629865815
 30
0.0
 11
203.6062846487
 21
135.8533311714
 31
0.0
  0
LINE
  5
74
330
1F
100
AcDbEntity
  8
A_RUNDUNGEN
  6
Continuous
 62
     7
100
AcDbLine
 10
218.2828088212
 20
156.5033311714
 30
0.0
 11
218.2828088212
 21
155.2533311714
 31
0.0
  0
LINE
  5
75
330
1F
100
AcDbEntity
  8
A_RUNDUNGEN
  6
Continuous
 62
     7
100
AcDbLine
 10
218.2828088212
 20
173.2533311714
 30
0.0
 11
218.2828088212
 21
172.0033311714
 31
0.0
  0
LINE
  5
76
330
1F
100
AcDbEntity
  8
A_ACHSEN
  6
Continuous
 62
     7
100
AcDbLine
 10
203.6153704961
 20
142.7533311714
 30
0.0
 11
203.6153704961
 21
145.2533311714
 31
0.0
  0
LINE
  5
77
330
1F
100
AcDbEntity
  8
A_ACHSEN
  6
Continuous
 62
     7
100
AcDbLine
 10
203.6153704961
 20
183.2533311714
 30
0.0
 11
203.6153704961
 21
185.7533311714
 31
0.0
  0
LINE
  5
78
330
1F
100
AcDbEntity
  8
0
  6
Continuous
 62
     7
100
AcDbLine
 10
203.6153704961
 20
185.7533311714
 30
0.0
 11
203.6153704961
 21
192.6533311714
 31
0.0
  0
LINE
  5
79
330
1F
100
AcDbEntity
  8
0
  6
Continuous
 62
     7
100
AcDbLine
 10
203.6153704961
 20
142.7533311714
 30
0.0
 11
203.6153704961
 21
135.8533311714
 31
0.0
  0
LINE
  5
7A
330
1F
100
AcDbEntity
  8
A_RUNDUNGEN
  6
Continuous
 62
     7
100
AcDbLine
 10
203.7150456092
 20
134.7407427643
 30
0.0
 11
203.7153704961
 21
134.4824296467
 31
0.0
  0
LINE
  5
7B
330
1F
100
AcDbEntity
  8
PLATTE_U_ZUBEHOER
  6
Continuous
 62
     7
100
AcDbLine
 10
203.7737229739
 20
134.2533311714
 30
0.0
 11
203.7737229739
 21
107.6855564580012
 31
0.0
  0
LINE
  5
7C
330
1F
100
AcDbEntity
  8
A_ACHSEN
  6
Continuous
 62
     7
100
AcDbLine
 10
214.9445467349
 20
156.5033311714
 30
0.0
 11
214.9445467349
 21
155.2533311714
 31
0.0
  0
LINE
  5
7D
330
1F
100
AcDbEntity
  8
A_ACHSEN
  6
Continuous
 62
     7
100
AcDbLine
 10
214.9445467349
 20
172.0033311714
 30
0.0
 11
214.9445467349
 21
173.2533311714
 31
0.0
  0
LINE
  5
7E
330
1F
100
AcDbEntity
  8
A_RUNDUNGEN
  6
Continuous
 62
     7
100
AcDbLine
 10
222.6024575193
 20
156.5033311714
 30
0.0
 11
216.3658933028
 21
156.5033311714
 31
0.0
  0
LINE
  5
7F
330
1F
100
AcDbEntity
  8
0
  6
Continuous
 62
     7
100
AcDbLine
 10
199.2617631552
 20
156.5033311714
 30
0.0
 11
216.3658933028
 21
156.5033311714
 31
0.0
  0
LINE
  5
80
330
1F
100
AcDbEntity
  8
A_RUNDUNGEN
  6
Continuous
 62
     7
100
AcDbLine
 10
198.184378902
 20
156.5033311714
 30
0.0
 11
199.2617631552
 21
156.5033311714
 31
0.0
  0
LINE
  5
81
330
1F
100
AcDbEntity
  8
A_ACHSEN
  6
Continuous
 62
     7
100
AcDbLine
 10
206.9445467349
 20
156.5033311714
 30
0.0
 11
206.9445467349
 21
155.2533311714
 31
0.0
  0
LINE
  5
82
330
1F
100
AcDbEntity
  8
A_ACHSEN
  6
Continuous
 62
     7
100
AcDbLine
 10
206.9445467349
 20
172.0033311714
 30
0.0
 11
206.9445467349
 21
173.2533311714
 31
0.0
  0
LINE
  5
83
330
1F
100
AcDbEntity
  8
0
  6
Continuous
 62
     7
100
AcDbLine
 10
219.2737627631
 20
155.3533311714
 30
0.0
 11
223.7047145679
 21
155.3533311714
 31
0.0
  0
LINE
  5
84
330
1F
100
AcDbEntity
  8
A_RUNDUNGEN
  6
Continuous
 62
     7
100
AcDbLine
 10
205.5232001671
 20
155.2533311714
 30
0.0
 11
199.2866359506
 21
155.2533311714
 31
0.0
  0
LINE
  5
85
330
1F
100
AcDbEntity
  8
0
  6
Continuous
 62
     7
100
AcDbLine
 10
223.7047145679
 20
155.2533311714
 30
0.0
 11
205.5232001671
 21
155.2533311714
 31
0.0
  0
LINE
  5
86
330
1F
100
AcDbEntity
  8
A_RUNDUNGEN
  6
Continuous
 62
     7
100
AcDbLine
 10
203.7110832146
 20
135.0513457382
 30
0.0
 11
203.6105719302
 21
135.2523836178
 31
0.0
  0
LINE
  5
87
330
1F
100
AcDbEntity
  8
PLATTE_U_ZUBEHOER
  6
Continuous
 62
     7
100
AcDbLine
 10
217.0737229739
 20
195.7533311714
 30
0.0
 11
217.0737229739
 21
220.3533311714
 31
0.0
  0
LINE
  5
88
330
1F
100
AcDbEntity
  8
A_RUNDUNGEN
  6
Continuous
 62
     7
100
AcDbLine
 10
217.1240478607
 20
193.7606830589
 30
0.0
 11
217.1237229739
 21
195.5444924476
 31
0.0
  0
LINE
  5
89
330
1F
100
AcDbEntity
  8
A_RUNDUNGEN
  6
Continuous
 62
     7
100
AcDbLine
 10
217.2324839345
 20
192.9384392315
 30
0.0
 11
217.2328088213
 21
183.2533311714
 31
0.0
  0
LINE
  5
8A
330
1F
100
AcDbEntity
  8
A_RUNDUNGEN
  6
Continuous
 62
     7
100
AcDbLine
 10
204.6562846486
 20
172.0033311714
 30
0.0
 11
204.6562846486
 21
173.2533311714
 31
0.0
  0
LINE
  5
8B
330
1F
100
AcDbEntity
  8
A_RUNDUNGEN
  6
Continuous
 62
     7
100
AcDbLine
 10
204.6562846486
 20
155.2533311714
 30
0.0
 11
204.6562846486
 21
156.5033311714
 31
0.0
  0
LINE
  5
8C
330
1F
100
AcDbEntity
  8
0
  6
Continuous
 62
     7
100
AcDbLine
 10
218.2737229739
 20
135.8533311714
 30
0.0
 11
218.2737229739
 21
142.7533311714
 31
0.0
  0
LINE
  5
8D
330
1F
100
AcDbEntity
  8
0
  6
Continuous
 62
     7
100
AcDbLine
 10
203.615370496
 20
156.5033311714
 30
0.0
 11
203.615370496
 21
155.2533311714
 31
0.0
  0
LINE
  5
8E
330
1F
100
AcDbEntity
  8
0
  6
Continuous
 62
     7
100
AcDbLine
 10
203.615370496
 20
173.2533311714
 30
0.0
 11
203.615370496
 21
172.0033311714
 31
0.0
  0
LINE
  5
8F
330
1F
100
AcDbEntity
  8
A_ACHSEN
  6
Continuous
 62
     7
100
AcDbLine
 10
218.2737229739
 20
183.2533311714
 30
0.0
 11
218.2737229739
 21
185.7533311714
 31
0.0
  0
LINE
  5
90
330
1F
100
AcDbEntity
  8
0
  6
Continuous
 62
     7
100
AcDbLine
 10
218.2737229739
 20
185.7533311714
 30
0.0
 11
218.2737229739
 21
192.6533311714
 31
0.0
  0
LINE
  5
91
330
1F
100
AcDbEntity
  8
A_ACHSEN
  6
Continuous
 62
     7
100
AcDbLine
 10
218.2737229739
 20
145.2533311714
 30
0.0
 11
218.2737229739
 21
142.7533311714
 31
0.0
  0
LINE
  5
92
330
1F
100
AcDbEntity
  8
A_RUNDUNGEN
  6
Continuous
 62
     7
100
AcDbLine
 10
203.2723138273
 20
173.2533311714
 30
0.0
 11
203.2719899302
 21
172.7230715311
 31
0.0
  0
LINE
  5
93
330
1F
100
AcDbEntity
  8
A_RUNDUNGEN
  6
DASHED
 62
     2
100
AcDbLine
 10
220.9780483301
 20
107.1033311714
 30
0.0
 11
220.9780483301
 21
113.4033311714
 31
0.0
  0
LINE
  5
94
330
1F
100
AcDbEntity
  8
A_RUNDUNGEN
  6
Continuous
 62
     7
100
AcDbLine
 10
203.2719899302
 20
155.7835908117
 30
0.0
 11
203.2723138273
 21
155.2533311714
 31
0.0
  0
LINE
  5
95
330
1F
100
AcDbEntity
  8
A_ACHSEN
  6
Continuous
 62
     7
100
AcDbLine
 10
185.9053647303
 20
145.2533311714
 30
0.0
 11
187.3079126371
 21
145.2533311714
 31
0.0
  0
LINE
  5
96
330
1F
100
AcDbEntity
  8
0
  6
Continuous
 62
     7
100
AcDbLine
 10
187.3079126371
 20
145.2533311714
 30
0.0
 11
235.2337452767
 21
145.2533311714
 31
0.0
  0
LINE
  5
97
330
1F
100
AcDbEntity
  8
A_ACHSEN
  6
Continuous
 62
     7
100
AcDbLine
 10
185.9053647303
 20
144.3533311714
 30
0.0
 11
195.4053117329
 21
144.3533311714
 31
0.0
  0
LINE
  5
98
330
1F
100
AcDbEntity
  8
A_ACHSEN
  6
DOT_CENTER
 62
     2
100
AcDbLine
 10
223.5737229739
 20
107.1033311714
 30
0.0
 11
223.5737229739
 21
110.4032311714
 31
0.0
  0
LINE
  5
99
330
1F
100
AcDbEntity
  8
A_ACHSEN
  6
DOT_CENTER
 62
     2
100
AcDbLine
 10
223.5737229739
 20
113.4033311714
 30
0.0
 11
223.5737229739
 21
116.4034311714
 31
0.0
  0
LINE
  5
9A
330
1F
100
AcDbEntity
  8
A_ACHSEN
  6
DOT_CENTER
 62
     2
100
AcDbLine
 10
223.5737229739
 20
113.4033311714
 30
0.0
 11
223.5737229739
 21
110.4032311714
 31
0.0
  0
LINE
  5
9B
330
1F
100
AcDbEntity
  8
A_ACHSEN
  6
DOT_CENTER
 62
     2
100
AcDbLine
 10
223.5737229739
 20
107.1033311714
 30
0.0
 11
223.5737229739
 21
104.1032311714
 31
0.0
  0
LINE
  5
9C
330
1F
100
AcDbEntity
  8
A_RUNDUNGEN
  6
Continuous
 62
     7
100
AcDbLine
 10
198.184378902
 20
172.2533311714
 30
0.0
 11
198.184378902
 21
156.2533311714
 31
0.0
  0
LINE
  5
9D
330
1F
100
AcDbEntity
  8
A_RUNDUNGEN
  6
DASHED
 62
     2
100
AcDbLine
 10
226.152361187
 20
107.1033311714
 30
0.0
 11
226.152361187
 21
113.4033311607
 31
0.0
  0
LINE
  5
9E
330
1F
100
AcDbEntity
  8
A_ACHSEN
  6
Continuous
 62
     7
100
AcDbLine
 10
226.2737229739
 20
183.2533311714
 30
0.0
 11
226.2737229739
 21
185.7533311714
 31
0.0
  0
LINE
  5
9F
330
1F
100
AcDbEntity
  8
A_ACHSEN
  6
Continuous
 62
     7
100
AcDbLine
 10
226.2737229739
 20
145.2533311714
 30
0.0
 11
226.2737229739
 21
142.7533311714
 31
0.0
  0
LINE
  5
A0
330
1F
100
AcDbEntity
  8
0
  6
Continuous
 62
     7
100
AcDbLine
 10
226.2907020679
 20
185.7533311714
 30
0.0
 11
226.2907020679
 21
184.2533311714
 31
0.0
  0
LINE
  5
A1
330
1F
100
AcDbEntity
  8
0
  6
Continuous
 62
     7
100
AcDbLine
 10
226.2907606463
 20
142.7533311714
 30
0.0
 11
226.2907606463
 21
144.2533311714
 31
0.0
  0
LINE
  5
A2
330
1F
100
AcDbEntity
  8
A_ACHSEN
  6
Continuous
 62
     7
100
AcDbLine
 10
226.4837552383
 20
184.1533311714
 30
0.0
 11
226.4837552383
 21
183.2533311714
 31
0.0
  0
LINE
  5
A3
330
1F
100
AcDbEntity
  8
0
  6
Continuous
 62
     7
100
AcDbLine
 10
185.7362161257
 20
144.2533311714
 30
0.0
 11
195.5983857843
 21
144.2533311714
 31
0.0
  0
LINE
  5
A4
330
1F
100
AcDbEntity
  8
0
  6
Continuous
 62
     7
100
AcDbLine
 10
226.290766264
 20
144.2533311714
 30
0.0
 11
236.1529359226
 21
144.2533311714
 31
0.0
  0
LINE
  5
A5
330
1F
100
AcDbEntity
  8
0
  6
Continuous
 62
     7
100
AcDbLine
 10
241.0737229739
 20
142.7533311714
 30
0.0
 11
218.2737229739
 21
142.7533311714
 31
0.0
  0
LINE
  5
A6
330
1F
100
AcDbEntity
  8
0
  6
Continuous
 62
     7
100
AcDbLine
 10
203.6153704961
 20
142.7533311714
 30
0.0
 11
179.8153704961
 21
142.7533311714
 31
0.0
  0
LINE
  5
A7
330
1F
100
AcDbEntity
  8
A_ACHSEN
  6
Continuous
 62
     7
100
AcDbLine
 10
228.2337552383
 20
184.2533311714
 30
0.0
 11
228.2337552383
 21
184.1533311714
 31
0.0
  0
LINE
  5
A8
330
1F
100
AcDbEntity
  8
A_RUNDUNGEN
  6
DASHED
 62
     2
100
AcDbLine
 10
229.3325003846
 20
109.5033311714
 30
0.0
 11
229.3325003846
 21
104.0033311714
 31
0.0
  0
LINE
  5
A9
330
1F
100
AcDbEntity
  8
A_ACHSEN
  6
DOT_CENTER
 62
     2
100
AcDbLine
 10
231.5737229739
 20
104.0033311714
 30
0.0
 11
231.5737229739
 21
107.0034311714
 31
0.0
  0
LINE
  5
AA
330
1F
100
AcDbEntity
  8
A_ACHSEN
  6
DOT_CENTER
 62
     2
100
AcDbLine
 10
231.5737229739
 20
109.5033311714
 30
0.0
 11
231.5737229739
 21
112.5034311714
 31
0.0
  0
LINE
  5
AB
330
1F
100
AcDbEntity
  8
A_ACHSEN
  6
DOT_CENTER
 62
     2
100
AcDbLine
 10
231.5737229739
 20
109.5033311714
 30
0.0
 11
231.5737229739
 21
107.0034311714
 31
0.0
  0
LINE
  5
AC
330
1F
100
AcDbEntity
  8
A_ACHSEN
  6
DOT_CENTER
 62
     2
100
AcDbLine
 10
231.5737229739
 20
104.0033311714
 30
0.0
 11
231.5737229739
 21
101.0032311714001
 31
0.0
  0
LINE
  5
AD
330
1F
100
AcDbEntity
  8
A_RUNDUNGEN
  6
Continuous
 62
     7
100
AcDbLine
 10
217.2285215398
 20
135.2576201373
 30
0.0
 11
217.1280102554
 21
135.0565822577
 31
0.0
  0
LINE
  5
AE
330
1F
100
AcDbEntity
  8
0
  6
Continuous
 62
     7
100
AcDbLine
 10
241.0737229739
 20
135.8533311714
 30
0.0
 11
218.2737229739
 21
135.8533311714
 31
0.0
  0
LINE
  5
AF
330
1F
100
AcDbEntity
  8
0
  6
Continuous
 62
     7
100
AcDbLine
 10
203.6153704961
 20
135.8533311714
 30
0.0
 11
179.8153704961
 21
135.8533311714
 31
0.0
  0
LINE
  5
B0
330
1F
100
AcDbEntity
  8
PLATTE_U_ZUBEHOER
  6
Continuous
 62
     7
100
AcDbLine
 10
176.9737229739
 20
134.7533311714
 30
0.0
 11
203.2737229739
 21
134.7533311714
 31
0.0
  0
LINE
  5
B1
330
1F
100
AcDbEntity
  8
A_RUNDUNGEN
  6
DASHED
 62
     2
100
AcDbLine
 10
233.8149455632
 20
104.0033311714
 30
0.0
 11
233.8149455632
 21
109.5033311714
 31
0.0
  0
LINE
  5
B2
330
1F
100
AcDbEntity
  8
A_ACHSEN
  6
Continuous
 62
     7
100
AcDbLine
 10
234.2337552383
 20
184.2533311714
 30
0.0
 11
234.2337552383
 21
184.1533311714
 31
0.0
  0
LINE
  5
B3
330
1F
100
AcDbEntity
  8
0
  6
Continuous
 62
     7
100
AcDbLine
 10
235.2337552383
 20
183.2533311714
 30
0.0
 11
235.2337552383
 21
145.2533311714
 31
0.0
  0
LINE
  5
B4
330
1F
100
AcDbEntity
  8
A_ACHSEN
  6
Continuous
 62
     7
100
AcDbLine
 10
235.9837552383
 20
184.1533311714
 30
0.0
 11
235.9837552383
 21
183.2533311714
 31
0.0
  0
LINE
  5
B5
330
1F
100
AcDbEntity
  8
0
  6
Continuous
 62
     7
100
AcDbLine
 10
236.152882962
 20
185.7533311714
 30
0.0
 11
236.152882962
 21
184.2533311714
 31
0.0
  0
LINE
  5
B6
330
1F
100
AcDbEntity
  8
0
  6
Continuous
 62
     7
100
AcDbLine
 10
236.1529415404
 20
142.7533311714
 30
0.0
 11
236.1529415404
 21
144.2533311714
 31
0.0
  0
LINE
  5
B7
330
1F
100
AcDbEntity
  8
A_RUNDUNGEN
  6
DASHED
 62
     2
100
AcDbLine
 10
236.9780483301
 20
107.1033311714
 30
0.0
 11
236.9780483301
 21
113.4033311714
 31
0.0
  0
LINE
  5
B8
330
1F
100
AcDbEntity
  8
A_ACHSEN
  6
DOT_CENTER
 62
     2
100
AcDbLine
 10
239.5737229739
 20
107.1033311714
 30
0.0
 11
239.5737229739
 21
110.4032311714
 31
0.0
  0
LINE
  5
B9
330
1F
100
AcDbEntity
  8
A_ACHSEN
  6
DOT_CENTER
 62
     2
100
AcDbLine
 10
239.5737229739
 20
113.4033311714
 30
0.0
 11
239.5737229739
 21
116.4034311714
 31
0.0
  0
LINE
  5
BA
330
1F
100
AcDbEntity
  8
A_ACHSEN
  6
DOT_CENTER
 62
     2
100
AcDbLine
 10
239.5737229739
 20
113.4033311714
 30
0.0
 11
239.5737229739
 21
110.4032311714
 31
0.0
  0
LINE
  5
BB
330
1F
100
AcDbEntity
  8
A_ACHSEN
  6
DOT_CENTER
 62
     2
100
AcDbLine
 10
239.5737229739
 20
107.1033311714
 30
0.0
 11
239.5737229739
 21
104.1032311714
 31
0.0
  0
LINE
  5
BC
330
1F
100
AcDbEntity
  8
0
  6
Continuous
 62
     7
100
AcDbLine
 10
241.0737229739
 20
195.2533311714
 30
0.0
 11
241.0737229739
 21
185.7533311714
 31
0.0
  0
LINE
  5
BD
330
1F
100
AcDbEntity
  8
A_RUNDUNGEN
  6
DASHED
 62
     2
100
AcDbLine
 10
242.1693976177
 20
113.4033311714
 30
0.0
 11
242.1693976177
 21
107.1033311714
 31
0.0
  0
LINE
  5
BE
330
1F
100
AcDbEntity
  8
PLATTE_U_ZUBEHOER
  6
Continuous
 62
     7
100
AcDbLine
 10
245.8737229739
 20
220.3533311714
 30
0.0
 11
245.8737229739
 21
195.7533311714
 31
0.0
  0
LINE
  5
BF
330
1F
100
AcDbEntity
  8
0
  6
Continuous
 62
     7
100
AcDbLine
 10
246.0237229739
 20
217.7533311714
 30
0.0
 11
246.0237229739
 21
110.7533311714
 31
0.0
  0
LINE
  5
C0
330
1F
100
AcDbEntity
  8
A_ACHSEN
  6
DOT_CENTER
 62
     2
100
AcDbLine
 10
239.5737229739
 20
113.4033311714
 30
0.0
 11
236.5736229739
 21
113.4033311714
 31
0.0
  0
LINE
  5
C1
330
1F
100
AcDbEntity
  8
A_ACHSEN
  6
DOT_CENTER
 62
     2
100
AcDbLine
 10
223.5737229739
 20
113.4033311714
 30
0.0
 11
220.5736229739
 21
113.4033311714
 31
0.0
  0
LINE
  5
C2
330
1F
100
AcDbEntity
  8
A_ACHSEN
  6
DOT_CENTER
 62
     2
100
AcDbLine
 10
223.5737229739
 20
113.4033311714
 30
0.0
 11
226.5738229739
 21
113.4033311714
 31
0.0
  0
LINE
  5
C3
330
1F
100
AcDbEntity
  8
A_ACHSEN
  6
DOT_CENTER
 62
     2
100
AcDbLine
 10
239.5737229739
 20
113.4033311714
 30
0.0
 11
242.5738229739
 21
113.4033311714
 31
0.0
  0
LINE
  5
C4
330
1F
100
AcDbEntity
  8
A_ACHSEN
  6
DOT_CENTER
 62
     2
100
AcDbLine
 10
231.5737229739
 20
109.5033311714
 30
0.0
 11
228.5736229739
 21
109.5033311714
 31
0.0
  0
LINE
  5
C5
330
1F
100
AcDbEntity
  8
A_ACHSEN
  6
DOT_CENTER
 62
     2
100
AcDbLine
 10
231.5737229739
 20
109.5033311714
 30
0.0
 11
234.5738229739
 21
109.5033311714
 31
0.0
  0
LINE
  5
C6
330
1F
100
AcDbEntity
  8
A_ACHSEN
  6
DOT_CENTER
 62
     2
100
AcDbLine
 10
239.5737229739
 20
107.1033311714
 30
0.0
 11
236.5736229739
 21
107.1033311714
 31
0.0
  0
LINE
  5
C7
330
1F
100
AcDbEntity
  8
A_ACHSEN
  6
DOT_CENTER
 62
     2
100
AcDbLine
 10
223.5737229739
 20
107.1033311714
 30
0.0
 11
220.5736229739
 21
107.1033311714
 31
0.0
  0
LINE
  5
C8
330
1F
100
AcDbEntity
  8
A_ACHSEN
  6
DOT_CENTER
 62
     2
100
AcDbLine
 10
223.5737229739
 20
107.1033311714
 30
0.0
 11
226.5738229739
 21
107.1033311714
 31
0.0
  0
LINE
  5
C9
330
1F
100
AcDbEntity
  8
A_ACHSEN
  6
DOT_CENTER
 62
     2
100
AcDbLine
 10
239.5737229739
 20
107.1033311714
 30
0.0
 11
242.5738229739
 21
107.1033311714
 31
0.0
  0
LINE
  5
CA
330
1F
100
AcDbEntity
  8
A_ACHSEN
  6
DOT_CENTER
 62
     2
100
AcDbLine
 10
231.5737229739
 20
104.0033311714
 30
0.0
 11
228.5736229739
 21
104.0033311714
 31
0.0
  0
LINE
  5
CB
330
1F
100
AcDbEntity
  8
A_ACHSEN
  6
DOT_CENTER
 62
     2
100
AcDbLine
 10
231.5737229739
 20
104.0033311714
 30
0.0
 11
234.5738229739
 21
104.0033311714
 31
0.0
  0
LINE
  5
102
330
1F
100
AcDbEntity
  8
1
  6
DOT_CENTER
 62
     2
100
AcDbLine
 10
190.0153704961
 20
104.2533311714001
 30
0.0
 11
183.0153704961
 21
104.2533311714001
 31
0.0
  0
LINE
  5
103
330
1F
100
AcDbEntity
  8
1
  6
DOT_CENTER
 62
     2
100
AcDbLine
 10
190.0153704961
 20
104.2533311714001
 30
0.0
 11
197.0153704961
 21
104.2533311714001
 31
0.0
  0
LINE
  5
104
330
1F
100
AcDbEntity
  8
1
  6
DOT_CENTER
 62
     2
100
AcDbLine
 10
197.0153704961
 20
224.2533311714
 30
0.0
 11
190.0153704961
 21
224.2533311714
 31
0.0
  0
LINE
  5
105
330
1F
100
AcDbEntity
  8
1
  6
DOT_CENTER
 62
     2
100
AcDbLine
 10
183.0153704961
 20
224.2533311714
 30
0.0
 11
190.0153704961
 21
224.2533311714
 31
0.0
  0
LINE
  5
106
330
1F
100
AcDbEntity
  8
PLATTE_U_ZUBEHOER
  6
Continuous
 62
     7
100
AcDbLine
 10
203.7737229739
 20
220.8211058847988
 30
0.0
 11
203.7737229739
 21
194.2533311714
 31
0.0
  0
LINE
  5
10D
330
1F
100
AcDbEntity
  8
PLATTE_U_ZUBEHOER
  6
Continuous
 62
     7
100
AcDbLine
 10
203.2737229739
 20
193.7533311714
 30
0.0
 11
176.9737229739
 21
193.7533311714
 31
0.0
  0
LINE
  5
10E
330
1F
100
AcDbEntity
  8
0
  6
Continuous
 62
     7
100
AcDbLine
 10
179.8153704961
 20
192.6533311714
 30
0.0
 11
203.6153704961
 21
192.6533311714
 31
0.0
  0
LINE
  5
10F
330
1F
100
AcDbEntity
  8
A_RUNDUNGEN
  6
Continuous
 62
     7
100
AcDbLine
 10
203.6105719302
 20
193.254278725
 30
0.0
 11
203.7110832146
 21
193.4553166046
 31
0.0
  0
LINE
  5
110
330
1F
100
AcDbEntity
  8
A_RUNDUNGEN
  6
Continuous
 62
     7
100
AcDbLine
 10
203.7153704961
 20
194.0242326961
 30
0.0
 11
203.7150456092
 21
193.7659195785
 31
0.0
  0
LINE
  5
111
330
1F
100
AcDbEntity
  8
A_RUNDUNGEN
  6
Continuous
 62
     7
100
AcDbLine
 10
203.6062846487
 20
192.6533311714
 30
0.0
 11
203.6066095355
 21
192.9436757613
 31
0.0
  0
LINE
  5
112
330
1F
100
AcDbEntity
  8
A_RUNDUNGEN
  6
Continuous
 62
     7
100
AcDbLine
 10
193.7153704961
 20
193.7533311714
 30
0.0
 11
193.7153704961
 21
192.6533311714
 31
0.0
  0
LINE
  5
113
330
1F
100
AcDbEntity
  8
A_RUNDUNGEN
  6
Continuous
 62
     7
100
AcDbLine
 10
179.8153704961
 20
193.7533311714
 30
0.0
 11
179.8153704961
 21
192.6533311714
 31
0.0
  0
LINE
  5
114
330
1F
100
AcDbEntity
  8
0
  6
Continuous
 62
     7
100
AcDbLine
 10
227.0737229739
 20
195.2533311714
 30
0.0
 11
227.0737229739
 21
192.6533311714
 31
0.0
  0
LINE
  5
115
330
1F
100
AcDbEntity
  8
1
  6
DOT_CENTER
 62
     2
100
AcDbLine
 10
231.4737229739
 20
221.2533311714
 30
0.0
 11
237.4737229739
 21
221.2533311714
 31
0.0
  0
LINE
  5
116
330
1F
100
AcDbEntity
  8
1
  6
DOT_CENTER
 62
     2
100
AcDbLine
 10
231.4737229739
 20
221.2533311714
 30
0.0
 11
225.682293647484
 21
221.2533311714
 31
0.0
  0
LINE
  5
117
330
1F
100
AcDbEntity
  8
A_ACHSEN
  6
DOT_CENTER
 62
     2
100
AcDbLine
 10
234.5738229739
 20
224.5033311714
 30
0.0
 11
231.5737229739
 21
224.5033311714
 31
0.0
  0
LINE
  5
118
330
1F
100
AcDbEntity
  8
A_ACHSEN
  6
DOT_CENTER
 62
     2
100
AcDbLine
 10
228.5736229739
 20
224.5033311714
 30
0.0
 11
231.5737229739
 21
224.5033311714
 31
0.0
  0
LINE
  5
119
330
1F
100
AcDbEntity
  8
A_ACHSEN
  6
DOT_CENTER
 62
     2
100
AcDbLine
 10
242.5738229739
 20
221.4033311714
 30
0.0
 11
239.5737229739
 21
221.4033311714
 31
0.0
  0
LINE
  5
11A
330
1F
100
AcDbEntity
  8
A_ACHSEN
  6
DOT_CENTER
 62
     2
100
AcDbLine
 10
226.5738229739
 20
221.4033311714
 30
0.0
 11
223.5737229739
 21
221.4033311714
 31
0.0
  0
LINE
  5
11B
330
1F
100
AcDbEntity
  8
A_ACHSEN
  6
DOT_CENTER
 62
     2
100
AcDbLine
 10
220.5736229739
 20
221.4033311714
 30
0.0
 11
223.5737229739
 21
221.4033311714
 31
0.0
  0
LINE
  5
11C
330
1F
100
AcDbEntity
  8
A_ACHSEN
  6
DOT_CENTER
 62
     2
100
AcDbLine
 10
236.5736229739
 20
221.4033311714
 30
0.0
 11
239.5737229739
 21
221.4033311714
 31
0.0
  0
LINE
  5
11D
330
1F
100
AcDbEntity
  8
A_ACHSEN
  6
DOT_CENTER
 62
     2
100
AcDbLine
 10
234.5738229739
 20
219.0033311714
 30
0.0
 11
231.5737229739
 21
219.0033311714
 31
0.0
  0
LINE
  5
11E
330
1F
100
AcDbEntity
  8
A_ACHSEN
  6
DOT_CENTER
 62
     2
100
AcDbLine
 10
228.5736229739
 20
219.0033311714
 30
0.0
 11
231.5737229739
 21
219.0033311714
 31
0.0
  0
LINE
  5
11F
330
1F
100
AcDbEntity
  8
A_ACHSEN
  6
DOT_CENTER
 62
     2
100
AcDbLine
 10
242.5738229739
 20
215.1033311714
 30
0.0
 11
239.5737229739
 21
215.1033311714
 31
0.0
  0
LINE
  5
120
330
1F
100
AcDbEntity
  8
A_ACHSEN
  6
DOT_CENTER
 62
     2
100
AcDbLine
 10
226.5738229739
 20
215.1033311714
 30
0.0
 11
223.5737229739
 21
215.1033311714
 31
0.0
  0
LINE
  5
121
330
1F
100
AcDbEntity
  8
A_ACHSEN
  6
DOT_CENTER
 62
     2
100
AcDbLine
 10
220.5736229739
 20
215.1033311714
 30
0.0
 11
223.5737229739
 21
215.1033311714
 31
0.0
  0
LINE
  5
122
330
1F
100
AcDbEntity
  8
A_ACHSEN
  6
DOT_CENTER
 62
     2
100
AcDbLine
 10
236.5736229739
 20
215.1033311714
 30
0.0
 11
239.5737229739
 21
215.1033311714
 31
0.0
  0
LINE
  5
123
330
1F
100
AcDbEntity
  8
A_RUNDUNGEN
  6
DASHED
 62
     2
100
AcDbLine
 10
242.1693976177
 20
221.4033311714
 30
0.0
 11
242.1693976177
 21
215.1033311714
 31
0.0
  0
LINE
  5
124
330
1F
100
AcDbEntity
  8
A_ACHSEN
  6
DOT_CENTER
 62
     2
100
AcDbLine
 10
239.5737229739
 20
224.4034311714
 30
0.0
 11
239.5737229739
 21
221.4033311714
 31
0.0
  0
LINE
  5
125
330
1F
100
AcDbEntity
  8
A_ACHSEN
  6
DOT_CENTER
 62
     2
100
AcDbLine
 10
239.5737229739
 20
218.1034311714
 30
0.0
 11
239.5737229739
 21
215.1033311714
 31
0.0
  0
LINE
  5
126
330
1F
100
AcDbEntity
  8
A_ACHSEN
  6
DOT_CENTER
 62
     2
100
AcDbLine
 10
239.5737229739
 20
212.1032311714
 30
0.0
 11
239.5737229739
 21
215.1033311714
 31
0.0
  0
LINE
  5
127
330
1F
100
AcDbEntity
  8
A_ACHSEN
  6
DOT_CENTER
 62
     2
100
AcDbLine
 10
239.5737229739
 20
218.1034311714
 30
0.0
 11
239.5737229739
 21
221.4033311714
 31
0.0
  0
LINE
  5
128
330
1F
100
AcDbEntity
  8
A_RUNDUNGEN
  6
DASHED
 62
     2
100
AcDbLine
 10
236.9780483301
 20
215.1033311714
 30
0.0
 11
236.9780483301
 21
221.4033311714
 31
0.0
  0
LINE
  5
129
330
1F
100
AcDbEntity
  8
A_RUNDUNGEN
  6
DASHED
 62
     2
100
AcDbLine
 10
233.8149455632
 20
219.0033311714
 30
0.0
 11
233.8149455632
 21
224.5033311714
 31
0.0
  0
LINE
  5
12A
330
1F
100
AcDbEntity
  8
A_ACHSEN
  6
DOT_CENTER
 62
     2
100
AcDbLine
 10
231.5737229739
 20
227.5034311714
 30
0.0
 11
231.5737229739
 21
224.5033311714
 31
0.0
  0
LINE
  5
12B
330
1F
100
AcDbEntity
  8
A_ACHSEN
  6
DOT_CENTER
 62
     2
100
AcDbLine
 10
231.5737229739
 20
221.5032311714001
 30
0.0
 11
231.5737229739
 21
219.0033311714
 31
0.0
  0
LINE
  5
12C
330
1F
100
AcDbEntity
  8
A_ACHSEN
  6
DOT_CENTER
 62
     2
100
AcDbLine
 10
231.5737229739
 20
216.0032311714001
 30
0.0
 11
231.5737229739
 21
219.0033311714
 31
0.0
  0
LINE
  5
12D
330
1F
100
AcDbEntity
  8
A_ACHSEN
  6
DOT_CENTER
 62
     2
100
AcDbLine
 10
231.5737229739
 20
221.5032311714001
 30
0.0
 11
231.5737229739
 21
224.5033311714
 31
0.0
  0
LINE
  5
12E
330
1F
100
AcDbEntity
  8
A_RUNDUNGEN
  6
DASHED
 62
     2
100
AcDbLine
 10
229.3325003846
 20
224.5033311714
 30
0.0
 11
229.3325003846
 21
219.0033311714
 31
0.0
  0
LINE
  5
12F
330
1F
100
AcDbEntity
  8
A_RUNDUNGEN
  6
DASHED
 62
     2
100
AcDbLine
 10
226.152361187
 20
215.1033311821
 30
0.0
 11
226.152361187
 21
221.4033311714
 31
0.0
  0
LINE
  5
130
330
1F
100
AcDbEntity
  8
A_ACHSEN
  6
DOT_CENTER
 62
     2
100
AcDbLine
 10
223.5737229739
 20
224.4034311714
 30
0.0
 11
223.5737229739
 21
221.4033311714
 31
0.0
  0
LINE
  5
131
330
1F
100
AcDbEntity
  8
A_ACHSEN
  6
DOT_CENTER
 62
     2
100
AcDbLine
 10
223.5737229739
 20
218.1034311714
 30
0.0
 11
223.5737229739
 21
215.1033311714
 31
0.0
  0
LINE
  5
132
330
1F
100
AcDbEntity
  8
A_ACHSEN
  6
DOT_CENTER
 62
     2
100
AcDbLine
 10
223.5737229739
 20
212.1032311714
 30
0.0
 11
223.5737229739
 21
215.1033311714
 31
0.0
  0
LINE
  5
133
330
1F
100
AcDbEntity
  8
A_ACHSEN
  6
DOT_CENTER
 62
     2
100
AcDbLine
 10
223.5737229739
 20
218.1034311714
 30
0.0
 11
223.5737229739
 21
221.4033311714
 31
0.0
  0
LINE
  5
134
330
1F
100
AcDbEntity
  8
A_RUNDUNGEN
  6
DASHED
 62
     2
100
AcDbLine
 10
220.9780483301
 20
215.1033311714
 30
0.0
 11
220.9780483301
 21
221.4033311714
 31
0.0
  0
LINE
  5
135
330
1F
100
AcDbEntity
  8
1
  6
DOT_CENTER
 62
     2
100
AcDbLine
 10
237.4737229739
 20
107.2533311714
 30
0.0
 11
231.4737229739
 21
107.2533311714
 31
0.0
  0
LINE
  5
136
330
1F
100
AcDbEntity
  8
1
  6
DOT_CENTER
 62
     2
100
AcDbLine
 10
225.682293647484
 20
107.2533311714
 30
0.0
 11
231.4737229739
 21
107.2533311714
 31
0.0
  0
LINE
  5
137
330
1F
100
AcDbEntity
  8
1
  6
Continuous
 62
     7
100
AcDbLine
 10
217.1237229739
 20
110.7533311714
 30
0.0
 11
217.1237229739
 21
107.6533311714
 31
0.0
  0
LINE
  5
138
330
1F
100
AcDbEntity
  8
1
  6
Continuous
 62
     7
100
AcDbLine
 10
246.0237229739
 20
110.7533311714
 30
0.0
 11
246.0237229739
 21
108.7533311714
 31
0.0
  0
LINE
  5
139
330
1F
100
AcDbEntity
  8
1
  6
Continuous
 62
     7
100
AcDbLine
 10
217.1237229739
 20
110.7533311714
 30
0.0
 11
217.1237229739
 21
107.6533311714
 31
0.0
  0
LINE
  5
13A
330
1F
100
AcDbEntity
  8
0
  6
Continuous
 62
     7
100
AcDbLine
 10
241.0737229739
 20
142.7533311714
 30
0.0
 11
241.0737229739
 21
133.2533311714001
 31
0.0
  0
LINE
  5
13B
330
1F
100
AcDbEntity
  8
0
  6
Continuous
 62
     7
100
AcDbLine
 10
227.0737229739
 20
135.8533311714001
 30
0.0
 11
227.0737229739
 21
133.2533311714001
 31
0.0
  0
LINE
  5
13C
330
1F
100
AcDbEntity
  8
PLATTE_U_ZUBEHOER
  6
Continuous
 62
     7
100
AcDbLine
 10
217.5737229739
 20
133.2533311714001
 30
0.0
 11
245.3737229739
 21
133.2533311714001
 31
0.0
  0
LINE
  5
13D
330
1F
100
AcDbEntity
  8
A_ACHSEN
  6
DOT_CENTER
 62
     2
100
AcDbLine
 10
190.1237229739
 20
120.7533311714
 30
0.0
 11
190.1237229739
 21
97.75333117140002
 31
0.0
  0
LINE
  5
13E
330
1F
100
AcDbEntity
  8
1
  6
Continuous
 62
     7
100
AcDbLine
 10
189.6237189773
 20
116.0033311714
 30
0.0
 11
190.6237189773
 21
116.0033311714
 31
0.0
  0
LINE
  5
13F
330
1F
100
AcDbEntity
  8
1
  6
Continuous
 62
     7
100
AcDbLine
 10
190.6237189773
 20
116.0033311714
 30
0.0
 11
190.6237189773
 21
114.7533311714
 31
0.0
  0
LINE
  5
140
330
1F
100
AcDbEntity
  8
1
  6
Continuous
 62
     7
100
AcDbLine
 10
191.1237189773
 20
114.2533311714
 30
0.0
 11
192.3737189773
 21
114.2533311714
 31
0.0
  0
LINE
  5
141
330
1F
100
AcDbEntity
  8
1
  6
Continuous
 62
     7
100
AcDbLine
 10
192.3737189773
 20
114.2533311714
 30
0.0
 11
192.3737189773
 21
113.2533311714
 31
0.0
  0
LINE
  5
142
330
1F
100
AcDbEntity
  8
1
  6
Continuous
 62
     7
100
AcDbLine
 10
192.3737189773
 20
113.2533311714
 30
0.0
 11
191.1237189773
 21
113.2533311714
 31
0.0
  0
LINE
  5
143
330
1F
100
AcDbEntity
  8
1
  6
Continuous
 62
     7
100
AcDbLine
 10
190.6237189773
 20
112.7533311714
 30
0.0
 11
190.6237189773
 21
111.5033311714
 31
0.0
  0
LINE
  5
144
330
1F
100
AcDbEntity
  8
1
  6
Continuous
 62
     7
100
AcDbLine
 10
190.6237189773
 20
111.5033311714
 30
0.0
 11
189.6237189773
 21
111.5033311714
 31
0.0
  0
LINE
  5
145
330
1F
100
AcDbEntity
  8
1
  6
Continuous
 62
     7
100
AcDbLine
 10
189.6237189773
 20
111.5033311714
 30
0.0
 11
189.6237189773
 21
112.7533311714
 31
0.0
  0
LINE
  5
146
330
1F
100
AcDbEntity
  8
1
  6
Continuous
 62
     7
100
AcDbLine
 10
189.1237189773
 20
113.2533311714
 30
0.0
 11
187.8737189773
 21
113.2533311714
 31
0.0
  0
LINE
  5
147
330
1F
100
AcDbEntity
  8
1
  6
Continuous
 62
     7
100
AcDbLine
 10
187.8737189773
 20
113.2533311714
 30
0.0
 11
187.8737189773
 21
114.2533311714
 31
0.0
  0
LINE
  5
148
330
1F
100
AcDbEntity
  8
1
  6
Continuous
 62
     7
100
AcDbLine
 10
187.8737189773
 20
114.2533311714
 30
0.0
 11
189.1237189773
 21
114.2533311714
 31
0.0
  0
LINE
  5
149
330
1F
100
AcDbEntity
  8
1
  6
Continuous
 62
     7
100
AcDbLine
 10
189.6237189773
 20
114.7533311714
 30
0.0
 11
189.6237189773
 21
116.0033311714
 31
0.0
  0
LINE
  5
14A
330
1F
100
AcDbEntity
  8
1
  6
Continuous
 62
     7
100
AcDbLine
 10
189.6237189773
 20
114.7533311714
 30
0.0
 11
189.3737189773
 21
114.5033311714
 31
0.0
  0
LINE
  5
14B
330
1F
100
AcDbEntity
  8
1
  6
Continuous
 62
     7
100
AcDbLine
 10
190.6237189773
 20
114.7533311714
 30
0.0
 11
190.8737189773
 21
114.5033311714
 31
0.0
  0
LINE
  5
14C
330
1F
100
AcDbEntity
  8
1
  6
Continuous
 62
     7
100
AcDbLine
 10
191.1237189773
 20
113.2533311714
 30
0.0
 11
190.8737189773
 21
113.0033311714
 31
0.0
  0
LINE
  5
14D
330
1F
100
AcDbEntity
  8
1
  6
Continuous
 62
     7
100
AcDbLine
 10
189.6237189773
 20
112.7533311714
 30
0.0
 11
189.3737189773
 21
113.0033311714
 31
0.0
  0
LINE
  5
14E
330
1F
100
AcDbEntity
  8
1
  6
Continuous
 62
     2
100
AcDbLine
 10
190.8737189773
 20
114.5033311714
 30
0.0
 11
191.7147092349697
 21
115.3443214290697
 31
0.0
  0
LINE
  5
14F
330
1F
100
AcDbEntity
  8
1
  6
Continuous
 62
     7
100
AcDbLine
 10
190.8737189773
 20
114.5033311714
 30
0.0
 11
191.1237189773
 21
114.2533311714
 31
0.0
  0
LINE
  5
150
330
1F
100
AcDbEntity
  8
1
  6
Continuous
 62
     2
100
AcDbLine
 10
189.3737189773
 20
114.5033311714
 30
0.0
 11
188.5327287196303
 21
115.3443214290697
 31
0.0
  0
LINE
  5
151
330
1F
100
AcDbEntity
  8
1
  6
Continuous
 62
     7
100
AcDbLine
 10
189.3737189773
 20
114.5033311714
 30
0.0
 11
189.1237189773
 21
114.2533311714
 31
0.0
  0
LINE
  5
152
330
1F
100
AcDbEntity
  8
1
  6
Continuous
 62
     2
100
AcDbLine
 10
189.3737189773
 20
113.0033311714
 30
0.0
 11
188.5327287196303
 21
112.1623409137303
 31
0.0
  0
LINE
  5
153
330
1F
100
AcDbEntity
  8
1
  6
Continuous
 62
     7
100
AcDbLine
 10
189.3737189773
 20
113.0033311714
 30
0.0
 11
189.1237189773
 21
113.2533311714
 31
0.0
  0
LINE
  5
154
330
1F
100
AcDbEntity
  8
1
  6
Continuous
 62
     2
100
AcDbLine
 10
190.8737189773
 20
113.0033311714
 30
0.0
 11
191.7147092349697
 21
112.1623409137303
 31
0.0
  0
LINE
  5
155
330
1F
100
AcDbEntity
  8
1
  6
Continuous
 62
     7
100
AcDbLine
 10
190.8737189773
 20
113.0033311714
 30
0.0
 11
190.6237189773
 21
112.7533311714
 31
0.0
  0
LINE
  5
156
330
1F
100
AcDbEntity
  8
1
  6
DOT_CENTER
 62
     2
100
AcDbLine
 10
184.3128515528511
 20
113.7533311714
 30
0.0
 11
196.425531814369
 21
113.7533311714
 31
0.0
  0
LINE
  5
157
330
1F
100
AcDbEntity
  8
A_ACHSEN
  6
DOT_CENTER
 62
     2
100
AcDbLine
 10
196.0153704961
 20
214.7533311714
 30
0.0
 11
184.0153704961
 21
214.7533311714
 31
0.0
  0
LINE
  5
158
330
1F
100
AcDbEntity
  8
A_ACHSEN
  6
DOT_CENTER
 62
     2
100
AcDbLine
 10
190.1237229739
 20
230.7533311714
 30
0.0
 11
190.1237229739
 21
207.7533311714
 31
0.0
  0
LINE
  5
159
330
1F
100
AcDbEntity
  8
1
  6
Continuous
 62
     7
100
AcDbLine
 10
190.8737189773
 20
214.0033311714
 30
0.0
 11
190.6237189773
 21
213.7533311714
 31
0.0
  0
LINE
  5
15A
330
1F
100
AcDbEntity
  8
1
  6
Continuous
 62
     2
100
AcDbLine
 10
190.8737189773
 20
214.0033311714
 30
0.0
 11
191.7147092349697
 21
213.1623409137303
 31
0.0
  0
LINE
  5
15B
330
1F
100
AcDbEntity
  8
1
  6
Continuous
 62
     7
100
AcDbLine
 10
189.3737189773
 20
214.0033311714
 30
0.0
 11
189.1237189773
 21
214.2533311714
 31
0.0
  0
LINE
  5
15C
330
1F
100
AcDbEntity
  8
1
  6
Continuous
 62
     2
100
AcDbLine
 10
189.3737189773
 20
214.0033311714
 30
0.0
 11
188.5327287196303
 21
213.1623409137303
 31
0.0
  0
LINE
  5
15D
330
1F
100
AcDbEntity
  8
1
  6
Continuous
 62
     7
100
AcDbLine
 10
189.3737189773
 20
215.5033311714
 30
0.0
 11
189.1237189773
 21
215.2533311714
 31
0.0
  0
LINE
  5
15E
330
1F
100
AcDbEntity
  8
1
  6
Continuous
 62
     2
100
AcDbLine
 10
189.3737189773
 20
215.5033311714
 30
0.0
 11
188.5327287196303
 21
216.3443214290697
 31
0.0
  0
LINE
  5
15F
330
1F
100
AcDbEntity
  8
1
  6
Continuous
 62
     7
100
AcDbLine
 10
190.8737189773
 20
215.5033311714
 30
0.0
 11
191.1237189773
 21
215.2533311714
 31
0.0
  0
LINE
  5
160
330
1F
100
AcDbEntity
  8
1
  6
Continuous
 62
     2
100
AcDbLine
 10
190.8737189773
 20
215.5033311714
 30
0.0
 11
191.7147092349697
 21
216.3443214290697
 31
0.0
  0
LINE
  5
161
330
1F
100
AcDbEntity
  8
1
  6
Continuous
 62
     7
100
AcDbLine
 10
189.6237189773
 20
213.7533311714
 30
0.0
 11
189.3737189773
 21
214.0033311714
 31
0.0
  0
LINE
  5
162
330
1F
100
AcDbEntity
  8
1
  6
Continuous
 62
     7
100
AcDbLine
 10
191.1237189773
 20
214.2533311714
 30
0.0
 11
190.8737189773
 21
214.0033311714
 31
0.0
  0
LINE
  5
163
330
1F
100
AcDbEntity
  8
1
  6
Continuous
 62
     7
100
AcDbLine
 10
190.6237189773
 20
215.7533311714
 30
0.0
 11
190.8737189773
 21
215.5033311714
 31
0.0
  0
LINE
  5
164
330
1F
100
AcDbEntity
  8
1
  6
Continuous
 62
     7
100
AcDbLine
 10
189.6237189773
 20
215.7533311714
 30
0.0
 11
189.3737189773
 21
215.5033311714
 31
0.0
  0
LINE
  5
165
330
1F
100
AcDbEntity
  8
1
  6
Continuous
 62
     7
100
AcDbLine
 10
189.6237189773
 20
215.7533311714
 30
0.0
 11
189.6237189773
 21
217.0033311714
 31
0.0
  0
LINE
  5
166
330
1F
100
AcDbEntity
  8
1
  6
Continuous
 62
     7
100
AcDbLine
 10
187.8737189773
 20
215.2533311714
 30
0.0
 11
189.1237189773
 21
215.2533311714
 31
0.0
  0
LINE
  5
167
330
1F
100
AcDbEntity
  8
1
  6
Continuous
 62
     7
100
AcDbLine
 10
187.8737189773
 20
214.2533311714
 30
0.0
 11
187.8737189773
 21
215.2533311714
 31
0.0
  0
LINE
  5
168
330
1F
100
AcDbEntity
  8
1
  6
Continuous
 62
     7
100
AcDbLine
 10
189.1237189773
 20
214.2533311714
 30
0.0
 11
187.8737189773
 21
214.2533311714
 31
0.0
  0
LINE
  5
169
330
1F
100
AcDbEntity
  8
1
  6
Continuous
 62
     7
100
AcDbLine
 10
189.6237189773
 20
212.5033311714
 30
0.0
 11
189.6237189773
 21
213.7533311714
 31
0.0
  0
LINE
  5
16A
330
1F
100
AcDbEntity
  8
1
  6
Continuous
 62
     7
100
AcDbLine
 10
190.6237189773
 20
212.5033311714
 30
0.0
 11
189.6237189773
 21
212.5033311714
 31
0.0
  0
LINE
  5
16B
330
1F
100
AcDbEntity
  8
1
  6
Continuous
 62
     7
100
AcDbLine
 10
190.6237189773
 20
213.7533311714
 30
0.0
 11
190.6237189773
 21
212.5033311714
 31
0.0
  0
LINE
  5
16C
330
1F
100
AcDbEntity
  8
1
  6
Continuous
 62
     7
100
AcDbLine
 10
192.3737189773
 20
214.2533311714
 30
0.0
 11
191.1237189773
 21
214.2533311714
 31
0.0
  0
LINE
  5
16D
330
1F
100
AcDbEntity
  8
1
  6
Continuous
 62
     7
100
AcDbLine
 10
192.3737189773
 20
215.2533311714
 30
0.0
 11
192.3737189773
 21
214.2533311714
 31
0.0
  0
LINE
  5
16E
330
1F
100
AcDbEntity
  8
1
  6
Continuous
 62
     7
100
AcDbLine
 10
191.1237189773
 20
215.2533311714
 30
0.0
 11
192.3737189773
 21
215.2533311714
 31
0.0
  0
LINE
  5
16F
330
1F
100
AcDbEntity
  8
1
  6
Continuous
 62
     7
100
AcDbLine
 10
190.6237189773
 20
217.0033311714
 30
0.0
 11
190.6237189773
 21
215.7533311714
 31
0.0
  0
LINE
  5
170
330
1F
100
AcDbEntity
  8
1
  6
Continuous
 62
     7
100
AcDbLine
 10
189.6237189773
 20
217.0033311714
 30
0.0
 11
190.6237189773
 21
217.0033311714
 31
0.0
  0
LINE
  5
171
330
1F
100
AcDbEntity
  8
1
  6
Continuous
 62
     7
100
AcDbLine
 10
232.3237229739
 20
106.5033311714001
 30
0.0
 11
232.0737229739
 21
106.2533311714001
 31
0.0
  0
LINE
  5
172
330
1F
100
AcDbEntity
  8
1
  6
Continuous
 62
     2
100
AcDbLine
 10
232.3237229739
 20
106.5033311714001
 30
0.0
 11
233.1647132315697
 21
105.6623409137304
 31
0.0
  0
LINE
  5
173
330
1F
100
AcDbEntity
  8
1
  6
Continuous
 62
     7
100
AcDbLine
 10
230.8237229739
 20
106.5033311714001
 30
0.0
 11
230.5737229739
 21
106.7533311714001
 31
0.0
  0
LINE
  5
174
330
1F
100
AcDbEntity
  8
1
  6
Continuous
 62
     2
100
AcDbLine
 10
230.8237229739
 20
106.5033311714001
 30
0.0
 11
229.9827327162303
 21
105.6623409137304
 31
0.0
  0
LINE
  5
175
330
1F
100
AcDbEntity
  8
1
  6
Continuous
 62
     7
100
AcDbLine
 10
230.8237229739
 20
108.0033311714001
 30
0.0
 11
230.5737229739
 21
107.7533311714001
 31
0.0
  0
LINE
  5
176
330
1F
100
AcDbEntity
  8
1
  6
Continuous
 62
     2
100
AcDbLine
 10
230.8237229739
 20
108.0033311714001
 30
0.0
 11
229.9827327162303
 21
108.8443214290698
 31
0.0
  0
LINE
  5
177
330
1F
100
AcDbEntity
  8
1
  6
Continuous
 62
     7
100
AcDbLine
 10
232.3237229739
 20
108.0033311714001
 30
0.0
 11
232.5737229739
 21
107.7533311714001
 31
0.0
  0
LINE
  5
178
330
1F
100
AcDbEntity
  8
1
  6
Continuous
 62
     2
100
AcDbLine
 10
232.3237229739
 20
108.0033311714001
 30
0.0
 11
233.1647132315697
 21
108.8443214290698
 31
0.0
  0
LINE
  5
179
330
1F
100
AcDbEntity
  8
1
  6
Continuous
 62
     7
100
AcDbLine
 10
231.0737229739
 20
106.2533311714001
 30
0.0
 11
230.8237229739
 21
106.5033311714001
 31
0.0
  0
LINE
  5
17A
330
1F
100
AcDbEntity
  8
1
  6
Continuous
 62
     7
100
AcDbLine
 10
232.5737229739
 20
106.7533311714001
 30
0.0
 11
232.3237229739
 21
106.5033311714001
 31
0.0
  0
LINE
  5
17B
330
1F
100
AcDbEntity
  8
1
  6
Continuous
 62
     7
100
AcDbLine
 10
232.0737229739
 20
108.2533311714001
 30
0.0
 11
232.3237229739
 21
108.0033311714001
 31
0.0
  0
LINE
  5
17C
330
1F
100
AcDbEntity
  8
1
  6
Continuous
 62
     7
100
AcDbLine
 10
231.0737229739
 20
108.2533311714001
 30
0.0
 11
230.8237229739
 21
108.0033311714001
 31
0.0
  0
LINE
  5
17D
330
1F
100
AcDbEntity
  8
1
  6
Continuous
 62
     7
100
AcDbLine
 10
231.0737229739
 20
108.2533311714001
 30
0.0
 11
231.0737229739
 21
109.5033311714001
 31
0.0
  0
LINE
  5
17E
330
1F
100
AcDbEntity
  8
1
  6
Continuous
 62
     7
100
AcDbLine
 10
229.3237229739
 20
107.7533311714001
 30
0.0
 11
230.5737229739
 21
107.7533311714001
 31
0.0
  0
LINE
  5
17F
330
1F
100
AcDbEntity
  8
1
  6
Continuous
 62
     7
100
AcDbLine
 10
229.3237229739
 20
106.7533311714001
 30
0.0
 11
229.3237229739
 21
107.7533311714001
 31
0.0
  0
LINE
  5
180
330
1F
100
AcDbEntity
  8
1
  6
Continuous
 62
     7
100
AcDbLine
 10
230.5737229739
 20
106.7533311714001
 30
0.0
 11
229.3237229739
 21
106.7533311714001
 31
0.0
  0
LINE
  5
181
330
1F
100
AcDbEntity
  8
1
  6
Continuous
 62
     7
100
AcDbLine
 10
231.0737229739
 20
105.0033311714001
 30
0.0
 11
231.0737229739
 21
106.2533311714001
 31
0.0
  0
LINE
  5
182
330
1F
100
AcDbEntity
  8
1
  6
Continuous
 62
     7
100
AcDbLine
 10
232.0737229739
 20
105.0033311714001
 30
0.0
 11
231.0737229739
 21
105.0033311714001
 31
0.0
  0
LINE
  5
183
330
1F
100
AcDbEntity
  8
1
  6
Continuous
 62
     7
100
AcDbLine
 10
232.0737229739
 20
106.2533311714001
 30
0.0
 11
232.0737229739
 21
105.0033311714001
 31
0.0
  0
LINE
  5
184
330
1F
100
AcDbEntity
  8
1
  6
Continuous
 62
     7
100
AcDbLine
 10
233.8237229739
 20
106.7533311714001
 30
0.0
 11
232.5737229739
 21
106.7533311714001
 31
0.0
  0
LINE
  5
185
330
1F
100
AcDbEntity
  8
1
  6
Continuous
 62
     7
100
AcDbLine
 10
233.8237229739
 20
107.7533311714001
 30
0.0
 11
233.8237229739
 21
106.7533311714001
 31
0.0
  0
LINE
  5
186
330
1F
100
AcDbEntity
  8
1
  6
Continuous
 62
     7
100
AcDbLine
 10
232.5737229739
 20
107.7533311714001
 30
0.0
 11
233.8237229739
 21
107.7533311714001
 31
0.0
  0
LINE
  5
187
330
1F
100
AcDbEntity
  8
1
  6
Continuous
 62
     7
100
AcDbLine
 10
232.0737229739
 20
109.5033311714001
 30
0.0
 11
232.0737229739
 21
108.2533311714001
 31
0.0
  0
LINE
  5
188
330
1F
100
AcDbEntity
  8
1
  6
Continuous
 62
     7
100
AcDbLine
 10
231.0737229739
 20
109.5033311714001
 30
0.0
 11
232.0737229739
 21
109.5033311714001
 31
0.0
  0
LINE
  5
189
330
1F
100
AcDbEntity
  8
1
  6
Continuous
 62
     7
100
AcDbLine
 10
231.0737229739
 20
223.5033311714
 30
0.0
 11
232.0737229739
 21
223.5033311714
 31
0.0
  0
LINE
  5
18A
330
1F
100
AcDbEntity
  8
1
  6
Continuous
 62
     7
100
AcDbLine
 10
232.0737229739
 20
223.5033311714
 30
0.0
 11
232.0737229739
 21
222.2533311714
 31
0.0
  0
LINE
  5
18B
330
1F
100
AcDbEntity
  8
1
  6
Continuous
 62
     7
100
AcDbLine
 10
232.5737229739
 20
221.7533311714
 30
0.0
 11
233.8237229739
 21
221.7533311714
 31
0.0
  0
LINE
  5
18C
330
1F
100
AcDbEntity
  8
1
  6
Continuous
 62
     7
100
AcDbLine
 10
233.8237229739
 20
221.7533311714
 30
0.0
 11
233.8237229739
 21
220.7533311714
 31
0.0
  0
LINE
  5
18D
330
1F
100
AcDbEntity
  8
1
  6
Continuous
 62
     7
100
AcDbLine
 10
233.8237229739
 20
220.7533311714
 30
0.0
 11
232.5737229739
 21
220.7533311714
 31
0.0
  0
LINE
  5
18E
330
1F
100
AcDbEntity
  8
1
  6
Continuous
 62
     7
100
AcDbLine
 10
232.0737229739
 20
220.2533311714
 30
0.0
 11
232.0737229739
 21
219.0033311714
 31
0.0
  0
LINE
  5
18F
330
1F
100
AcDbEntity
  8
1
  6
Continuous
 62
     7
100
AcDbLine
 10
232.0737229739
 20
219.0033311714
 30
0.0
 11
231.0737229739
 21
219.0033311714
 31
0.0
  0
LINE
  5
190
330
1F
100
AcDbEntity
  8
1
  6
Continuous
 62
     7
100
AcDbLine
 10
231.0737229739
 20
219.0033311714
 30
0.0
 11
231.0737229739
 21
220.2533311714
 31
0.0
  0
LINE
  5
191
330
1F
100
AcDbEntity
  8
1
  6
Continuous
 62
     7
100
AcDbLine
 10
230.5737229739
 20
220.7533311714
 30
0.0
 11
229.3237229739
 21
220.7533311714
 31
0.0
  0
LINE
  5
192
330
1F
100
AcDbEntity
  8
1
  6
Continuous
 62
     7
100
AcDbLine
 10
229.3237229739
 20
220.7533311714
 30
0.0
 11
229.3237229739
 21
221.7533311714
 31
0.0
  0
LINE
  5
193
330
1F
100
AcDbEntity
  8
1
  6
Continuous
 62
     7
100
AcDbLine
 10
229.3237229739
 20
221.7533311714
 30
0.0
 11
230.5737229739
 21
221.7533311714
 31
0.0
  0
LINE
  5
194
330
1F
100
AcDbEntity
  8
1
  6
Continuous
 62
     7
100
AcDbLine
 10
231.0737229739
 20
222.2533311714
 30
0.0
 11
231.0737229739
 21
223.5033311714
 31
0.0
  0
LINE
  5
195
330
1F
100
AcDbEntity
  8
1
  6
Continuous
 62
     7
100
AcDbLine
 10
231.0737229739
 20
222.2533311714
 30
0.0
 11
230.8237229739
 21
222.0033311714
 31
0.0
  0
LINE
  5
196
330
1F
100
AcDbEntity
  8
1
  6
Continuous
 62
     7
100
AcDbLine
 10
232.0737229739
 20
222.2533311714
 30
0.0
 11
232.3237229739
 21
222.0033311714
 31
0.0
  0
LINE
  5
197
330
1F
100
AcDbEntity
  8
1
  6
Continuous
 62
     7
100
AcDbLine
 10
232.5737229739
 20
220.7533311714
 30
0.0
 11
232.3237229739
 21
220.5033311714
 31
0.0
  0
LINE
  5
198
330
1F
100
AcDbEntity
  8
1
  6
Continuous
 62
     7
100
AcDbLine
 10
231.0737229739
 20
220.2533311714
 30
0.0
 11
230.8237229739
 21
220.5033311714
 31
0.0
  0
LINE
  5
199
330
1F
100
AcDbEntity
  8
1
  6
Continuous
 62
     2
100
AcDbLine
 10
232.3237229739
 20
222.0033311714
 30
0.0
 11
233.1647132315697
 21
222.8443214290698
 31
0.0
  0
LINE
  5
19A
330
1F
100
AcDbEntity
  8
1
  6
Continuous
 62
     7
100
AcDbLine
 10
232.3237229739
 20
222.0033311714
 30
0.0
 11
232.5737229739
 21
221.7533311714
 31
0.0
  0
LINE
  5
19B
330
1F
100
AcDbEntity
  8
1
  6
Continuous
 62
     2
100
AcDbLine
 10
230.8237229739
 20
222.0033311714
 30
0.0
 11
229.9827327162303
 21
222.8443214290698
 31
0.0
  0
LINE
  5
19C
330
1F
100
AcDbEntity
  8
1
  6
Continuous
 62
     7
100
AcDbLine
 10
230.8237229739
 20
222.0033311714
 30
0.0
 11
230.5737229739
 21
221.7533311714
 31
0.0
  0
LINE
  5
19D
330
1F
100
AcDbEntity
  8
1
  6
Continuous
 62
     2
100
AcDbLine
 10
230.8237229739
 20
220.5033311714
 30
0.0
 11
229.9827327162303
 21
219.6623409137303
 31
0.0
  0
LINE
  5
19E
330
1F
100
AcDbEntity
  8
1
  6
Continuous
 62
     7
100
AcDbLine
 10
230.8237229739
 20
220.5033311714
 30
0.0
 11
230.5737229739
 21
220.7533311714
 31
0.0
  0
LINE
  5
19F
330
1F
100
AcDbEntity
  8
1
  6
Continuous
 62
     2
100
AcDbLine
 10
232.3237229739
 20
220.5033311714
 30
0.0
 11
233.1647132315697
 21
219.6623409137303
 31
0.0
  0
LINE
  5
1A0
330
1F
100
AcDbEntity
  8
1
  6
Continuous
 62
     7
100
AcDbLine
 10
232.3237229739
 20
220.5033311714
 30
0.0
 11
232.0737229739
 21
220.2533311714
 31
0.0
  0
LINE
  5
1A1
330
1F
100
AcDbEntity
  8
1
  6
DOT_CENTER
 62
     2
100
AcDbLine
 10
190.6553382316
 20
187.45535728508
 30
0.0
 11
190.6553382316
 21
140.45535728508
 31
0.0
  0
LINE
  5
1A2
330
1F
100
AcDbEntity
  8
1
  6
DOT_CENTER
 62
     2
100
AcDbLine
 10
210.9445467349
 20
184.963590247282
 30
0.0
 11
210.9445467349
 21
141.963590247282
 31
0.0
  0
LINE
  5
1A3
330
1F
100
AcDbEntity
  8
1
  6
DOT_CENTER
 62
     2
100
AcDbLine
 10
231.23374198895
 20
187.377489565149
 30
0.0
 11
231.23374198895
 21
140.377489565149
 31
0.0
  0
LINE
  5
1A4
330
1F
100
AcDbEntity
  8
1
  6
DOT_CENTER
 62
     7
100
AcDbLine
 10
167.50431022643
 20
164.2533311714
 30
0.0
 11
249.50431022643
 21
164.2533311714
 31
0.0
  0
ARC
  5
1A5
330
1F
100
AcDbEntity
  8
0
  6
Continuous
 62
     7
100
AcDbCircle
 10
231.5737229739
 20
217.7533311714
 30
0.0
 40
14.44999999999999
100
AcDbArc
 50
0.0
 51
6.4750852918991
  0
ARC
  5
1A6
330
1F
100
AcDbEntity
  8
PLATTE_U_ZUBEHOER
  6
Continuous
 62
     7
100
AcDbCircle
 10
231.4737229739
 20
220.3533311714
 30
0.0
 40
14.40000000000001
100
AcDbArc
 50
90.0
 51
180.0
  0
ARC
  5
1A7
330
1F
100
AcDbEntity
  8
PLATTE_U_ZUBEHOER
  6
Continuous
 62
     7
100
AcDbCircle
 10
245.3737229739
 20
195.7533311714
 30
0.0
 40
0.5
100
AcDbArc
 50
-90.0
 51
0.0
  0
ARC
  5
1A8
330
1F
100
AcDbEntity
  8
PLATTE_U_ZUBEHOER
  6
Continuous
 62
     7
100
AcDbCircle
 10
217.5737229739
 20
195.7533311714
 30
0.0
 40
0.5
100
AcDbArc
 50
180.0
 51
-90.0
  0
ARC
  5
1A9
330
1F
100
AcDbEntity
  8
PLATTE_U_ZUBEHOER
  6
Continuous
 62
     7
100
AcDbCircle
 10
203.2737229739
 20
134.2533311714
 30
0.0
 40
0.5
100
AcDbArc
 50
0.0
 51
90.0
  0
ARC
  5
1AA
330
1F
100
AcDbEntity
  8
PLATTE_U_ZUBEHOER
  6
Continuous
 62
     7
100
AcDbCircle
 10
176.9737229739
 20
134.2533311714
 30
0.0
 40
0.5
100
AcDbArc
 50
90.0
 51
180.0
  0
ARC
  5
1AB
330
1F
100
AcDbEntity
  8
0
  6
DASHED
 62
     2
100
AcDbCircle
 10
231.5737229739
 20
110.7533311714
 30
0.0
 40
14.45000000000002
100
AcDbArc
 50
180.0
 51
0.0
  0
ARC
  5
1AC
330
1F
100
AcDbEntity
  8
A_RUNDUNGEN
  6
DASHED
 62
     2
100
AcDbCircle
 10
223.5737229739
 20
113.4033311714
 30
0.0
 40
2.59567464380001
100
AcDbArc
 50
0.0
 51
180.0
  0
ARC
  5
1AD
330
1F
100
AcDbEntity
  8
A_RUNDUNGEN
  6
DASHED
 62
     2
100
AcDbCircle
 10
223.5737229739
 20
107.1033311714
 30
0.0
 40
2.59567464380001
100
AcDbArc
 50
180.0
 51
0.0
  0
ARC
  5
1AE
330
1F
100
AcDbEntity
  8
A_RUNDUNGEN
  6
DASHED
 62
     2
100
AcDbCircle
 10
239.5737229739
 20
113.4033311714
 30
0.0
 40
2.59567464380001
100
AcDbArc
 50
0.0
 51
180.0
  0
ARC
  5
1AF
330
1F
100
AcDbEntity
  8
A_RUNDUNGEN
  6
DASHED
 62
     2
100
AcDbCircle
 10
239.5737229739
 20
107.1033311714
 30
0.0
 40
2.59567464380001
100
AcDbArc
 50
180.0
 51
0.0
  0
ARC
  5
1B0
330
1F
100
AcDbEntity
  8
A_RUNDUNGEN
  6
DASHED
 62
     2
100
AcDbCircle
 10
231.5737229739
 20
104.0033311714
 30
0.0
 40
2.241222589300008
100
AcDbArc
 50
180.0
 51
0.0
  0
ARC
  5
1B1
330
1F
100
AcDbEntity
  8
A_RUNDUNGEN
  6
DASHED
 62
     2
100
AcDbCircle
 10
231.5737229739
 20
109.5033311714
 30
0.0
 40
2.228638213099998
100
AcDbArc
 50
-0.00000043111231
 51
-179.9999999391982
  0
ARC
  5
1B2
330
1F
100
AcDbEntity
  8
PLATTE_U_ZUBEHOER
  6
Continuous
 62
     7
100
AcDbCircle
 10
190.044546735
 20
107.9855564580012
 30
0.0
 40
13.73245353892651
100
AcDbArc
 50
-89.66965193451449
 51
-1.25178660320079
  0
ARC
  5
1B3
330
1F
100
AcDbEntity
  8
PLATTE_U_ZUBEHOER
  6
Continuous
 62
     7
100
AcDbCircle
 10
190.044546735
 20
220.5211058847988
 30
0.0
 40
13.73245353892652
100
AcDbArc
 50
89.66965193451449
 51
-178.7482133967992
  0
ARC
  5
1B4
330
1F
100
AcDbEntity
  8
PLATTE_U_ZUBEHOER
  6
Continuous
 62
     7
100
AcDbCircle
 10
176.9737229739
 20
194.2533311714
 30
0.0
 40
0.5
100
AcDbArc
 50
180.0
 51
-90.0
  0
ARC
  5
1B5
330
1F
100
AcDbEntity
  8
PLATTE_U_ZUBEHOER
  6
Continuous
 62
     7
100
AcDbCircle
 10
203.2737229739
 20
194.2533311714
 30
0.0
 40
0.5
100
AcDbArc
 50
-90.0
 51
0.0
  0
ARC
  5
1B6
330
1F
100
AcDbEntity
  8
A_RUNDUNGEN
  6
DASHED
 62
     2
100
AcDbCircle
 10
231.5737229739
 20
219.0033311714
 30
0.0
 40
2.228638213099998
100
AcDbArc
 50
179.9999999391956
 51
0.00000043111231
  0
ARC
  5
1B7
330
1F
100
AcDbEntity
  8
A_RUNDUNGEN
  6
DASHED
 62
     2
100
AcDbCircle
 10
231.5737229739
 20
224.5033311714
 30
0.0
 40
2.241222589300008
100
AcDbArc
 50
0.0
 51
180.0
  0
ARC
  5
1B8
330
1F
100
AcDbEntity
  8
A_RUNDUNGEN
  6
DASHED
 62
     2
100
AcDbCircle
 10
239.5737229739
 20
221.4033311714
 30
0.0
 40
2.59567464380001
100
AcDbArc
 50
0.0
 51
180.0
  0
ARC
  5
1B9
330
1F
100
AcDbEntity
  8
A_RUNDUNGEN
  6
DASHED
 62
     2
100
AcDbCircle
 10
239.5737229739
 20
215.1033311714
 30
0.0
 40
2.59567464380001
100
AcDbArc
 50
180.0
 51
0.0
  0
ARC
  5
1BA
330
1F
100
AcDbEntity
  8
A_RUNDUNGEN
  6
DASHED
 62
     2
100
AcDbCircle
 10
223.5737229739
 20
221.4033311714
 30
0.0
 40
2.59567464380001
100
AcDbArc
 50
0.0
 51
180.0
  0
ARC
  5
1BB
330
1F
100
AcDbEntity
  8
A_RUNDUNGEN
  6
DASHED
 62
     2
100
AcDbCircle
 10
223.5737229739
 20
215.1033311714
 30
0.0
 40
2.59567464380001
100
AcDbArc
 50
180.0
 51
0.0
  0
ARC
  5
1BC
330
1F
100
AcDbEntity
  8
0
  6
DASHED
 62
     2
100
AcDbCircle
 10
231.5737229739
 20
217.7533311714
 30
0.0
 40
14.44999999999999
100
AcDbArc
 50
0.0
 51
180.0
  0
ARC
  5
1BD
330
1F
100
AcDbEntity
  8
PLATTE_U_ZUBEHOER
  6
Continuous
 62
     7
100
AcDbCircle
 10
231.4737229739
 20
108.1533311714
 30
0.0
 40
14.39999999999998
100
AcDbArc
 50
-90.0
 51
0.0
  0
ARC
  5
1BE
330
1F
100
AcDbEntity
  8
PLATTE_U_ZUBEHOER
  6
Continuous
 62
     7
100
AcDbCircle
 10
190.044546735
 20
220.5211058847988
 30
0.0
 40
13.73245353892653
100
AcDbArc
 50
1.25178660320085
 51
89.66965193451449
  0
ARC
  5
1BF
330
1F
100
AcDbEntity
  8
PLATTE_U_ZUBEHOER
  6
Continuous
 62
     7
100
AcDbCircle
 10
231.4737229739
 20
220.3533311714
 30
0.0
 40
14.39999999999998
100
AcDbArc
 50
0.0
 51
90.0
  0
ARC
  5
1C0
330
1F
100
AcDbEntity
  8
PLATTE_U_ZUBEHOER
  6
Continuous
 62
     7
100
AcDbCircle
 10
190.044546735
 20
107.9855564580012
 30
0.0
 40
13.73245353892656
100
AcDbArc
 50
178.7482133967992
 51
-89.66965193451449
  0
ARC
  5
1C1
330
1F
100
AcDbEntity
  8
PLATTE_U_ZUBEHOER
  6
Continuous
 62
     7
100
AcDbCircle
 10
231.2237229739
 20
107.9033311714
 30
0.0
 40
14.15220830824646
100
AcDbArc
 50
-178.9878123860175
 51
-88.98781238601755
  0
ARC
  5
1C2
330
1F
100
AcDbEntity
  8
PLATTE_U_ZUBEHOER
  6
Continuous
 62
     7
100
AcDbCircle
 10
217.5737229739
 20
132.7533311714001
 30
0.0
 40
0.5
100
AcDbArc
 50
90.0
 51
180.0
  0
ARC
  5
1C3
330
1F
100
AcDbEntity
  8
PLATTE_U_ZUBEHOER
  6
Continuous
 62
     7
100
AcDbCircle
 10
245.3737229739
 20
132.7533311714001
 30
0.0
 40
0.5
100
AcDbArc
 50
0.0
 51
90.0
  0
CIRCLE
  5
1C4
330
1F
100
AcDbEntity
  8
A_RUNDUNGEN
  6
DASHED
 62
     2
100
AcDbCircle
 10
190.0153704961
 20
104.2533311714001
 30
0.0
 40
5.099999999999994
  0
CIRCLE
  5
1C5
330
1F
100
AcDbEntity
  8
A_RUNDUNGEN
  6
DASHED
 62
     2
100
AcDbCircle
 10
190.0153704961
 20
104.2533311714001
 30
0.0
 40
2.707257386999999
  0
CIRCLE
  5
1C6
330
1F
100
AcDbEntity
  8
A_RUNDUNGEN
  6
DASHED
 62
     2
100
AcDbCircle
 10
190.0153704961
 20
224.2533311714
 30
0.0
 40
2.707257387000084
  0
CIRCLE
  5
1C7
330
1F
100
AcDbEntity
  8
A_RUNDUNGEN
  6
DASHED
 62
     2
100
AcDbCircle
 10
190.0153704961
 20
224.2533311714
 30
0.0
 40
5.10000000000008
  0
CIRCLE
  5
1C8
330
1F
100
AcDbEntity
  8
0
  6
Continuous
 62
     7
100
AcDbCircle
 10
190.1237189773
 20
113.7533311714
 30
0.0
 40
4.0
  0
CIRCLE
  5
1C9
330
1F
100
AcDbEntity
  8
0
  6
Continuous
 62
     7
100
AcDbCircle
 10
190.1237189772999
 20
214.7533311714
 30
0.0
 40
4.0
  0
CIRCLE
  5
1CA
330
1F
100
AcDbEntity
  8
0
  6
Continuous
 62
     7
100
AcDbCircle
 10
231.5737229739
 20
107.2533311714
 30
0.0
 40
3.999999999999901
  0
CIRCLE
  5
1CB
330
1F
100
AcDbEntity
  8
0
  6
Continuous
 62
     7
100
AcDbCircle
 10
231.5737229739
 20
221.2533311714
 30
0.0
 40
4.0
  0
XLINE
  5
1CC
330
1F
100
AcDbEntity
  8
1
  6
DOT_CENTER
 62
     3
 60
     1
100
AcDbXline
 10
217.1237229739
 20
107.6533311714
 30
0.0
 11
-1.0
 21
0.0
 31
0.0
  0
LWPOLYLINE
  5
1CD
330
1F
100
AcDbEntity
  8
A_RUNDUNGEN
  6
Continuous
 62
     7
100
AcDbPolyline
 90
        7
 70
     0
 43
0.0
 10
198.184378902
 20
172.2533311714
 10
198.2162248952
 20
172.491970055
 10
198.312571552
 20
172.7213851842
 10
198.4745363309
 20
172.929484811
 10
198.6998450595
 20
173.0998530403
 10
198.9778916805
 20
173.2133014509
 10
199.2866359506
 20
173.2533311714
  0
LWPOLYLINE
  5
1CE
330
1F
100
AcDbEntity
  8
A_RUNDUNGEN
  6
Continuous
 62
     7
100
AcDbPolyline
 90
        7
 70
     0
 43
0.0
 10
223.7047145679
 20
173.0033311714
 10
223.6728685747
 20
172.7646922877
 10
223.5765219179
 20
172.5352771585
 10
223.414557139
 20
172.3271775317
 10
223.1892484103
 20
172.1568093025
 10
222.9112017893
 20
172.0433608918
 10
222.6024575193
 20
172.0033311714
  0
LWPOLYLINE
  5
1CF
330
1F
100
AcDbEntity
  8
A_RUNDUNGEN
  6
Continuous
 62
     7
100
AcDbPolyline
 90
        4
 70
     0
 43
0.0
 10
203.7110832146
 20
135.0513457382
 10
203.7127295309
 20
135.0108160201
 10
203.7141193155
 20
134.9018727704
 10
203.7150456092
 20
134.7407427643
  0
LWPOLYLINE
  5
1D0
330
1F
100
AcDbEntity
  8
A_RUNDUNGEN
  6
Continuous
 62
     7
100
AcDbPolyline
 90
        4
 70
     0
 43
0.0
 10
203.6066095355
 20
135.5629865815
 10
203.6075358292
 20
135.4018565851
 10
203.6089256138
 20
135.29291334
 10
203.6105719302
 20
135.2523836178
  0
LWPOLYLINE
  5
1D1
330
1F
100
AcDbEntity
  8
A_RUNDUNGEN
  6
Continuous
 62
     7
100
AcDbPolyline
 90
        7
 70
     0
 43
0.0
 10
222.6024575193
 20
156.5033311714
 10
222.9112017893
 20
156.4633014509
 10
223.1892484103
 20
156.3498530403
 10
223.414557139
 20
156.179484811
 10
223.5765219179
 20
155.9713851842
 10
223.6728685747
 20
155.741970055
 10
223.7047145679
 20
155.5033311714
  0
LWPOLYLINE
  5
1D2
330
1F
100
AcDbEntity
  8
A_RUNDUNGEN
  6
Continuous
 62
     7
100
AcDbPolyline
 90
        6
 70
     0
 43
0.0
 10
203.2719899302
 20
172.7230715311
 10
203.2737184303
 20
172.5022444926
 10
203.2852940371
 20
172.2974166419
 10
203.3172251601
 20
172.1401863281
 10
203.3836721701
 20
172.0378964265
 10
203.4944751218
 20
172.0033311714
  0
LWPOLYLINE
  5
1D3
330
1F
100
AcDbEntity
  8
A_RUNDUNGEN
  6
Continuous
 62
     7
100
AcDbPolyline
 90
        4
 70
     0
 43
0.0
 10
217.1280102554
 20
193.450080085
 10
217.1263639391
 20
193.4906098031
 10
217.1249741544
 20
193.5995530528
 10
217.1240478607
 20
193.7606830589
  0
LWPOLYLINE
  5
1D4
330
1F
100
AcDbEntity
  8
A_RUNDUNGEN
  6
Continuous
 62
     7
100
AcDbPolyline
 90
        6
 70
     0
 43
0.0
 10
203.4944751218
 20
156.5033311714
 10
203.3836721701
 20
156.4687659162
 10
203.3172251601
 20
156.3664760146
 10
203.2852940371
 20
156.2092457008
 10
203.2737184303
 20
156.0044178501
 10
203.2719899302
 20
155.7835908117
  0
LWPOLYLINE
  5
1D5
330
1F
100
AcDbEntity
  8
A_RUNDUNGEN
  6
Continuous
 62
     7
100
AcDbPolyline
 90
        4
 70
     0
 43
0.0
 10
217.2324839345
 20
192.9384392315
 10
217.2315576407
 20
193.0995692377
 10
217.2301678561
 20
193.2085124873
 10
217.2285215398
 20
193.2490422054
  0
LWPOLYLINE
  5
1D6
330
1F
100
AcDbEntity
  8
A_RUNDUNGEN
  6
Continuous
 62
     7
100
AcDbPolyline
 90
        5
 70
     0
 43
0.0
 10
217.1237229739
 20
110.7533311714
 10
217.1240478607
 20
134.7459792838
 10
217.1249741544
 20
134.9071092899
 10
217.1263639391
 20
135.0160525396
 10
217.1280102554
 20
135.0565822577
  0
LWPOLYLINE
  5
1D7
330
1F
100
AcDbEntity
  8
A_RUNDUNGEN
  6
Continuous
 62
     7
100
AcDbPolyline
 90
        5
 70
     0
 43
0.0
 10
217.2285215398
 20
135.2576201373
 10
217.2301678561
 20
135.2981498554
 10
217.2315576407
 20
135.4070931051
 10
217.2324839345
 20
135.5682231112
 10
217.2328088213
 20
145.2533311714
  0
LWPOLYLINE
  5
1D8
330
1F
100
AcDbEntity
  8
A_RUNDUNGEN
  6
Continuous
 62
     7
100
AcDbPolyline
 90
        7
 70
     0
 43
0.0
 10
199.2866359506
 20
155.2533311714
 10
198.9778886271
 20
155.2933617001
 10
198.6998493048
 20
155.4068068804
 10
198.4745510861
 20
155.5771629457
 10
198.3125981146
 20
155.7852316629
 10
198.2162413172
 20
156.0146316684
 10
198.184378902
 20
156.2533311714
  0
LWPOLYLINE
  5
1D9
330
1F
100
AcDbEntity
  8
A_RUNDUNGEN
  6
Continuous
 62
     7
100
AcDbPolyline
 90
        4
 70
     0
 43
0.0
 10
203.6105719302
 20
193.254278725
 10
203.6089256138
 20
193.2137490028
 10
203.6075358292
 20
193.1048057577
 10
203.6066095355
 20
192.9436757613
  0
LWPOLYLINE
  5
1DA
330
1F
100
AcDbEntity
  8
A_RUNDUNGEN
  6
Continuous
 62
     7
100
AcDbPolyline
 90
        4
 70
     0
 43
0.0
 10
203.7150456092
 20
193.7659195785
 10
203.7141193155
 20
193.6047895724
 10
203.7127295309
 20
193.4958463227
 10
203.7110832146
 20
193.4553166046
  0
MTEXT
  5
1DC
330
1F
100
AcDbEntity
  8
1
 62
     2
100
AcDbMText
 10
170.974377045516
 20
166.467308882369
 30
0.0
 40
2.5
 41
0.0
 71
     5
 72
     1
  1
BBL
  7
CONVERTER_11
 73
     1
 44
1.32052821128451
  0
DIMENSION
  5
1E7
330
1F
100
AcDbEntity
  8
1
100
AcDbDimension
  2
*D1
 10
176.3153704961
 20
81.1690207318652
 30
0.0
 11
190.609229150707
 21
84.9190207318652
 31
0.0
 70
    32
  1
<>
 71
     5
 42
-1.0
 53
0.00013888888889
  3
ME10_DIM_10
100
AcDbAlignedDimension
 13
203.7737229739
 23
107.6855564580012
 33
0.0
 14
176.3153704961
 24
108.2855564580012
 34
0.0
100
AcDbRotatedDimension
  0
DIMENSION
  5
1F2
330
1F
100
AcDbEntity
  8
1
100
AcDbDimension
  2
*D2
 10
203.7737229739
 20
81.1690207318652
 30
0.0
 11
210.678743398158
 21
84.9190207318652
 31
0.0
 70
    32
  1
13.3
 71
     5
 42
-1.0
 53
0.00013888888889
  3
ME10_DIM_11
100
AcDbAlignedDimension
 13
217.1237229739
 23
110.7533311714
 33
0.0
 14
203.7737229739
 24
107.6855564580012
 34
0.0
100
AcDbRotatedDimension
  0
DIMENSION
  5
1FD
330
1F
100
AcDbEntity
  8
1
100
AcDbDimension
  2
*D3
 10
217.1237229739
 20
81.1690207318652
 30
0.0
 11
232.789354406282
 21
84.9190207318652
 31
0.0
 70
    32
  1
29
 71
     5
 42
-1.0
 53
0.00013888888889
  3
ME10_DIM_12
100
AcDbAlignedDimension
 13
246.0237229739
 23
110.7533311714
 33
0.0
 14
217.1237229739
 24
110.7533311714
 34
0.0
100
AcDbRotatedDimension
  0
DIMENSION
  5
209
330
1F
100
AcDbEntity
  8
1
100
AcDbDimension
  2
*D4
 10
260.281062733937
 20
93.75333117140002
 30
0.0
 11
256.531062733937
 21
162.3208696455283
 31
0.0
 70
    32
  1
<>
 71
     5
 42
-1.0
 53
90.0
  3
ME10_DIM_13
100
AcDbAlignedDimension
 13
231.4737229739
 23
234.7533311714
 33
0.0
 14
231.4737229739
 24
93.75333117140002
 34
0.0
 50
90.0
100
AcDbRotatedDimension
  0
DIMENSION
  5
215
330
1F
100
AcDbEntity
  8
1
100
AcDbDimension
  2
*D5
 10
162.617944327152
 20
234.2533311714
 30
0.0
 11
158.867944327152
 21
165.7365894201432
 31
0.0
 70
    32
  1
<>
 71
     5
 42
-1.0
 53
90.0
  3
ME10_DIM_14
100
AcDbAlignedDimension
 13
190.1237229739
 23
94.25333117140002
 33
0.0
 14
190.1237229739
 24
234.2533311714
 34
0.0
 50
90.0
100
AcDbRotatedDimension
  0
ENDSEC
  0
SECTION
  2
OBJECTS
  0
DICTIONARY
  5
C
330
0
100
AcDbDictionary
281
     1
  3
ACAD_GROUP
350
D
  3
ACAD_LAYOUT
350
1A
  3
ACAD_MLINESTYLE
350
17
  3
ACAD_PLOTSETTINGS
350
19
  3
ACAD_PLOTSTYLENAME
350
E
  0
DICTIONARY
  5
D
102
{ACAD_REACTORS
330
C
102
}
330
C
100
AcDbDictionary
281
     1
  0
DICTIONARY
  5
1A
102
{ACAD_REACTORS
330
C
102
}
330
C
100
AcDbDictionary
281
     1
  3
Layout1
350
1E
  3
Layout2
350
26
  3
Model
350
22
  0
DICTIONARY
  5
17
102
{ACAD_REACTORS
330
C
102
}
330
C
100
AcDbDictionary
281
     1
  3
Standard
350
18
  0
DICTIONARY
  5
19
102
{ACAD_REACTORS
330
C
102
}
330
C
100
AcDbDictionary
281
     1
  0
ACDBDICTIONARYWDFLT
  5
E
102
{ACAD_REACTORS
330
C
102
}
330
C
100
AcDbDictionary
281
     1
  3
Normal
350
F
100
AcDbDictionaryWithDefault
340
F
  0
LAYOUT
  5
1E
102
{ACAD_REACTORS
330
1A
102
}
330
1A
100
AcDbPlotSettings
  1

  2

  4

  6

 40
0.0
 41
0.0
 42
0.0
 43
0.0
 44
0.0
 45
0.0
 46
0.0
 47
0.0
 48
0.0
 49
0.0
140
0.0
141
0.0
142
1.0
143
1.0
 70
   688
 72
     0
 73
     0
 74
     5
  7

 75
    16
 76
     0
 77
     2
 78
   300
147
1.0
148
0.0
149
0.0
100
AcDbLayout
  1
Layout1
 70
     1
 71
     1
 10
0.0
 20
0.0
 11
0.0
 21
0.0
 12
0.0
 22
0.0
 32
0.0
 14
0.0
 24
0.0
 34
0.0
 15
0.0
 25
0.0
 35
0.0
146
0.0
 13
0.0
 23
0.0
 33
0.0
 16
1.0
 26
0.0
 36
0.0
 17
0.0
 27
1.0
 37
0.0
 76
     0
330
1B
  0
LAYOUT
  5
26
102
{ACAD_REACTORS
330
1A
102
}
330
1A
100
AcDbPlotSettings
  1

  2

  4

  6

 40
0.0
 41
0.0
 42
0.0
 43
0.0
 44
0.0
 45
0.0
 46
0.0
 47
0.0
 48
0.0
 49
0.0
140
0.0
141
0.0
142
1.0
143
1.0
 70
   688
 72
     0
 73
     0
 74
     5
  7

 75
    16
 76
     0
 77
     2
 78
   300
147
1.0
148
0.0
149
0.0
100
AcDbLayout
  1
Layout2
 70
     1
 71
     2
 10
0.0
 20
0.0
 11
0.0
 21
0.0
 12
0.0
 22
0.0
 32
0.0
 14
0.0
 24
0.0
 34
0.0
 15
0.0
 25
0.0
 35
0.0
146
0.0
 13
0.0
 23
0.0
 33
0.0
 16
1.0
 26
0.0
 36
0.0
 17
0.0
 27
1.0
 37
0.0
 76
     0
330
23
  0
LAYOUT
  5
22
102
{ACAD_REACTORS
330
1A
102
}
330
1A
100
AcDbPlotSettings
  1

  2

  4

  6

 40
0.0
 41
0.0
 42
0.0
 43
0.0
 44
0.0
 45
0.0
 46
0.0
 47
0.0
 48
0.0
 49
0.0
140
0.0
141
0.0
142
1.0
143
1.0
 70
  1712
 72
     0
 73
     0
 74
     0
  7

 75
     0
 76
     0
 77
     2
 78
   300
147
1.0
148
0.0
149
0.0
100
AcDbLayout
  1
Model
 70
     1
 71
     0
 10
0.0
 20
0.0
 11
0.0
 21
0.0
 12
0.0
 22
0.0
 32
0.0
 14
157.117944327152
 24
79.1690207318652
 34
0.0
 15
262.281062733937
 25
234.7533311714
 35
0.0
146
0.0
 13
0.0
 23
0.0
 33
0.0
 16
1.0
 26
0.0
 36
0.0
 17
0.0
 27
1.0
 37
0.0
 76
     0
330
1F
  0
MLINESTYLE
  5
18
102
{ACAD_REACTORS
330
17
102
}
330
17
100
AcDbMlineStyle
  2
Standard
 70
     0
  3

 62
   256
 51
90.0
 52
90.0
 71
     2
 49
0.5
 62
   256
  6
BYLAYER
 49
-0.5
 62
   256
  6
BYLAYER
  0
ACDBPLACEHOLDER
  5
F
102
{ACAD_REACTORS
330
E
102
}
330
E
  0
ENDSEC
  0
EOF
