  0
SECTION
  2
HEADER
  9
$ACADVER
  1
AC1018
  9
$ACADMAINTVER
 70
     0
  9
$DWGCODEPAGE
  3
ANSI_1252
  9
$INSBASE
 10
0.0
 20
0.0
 30
0.0
  9
$EXTMIN
 10
147.364803895853
 20
-24.5152913634127
 30
0.0
  9
$EXTMAX
 10
263.708218885696
 20
63.51465473721257
 30
0.0
  9
$LIMMIN
 10
0.0
 20
0.0
  9
$LIMMAX
 10
12.0
 20
9.0
  9
$ORTHOMODE
 70
     0
  9
$REGENMODE
 70
     1
  9
$FILLMODE
 70
     1
  9
$QTEXTMODE
 70
     0
  9
$MIRRTEXT
 70
     1
  9
$LTSCALE
 40
1.0
  9
$ATTMODE
 70
     1
  9
$TEXTSIZE
 40
0.2
  9
$TRACEWID
 40
0.05
  9
$TEXTSTYLE
  7
Standard
  9
$CLAYER
  8
0
  9
$CELTYPE
  6
ByLayer
  9
$CECOLOR
 62
   256
  9
$CELTSCALE
 40
1.0
  9
$DISPSILH
 70
     0
  9
$DIMSCALE
 40
1.0
  9
$DIMASZ
 40
0.18
  9
$DIMEXO
 40
0.0625
  9
$DIMDLI
 40
0.38
  9
$DIMRND
 40
0.0
  9
$DIMDLE
 40
0.0
  9
$DIMEXE
 40
0.18
  9
$DIMTP
 40
0.0
  9
$DIMTM
 40
0.0
  9
$DIMTXT
 40
0.18
  9
$DIMCEN
 40
0.09
  9
$DIMTSZ
 40
0.0
  9
$DIMTOL
 70
     0
  9
$DIMLIM
 70
     0
  9
$DIMTIH
 70
     1
  9
$DIMTOH
 70
     1
  9
$DIMSE1
 70
     0
  9
$DIMSE2
 70
     0
  9
$DIMTAD
 70
     0
  9
$DIMZIN
 70
     0
  9
$DIMBLK
  1

  9
$DIMASO
 70
     1
  9
$DIMSHO
 70
     1
  9
$DIMPOST
  1

  9
$DIMAPOST
  1

  9
$DIMALT
 70
     0
  9
$DIMALTD
 70
     2
  9
$DIMALTF
 40
25.4
  9
$DIMLFAC
 40
1.0
  9
$DIMTOFL
 70
     0
  9
$DIMTVP
 40
0.0
  9
$DIMTIX
 70
     0
  9
$DIMSOXD
 70
     0
  9
$DIMSAH
 70
     0
  9
$DIMBLK1
  1

  9
$DIMBLK2
  1

  9
$DIMSTYLE
  2
Standard
  9
$DIMCLRD
 70
     0
  9
$DIMCLRE
 70
     0
  9
$DIMCLRT
 70
     0
  9
$DIMTFAC
 40
1.0
  9
$DIMGAP
 40
0.09
  9
$DIMJUST
 70
     0
  9
$DIMSD1
 70
     0
  9
$DIMSD2
 70
     0
  9
$DIMTOLJ
 70
     1
  9
$DIMTZIN
 70
     0
  9
$DIMALTZ
 70
     0
  9
$DIMALTTZ
 70
     0
  9
$DIMUPT
 70
     0
  9
$DIMDEC
 70
     4
  9
$DIMTDEC
 70
     4
  9
$DIMALTU
 70
     2
  9
$DIMALTTD
 70
     2
  9
$DIMTXSTY
  7
Standard
  9
$DIMAUNIT
 70
     0
  9
$DIMADEC
 70
     0
  9
$DIMALTRND
 40
0.0
  9
$DIMAZIN
 70
     0
  9
$DIMDSEP
 70
    46
  9
$DIMATFIT
 70
     3
  9
$DIMFRAC
 70
     0
  9
$DIMLDRBLK
  1

  9
$DIMLUNIT
 70
     2
  9
$DIMLWD
 70
    -2
  9
$DIMLWE
 70
    -2
  9
$DIMTMOVE
 70
     0
  9
$LUNITS
 70
     2
  9
$LUPREC
 70
     4
  9
$SKETCHINC
 40
0.1
  9
$FILLETRAD
 40
0.5
  9
$AUNITS
 70
     0
  9
$AUPREC
 70
     0
  9
$MENU
  1
.
  9
$ELEVATION
 40
0.0
  9
$PELEVATION
 40
0.0
  9
$THICKNESS
 40
0.0
  9
$LIMCHECK
 70
     0
  9
$CHAMFERA
 40
0.5
  9
$CHAMFERB
 40
0.5
  9
$CHAMFERC
 40
1.0
  9
$CHAMFERD
 40
0.0
  9
$SKPOLY
 70
     0
  9
$TDCREATE
 40
2454385.370725301
  9
$TDUCREATE
 40
2454385.287391968
  9
$TDUPDATE
 40
2454385.370725312
  9
$TDUUPDATE
 40
2454385.287391979
  9
$TDINDWG
 40
0.0000000116
  9
$TDUSRTIMER
 40
0.0000000116
  9
$USRTIMER
 70
     1
  9
$ANGBASE
 50
0.0
  9
$ANGDIR
 70
     0
  9
$PDMODE
 70
     0
  9
$PDSIZE
 40
0.0
  9
$PLINEWID
 40
0.0
  9
$SPLFRAME
 70
     0
  9
$SPLINETYPE
 70
     6
  9
$SPLINESEGS
 70
     8
  9
$HANDSEED
  5
15C
  9
$SURFTAB1
 70
     6
  9
$SURFTAB2
 70
     6
  9
$SURFTYPE
 70
     6
  9
$SURFU
 70
     6
  9
$SURFV
 70
     6
  9
$UCSBASE
  2

  9
$UCSNAME
  2

  9
$UCSORG
 10
0.0
 20
0.0
 30
0.0
  9
$UCSXDIR
 10
1.0
 20
0.0
 30
0.0
  9
$UCSYDIR
 10
0.0
 20
1.0
 30
0.0
  9
$UCSORTHOREF
  2

  9
$UCSORTHOVIEW
 70
     0
  9
$UCSORGTOP
 10
0.0
 20
0.0
 30
0.0
  9
$UCSORGBOTTOM
 10
0.0
 20
0.0
 30
0.0
  9
$UCSORGLEFT
 10
0.0
 20
0.0
 30
0.0
  9
$UCSORGRIGHT
 10
0.0
 20
0.0
 30
0.0
  9
$UCSORGFRONT
 10
0.0
 20
0.0
 30
0.0
  9
$UCSORGBACK
 10
0.0
 20
0.0
 30
0.0
  9
$PUCSBASE
  2

  9
$PUCSNAME
  2

  9
$PUCSORG
 10
0.0
 20
0.0
 30
0.0
  9
$PUCSXDIR
 10
1.0
 20
0.0
 30
0.0
  9
$PUCSYDIR
 10
0.0
 20
1.0
 30
0.0
  9
$PUCSORTHOREF
  2

  9
$PUCSORTHOVIEW
 70
     0
  9
$PUCSORGTOP
 10
0.0
 20
0.0
 30
0.0
  9
$PUCSORGBOTTOM
 10
0.0
 20
0.0
 30
0.0
  9
$PUCSORGLEFT
 10
0.0
 20
0.0
 30
0.0
  9
$PUCSORGRIGHT
 10
0.0
 20
0.0
 30
0.0
  9
$PUCSORGFRONT
 10
0.0
 20
0.0
 30
0.0
  9
$PUCSORGBACK
 10
0.0
 20
0.0
 30
0.0
  9
$USERI1
 70
     0
  9
$USERI2
 70
     0
  9
$USERI3
 70
     0
  9
$USERI4
 70
     0
  9
$USERI5
 70
     0
  9
$USERR1
 40
14.5
  9
$USERR2
 40
0.0
  9
$USERR3
 40
0.0
  9
$USERR4
 40
0.0
  9
$USERR5
 40
0.0
  9
$WORLDVIEW
 70
     1
  9
$SHADEDGE
 70
     3
  9
$SHADEDIF
 70
    70
  9
$TILEMODE
 70
     1
  9
$MAXACTVP
 70
    64
  9
$PINSBASE
 10
0.0
 20
0.0
 30
0.0
  9
$PLIMCHECK
 70
     0
  9
$PEXTMIN
 10
1.00000000000000E+20
 20
1.00000000000000E+20
 30
1.00000000000000E+20
  9
$PEXTMAX
 10
-1.00000000000000E+20
 20
-1.00000000000000E+20
 30
-1.00000000000000E+20
  9
$PLIMMIN
 10
0.0
 20
0.0
  9
$PLIMMAX
 10
12.0
 20
9.0
  9
$UNITMODE
 70
     0
  9
$VISRETAIN
 70
     1
  9
$PLINEGEN
 70
     0
  9
$PSLTSCALE
 70
     1
  9
$TREEDEPTH
 70
  3020
  9
$CMLSTYLE
  2
Standard
  9
$CMLJUST
 70
     0
  9
$CMLSCALE
 40
1.0
  9
$PROXYGRAPHICS
 70
     1
  9
$MEASUREMENT
 70
     1
  9
$CELWEIGHT
370
    -1
  9
$ENDCAPS
280
     0
  9
$JOINSTYLE
280
     0
  9
$LWDISPLAY
290
     0
  9
$INSUNITS
 70
     1
  9
$HYPERLINKBASE
  1

  9
$STYLESHEET
  1

  9
$XEDIT
290
     1
  9
$CEPSNTYPE
380
     0
  9
$PSTYLEMODE
290
     1
  9
$FINGERPRINTGUID
  2
{9AF53828-E386-414F-BF8F-9303A72971CD}
  9
$VERSIONGUID
  2
{FAEB1C32-E019-11D5-929B-00C0DF256EC4}
  9
$EXTNAMES
290
     1
  9
$PSVPSCALE
 40
0.0
  9
$OLESTARTUP
290
     0
  9
$SORTENTS
280
   127
  9
$INDEXCTL
280
     0
  9
$HIDETEXT
280
     1
  9
$XCLIPFRAME
290
     0
  9
$HALOGAP
280
     0
  9
$OBSCOLOR
 70
   257
  9
$OBSLTYPE
280
     0
  9
$INTERSECTIONDISPLAY
280
     0
  9
$INTERSECTIONCOLOR
 70
   257
  9
$DIMASSOC
280
     2
  9
$PROJECTNAME
  1

  0
ENDSEC
  0
SECTION
  2
CLASSES
  0
CLASS
  1
ACDBDICTIONARYWDFLT
  2
AcDbDictionaryWithDefault
  3
ObjectDBX Classes
 90
        0
 91
        3
280
     0
281
     0
  0
CLASS
  1

  2
exOdDbCircle
  3

 90
        0
 91
        3
280
     0
281
     1
  0
CLASS
  1

  2
exOdDbSpline
  3

 90
        0
 91
        3
280
     0
281
     1
  0
ENDSEC
  0
SECTION
  2
TABLES
  0
TABLE
  2
VPORT
  5
8
330
0
100
AcDbSymbolTable
 70
     1
  0
VPORT
  5
29
330
8
100
AcDbSymbolTableRecord
100
AcDbViewportTableRecord
  2
*Active
 70
     0
 10
0.0
 20
0.0
 11
1.0
 21
1.0
 12
205.5365113907745
 22
19.49968168689993
 13
0.0
 23
0.0
 14
0.5
 24
0.5
 15
0.5
 25
0.5
 16
0.0
 26
0.0
 36
1.0
 17
0.0
 27
0.0
 37
0.0
 40
96.83294071068781
 41
1.60267857142857
 42
50.0
 43
0.0
 44
0.0
 50
0.0
 51
0.0
 71
     0
 72
   100
 73
     1
 74
     3
 75
     0
 76
     0
 77
     0
 78
     0
281
     0
 65
     1
110
0.0
120
0.0
130
0.0
111
1.0
121
0.0
131
0.0
112
0.0
122
1.0
132
0.0
 79
     0
146
0.0
  0
ENDTAB
  0
TABLE
  2
LTYPE
  5
5
330
0
100
AcDbSymbolTable
 70
     8
  0
LTYPE
  5
14
330
5
100
AcDbSymbolTableRecord
100
AcDbLinetypeTableRecord
  2
ByBlock
 70
     0
  3

 72
    65
 73
     0
 40
0.0
  0
LTYPE
  5
15
330
5
100
AcDbSymbolTableRecord
100
AcDbLinetypeTableRecord
  2
ByLayer
 70
     0
  3

 72
    65
 73
     0
 40
0.0
  0
LTYPE
  5
16
330
5
100
AcDbSymbolTableRecord
100
AcDbLinetypeTableRecord
  2
Continuous
 70
     0
  3
Solid line
 72
    65
 73
     0
 40
0.0
  0
LTYPE
  5
2A
330
5
100
AcDbSymbolTableRecord
100
AcDbLinetypeTableRecord
  2
DASHED
 70
     0
  3
Dashed
 72
    65
 73
     2
 40
15.0
 49
7.0
 74
     0
 49
-8.0
 74
     0
  0
LTYPE
  5
2B
330
5
100
AcDbSymbolTableRecord
100
AcDbLinetypeTableRecord
  2
DOTTED
 70
     0
  3
Dotted
 72
    65
 73
     2
 40
1.0
 49
0.0
 74
     0
 49
-1.0
 74
     0
  0
LTYPE
  5
2C
330
5
100
AcDbSymbolTableRecord
100
AcDbLinetypeTableRecord
  2
DOT_CENTER
 70
     0
  3
Dot_Center
 72
    65
 73
     4
 40
14.0
 49
12.0
 74
     0
 49
-1.0
 74
     0
 49
0.0
 74
     0
 49
-1.0
 74
     0
  0
LTYPE
  5
2D
330
5
100
AcDbSymbolTableRecord
100
AcDbLinetypeTableRecord
  2
LONG_DASHED
 70
     0
  3
Long_Dashed
 72
    65
 73
     2
 40
15.0
 49
10.0
 74
     0
 49
-5.0
 74
     0
  0
LTYPE
  5
2E
330
5
100
AcDbSymbolTableRecord
100
AcDbLinetypeTableRecord
  2
DASH_CENTER
 70
     0
  3
Dash_Center
 72
    65
 73
     4
 40
14.0
 49
11.0
 74
     0
 49
-1.0
 74
     0
 49
1.0
 74
     0
 49
-1.0
 74
     0
  0
LTYPE
  5
2F
330
5
100
AcDbSymbolTableRecord
100
AcDbLinetypeTableRecord
  2
PHANTOM
 70
     0
  3
Phantom
 72
    65
 73
     6
 40
13.0
 49
10.0
 74
     0
 49
-1.0
 74
     0
 49
0.0
 74
     0
 49
-1.0
 74
     0
 49
0.0
 74
     0
 49
-1.0
 74
     0
  0
LTYPE
  5
30
330
5
100
AcDbSymbolTableRecord
100
AcDbLinetypeTableRecord
  2
CENTER_DASH_DASH
 70
     0
  3
Center_Dash_Dash
 72
    65
 73
     6
 40
14.0
 49
9.0
 74
     0
 49
-1.0
 74
     0
 49
1.0
 74
     0
 49
-1.0
 74
     0
 49
1.0
 74
     0
 49
-1.0
 74
     0
  0
ENDTAB
  0
TABLE
  2
LAYER
  5
2
330
0
100
AcDbSymbolTable
 70
     2
  0
LAYER
  5
10
330
2
100
AcDbSymbolTableRecord
100
AcDbLayerTableRecord
  2
0
 70
     0
 62
     7
  6
Continuous
370
    -3
390
F
  0
LAYER
  5
31
330
2
100
AcDbSymbolTableRecord
100
AcDbLayerTableRecord
  2
1
 70
     0
 62
     7
  6
Continuous
370
    -3
390
F
  0
ENDTAB
  0
TABLE
  2
STYLE
  5
3
330
0
100
AcDbSymbolTable
 70
     2
  0
STYLE
  5
11
330
3
100
AcDbSymbolTableRecord
100
AcDbTextStyleTableRecord
  2
Standard
 70
     0
 40
0.0
 41
1.0
 50
0.0
 71
     0
 42
0.2
  3
txt
  4

  0
STYLE
  5
10E
330
3
100
AcDbSymbolTableRecord
100
AcDbTextStyleTableRecord
  2
CONVERTER_11
 70
     0
 40
0.0
 41
0.9
 50
0.0
 71
     0
 42
0.2
  3
txt.shx
  4

  0
ENDTAB
  0
TABLE
  2
VIEW
  5
6
330
0
100
AcDbSymbolTable
 70
     0
  0
ENDTAB
  0
TABLE
  2
UCS
  5
7
330
0
100
AcDbSymbolTable
 70
     0
  0
ENDTAB
  0
TABLE
  2
APPID
  5
9
330
0
100
AcDbSymbolTable
 70
     1
  0
APPID
  5
12
330
9
100
AcDbSymbolTableRecord
100
AcDbRegAppTableRecord
  2
ACAD
 70
     0
  0
ENDTAB
  0
TABLE
  2
DIMSTYLE
  5
A
330
0
100
AcDbSymbolTable
 70
     8
100
AcDbDimStyleTable
  0
DIMSTYLE
105
27
330
A
100
AcDbSymbolTableRecord
100
AcDbDimStyleTableRecord
  2
Standard
 70
     0
340
11
  0
DIMSTYLE
105
112
102
{ACAD_REACTORS
330
113
102
}
330
A
100
AcDbSymbolTableRecord
100
AcDbDimStyleTableRecord
  2
ME10_DIM_10
 70
     0
 41
3.5
 42
0.0
 44
2.0
 73
     0
 74
     0
 77
     1
 78
     8
140
3.5
147
2.0
172
     1
173
     1
176
     2
177
     2
178
     2
271
     2
340
10E
  0
DIMSTYLE
105
11F
102
{ACAD_REACTORS
330
120
102
}
330
A
100
AcDbSymbolTableRecord
100
AcDbDimStyleTableRecord
  2
ME10_DIM_11
 70
     0
 41
3.5
 42
0.0
 44
2.0
 73
     0
 74
     0
 77
     1
 78
     8
140
3.5
147
2.0
172
     1
173
     1
176
     2
177
     2
178
     2
271
     2
340
10E
  0
DIMSTYLE
105
12A
102
{ACAD_REACTORS
330
12B
102
}
330
A
100
AcDbSymbolTableRecord
100
AcDbDimStyleTableRecord
  2
ME10_DIM_12
 70
     0
 41
3.5
 42
0.0
 44
2.0
 73
     0
 74
     0
 77
     1
 78
     8
140
3.5
147
2.0
172
     1
173
     1
176
     2
177
     2
178
     2
271
     2
340
10E
  0
DIMSTYLE
105
137
102
{ACAD_REACTORS
330
138
102
}
330
A
100
AcDbSymbolTableRecord
100
AcDbDimStyleTableRecord
  2
ME10_DIM_13
 70
     0
 41
3.5
 42
0.0
 44
2.0
 73
     0
 74
     0
 77
     1
 78
     8
140
3.5
147
2.0
172
     1
173
     1
176
     2
177
     2
178
     2
271
     2
340
10E
  0
DIMSTYLE
105
144
102
{ACAD_REACTORS
330
145
102
}
330
A
100
AcDbSymbolTableRecord
100
AcDbDimStyleTableRecord
  2
ME10_DIM_14
 70
     0
 41
3.5
 42
0.0
 44
2.0
 73
     0
 74
     0
 77
     1
 78
     8
140
3.5
147
2.0
172
     1
173
     1
176
     2
177
     2
178
     2
271
     2
340
10E
  0
DIMSTYLE
105
14F
102
{ACAD_REACTORS
330
150
102
}
330
A
100
AcDbSymbolTableRecord
100
AcDbDimStyleTableRecord
  2
ME10_DIM_15
 70
     0
 41
3.5
 42
0.0
 44
2.0
 73
     0
 74
     0
 77
     1
 78
     8
140
3.5
147
2.0
172
     1
173
     1
176
     2
177
     2
178
     2
271
     2
340
10E
  0
DIMSTYLE
105
15A
102
{ACAD_REACTORS
330
15B
102
}
330
A
100
AcDbSymbolTableRecord
100
AcDbDimStyleTableRecord
  2
ME10_DIM_16
 70
     0
 41
3.5
 42
0.0
 44
2.0
 73
     0
 74
     0
 77
     1
 78
     8
140
3.5
147
2.0
172
     1
173
     1
176
     2
177
     2
178
     2
271
     2
340
10E
  0
ENDTAB
  0
TABLE
  2
BLOCK_RECORD
  5
1
330
0
100
AcDbSymbolTable
 70
     8
  0
BLOCK_RECORD
  5
1F
330
1
100
AcDbSymbolTableRecord
100
AcDbBlockTableRecord
  2
*Model_Space
340
22
  0
BLOCK_RECORD
  5
1B
330
1
100
AcDbSymbolTableRecord
100
AcDbBlockTableRecord
  2
*Paper_Space
340
1E
  0
BLOCK_RECORD
  5
23
330
1
100
AcDbSymbolTableRecord
100
AcDbBlockTableRecord
  2
*Paper_Space0
340
26
  0
BLOCK_RECORD
  5
108
330
1
100
AcDbSymbolTableRecord
100
AcDbBlockTableRecord
  2
*D1
340
0
  0
BLOCK_RECORD
  5
114
330
1
100
AcDbSymbolTableRecord
100
AcDbBlockTableRecord
  2
*D2
340
0
  0
BLOCK_RECORD
  5
121
330
1
100
AcDbSymbolTableRecord
100
AcDbBlockTableRecord
  2
*D3
340
0
  0
BLOCK_RECORD
  5
12C
330
1
100
AcDbSymbolTableRecord
100
AcDbBlockTableRecord
  2
*D4
340
0
  0
BLOCK_RECORD
  5
139
330
1
100
AcDbSymbolTableRecord
100
AcDbBlockTableRecord
  2
*D5
340
0
  0
BLOCK_RECORD
  5
146
330
1
100
AcDbSymbolTableRecord
100
AcDbBlockTableRecord
  2
*D6
340
0
  0
BLOCK_RECORD
  5
151
330
1
100
AcDbSymbolTableRecord
100
AcDbBlockTableRecord
  2
*D7
340
0
  0
ENDTAB
  0
ENDSEC
  0
SECTION
  2
BLOCKS
  0
BLOCK
  5
20
330
1F
100
AcDbEntity
  8
0
100
AcDbBlockBegin
  2
*Model_Space
 70
     0
 71
     0
 10
0.0
 20
0.0
 30
0.0
  3
*Model_Space
  1

  0
ENDBLK
  5
21
330
1F
100
AcDbEntity
  8
0
100
AcDbBlockEnd
  0
BLOCK
  5
1C
330
1B
100
AcDbEntity
 67
     1
  8
0
100
AcDbBlockBegin
  2
*Paper_Space
 70
     0
 71
     0
 10
0.0
 20
0.0
 30
0.0
  3
*Paper_Space
  1

  0
ENDBLK
  5
1D
330
1B
100
AcDbEntity
 67
     1
  8
0
100
AcDbBlockEnd
  0
BLOCK
  5
24
330
23
100
AcDbEntity
  8
0
100
AcDbBlockBegin
  2
*Paper_Space0
 70
     0
 71
     0
 10
0.0
 20
0.0
 30
0.0
  3
*Paper_Space0
  1

  0
ENDBLK
  5
25
330
23
100
AcDbEntity
  8
0
100
AcDbBlockEnd
  0
BLOCK
  5
110
330
108
100
AcDbEntity
  8
0
100
AcDbBlockBegin
  2
*D1
 70
     1
 71
     0
 10
0.0
 20
0.0
 30
0.0
  3
*D1
  1

  0
LINE
  5
109
330
108
100
AcDbEntity
  8
1
  6
Continuous
 62
     2
100
AcDbLine
 10
152.864803895853
 20
-0.2741883754331
 30
0.0
 11
152.864803895853
 21
28.7258116245669
 31
0.0
  0
LINE
  5
10A
330
108
100
AcDbEntity
  8
1
  6
Continuous
 62
     2
100
AcDbLine
 10
171.241390300947
 20
28.7258116245669
 30
0.0
 11
150.864803895853
 21
28.7258116245669
 31
0.0
  0
LINE
  5
10B
330
108
100
AcDbEntity
  8
1
  6
Continuous
 62
     2
100
AcDbLine
 10
171.241390300947
 20
-0.2741883754331
 30
0.0
 11
150.864803895853
 21
-0.2741883754331
 31
0.0
  0
SOLID
  5
10C
330
108
100
AcDbEntity
  8
1
 62
     2
100
AcDbTrace
 10
153.3255876374089
 20
25.2258116245669
 30
0.0
 11
152.4040201542971
 21
25.2258116245669
 31
0.0
 12
152.864803895853
 22
28.7258116245669
 32
0.0
 13
152.864803895853
 23
28.7258116245669
 33
0.0
  0
SOLID
  5
10D
330
108
100
AcDbEntity
  8
1
 62
     2
100
AcDbTrace
 10
152.4040201542971
 20
3.2258116245669
 30
0.0
 11
153.3255876374089
 21
3.2258116245669
 31
0.0
 12
152.864803895853
 22
-0.2741883754331
 32
0.0
 13
152.864803895853
 23
-0.2741883754331
 33
0.0
  0
MTEXT
  5
10F
330
108
100
AcDbEntity
  8
1
 62
     2
100
AcDbMText
 10
150.864803895853
 20
11.9346701161261
 30
0.0
 40
3.5
 41
0.0
 71
     7
 72
     1
  1
29
  7
CONVERTER_11
 11
0.0
 21
1.0
 31
0.0
 73
     1
 44
0.60024009603842
  0
ENDBLK
  5
111
330
108
100
AcDbEntity
  8
0
100
AcDbBlockEnd
  0
BLOCK
  5
11D
330
114
100
AcDbEntity
  8
0
100
AcDbBlockBegin
  2
*D2
 70
     1
 71
     0
 10
0.0
 20
0.0
 30
0.0
  3
*D2
  1

  0
LINE
  5
115
330
114
100
AcDbEntity
  8
1
  6
Continuous
 62
     2
100
AcDbLine
 10
152.864803895853
 20
-0.2741883754331
 30
0.0
 11
152.864803895853
 21
6.72581162456689
 31
0.0
  0
LINE
  5
116
330
114
100
AcDbEntity
  8
1
  6
Continuous
 62
     2
100
AcDbLine
 10
152.864803895853
 20
-5.27418837543321
 30
0.0
 11
152.864803895853
 21
-0.2741883754331
 31
0.0
  0
LINE
  5
117
330
114
100
AcDbEntity
  8
1
  6
Continuous
 62
     2
100
AcDbLine
 10
152.864803895853
 20
-12.27418837543321
 30
0.0
 11
152.864803895853
 21
-5.27418837543321
 31
0.0
  0
LINE
  5
118
330
114
100
AcDbEntity
  8
1
  6
Continuous
 62
     2
100
AcDbLine
 10
171.241390300947
 20
-0.2741883754331
 30
0.0
 11
150.864803895853
 21
-0.2741883754331
 31
0.0
  0
LINE
  5
119
330
114
100
AcDbEntity
  8
1
  6
Continuous
 62
     2
100
AcDbLine
 10
165.7413903009465
 20
-5.27418837543321
 30
0.0
 11
150.864803895853
 21
-5.27418837543321
 31
0.0
  0
SOLID
  5
11A
330
114
100
AcDbEntity
  8
1
 62
     2
100
AcDbTrace
 10
153.3255876374089
 20
-8.77418837543321
 30
0.0
 11
152.4040201542971
 21
-8.77418837543321
 31
0.0
 12
152.864803895853
 22
-5.27418837543321
 32
0.0
 13
152.864803895853
 23
-5.27418837543321
 33
0.0
  0
SOLID
  5
11B
330
114
100
AcDbEntity
  8
1
 62
     2
100
AcDbTrace
 10
152.4040201542971
 20
3.2258116245669
 30
0.0
 11
153.3255876374089
 21
3.2258116245669
 31
0.0
 12
152.864803895853
 22
-0.2741883754331
 32
0.0
 13
152.864803895853
 23
-0.2741883754331
 33
0.0
  0
MTEXT
  5
11C
330
114
100
AcDbEntity
  8
1
 62
     2
100
AcDbMText
 10
150.864803895853
 20
-11.74620226118741
 30
0.0
 40
3.5
 41
0.0
 71
     7
 72
     1
  1
5
  7
CONVERTER_11
 11
0.0
 21
1.0
 31
0.0
 73
     1
 44
0.60024009603842
  0
ENDBLK
  5
11E
330
114
100
AcDbEntity
  8
0
100
AcDbBlockEnd
  0
BLOCK
  5
128
330
121
100
AcDbEntity
  8
0
100
AcDbBlockBegin
  2
*D3
 70
     1
 71
     0
 10
0.0
 20
0.0
 30
0.0
  3
*D3
  1

  0
LINE
  5
122
330
121
100
AcDbEntity
  8
1
  6
Continuous
 62
     2
100
AcDbLine
 10
171.241390300947
 20
-16.922523173779
 30
0.0
 11
203.241390300947
 21
-16.922523173779
 31
0.0
  0
LINE
  5
123
330
121
100
AcDbEntity
  8
1
  6
Continuous
 62
     2
100
AcDbLine
 10
203.241390300947
 20
-2.77418837543315
 30
0.0
 11
203.241390300947
 21
-18.922523173779
 31
0.0
  0
LINE
  5
124
330
121
100
AcDbEntity
  8
1
  6
Continuous
 62
     2
100
AcDbLine
 10
171.241390300947
 20
-0.2741883754331
 30
0.0
 11
171.241390300947
 21
-18.922523173779
 31
0.0
  0
SOLID
  5
125
330
121
100
AcDbEntity
  8
1
 62
     2
100
AcDbTrace
 10
174.741390300947
 20
-16.46173943222311
 30
0.0
 11
174.741390300947
 21
-17.38330691533488
 31
0.0
 12
171.241390300947
 22
-16.922523173779
 32
0.0
 13
171.241390300947
 23
-16.922523173779
 33
0.0
  0
SOLID
  5
126
330
121
100
AcDbEntity
  8
1
 62
     2
100
AcDbTrace
 10
199.741390300947
 20
-17.38330691533488
 30
0.0
 11
199.741390300947
 21
-16.46173943222311
 31
0.0
 12
203.241390300947
 22
-16.922523173779
 32
0.0
 13
203.241390300947
 23
-16.922523173779
 33
0.0
  0
MTEXT
  5
127
330
121
100
AcDbEntity
  8
1
 62
     2
100
AcDbMText
 10
185.53074340414
 20
-14.922523173779
 30
0.0
 40
3.5
 41
0.0
 71
     7
 72
     1
  1
32
  7
CONVERTER_11
 11
0.9999999999970621
 21
2.424068405545307E-6
 31
0.0
 73
     1
 44
0.60024009603842
  0
ENDBLK
  5
129
330
121
100
AcDbEntity
  8
0
100
AcDbBlockEnd
  0
BLOCK
  5
135
330
12C
100
AcDbEntity
  8
0
100
AcDbBlockBegin
  2
*D4
 70
     1
 71
     0
 10
0.0
 20
0.0
 30
0.0
  3
*D4
  1

  0
LINE
  5
12D
330
12C
100
AcDbEntity
  8
1
  6
Continuous
 62
     2
100
AcDbLine
 10
206.7413903009472
 20
-16.922523173779
 30
0.0
 11
213.7413903009472
 21
-16.922523173779
 31
0.0
  0
LINE
  5
12E
330
12C
100
AcDbEntity
  8
1
  6
Continuous
 62
     2
100
AcDbLine
 10
203.241390300947
 20
-16.922523173779
 30
0.0
 11
206.7413903009472
 21
-16.922523173779
 31
0.0
  0
LINE
  5
12F
330
12C
100
AcDbEntity
  8
1
  6
Continuous
 62
     2
100
AcDbLine
 10
196.241390300947
 20
-16.922523173779
 30
0.0
 11
203.241390300947
 21
-16.922523173779
 31
0.0
  0
LINE
  5
130
330
12C
100
AcDbEntity
  8
1
  6
Continuous
 62
     2
100
AcDbLine
 10
206.7413903009472
 20
-3.52418837543307
 30
0.0
 11
206.7413903009472
 21
-18.922523173779
 31
0.0
  0
LINE
  5
131
330
12C
100
AcDbEntity
  8
1
  6
Continuous
 62
     2
100
AcDbLine
 10
203.241390300947
 20
-2.77418837543315
 30
0.0
 11
203.241390300947
 21
-18.922523173779
 31
0.0
  0
SOLID
  5
132
330
12C
100
AcDbEntity
  8
1
 62
     2
100
AcDbTrace
 10
199.741390300947
 20
-17.38330691533488
 30
0.0
 11
199.741390300947
 21
-16.46173943222311
 31
0.0
 12
203.241390300947
 22
-16.922523173779
 32
0.0
 13
203.241390300947
 23
-16.922523173779
 33
0.0
  0
SOLID
  5
133
330
12C
100
AcDbEntity
  8
1
 62
     2
100
AcDbTrace
 10
210.2413903009472
 20
-16.46173943222311
 30
0.0
 11
210.2413903009472
 21
-17.38330691533488
 31
0.0
 12
206.7413903009472
 22
-16.922523173779
 32
0.0
 13
206.7413903009472
 23
-16.922523173779
 33
0.0
  0
MTEXT
  5
134
330
12C
100
AcDbEntity
  8
1
 62
     2
100
AcDbMText
 10
201.8595749994042
 20
-24.5152913634127
 30
0.0
 40
3.5
 41
0.0
 71
     7
 72
     1
  1
3.5
  7
CONVERTER_11
 11
0.9999999999970621
 21
2.424068405545307E-6
 31
0.0
 73
     1
 44
0.60024009603842
  0
ENDBLK
  5
136
330
12C
100
AcDbEntity
  8
0
100
AcDbBlockEnd
  0
BLOCK
  5
142
330
139
100
AcDbEntity
  8
0
100
AcDbBlockBegin
  2
*D5
 70
     1
 71
     0
 10
0.0
 20
0.0
 30
0.0
  3
*D5
  1

  0
LINE
  5
13A
330
139
100
AcDbEntity
  8
1
  6
Continuous
 62
     2
100
AcDbLine
 10
261.708218885696
 20
0.47581162456647
 30
0.0
 11
261.708218885696
 21
7.47581162456647
 31
0.0
  0
LINE
  5
13B
330
139
100
AcDbEntity
  8
1
  6
Continuous
 62
     2
100
AcDbLine
 10
261.708218885696
 20
-3.52418837543307
 30
0.0
 11
261.708218885696
 21
0.47581162456647
 31
0.0
  0
LINE
  5
13C
330
139
100
AcDbEntity
  8
1
  6
Continuous
 62
     2
100
AcDbLine
 10
261.708218885696
 20
-11.309550869388
 30
0.0
 11
261.708218885696
 21
-3.52418837543307
 31
0.0
  0
LINE
  5
13D
330
139
100
AcDbEntity
  8
1
  6
Continuous
 62
     2
100
AcDbLine
 10
238.741390300947
 20
0.47581162456647
 30
0.0
 11
263.708218885696
 21
0.47581162456647
 31
0.0
  0
LINE
  5
13E
330
139
100
AcDbEntity
  8
1
  6
Continuous
 62
     2
100
AcDbLine
 10
251.7413903009472
 20
-3.52418837543307
 30
0.0
 11
263.708218885696
 21
-3.52418837543307
 31
0.0
  0
SOLID
  5
13F
330
139
100
AcDbEntity
  8
1
 62
     2
100
AcDbTrace
 10
262.1690026272519
 20
-7.02418837543307
 30
0.0
 11
261.2474351441401
 21
-7.02418837543307
 31
0.0
 12
261.708218885696
 22
-3.52418837543307
 32
0.0
 13
261.708218885696
 23
-3.52418837543307
 33
0.0
  0
SOLID
  5
140
330
139
100
AcDbEntity
  8
1
 62
     2
100
AcDbTrace
 10
261.2474351441401
 20
3.97581162456647
 30
0.0
 11
262.1690026272519
 21
3.97581162456647
 31
0.0
 12
261.708218885696
 22
0.47581162456647
 32
0.0
 13
261.708218885696
 23
0.47581162456647
 33
0.0
  0
MTEXT
  5
141
330
139
100
AcDbEntity
  8
1
 62
     2
100
AcDbMText
 10
259.819182169265
 20
-11.309550869388
 30
0.0
 40
3.5
 41
0.0
 71
     7
 72
     1
  1
4
  7
CONVERTER_11
 11
0.0
 21
1.0
 31
0.0
 73
     1
 44
0.60024009603842
  0
ENDBLK
  5
143
330
139
100
AcDbEntity
  8
0
100
AcDbBlockEnd
  0
BLOCK
  5
14D
330
146
100
AcDbEntity
  8
0
100
AcDbBlockBegin
  2
*D6
 70
     1
 71
     0
 10
0.0
 20
0.0
 30
0.0
  3
*D6
  1

  0
LINE
  5
147
330
146
100
AcDbEntity
  8
1
  6
Continuous
 62
     2
100
AcDbLine
 10
261.708218885696
 20
0.47581162456646
 30
0.0
 11
261.708218885696
 21
27.97581162456645
 31
0.0
  0
LINE
  5
148
330
146
100
AcDbEntity
  8
1
  6
Continuous
 62
     2
100
AcDbLine
 10
238.741390300947
 20
27.97581162456645
 30
0.0
 11
263.708218885696
 21
27.97581162456645
 31
0.0
  0
LINE
  5
149
330
146
100
AcDbEntity
  8
1
  6
Continuous
 62
     2
100
AcDbLine
 10
238.741390300947
 20
0.47581162456646
 30
0.0
 11
263.708218885696
 21
0.47581162456646
 31
0.0
  0
SOLID
  5
14A
330
146
100
AcDbEntity
  8
1
 62
     2
100
AcDbTrace
 10
261.2474351441401
 20
3.97581162456646
 30
0.0
 11
262.1690026272519
 21
3.97581162456646
 31
0.0
 12
261.708218885696
 22
0.47581162456646
 32
0.0
 13
261.708218885696
 23
0.47581162456646
 33
0.0
  0
SOLID
  5
14B
330
146
100
AcDbEntity
  8
1
 62
     2
100
AcDbTrace
 10
262.1690026272519
 20
24.47581162456645
 30
0.0
 11
261.2474351441401
 21
24.47581162456645
 31
0.0
 12
261.708218885696
 22
27.97581162456645
 32
0.0
 13
261.708218885696
 23
27.97581162456645
 33
0.0
  0
MTEXT
  5
14C
330
146
100
AcDbEntity
  8
1
 62
     2
100
AcDbMText
 10
259.708218885696
 20
9.45706162456646
 30
0.0
 40
3.5
 41
0.0
 71
     7
 72
     1
  1
27.5
  7
CONVERTER_11
 11
0.0
 21
1.0
 31
0.0
 73
     1
 44
0.60024009603842
  0
ENDBLK
  5
14E
330
146
100
AcDbEntity
  8
0
100
AcDbBlockEnd
  0
BLOCK
  5
158
330
151
100
AcDbEntity
  8
0
100
AcDbBlockBegin
  2
*D7
 70
     1
 71
     0
 10
0.0
 20
0.0
 30
0.0
  3
*D7
  1

  0
LINE
  5
152
330
151
100
AcDbEntity
  8
1
  6
Continuous
 62
     2
100
AcDbLine
 10
206.7413903009472
 20
-16.922523173779
 30
0.0
 11
238.741390300947
 21
-16.922523173779
 31
0.0
  0
LINE
  5
153
330
151
100
AcDbEntity
  8
1
  6
Continuous
 62
     2
100
AcDbLine
 10
238.741390300947
 20
0.47581162456646
 30
0.0
 11
238.741390300947
 21
-18.922523173779
 31
0.0
  0
LINE
  5
154
330
151
100
AcDbEntity
  8
1
  6
Continuous
 62
     2
100
AcDbLine
 10
206.7413903009472
 20
-3.52418837543307
 30
0.0
 11
206.7413903009472
 21
-18.922523173779
 31
0.0
  0
SOLID
  5
155
330
151
100
AcDbEntity
  8
1
 62
     2
100
AcDbTrace
 10
210.2413903009472
 20
-16.46173943222311
 30
0.0
 11
210.2413903009472
 21
-17.38330691533488
 31
0.0
 12
206.7413903009472
 22
-16.922523173779
 32
0.0
 13
206.7413903009472
 23
-16.922523173779
 33
0.0
  0
SOLID
  5
156
330
151
100
AcDbEntity
  8
1
 62
     2
100
AcDbTrace
 10
235.241390300947
 20
-17.38330691533488
 30
0.0
 11
235.241390300947
 21
-16.46173943222311
 31
0.0
 12
238.741390300947
 22
-16.922523173779
 32
0.0
 13
238.741390300947
 23
-16.922523173779
 33
0.0
  0
MTEXT
  5
157
330
151
100
AcDbEntity
  8
1
 62
     2
100
AcDbMText
 10
220.1163903009471
 20
-14.922523173779
 30
0.0
 40
3.5
 41
0.0
 71
     7
 72
     1
  1
32
  7
CONVERTER_11
 11
0.9999999999970621
 21
2.424068405545307E-6
 31
0.0
 73
     1
 44
0.60024009603842
  0
ENDBLK
  5
159
330
151
100
AcDbEntity
  8
0
100
AcDbBlockEnd
  0
ENDSEC
  0
SECTION
  2
ENTITIES
  0
LINE
  5
32
330
1F
100
AcDbEntity
  8
1
  6
Continuous
 62
     7
100
AcDbLine
 10
169.241390300947
 20
-3.27418837543321
 30
0.0
 11
199.241390300947
 21
-3.27418837543321
 31
0.0
  0
LINE
  5
33
330
1F
100
AcDbEntity
  8
1
  6
Continuous
 62
     7
100
AcDbLine
 10
199.241390300947
 20
-3.27418837543321
 30
0.0
 11
199.241390300947
 21
-0.77418837543321
 31
0.0
  0
LINE
  5
34
330
1F
100
AcDbEntity
  8
1
  6
Continuous
 62
     7
100
AcDbLine
 10
199.241390300947
 20
-0.77418837543321
 30
0.0
 11
201.741390300947
 21
-0.77418837543321
 31
0.0
  0
LINE
  5
35
330
1F
100
AcDbEntity
  8
1
  6
Continuous
 62
     7
100
AcDbLine
 10
169.241390300947
 20
31.22581162456676
 30
0.0
 11
169.241390300947
 21
-3.27418837543321
 31
0.0
  0
LINE
  5
36
330
1F
100
AcDbEntity
  8
1
  6
Continuous
 62
     7
100
AcDbLine
 10
201.741390300947
 20
33.22581162456677
 30
0.0
 11
171.241390300947
 21
33.22581162456677
 31
0.0
  0
LINE
  5
37
330
1F
100
AcDbEntity
  8
1
  6
Continuous
 62
     7
100
AcDbLine
 10
170.741390300947
 20
31.22581162456676
 30
0.0
 11
170.741390300947
 21
-3.27418837543321
 31
0.0
  0
LINE
  5
38
330
1F
100
AcDbEntity
  8
1
  6
Continuous
 62
     7
100
AcDbLine
 10
201.741390300947
 20
31.72581162456676
 30
0.0
 11
171.241390300947
 21
31.72581162456676
 31
0.0
  0
LINE
  5
39
330
1F
100
AcDbEntity
  8
1
  6
Continuous
 62
     7
100
AcDbLine
 10
182.241390300947
 20
-0.77418837543321
 30
0.0
 11
182.241390300947
 21
-3.27418837543321
 31
0.0
  0
LINE
  5
3A
330
1F
100
AcDbEntity
  8
1
  6
Continuous
 62
     7
100
AcDbLine
 10
190.241390300947
 20
-0.77418837543321
 30
0.0
 11
182.241390300947
 21
-0.77418837543321
 31
0.0
  0
LINE
  5
3B
330
1F
100
AcDbEntity
  8
1
  6
Continuous
 62
     7
100
AcDbLine
 10
193.741390300947
 20
29.22581162456676
 30
0.0
 11
201.741390300947
 21
29.22581162456676
 31
0.0
  0
LINE
  5
3C
330
1F
100
AcDbEntity
  8
1
  6
Continuous
 62
     7
100
AcDbLine
 10
164.7413903009465
 20
-2.77418837543321
 30
0.0
 11
164.7413903009465
 21
4.72581162456679
 31
0.0
  0
LINE
  5
3D
330
1F
100
AcDbEntity
  8
1
  6
Continuous
 62
     7
100
AcDbLine
 10
200.741390300947
 20
-3.77418837543315
 30
0.0
 11
165.7413903009465
 21
-3.77418837543321
 31
0.0
  0
LINE
  5
3E
330
1F
100
AcDbEntity
  8
1
  6
Continuous
 62
     7
100
AcDbLine
 10
165.7413903009465
 20
-5.27418837543321
 30
0.0
 11
200.741390300947
 21
-5.27418837543315
 31
0.0
  0
LINE
  5
3F
330
1F
100
AcDbEntity
  8
1
  6
Continuous
 62
     7
100
AcDbLine
 10
163.2413903009465
 20
4.72581162456679
 30
0.0
 11
163.2413903009465
 21
-2.77418837543321
 31
0.0
  0
LINE
  5
40
330
1F
100
AcDbEntity
  8
1
  6
Continuous
 62
     7
100
AcDbLine
 10
164.7413903009465
 20
4.72581162456679
 30
0.0
 11
163.2413903009465
 21
4.72581162456679
 31
0.0
  0
LINE
  5
41
330
1F
100
AcDbEntity
  8
1
  6
Continuous
 62
     7
100
AcDbLine
 10
213.2635658350016
 20
50.70817353436178
 30
0.0
 11
211.3327494699422
 21
43.50226875987436
 31
0.0
  0
LINE
  5
42
330
1F
100
AcDbEntity
  8
1
  6
Continuous
 62
     7
100
AcDbLine
 10
206.241390300947
 20
53.2258116245668
 30
0.0
 11
211.3317141824236
 21
53.2258116245668
 31
0.0
  0
LINE
  5
43
330
1F
100
AcDbEntity
  8
1
  6
Continuous
 62
     7
100
AcDbLine
 10
204.241390300947
 20
38.72581162456692
 30
0.0
 11
204.241390300947
 21
51.2258116245668
 31
0.0
  0
LINE
  5
44
330
1F
100
AcDbEntity
  8
1
  6
Continuous
 62
     7
100
AcDbLine
 10
205.241390300947
 20
37.72581162456692
 30
0.0
 11
213.0275146216763
 21
37.72581162456692
 31
0.0
  0
LINE
  5
45
330
1F
100
AcDbEntity
  8
1
  6
Continuous
 62
     7
100
AcDbLine
 10
214.2294916612907
 20
50.44935448925922
 30
0.0
 11
212.2986752962313
 21
43.24344971477183
 31
0.0
  0
LINE
  5
46
330
1F
100
AcDbEntity
  8
1
  6
Continuous
 62
     7
100
AcDbLine
 10
211.3317141824236
 20
54.2258116245668
 30
0.0
 11
214.5897776145265
 21
54.2258116245668
 31
0.0
  0
LINE
  5
47
330
1F
100
AcDbEntity
  8
1
  6
Continuous
 62
     7
100
AcDbLine
 10
203.241390300947
 20
51.2258116245668
 30
0.0
 11
203.241390300947
 21
53.7258116245668
 31
0.0
  0
LINE
  5
48
330
1F
100
AcDbEntity
  8
1
  6
Continuous
 62
     7
100
AcDbLine
 10
206.241390300947
 20
54.2258116245668
 30
0.0
 11
211.3317141824236
 21
54.2258116245668
 31
0.0
  0
LINE
  5
49
330
1F
100
AcDbEntity
  8
1
  6
Continuous
 62
     7
100
AcDbLine
 10
205.241390300947
 20
36.72581162456692
 30
0.0
 11
206.7413903009472
 21
36.72581162456693
 31
0.0
  0
LINE
  5
4A
330
1F
100
AcDbEntity
  8
1
  6
Continuous
 62
     7
100
AcDbLine
 10
203.241390300947
 20
38.72581162456692
 30
0.0
 11
203.241390300947
 21
51.2258116245668
 31
0.0
  0
LINE
  5
4B
330
1F
100
AcDbEntity
  8
1
  6
Continuous
 62
     7
100
AcDbLine
 10
203.741390300947
 20
54.2258116245668
 30
0.0
 11
206.241390300947
 21
54.2258116245668
 31
0.0
  0
LINE
  5
4C
330
1F
100
AcDbEntity
  8
1
  6
Continuous
 62
     7
100
AcDbLine
 10
215.072740527671
 20
53.59640210201552
 30
0.0
 11
214.2294916612907
 21
50.44935448925922
 31
0.0
  0
LINE
  5
4D
330
1F
100
AcDbEntity
  8
1
  6
Continuous
 62
     7
100
AcDbLine
 10
203.241390300947
 20
55.7258116245668
 30
0.0
 11
215.241390300947
 21
55.7258116245668
 31
0.0
  0
LINE
  5
4E
330
1F
100
AcDbEntity
  8
1
  6
Continuous
 62
     7
100
AcDbLine
 10
216.6902790403807
 20
53.83758305691298
 30
0.0
 11
213.9162138089409
 21
43.48463066966934
 31
0.0
  0
LINE
  5
4F
330
1F
100
AcDbEntity
  8
1
  6
Continuous
 62
     7
100
AcDbLine
 10
214.88213963523
 20
42.2258116245668
 30
0.0
 11
215.741390300947
 21
42.2258116245668
 31
0.0
  0
LINE
  5
50
330
1F
100
AcDbEntity
  8
1
  6
Continuous
 62
     7
100
AcDbLine
 10
214.2305269488093
 20
40.7258116245668
 30
0.0
 11
216.241390300947
 21
40.72581162456677
 31
0.0
  0
LINE
  5
51
330
1F
100
AcDbEntity
  8
1
  6
Continuous
 62
     7
100
AcDbLine
 10
218.241390300947
 20
42.7258116245668
 30
0.0
 11
218.241390300947
 21
63.31851446226732
 31
0.0
  0
LINE
  5
52
330
1F
100
AcDbEntity
  8
1
  6
Continuous
 62
     7
100
AcDbLine
 10
216.741390300947
 20
43.2258116245668
 30
0.0
 11
216.741390300947
 21
63.31851446226732
 31
0.0
  0
LINE
  5
53
330
1F
100
AcDbEntity
  8
1
  6
Continuous
 62
     7
100
AcDbLine
 10
201.741390300947
 20
-2.77418837543315
 30
0.0
 11
201.741390300947
 21
-0.2741883754331
 31
0.0
  0
LINE
  5
54
330
1F
100
AcDbEntity
  8
1
  6
Continuous
 62
     7
100
AcDbLine
 10
201.741390300947
 20
28.7258116245669
 30
0.0
 11
201.741390300947
 21
54.2258116245668
 31
0.0
  0
LINE
  5
55
330
1F
100
AcDbEntity
  8
1
  6
Continuous
 62
     7
100
AcDbLine
 10
203.241390300947
 20
-0.2741883754331
 30
0.0
 11
203.241390300947
 21
-2.77418837543315
 31
0.0
  0
LINE
  5
56
330
1F
100
AcDbEntity
  8
1
  6
Continuous
 62
     7
100
AcDbLine
 10
203.241390300947
 20
38.72581162456692
 30
0.0
 11
203.241390300947
 21
28.7258116245669
 31
0.0
  0
LINE
  5
57
330
1F
100
AcDbEntity
  8
1
  6
DOT_CENTER
 62
     2
100
AcDbLine
 10
208.7813833161704
 20
14.5982771516286
 30
0.0
 11
235.8850324983754
 21
9.32986144483133
 31
0.0
  0
LINE
  5
58
330
1F
100
AcDbEntity
  8
1
  6
Continuous
 62
     7
100
AcDbLine
 10
234.7413903009471
 20
5.47729618888952
 30
0.0
 11
234.7413903009471
 21
2.87581162456647
 31
0.0
  0
LINE
  5
59
330
1F
100
AcDbEntity
  8
1
  6
DASHED
 62
     2
100
AcDbLine
 10
211.6215289970815
 20
9.97134197635609
 30
0.0
 11
215.241390300947
 21
9.26771221707505
 31
0.0
  0
LINE
  5
5A
330
1F
100
AcDbEntity
  8
1
  6
DASHED
 62
     2
100
AcDbLine
 10
210.8031286024454
 20
16.24272306779516
 30
0.0
 11
210.0398926209392
 21
12.3162143340045
 31
0.0
  0
LINE
  5
5B
330
1F
100
AcDbEntity
  8
1
  6
Continuous
 62
     7
100
AcDbLine
 10
234.7413903009471
 20
13.62702974853124
 30
0.0
 11
234.7413903009471
 21
5.47729618888952
 31
0.0
  0
LINE
  5
5C
330
1F
100
AcDbEntity
  8
1
  6
Continuous
 62
     7
100
AcDbLine
 10
234.7413903009471
 20
13.62702974853124
 30
0.0
 11
232.5442619412862
 21
14.05410823829738
 31
0.0
  0
LINE
  5
5D
330
1F
100
AcDbEntity
  8
1
  6
Continuous
 62
     7
100
AcDbLine
 10
218.2413903009471
 20
1.8758116245665
 30
0.0
 11
218.2413903009471
 21
0.4758116245665
 31
0.0
  0
LINE
  5
5E
330
1F
100
AcDbEntity
  8
1
  6
Continuous
 62
     7
100
AcDbLine
 10
234.7413903009471
 20
2.87581162456647
 30
0.0
 11
233.0093394933782
 21
1.87581162456647
 31
0.0
  0
LINE
  5
5F
330
1F
100
AcDbEntity
  8
1
  6
Continuous
 62
     7
100
AcDbLine
 10
206.7413903009471
 20
27.57581162456651
 30
0.0
 11
210.2413903009471
 21
27.57581162456651
 31
0.0
  0
LINE
  5
60
330
1F
100
AcDbEntity
  8
1
  6
Continuous
 62
     7
100
AcDbLine
 10
210.2413903009471
 20
27.57581162456651
 30
0.0
 11
210.2413903009471
 21
24.97581162456652
 31
0.0
  0
LINE
  5
61
330
1F
100
AcDbEntity
  8
1
  6
Continuous
 62
     7
100
AcDbLine
 10
234.7413903009471
 20
23.2758116245665
 30
0.0
 11
234.7413903009471
 21
13.62702974853124
 31
0.0
  0
LINE
  5
62
330
1F
100
AcDbEntity
  8
1
  6
Continuous
 62
     7
100
AcDbLine
 10
233.0093394933782
 20
24.2758116245665
 30
0.0
 11
234.7413903009471
 21
23.2758116245665
 31
0.0
  0
LINE
  5
63
330
1F
100
AcDbEntity
  8
1
  6
Continuous
 62
     7
100
AcDbLine
 10
211.9734411085159
 20
26.47581162456653
 30
0.0
 11
223.241390300947
 21
26.47581162456649
 31
0.0
  0
LINE
  5
64
330
1F
100
AcDbEntity
  8
1
  6
Continuous
 62
     7
100
AcDbLine
 10
238.741390300947
 20
27.97581162456645
 30
0.0
 11
206.7413903009472
 21
27.97581162456653
 31
0.0
  0
LINE
  5
65
330
1F
100
AcDbEntity
  8
1
  6
Continuous
 62
     7
100
AcDbLine
 10
213.7413903009471
 20
26.47581162456651
 30
0.0
 11
213.7413903009471
 21
27.97581162456651
 31
0.0
  0
LINE
  5
66
330
1F
100
AcDbEntity
  8
1
  6
Continuous
 62
     7
100
AcDbLine
 10
206.741390300947
 20
0.47581162456675
 30
0.0
 11
238.741390300947
 21
0.47581162456646
 31
0.0
  0
LINE
  5
67
330
1F
100
AcDbEntity
  8
1
  6
Continuous
 62
     7
100
AcDbLine
 10
219.241390300947
 20
0.47581162456646
 30
0.0
 11
219.241390300947
 21
1.8758116245665
 31
0.0
  0
LINE
  5
68
330
1F
100
AcDbEntity
  8
1
  6
Continuous
 62
     7
100
AcDbLine
 10
235.991390300947
 20
1.87581162456646
 30
0.0
 11
218.2413903009471
 21
1.8758116245665
 31
0.0
  0
LINE
  5
69
330
1F
100
AcDbEntity
  8
1
  6
Continuous
 62
     7
100
AcDbLine
 10
237.991390300947
 20
14.0075657880146
 30
0.0
 11
237.991390300947
 21
3.87581162456646
 31
0.0
  0
LINE
  5
6A
330
1F
100
AcDbEntity
  8
1
  6
Continuous
 62
     7
100
AcDbLine
 10
237.241390300947
 20
23.41830798716871
 30
0.0
 11
237.241390300947
 21
14.97581162456645
 31
0.0
  0
LINE
  5
6B
330
1F
100
AcDbEntity
  8
1
  6
Continuous
 62
     7
100
AcDbLine
 10
223.241390300947
 20
26.47581162456649
 30
0.0
 11
235.4157017864423
 21
25.4106973833522
 31
0.0
  0
LINE
  5
6C
330
1F
100
AcDbEntity
  8
1
  6
Continuous
 62
     7
100
AcDbLine
 10
210.2413903009471
 20
26.93991323970434
 30
0.0
 11
211.9734411085159
 21
26.47581162456653
 31
0.0
  0
LINE
  5
6D
330
1F
100
AcDbEntity
  8
1
  6
Continuous
 62
     7
100
AcDbLine
 10
251.7413903009472
 20
-3.52418837543307
 30
0.0
 11
206.7413903009472
 21
-3.52418837543307
 31
0.0
  0
LINE
  5
6E
330
1F
100
AcDbEntity
  8
1
  6
PHANTOM
 62
     2
100
AcDbLine
 10
251.7413903009472
 20
-3.52418837543307
 30
0.0
 11
251.7413903009472
 21
36.72581162456693
 31
0.0
  0
LINE
  5
6F
330
1F
100
AcDbEntity
  8
1
  6
Continuous
 62
     7
100
AcDbLine
 10
206.7413903009472
 20
-3.52418837543307
 30
0.0
 11
206.741390300947
 21
0.47581162456675
 31
0.0
  0
LINE
  5
70
330
1F
100
AcDbEntity
  8
1
  6
Continuous
 62
     7
100
AcDbLine
 10
238.741390300947
 20
0.47581162456646
 30
0.0
 11
238.741390300947
 21
27.97581162456645
 31
0.0
  0
LINE
  5
71
330
1F
100
AcDbEntity
  8
1
  6
Continuous
 62
     7
100
AcDbLine
 10
206.7413903009472
 20
27.97581162456653
 30
0.0
 11
206.7413903009472
 21
36.72581162456693
 31
0.0
  0
LINE
  5
72
330
1F
100
AcDbEntity
  8
1
  6
Continuous
 62
     7
100
AcDbLine
 10
206.7413903009472
 20
36.72581162456693
 30
0.0
 11
251.7413903009472
 21
36.72581162456693
 31
0.0
  0
LINE
  5
73
330
1F
100
AcDbEntity
  8
1
  6
PHANTOM
 62
     2
100
AcDbLine
 10
251.7413903009472
 20
36.72581162456693
 30
0.0
 11
251.7413903009472
 21
41.30135831082934
 31
0.0
  0
LINE
  5
74
330
1F
100
AcDbEntity
  8
1
  6
PHANTOM
 62
     2
100
AcDbLine
 10
251.7413903009472
 20
-5.04991898253654
 30
0.0
 11
251.7413903009472
 21
-3.52418837543307
 31
0.0
  0
LINE
  5
75
330
1F
100
AcDbEntity
  8
1
  6
Continuous
 62
     7
100
AcDbLine
 10
206.741390300947
 20
0.47581162456675
 30
0.0
 11
206.7413903009471
 21
17.72706462956949
 31
0.0
  0
LINE
  5
76
330
1F
100
AcDbEntity
  8
1
  6
Continuous
 62
     7
100
AcDbLine
 10
225.5869841581618
 20
24.2758116245665
 30
0.0
 11
233.0093394933782
 21
24.2758116245665
 31
0.0
  0
LINE
  5
77
330
1F
100
AcDbEntity
  8
1
  6
DASHED
 62
     2
100
AcDbLine
 10
232.5442619412862
 20
14.05410823829738
 30
0.0
 11
224.7402493051309
 21
15.5710546270279
 31
0.0
  0
LINE
  5
78
330
1F
100
AcDbEntity
  8
1
  6
Continuous
 62
     7
100
AcDbLine
 10
224.7402493051309
 20
15.5710546270279
 30
0.0
 11
215.0892640195716
 21
17.44701613031845
 31
0.0
  0
LINE
  5
79
330
1F
100
AcDbEntity
  8
1
  6
DASHED
 62
     2
100
AcDbLine
 10
215.0892640195716
 20
17.44701613031845
 30
0.0
 11
213.1480009600938
 21
17.8243594439374
 31
0.0
  0
LINE
  5
7A
330
1F
100
AcDbEntity
  8
1
  6
Continuous
 62
     7
100
AcDbLine
 10
215.241390300947
 20
9.26771221707505
 30
0.0
 11
234.7413903009471
 21
5.47729618888952
 31
0.0
  0
LINE
  5
7B
330
1F
100
AcDbEntity
  8
1
  6
Continuous
 62
     7
100
AcDbLine
 10
206.7413903009472
 20
26.62159261251066
 30
0.0
 11
206.7413903009472
 21
27.97581162456653
 31
0.0
  0
LINE
  5
7C
330
1F
100
AcDbEntity
  8
1
  6
DASHED
 62
     2
100
AcDbLine
 10
196.4987496138277
 20
20.3471319681262
 30
0.0
 11
201.8094097856075
 21
25.65779213990596
 31
0.0
  0
LINE
  5
7D
330
1F
100
AcDbEntity
  8
1
  6
Continuous
 62
     7
100
AcDbLine
 10
194.741390300947
 20
16.10449128100691
 30
0.0
 11
194.741390300947
 21
9.09461377808351
 31
0.0
  0
LINE
  5
7E
330
1F
100
AcDbEntity
  8
1
  6
Continuous
 62
     7
100
AcDbLine
 10
200.0262539301937
 20
12.64089541678491
 30
0.0
 11
200.1751531352311
 21
12.23179821317
 31
0.0
  0
LINE
  5
7F
330
1F
100
AcDbEntity
  8
1
  6
Continuous
 62
     7
100
AcDbLine
 10
227.9706643587833
 20
21.97581162456653
 30
0.0
 11
233.4554919160847
 21
12.47581162456655
 31
0.0
  0
LINE
  5
80
330
1F
100
AcDbEntity
  8
1
  6
Continuous
 62
     7
100
AcDbLine
 10
222.7745119360767
 20
24.97581162456654
 30
0.0
 11
218.7330600517494
 21
24.97581162456653
 31
0.0
  0
LINE
  5
81
330
1F
100
AcDbEntity
  8
1
  6
Continuous
 62
     7
100
AcDbLine
 10
221.6198113976974
 20
18.47581162456653
 30
0.0
 11
214.7529091322874
 21
18.47581162456652
 31
0.0
  0
LINE
  5
82
330
1F
100
AcDbEntity
  8
1
  6
Continuous
 62
     7
100
AcDbLine
 10
200.6077185291921
 20
15.26371272806546
 30
0.0
 11
202.6141661412942
 21
17.27016034016763
 31
0.0
  0
LINE
  5
83
330
1F
100
AcDbEntity
  8
1
  6
Continuous
 62
     7
100
AcDbLine
 10
225.9141316134665
 20
13.5378308268845
 30
0.0
 11
223.7848749071585
 21
17.22581162456655
 31
0.0
  0
LINE
  5
84
330
1F
100
AcDbEntity
  8
1
  6
Continuous
 62
     7
100
AcDbLine
 10
194.741390300947
 20
9.09461377808351
 30
0.0
 11
200.1751531352311
 21
12.23179821317
 31
0.0
  0
LINE
  5
85
330
1F
100
AcDbEntity
  8
1
  6
Continuous
 62
     7
100
AcDbLine
 10
194.741390300947
 20
9.09461377808351
 30
0.0
 11
194.741390300947
 21
4.47581162456649
 31
0.0
  0
LINE
  5
86
330
1F
100
AcDbEntity
  8
1
  6
Continuous
 62
     7
100
AcDbLine
 10
200.1751531352311
 20
12.23179821317
 30
0.0
 11
202.5001607840906
 21
5.84389219786918
 31
0.0
  0
LINE
  5
87
330
1F
100
AcDbEntity
  8
1
  6
Continuous
 62
     7
100
AcDbLine
 10
218.7330600517494
 20
24.97581162456653
 30
0.0
 11
222.6018622052663
 21
18.27484973024317
 31
0.0
  0
LINE
  5
88
330
1F
100
AcDbEntity
  8
1
  6
Continuous
 62
     7
100
AcDbLine
 10
218.7330600517494
 20
24.97581162456653
 30
0.0
 11
209.8903697865133
 21
24.97581162456652
 31
0.0
  0
LINE
  5
89
330
1F
100
AcDbEntity
  8
1
  6
DOT_CENTER
 62
     2
100
AcDbLine
 10
204.641390300947
 20
4.4758116245665
 30
0.0
 11
192.841390300947
 21
4.47581162456649
 31
0.0
  0
LINE
  5
8A
330
1F
100
AcDbEntity
  8
1
  6
DOT_CENTER
 62
     2
100
AcDbLine
 10
198.741390300947
 20
10.37581162456651
 30
0.0
 11
198.741390300947
 21
-1.42418837543352
 31
0.0
  0
LINE
  5
8B
330
1F
100
AcDbEntity
  8
1
  6
DOT_CENTER
 62
     2
100
AcDbLine
 10
235.8913903009469
 20
10.47581162456655
 30
0.0
 11
224.091390300947
 21
10.47581162456653
 31
0.0
  0
LINE
  5
8C
330
1F
100
AcDbEntity
  8
1
  6
DOT_CENTER
 62
     2
100
AcDbLine
 10
229.991390300947
 20
16.37581162456652
 30
0.0
 11
229.991390300947
 21
4.57581162456655
 31
0.0
  0
LINE
  5
8D
330
1F
100
AcDbEntity
  8
1
  6
DASHED
 62
     2
100
AcDbLine
 10
214.7529091322874
 20
18.47581162456652
 30
0.0
 11
207.5894665123003
 21
18.47581162456652
 31
0.0
  0
LINE
  5
8E
330
1F
100
AcDbEntity
  8
1
  6
DOT_CENTER
 62
     2
100
AcDbLine
 10
179.991390300947
 20
4.57581162456657
 30
0.0
 11
179.991390300947
 21
16.37581162456654
 31
0.0
  0
LINE
  5
8F
330
1F
100
AcDbEntity
  8
1
  6
DOT_CENTER
 62
     2
100
AcDbLine
 10
185.891390300947
 20
10.47581162456654
 30
0.0
 11
174.091390300947
 21
10.47581162456656
 31
0.0
  0
LINE
  5
90
330
1F
100
AcDbEntity
  8
1
  6
DOT_CENTER
 62
     2
100
AcDbLine
 10
211.241390300947
 20
-1.4241883754335
 30
0.0
 11
211.241390300947
 21
10.37581162456652
 31
0.0
  0
LINE
  5
91
330
1F
100
AcDbEntity
  8
1
  6
DOT_CENTER
 62
     2
100
AcDbLine
 10
217.141390300947
 20
4.4758116245665
 30
0.0
 11
205.341390300947
 21
4.47581162456652
 31
0.0
  0
LINE
  5
92
330
1F
100
AcDbEntity
  8
1
  6
DOT_CENTER
 62
     2
100
AcDbLine
 10
204.991390300947
 20
16.0258116245665
 30
0.0
 11
204.991390300947
 21
28.92581162456654
 31
0.0
  0
LINE
  5
93
330
1F
100
AcDbEntity
  8
1
  6
DOT_CENTER
 62
     2
100
AcDbLine
 10
211.441390300947
 20
22.47581162456654
 30
0.0
 11
198.541390300947
 21
22.4758116245665
 31
0.0
  0
LINE
  5
94
330
1F
100
AcDbEntity
  8
1
  6
Continuous
 62
     7
100
AcDbLine
 10
200.0924108153807
 20
24.97581162456653
 30
0.0
 11
191.2497205501446
 21
24.97581162456655
 31
0.0
  0
LINE
  5
95
330
1F
100
AcDbEntity
  8
1
  6
DASHED
 62
     2
100
AcDbLine
 10
187.3809183966276
 20
18.27484973024318
 30
0.0
 11
191.2497205501446
 21
24.97581162456655
 31
0.0
  0
LINE
  5
96
330
1F
100
AcDbEntity
  8
1
  6
Continuous
 62
     7
100
AcDbLine
 10
207.4826198178033
 20
5.8438921978692
 30
0.0
 11
209.8076274666629
 21
12.23179821317002
 31
0.0
  0
LINE
  5
97
330
1F
100
AcDbEntity
  8
1
  6
Continuous
 62
     7
100
AcDbLine
 10
215.241390300947
 20
4.4758116245665
 30
0.0
 11
215.241390300947
 21
9.09461377808352
 31
0.0
  0
LINE
  5
98
330
1F
100
AcDbEntity
  8
1
  6
DASHED
 62
     2
100
AcDbLine
 10
209.8076274666629
 20
12.23179821317002
 30
0.0
 11
215.241390300947
 21
9.09461377808352
 31
0.0
  0
LINE
  5
99
330
1F
100
AcDbEntity
  8
1
  6
Continuous
 62
     7
100
AcDbLine
 10
186.1979056947355
 20
17.22581162456656
 30
0.0
 11
184.0686489884275
 21
13.53783082688452
 31
0.0
  0
LINE
  5
9A
330
1F
100
AcDbEntity
  8
1
  6
Continuous
 62
     7
100
AcDbLine
 10
207.3686144605998
 20
17.27016034016764
 30
0.0
 11
209.3750620727019
 21
15.26371272806547
 31
0.0
  0
LINE
  5
9B
330
1F
100
AcDbEntity
  8
1
  6
Continuous
 62
     7
100
AcDbLine
 10
202.3933140895937
 20
18.47581162456653
 30
0.0
 11
188.3629692041966
 21
18.47581162456655
 31
0.0
  0
LINE
  5
9C
330
1F
100
AcDbEntity
  8
1
  6
Continuous
 62
     7
100
AcDbLine
 10
191.2497205501446
 20
24.97581162456655
 30
0.0
 11
187.2082686658173
 21
24.97581162456655
 31
0.0
  0
LINE
  5
9D
330
1F
100
AcDbEntity
  8
1
  6
Continuous
 62
     7
100
AcDbLine
 10
176.5272886858093
 20
12.47581162456656
 30
0.0
 11
182.0121162431107
 21
21.97581162456654
 31
0.0
  0
LINE
  5
9E
330
1F
100
AcDbEntity
  8
1
  6
Continuous
 62
     7
100
AcDbLine
 10
209.8076274666629
 20
12.23179821317002
 30
0.0
 11
209.9565266717003
 21
12.64089541678492
 31
0.0
  0
LINE
  5
9F
330
1F
100
AcDbEntity
  8
1
  6
Continuous
 62
     7
100
AcDbLine
 10
215.241390300947
 20
9.09461377808352
 30
0.0
 11
215.241390300947
 21
16.10449128100692
 31
0.0
  0
LINE
  5
A0
330
1F
100
AcDbEntity
  8
1
  6
Continuous
 62
     7
100
AcDbLine
 10
208.1733708162865
 20
25.65779213990597
 30
0.0
 11
213.4840309880663
 21
20.34713196812621
 31
0.0
  0
LINE
  5
A1
330
1F
100
AcDbEntity
  8
1
  6
Continuous
 62
     7
100
AcDbLine
 10
201.741390300947
 20
28.2258116245669
 30
0.0
 11
201.741390300947
 21
25.59675157864426
 31
0.0
  0
LINE
  5
A2
330
1F
100
AcDbEntity
  8
1
  6
Continuous
 62
     7
100
AcDbLine
 10
194.741390300947
 20
9.26771221707504
 30
0.0
 11
174.241390300947
 21
5.28291587975181
 31
0.0
  0
LINE
  5
A3
330
1F
100
AcDbEntity
  8
1
  6
DASHED
 62
     2
100
AcDbLine
 10
194.8935165823224
 20
17.44701613031845
 30
0.0
 11
196.8347796418002
 21
17.8243594439374
 31
0.0
  0
LINE
  5
A4
330
1F
100
AcDbEntity
  8
1
  6
Continuous
 62
     7
100
AcDbLine
 10
185.2425312967631
 20
15.57105462702788
 30
0.0
 11
194.8935165823224
 21
17.44701613031845
 31
0.0
  0
LINE
  5
A5
330
1F
100
AcDbEntity
  8
1
  6
DASHED
 62
     2
100
AcDbLine
 10
177.4385186606078
 20
14.05410823829736
 30
0.0
 11
185.2425312967631
 21
15.57105462702788
 31
0.0
  0
LINE
  5
A6
330
1F
100
AcDbEntity
  8
1
  6
Continuous
 62
     7
100
AcDbLine
 10
183.0237734752357
 20
23.2758116245665
 30
0.0
 11
175.9734411085159
 21
23.2758116245665
 31
0.0
  0
LINE
  5
A7
330
1F
100
AcDbEntity
  8
1
  6
Continuous
 62
     7
100
AcDbLine
 10
203.241390300947
 20
17.72706462956955
 30
0.0
 11
203.241390300947
 21
-0.2741883754331
 31
0.0
  0
LINE
  5
A8
330
1F
100
AcDbEntity
  8
1
  6
Continuous
 62
     7
100
AcDbLine
 10
193.241390300947
 20
1.2258116245669
 30
0.0
 11
193.241390300947
 21
0.4758116245665
 31
0.0
  0
LINE
  5
A9
330
1F
100
AcDbEntity
  8
1
  6
Continuous
 62
     7
100
AcDbLine
 10
174.241390300947
 20
22.2758116245665
 30
0.0
 11
174.241390300947
 21
2.7758116245665
 31
0.0
  0
LINE
  5
AA
330
1F
100
AcDbEntity
  8
1
  6
Continuous
 62
     7
100
AcDbLine
 10
193.241390300947
 20
0.4758116245665
 30
0.0
 11
203.241390300947
 21
0.4758116245665
 31
0.0
  0
LINE
  5
AB
330
1F
100
AcDbEntity
  8
1
  6
Continuous
 62
     7
100
AcDbLine
 10
193.241390300947
 20
1.7758116245665
 30
0.0
 11
193.241390300947
 21
1.2258116245669
 31
0.0
  0
LINE
  5
AC
330
1F
100
AcDbEntity
  8
1
  6
Continuous
 62
     7
100
AcDbLine
 10
175.9734411085159
 20
1.7758116245665
 30
0.0
 11
193.241390300947
 21
1.7758116245665
 31
0.0
  0
LINE
  5
AD
330
1F
100
AcDbEntity
  8
1
  6
Continuous
 62
     7
100
AcDbLine
 10
175.9734411085159
 20
23.2758116245665
 30
0.0
 11
174.241390300947
 21
22.2758116245665
 31
0.0
  0
LINE
  5
AE
330
1F
100
AcDbEntity
  8
1
  6
Continuous
 62
     7
100
AcDbLine
 10
174.241390300947
 20
2.7758116245665
 30
0.0
 11
175.9734411085159
 21
1.7758116245665
 31
0.0
  0
LINE
  5
AF
330
1F
100
AcDbEntity
  8
1
  6
Continuous
 62
     7
100
AcDbLine
 10
174.241390300947
 20
13.43264943939352
 30
0.0
 11
177.4385186606078
 21
14.05410823829736
 31
0.0
  0
LINE
  5
B0
330
1F
100
AcDbEntity
  8
1
  6
DASHED
 62
     2
100
AcDbLine
 10
199.1796519994486
 20
16.24272306779515
 30
0.0
 11
199.9428879809548
 21
12.31621433400451
 31
0.0
  0
LINE
  5
B1
330
1F
100
AcDbEntity
  8
1
  6
DASHED
 62
     2
100
AcDbLine
 10
198.3612516048125
 20
9.97134197635609
 30
0.0
 11
194.741390300947
 21
9.26771221707504
 31
0.0
  0
LINE
  5
B2
330
1F
100
AcDbEntity
  8
1
  6
DOT_CENTER
 62
     2
100
AcDbLine
 10
171.9223677259603
 20
8.90701033454941
 30
0.0
 11
201.1360601181553
 21
14.58557689279849
 31
0.0
  0
LINE
  5
B3
330
1F
100
AcDbEntity
  8
1
  6
Continuous
 62
     7
100
AcDbLine
 10
201.741390300947
 20
-0.2741883754331
 30
0.0
 11
203.241390300947
 21
-0.2741883754331
 31
0.0
  0
LINE
  5
B4
330
1F
100
AcDbEntity
  8
1
  6
Continuous
 62
     7
100
AcDbLine
 10
203.241390300947
 20
28.7258116245669
 30
0.0
 11
203.241390300947
 21
26.62159261251079
 31
0.0
  0
LINE
  5
B5
330
1F
100
AcDbEntity
  8
1
  6
Continuous
 62
     7
100
AcDbLine
 10
201.741390300947
 20
28.7258116245669
 30
0.0
 11
203.241390300947
 21
28.7258116245669
 31
0.0
  0
LINE
  5
B6
330
1F
100
AcDbEntity
  8
1
  6
Continuous
 62
     7
100
AcDbLine
 10
189.241390300947
 20
1.2258116245669
 30
0.0
 11
193.241390300947
 21
1.2258116245669
 31
0.0
  0
LINE
  5
B7
330
1F
100
AcDbEntity
  8
1
  6
Continuous
 62
     7
100
AcDbLine
 10
189.241390300947
 20
-0.2741883754331
 30
0.0
 11
171.241390300947
 21
-0.2741883754331
 31
0.0
  0
LINE
  5
B8
330
1F
100
AcDbEntity
  8
1
  6
Continuous
 62
     7
100
AcDbLine
 10
189.241390300947
 20
-0.2741883754331
 30
0.0
 11
189.241390300947
 21
1.2258116245669
 31
0.0
  0
LINE
  5
B9
330
1F
100
AcDbEntity
  8
1
  6
Continuous
 62
     7
100
AcDbLine
 10
174.741390300947
 20
1.2258116245669
 30
0.0
 11
189.241390300947
 21
1.2258116245669
 31
0.0
  0
LINE
  5
BA
330
1F
100
AcDbEntity
  8
1
  6
Continuous
 62
     7
100
AcDbLine
 10
172.741390300947
 20
24.16830798716912
 30
0.0
 11
172.741390300947
 21
3.2258116245669
 31
0.0
  0
LINE
  5
BB
330
1F
100
AcDbEntity
  8
1
  6
Continuous
 62
     7
100
AcDbLine
 10
186.741390300947
 20
26.7758116245665
 30
0.0
 11
174.5670788154517
 21
26.16069738335261
 31
0.0
  0
LINE
  5
BC
330
1F
100
AcDbEntity
  8
1
  6
Continuous
 62
     7
100
AcDbLine
 10
201.741390300947
 20
28.2258116245669
 30
0.0
 11
198.0093394933781
 21
27.2258116245669
 31
0.0
  0
LINE
  5
BD
330
1F
100
AcDbEntity
  8
1
  6
Continuous
 62
     7
100
AcDbLine
 10
201.741390300947
 20
28.7258116245669
 30
0.0
 11
201.741390300947
 21
28.2258116245669
 31
0.0
  0
LINE
  5
BE
330
1F
100
AcDbEntity
  8
1
  6
Continuous
 62
     7
100
AcDbLine
 10
171.241390300947
 20
28.7258116245669
 30
0.0
 11
201.741390300947
 21
28.7258116245669
 31
0.0
  0
LINE
  5
BF
330
1F
100
AcDbEntity
  8
1
  6
Continuous
 62
     7
100
AcDbLine
 10
171.241390300947
 20
-0.2741883754331
 30
0.0
 11
171.241390300947
 21
28.7258116245669
 31
0.0
  0
LINE
  5
C0
330
1F
100
AcDbEntity
  8
1
  6
Continuous
 62
     7
100
AcDbLine
 10
201.741390300947
 20
-0.2741883754331
 30
0.0
 11
189.241390300947
 21
-0.2741883754331
 31
0.0
  0
LINE
  5
C1
330
1F
100
AcDbEntity
  8
1
  6
Continuous
 62
     7
100
AcDbLine
 10
198.0093394933781
 20
27.2258116245669
 30
0.0
 11
186.741390300947
 21
26.7758116245665
 31
0.0
  0
LINE
  5
C2
330
1F
100
AcDbEntity
  8
1
  6
DOT_CENTER
 62
     2
100
AcDbLine
 10
194.741390300947
 20
13.7758116245665
 30
0.0
 11
208.4376589429191
 21
13.7758116245665
 31
0.0
  0
ARC
  5
C3
330
1F
100
AcDbEntity
  8
1
  6
Continuous
 62
     7
100
AcDbCircle
 10
212.9796986518111
 20
38.72581162456688
 30
0.0
 40
1.001142530798719
100
AcDbArc
 50
-87.26243182469281
 51
70.10431418042019
  0
ARC
  5
C4
330
1F
100
AcDbEntity
  8
1
  6
Continuous
 62
     7
100
AcDbCircle
 10
214.3352817187393
 20
42.62581162456683
 30
0.0
 40
3.127839032798541
100
AcDbArc
 50
163.7271591592578
 51
-108.9333824867748
  0
ARC
  5
C5
330
1F
100
AcDbEntity
  8
1
  6
Continuous
 62
     7
100
AcDbCircle
 10
211.3317141824236
 20
51.2258116245668
 30
0.0
 40
1.999999999999854
100
AcDbArc
 50
-15.00000000000064
 51
90.0
  0
ARC
  5
C6
330
1F
100
AcDbEntity
  8
1
  6
Continuous
 62
     7
100
AcDbCircle
 10
206.241390300947
 20
51.2258116245668
 30
0.0
 40
2.0
100
AcDbArc
 50
90.0
 51
180.0
  0
ARC
  5
C7
330
1F
100
AcDbEntity
  8
1
  6
Continuous
 62
     7
100
AcDbCircle
 10
205.241390300947
 20
38.72581162456692
 30
0.0
 40
1.0
100
AcDbArc
 50
180.0
 51
-90.0
  0
ARC
  5
C8
330
1F
100
AcDbEntity
  8
1
  6
Continuous
 62
     7
100
AcDbCircle
 10
211.3317141824236
 20
51.2258116245668
 30
0.0
 40
2.999999999999888
100
AcDbArc
 50
-15.00000000000094
 51
90.0
  0
ARC
  5
C9
330
1F
100
AcDbEntity
  8
1
  6
Continuous
 62
     7
100
AcDbCircle
 10
206.241390300947
 20
51.2258116245668
 30
0.0
 40
3.0
100
AcDbArc
 50
90.0
 51
180.0
  0
ARC
  5
CA
330
1F
100
AcDbEntity
  8
1
  6
Continuous
 62
     7
100
AcDbCircle
 10
212.9627955667166
 20
38.82581162456685
 30
0.0
 40
2.101699992183198
100
AcDbArc
 50
-87.6953498433588
 51
73.1165137029214
  0
ARC
  5
CB
330
1F
100
AcDbEntity
  8
1
  6
Continuous
 62
     7
100
AcDbCircle
 10
205.241390300947
 20
38.72581162456692
 30
0.0
 40
2.0
100
AcDbArc
 50
180.0
 51
-90.0
  0
ARC
  5
CC
330
1F
100
AcDbEntity
  8
1
  6
Continuous
 62
     7
100
AcDbCircle
 10
236.991390300947
 20
14.0075657880146
 30
0.0
 40
1.0
100
AcDbArc
 50
0.0
 51
75.52248781407002
  0
ARC
  5
CD
330
1F
100
AcDbEntity
  8
1
  6
Continuous
 62
     7
100
AcDbCircle
 10
198.741390300947
 20
4.4758116245665
 30
0.0
 40
4.0
100
AcDbArc
 50
-179.9999999999998
 51
20.00000000000009
  0
ARC
  5
CE
330
1F
100
AcDbEntity
  8
1
  6
Continuous
 62
     7
100
AcDbCircle
 10
229.991390300947
 20
10.47581162456653
 30
0.0
 40
3.999999999999875
100
AcDbArc
 50
163.8130614604026
 51
30.00000000000058
  0
ARC
  5
CF
330
1F
100
AcDbEntity
  8
1
  6
DASHED
 62
     2
100
AcDbCircle
 10
204.991390300947
 20
22.47581162456653
 30
0.0
 40
4.500000000000031
100
AcDbArc
 50
-94.9947991151401
 51
-68.21321070173934
  0
ARC
  5
D0
330
1F
100
AcDbEntity
  8
1
  6
Continuous
 62
     7
100
AcDbCircle
 10
204.991390300947
 20
22.47581162456653
 30
0.0
 40
4.500000000000009
100
AcDbArc
 50
-111.7867892982618
 51
-85.00520088485953
  0
ARC
  5
D1
330
1F
100
AcDbEntity
  8
1
  6
Continuous
 62
     7
100
AcDbCircle
 10
179.991390300947
 20
10.47581162456655
 30
0.0
 40
3.99999999999994
100
AcDbArc
 50
149.9999999999993
 51
16.18693853959716
  0
ARC
  5
D2
330
1F
100
AcDbEntity
  8
1
  6
Continuous
 62
     7
100
AcDbCircle
 10
211.241390300947
 20
4.47581162456652
 30
0.0
 40
4.000000000000043
100
AcDbArc
 50
160.0000000000002
 51
-0.0000000000002
  0
ARC
  5
D3
330
1F
100
AcDbEntity
  8
1
  6
Continuous
 62
     7
100
AcDbCircle
 10
204.991390300947
 20
22.47581162456653
 30
0.0
 40
4.500000000000021
100
AcDbArc
 50
44.9999999999993
 51
134.4153085971924
  0
CIRCLE
  5
D4
330
1F
100
AcDbEntity
  8
1
  6
Continuous
 62
     7
100
AcDbCircle
 10
198.741390300947
 20
4.4758116245665
 30
0.0
 40
2.0
  0
CIRCLE
  5
D5
330
1F
100
AcDbEntity
  8
1
  6
Continuous
 62
     7
100
AcDbCircle
 10
229.991390300947
 20
10.47581162456653
 30
0.0
 40
2.5
  0
CIRCLE
  5
D6
330
1F
100
AcDbEntity
  8
1
  6
Continuous
 62
     7
100
AcDbCircle
 10
179.991390300947
 20
10.47581162456655
 30
0.0
 40
2.5
  0
CIRCLE
  5
D7
330
1F
100
AcDbEntity
  8
1
  6
Continuous
 62
     7
100
AcDbCircle
 10
211.241390300947
 20
4.47581162456652
 30
0.0
 40
2.0
  0
CIRCLE
  5
D8
330
1F
100
AcDbEntity
  8
1
  6
Continuous
 62
     7
100
AcDbCircle
 10
204.991390300947
 20
22.47581162456653
 30
0.0
 40
2.75
  0
SPLINE
  5
D9
330
1F
100
AcDbEntity
  8
1
  6
Continuous
 62
     2
100
AcDbSpline
210
0.0
220
0.0
230
1.0
 70
     8
 71
     3
 72
    12
 73
     8
 74
     6
 42
0.0000000001
 43
0.0000000001
 44
0.00000001
 40
0.0
 40
0.0
 40
0.0
 40
0.0
 40
0.2775291599796818
 40
0.5641738536600109
 40
0.8992522958634122
 40
1.297504019331676
 40
1.680834346735576
 40
1.680834346735576
 40
1.680834346735576
 40
1.680834346735576
 10
216.741390300947
 20
63.31851446226732
 30
0.0
 10
216.829334174898
 20
63.38771416903839
 30
0.0
 10
217.0081104673654
 20
63.52838646900155
 30
0.0
 10
217.2092580509803
 20
63.1636384903065
 30
0.0
 10
217.5788416942885
 20
63.32779069841455
 30
0.0
 10
217.8976895097142
 20
63.59257289221262
 30
0.0
 10
218.1282908616336
 20
63.40869713148594
 30
0.0
 10
218.241390300947
 20
63.31851446226732
 30
0.0
 11
216.741390300947
 21
63.31851446226732
 31
0.0
 11
216.9924982404888
 21
63.43669752932043
 31
0.0
 11
217.2167495085389
 21
63.2581574800513
 31
0.0
 11
217.5441911824496
 21
63.32928773111242
 31
0.0
 11
217.9038794303301
 21
63.50025205365396
 31
0.0
 11
218.241390300947
 21
63.31851446226732
 31
0.0
  0
ARC
  5
DA
330
1F
100
AcDbEntity
  8
1
  6
Continuous
 62
     7
100
AcDbCircle
 10
171.241390300947
 20
31.22581162456676
 30
0.0
 40
0.5
100
AcDbArc
 50
90.0
 51
180.0
  0
ARC
  5
DB
330
1F
100
AcDbEntity
  8
1
  6
Continuous
 62
     7
100
AcDbCircle
 10
171.241390300947
 20
31.22581162456676
 30
0.0
 40
2.000000000000007
100
AcDbArc
 50
90.0
 51
180.0
  0
ARC
  5
DC
330
1F
100
AcDbEntity
  8
1
  6
Continuous
 62
     7
100
AcDbCircle
 10
190.241390300947
 20
-0.27418837543321
 30
0.0
 40
3.0
100
AcDbArc
 50
-90.0
 51
0.0
  0
ARC
  5
DD
330
1F
100
AcDbEntity
  8
1
  6
Continuous
 62
     7
100
AcDbCircle
 10
193.741390300947
 20
28.72581162456676
 30
0.0
 40
3.0
100
AcDbArc
 50
90.0
 51
180.0
  0
ARC
  5
DE
330
1F
100
AcDbEntity
  8
1
  6
Continuous
 62
     7
100
AcDbCircle
 10
193.741390300947
 20
28.72581162456676
 30
0.0
 40
0.5
100
AcDbArc
 50
90.0
 51
180.0
  0
ARC
  5
DF
330
1F
100
AcDbEntity
  8
1
  6
Continuous
 62
     7
100
AcDbCircle
 10
190.241390300947
 20
-0.27418837543321
 30
0.0
 40
0.4999999999999998
100
AcDbArc
 50
-90.0
 51
0.0
  0
ARC
  5
E0
330
1F
100
AcDbEntity
  8
1
  6
Continuous
 62
     7
100
AcDbCircle
 10
200.741390300947
 20
-2.77418837543315
 30
0.0
 40
1.000000000000001
100
AcDbArc
 50
-90.0
 51
0.0
  0
ARC
  5
E1
330
1F
100
AcDbEntity
  8
1
  6
Continuous
 62
     7
100
AcDbCircle
 10
200.741390300947
 20
-2.77418837543315
 30
0.0
 40
2.5
100
AcDbArc
 50
-90.0
 51
0.0
  0
ARC
  5
E2
330
1F
100
AcDbEntity
  8
1
  6
Continuous
 62
     7
100
AcDbCircle
 10
165.7413903009465
 20
-2.77418837543321
 30
0.0
 40
2.5
100
AcDbArc
 50
180.0
 51
-90.0
  0
ARC
  5
E3
330
1F
100
AcDbEntity
  8
1
  6
Continuous
 62
     7
100
AcDbCircle
 10
165.7413903009465
 20
-2.77418837543321
 30
0.0
 40
1.0
100
AcDbArc
 50
180.0
 51
-90.0
  0
ARC
  5
E4
330
1F
100
AcDbEntity
  8
1
  6
Continuous
 62
     7
100
AcDbCircle
 10
214.2305269488093
 20
42.7258116245668
 30
0.0
 40
1.999999999999881
100
AcDbArc
 50
164.9999999999996
 51
-109.1881364537192
  0
ARC
  5
E5
330
1F
100
AcDbEntity
  8
1
  6
Continuous
 62
     7
100
AcDbCircle
 10
214.5897776145265
 20
53.7258116245668
 30
0.0
 40
0.499999999999964
100
AcDbArc
 50
-15.000000000004
 51
90.0
  0
ARC
  5
E6
330
1F
100
AcDbEntity
  8
1
  6
Continuous
 62
     7
100
AcDbCircle
 10
215.241390300947
 20
54.2258116245668
 30
0.0
 40
1.500000000000102
100
AcDbArc
 50
-15.00000000000044
 51
90.0
  0
ARC
  5
E7
330
1F
100
AcDbEntity
  8
1
  6
Continuous
 62
     7
100
AcDbCircle
 10
214.88213963523
 20
43.2258116245668
 30
0.0
 40
1.00000000000003
100
AcDbArc
 50
164.9999999999993
 51
-90.0
  0
ARC
  5
E8
330
1F
100
AcDbEntity
  8
1
  6
Continuous
 62
     7
100
AcDbCircle
 10
215.741390300947
 20
43.2258116245668
 30
0.0
 40
1.0
100
AcDbArc
 50
-90.0
 51
0.0
  0
ARC
  5
E9
330
1F
100
AcDbEntity
  8
1
  6
Continuous
 62
     7
100
AcDbCircle
 10
214.2305269488093
 20
42.7258116245668
 30
0.0
 40
1.999999999999954
100
AcDbArc
 50
-109.1881364537192
 51
-90.0
  0
ARC
  5
EA
330
1F
100
AcDbEntity
  8
1
  6
Continuous
 62
     7
100
AcDbCircle
 10
216.241390300947
 20
42.7258116245668
 30
0.0
 40
2.000000000000036
100
AcDbArc
 50
-90.0
 51
0.0
  0
ARC
  5
EB
330
1F
100
AcDbEntity
  8
1
  6
Continuous
 62
     7
100
AcDbCircle
 10
203.741390300947
 20
53.7258116245668
 30
0.0
 40
0.5
100
AcDbArc
 50
90.0
 51
180.0
  0
ARC
  5
EC
330
1F
100
AcDbEntity
  8
1
  6
Continuous
 62
     7
100
AcDbCircle
 10
203.241390300947
 20
54.2258116245668
 30
0.0
 40
1.5
100
AcDbArc
 50
90.0
 51
180.0
  0
ARC
  5
ED
330
1F
100
AcDbEntity
  8
1
  6
DASHED
 62
     2
100
AcDbCircle
 10
212.0031469878346
 20
11.93459634325142
 30
0.0
 40
2.000000000000068
100
AcDbArc
 50
169.0000000000007
 51
-101.0000000000007
  0
ARC
  5
EE
330
1F
100
AcDbEntity
  8
1
  6
DASHED
 62
     2
100
AcDbCircle
 10
212.7663829693407
 20
15.86110507704208
 30
0.0
 40
1.999999999999997
100
AcDbArc
 50
78.99999999999929
 51
169.0
  0
ARC
  5
EF
330
1F
100
AcDbEntity
  8
1
  6
Continuous
 62
     7
100
AcDbCircle
 10
235.991390300947
 20
3.87581162456646
 30
0.0
 40
2.0
100
AcDbArc
 50
-90.0
 51
0.00000000000005
  0
ARC
  5
F0
330
1F
100
AcDbEntity
  8
1
  6
Continuous
 62
     7
100
AcDbCircle
 10
235.241390300947
 20
23.41830798716871
 30
0.0
 40
2.0
100
AcDbArc
 50
0.0
 51
85.00000000000021
  0
ARC
  5
F1
330
1F
100
AcDbEntity
  8
1
  6
Continuous
 62
     7
100
AcDbCircle
 10
202.3754854821585
 20
13.49594577509908
 30
0.0
 40
2.500000000000018
100
AcDbArc
 50
135.0000000000001
 51
-160.0000000000003
  0
ARC
  5
F2
330
1F
100
AcDbEntity
  8
1
  6
Continuous
 62
     7
100
AcDbCircle
 10
221.6198113976974
 20
15.97581162456653
 30
0.0
 40
2.499999999999989
100
AcDbArc
 50
66.86989764584345
 51
90.0
  0
ARC
  5
F3
330
1F
100
AcDbEntity
  8
1
  6
Continuous
 62
     7
100
AcDbCircle
 10
223.7490681040054
 20
12.28783082688449
 30
0.0
 40
2.500000000000021
100
AcDbArc
 50
-16.18693853959618
 51
30.00000000000011
  0
ARC
  5
F4
330
1F
100
AcDbEntity
  8
1
  6
Continuous
 62
     7
100
AcDbCircle
 10
209.8903697865133
 20
27.47581162456651
 30
0.0
 40
2.499999999999989
100
AcDbArc
 50
-134.4153085971929
 51
-90.0
  0
ARC
  5
F5
330
1F
100
AcDbEntity
  8
1
  6
Continuous
 62
     7
100
AcDbCircle
 10
204.3819330942606
 20
15.50239338720127
 30
0.0
 40
2.499999999999996
100
AcDbArc
 50
85.00520088485914
 51
135.0000000000008
  0
ARC
  5
F6
330
1F
100
AcDbEntity
  8
1
  6
DASHED
 62
     2
100
AcDbCircle
 10
207.5894665123003
 20
15.97581162456652
 30
0.0
 40
2.500000000000002
100
AcDbArc
 50
90.0
 51
111.7867892982638
  0
ARC
  5
F7
330
1F
100
AcDbEntity
  8
1
  6
Continuous
 62
     7
100
AcDbCircle
 10
200.741390300947
 20
16.10449128100691
 30
0.0
 40
5.999999999999959
100
AcDbArc
 50
156.7203008259737
 51
180.0
  0
ARC
  5
F8
330
1F
100
AcDbEntity
  8
1
  6
Continuous
 62
     7
100
AcDbCircle
 10
222.7745119360767
 20
18.97581162456654
 30
0.0
 40
5.999999999999971
100
AcDbArc
 50
30.00000000000005
 51
90.0
  0
ARC
  5
F9
330
1F
100
AcDbEntity
  8
1
  6
Continuous
 62
     7
100
AcDbCircle
 10
221.6198113976974
 20
15.97581162456653
 30
0.0
 40
2.500000000000018
100
AcDbArc
 50
30.00000000000028
 51
66.86989764584345
  0
ARC
  5
FA
330
1F
100
AcDbEntity
  8
1
  6
DASHED
 62
     2
100
AcDbCircle
 10
200.741390300947
 20
16.10449128100691
 30
0.0
 40
6.000000000000006
100
AcDbArc
 50
135.0
 51
156.7203008259737
  0
ARC
  5
FB
330
1F
100
AcDbEntity
  8
1
  6
Continuous
 62
     7
100
AcDbCircle
 10
188.3629692041966
 20
15.97581162456655
 30
0.0
 40
2.500000000000015
100
AcDbArc
 50
113.1301023541584
 51
149.9999999999996
  0
ARC
  5
FC
330
1F
100
AcDbEntity
  8
1
  6
Continuous
 62
     7
100
AcDbCircle
 10
187.2082686658173
 20
18.97581162456655
 30
0.0
 40
6.0
100
AcDbArc
 50
90.0
 51
149.9999999999998
  0
ARC
  5
FD
330
1F
100
AcDbEntity
  8
1
  6
Continuous
 62
     7
100
AcDbCircle
 10
209.241390300947
 20
16.10449128100692
 30
0.0
 40
6.0
100
AcDbArc
 50
0.0
 51
44.99999999999981
  0
ARC
  5
FE
330
1F
100
AcDbEntity
  8
1
  6
Continuous
 62
     7
100
AcDbCircle
 10
202.3933140895936
 20
15.97581162456653
 30
0.0
 40
2.500000000000022
100
AcDbArc
 50
68.21321070173627
 51
89.99999999999739
  0
ARC
  5
FF
330
1F
100
AcDbEntity
  8
1
  6
Continuous
 62
     7
100
AcDbCircle
 10
205.6008475076334
 20
15.50239338720128
 30
0.0
 40
2.500000000000003
100
AcDbArc
 50
44.9999999999996
 51
94.99479911514084
  0
ARC
  5
100
330
1F
100
AcDbEntity
  8
1
  6
Continuous
 62
     7
100
AcDbCircle
 10
200.0924108153807
 20
27.47581162456653
 30
0.0
 40
2.5
100
AcDbArc
 50
-90.0
 51
-45.58469140280724
  0
ARC
  5
101
330
1F
100
AcDbEntity
  8
1
  6
Continuous
 62
     7
100
AcDbCircle
 10
186.2337124978886
 20
12.2878308268845
 30
0.0
 40
2.500000000000018
100
AcDbArc
 50
149.9999999999997
 51
-163.8130614604038
  0
ARC
  5
102
330
1F
100
AcDbEntity
  8
1
  6
Continuous
 62
     7
100
AcDbCircle
 10
188.3629692041966
 20
15.97581162456655
 30
0.0
 40
2.5
100
AcDbArc
 50
90.0
 51
113.1301023541584
  0
ARC
  5
103
330
1F
100
AcDbEntity
  8
1
  6
Continuous
 62
     7
100
AcDbCircle
 10
207.6072951197355
 20
13.4959457750991
 30
0.0
 40
2.500000000000009
100
AcDbArc
 50
-20.00000000000013
 51
44.99999999999977
  0
ARC
  5
104
330
1F
100
AcDbEntity
  8
1
  6
DASHED
 62
     2
100
AcDbCircle
 10
197.2163976325533
 20
15.86110507704207
 30
0.0
 40
1.999999999999956
100
AcDbArc
 50
10.99999999999996
 51
101.0000000000007
  0
ARC
  5
105
330
1F
100
AcDbEntity
  8
1
  6
DASHED
 62
     2
100
AcDbCircle
 10
197.9796336140595
 20
11.93459634325142
 30
0.0
 40
1.999999999999984
100
AcDbArc
 50
-79.00000000000253
 51
11.00000000000026
  0
ARC
  5
106
330
1F
100
AcDbEntity
  8
1
  6
Continuous
 62
     7
100
AcDbCircle
 10
174.741390300947
 20
3.2258116245669
 30
0.0
 40
2.0
100
AcDbArc
 50
180.0
 51
-90.0
  0
ARC
  5
107
330
1F
100
AcDbEntity
  8
1
  6
Continuous
 62
     7
100
AcDbCircle
 10
174.741390300947
 20
24.16830798716912
 30
0.0
 40
1.999999999999996
100
AcDbArc
 50
94.99999999999899
 51
180.0
  0
DIMENSION
  5
113
330
1F
100
AcDbEntity
  8
1
100
AcDbDimension
  2
*D1
 10
152.864803895853
 20
28.7258116245669
 30
0.0
 11
149.114803895853
 21
14.5596701161261
 31
0.0
 70
    32
  1
<>
 71
     5
 42
-1.0
 53
90.0
  3
ME10_DIM_10
100
AcDbAlignedDimension
 13
171.241390300947
 23
-0.2741883754331
 33
0.0
 14
171.241390300947
 24
28.7258116245669
 34
0.0
 50
90.0
100
AcDbRotatedDimension
  0
DIMENSION
  5
120
330
1F
100
AcDbEntity
  8
1
100
AcDbDimension
  2
*D2
 10
152.864803895853
 20
-5.27418837543321
 30
0.0
 11
149.114803895853
 21
-10.69620226118741
 31
0.0
 70
    32
  1
<>
 71
     5
 42
-1.0
 53
90.0
  3
ME10_DIM_11
100
AcDbAlignedDimension
 13
171.241390300947
 23
-0.2741883754331
 33
0.0
 14
165.7413903009465
 24
-5.27418837543321
 34
0.0
 50
90.0
100
AcDbRotatedDimension
  0
DIMENSION
  5
12B
330
1F
100
AcDbEntity
  8
1
100
AcDbDimension
  2
*D3
 10
171.241390300947
 20
-16.922523173779
 30
0.0
 11
188.15574340414
 21
-13.172523173779
 31
0.0
 70
    32
  1
<>
 71
     5
 42
-1.0
 53
0.00013888888889
  3
ME10_DIM_12
100
AcDbAlignedDimension
 13
203.241390300947
 23
-2.77418837543315
 33
0.0
 14
171.241390300947
 24
-0.2741883754331
 34
0.0
100
AcDbRotatedDimension
  0
DIMENSION
  5
138
330
1F
100
AcDbEntity
  8
1
100
AcDbDimension
  2
*D4
 10
203.241390300947
 20
-16.922523173779
 30
0.0
 11
205.0533249994042
 21
-22.7652913634127
 31
0.0
 70
    32
  1
<>
 71
     5
 42
-1.0
 53
0.00013888888889
  3
ME10_DIM_13
100
AcDbAlignedDimension
 13
206.7413903009472
 23
-3.52418837543307
 33
0.0
 14
203.241390300947
 24
-2.77418837543315
 34
0.0
100
AcDbRotatedDimension
  0
DIMENSION
  5
145
330
1F
100
AcDbEntity
  8
1
100
AcDbDimension
  2
*D5
 10
261.708218885696
 20
-3.52418837543307
 30
0.0
 11
258.069182169265
 21
-10.259550869388
 31
0.0
 70
    32
  1
<>
 71
     5
 42
-1.0
 53
90.0
  3
ME10_DIM_14
100
AcDbAlignedDimension
 13
238.741390300947
 23
0.47581162456646
 33
0.0
 14
251.7413903009472
 24
-3.52418837543307
 34
0.0
 50
90.0
100
AcDbRotatedDimension
  0
DIMENSION
  5
150
330
1F
100
AcDbEntity
  8
1
100
AcDbDimension
  2
*D6
 10
261.708218885696
 20
0.47581162456646
 30
0.0
 11
257.958218885696
 21
14.22581162456646
 31
0.0
 70
    32
  1
<>
 71
     5
 42
-1.0
 53
90.0
  3
ME10_DIM_15
100
AcDbAlignedDimension
 13
238.741390300947
 23
27.97581162456645
 33
0.0
 14
238.741390300947
 24
0.47581162456646
 34
0.0
 50
90.0
100
AcDbRotatedDimension
  0
DIMENSION
  5
15B
330
1F
100
AcDbEntity
  8
1
100
AcDbDimension
  2
*D7
 10
206.7413903009472
 20
-16.922523173779
 30
0.0
 11
222.7413903009471
 21
-13.172523173779
 31
0.0
 70
    32
  1
<>
 71
     5
 42
-1.0
 53
0.00013888888889
  3
ME10_DIM_16
100
AcDbAlignedDimension
 13
238.741390300947
 23
0.47581162456646
 33
0.0
 14
206.7413903009472
 24
-3.52418837543307
 34
0.0
100
AcDbRotatedDimension
  0
ENDSEC
  0
SECTION
  2
OBJECTS
  0
DICTIONARY
  5
C
330
0
100
AcDbDictionary
281
     1
  3
ACAD_GROUP
350
D
  3
ACAD_LAYOUT
350
1A
  3
ACAD_MLINESTYLE
350
17
  3
ACAD_PLOTSETTINGS
350
19
  3
ACAD_PLOTSTYLENAME
350
E
  0
DICTIONARY
  5
D
102
{ACAD_REACTORS
330
C
102
}
330
C
100
AcDbDictionary
281
     1
  0
DICTIONARY
  5
1A
102
{ACAD_REACTORS
330
C
102
}
330
C
100
AcDbDictionary
281
     1
  3
Layout1
350
1E
  3
Layout2
350
26
  3
Model
350
22
  0
DICTIONARY
  5
17
102
{ACAD_REACTORS
330
C
102
}
330
C
100
AcDbDictionary
281
     1
  3
Standard
350
18
  0
DICTIONARY
  5
19
102
{ACAD_REACTORS
330
C
102
}
330
C
100
AcDbDictionary
281
     1
  0
ACDBDICTIONARYWDFLT
  5
E
102
{ACAD_REACTORS
330
C
102
}
330
C
100
AcDbDictionary
281
     1
  3
Normal
350
F
100
AcDbDictionaryWithDefault
340
F
  0
LAYOUT
  5
1E
102
{ACAD_REACTORS
330
1A
102
}
330
1A
100
AcDbPlotSettings
  1

  2

  4

  6

 40
0.0
 41
0.0
 42
0.0
 43
0.0
 44
0.0
 45
0.0
 46
0.0
 47
0.0
 48
0.0
 49
0.0
140
0.0
141
0.0
142
1.0
143
1.0
 70
   688
 72
     0
 73
     0
 74
     5
  7

 75
    16
 76
     0
 77
     2
 78
   300
147
1.0
148
0.0
149
0.0
100
AcDbLayout
  1
Layout1
 70
     1
 71
     1
 10
0.0
 20
0.0
 11
0.0
 21
0.0
 12
0.0
 22
0.0
 32
0.0
 14
0.0
 24
0.0
 34
0.0
 15
0.0
 25
0.0
 35
0.0
146
0.0
 13
0.0
 23
0.0
 33
0.0
 16
1.0
 26
0.0
 36
0.0
 17
0.0
 27
1.0
 37
0.0
 76
     0
330
1B
  0
LAYOUT
  5
26
102
{ACAD_REACTORS
330
1A
102
}
330
1A
100
AcDbPlotSettings
  1

  2

  4

  6

 40
0.0
 41
0.0
 42
0.0
 43
0.0
 44
0.0
 45
0.0
 46
0.0
 47
0.0
 48
0.0
 49
0.0
140
0.0
141
0.0
142
1.0
143
1.0
 70
   688
 72
     0
 73
     0
 74
     5
  7

 75
    16
 76
     0
 77
     2
 78
   300
147
1.0
148
0.0
149
0.0
100
AcDbLayout
  1
Layout2
 70
     1
 71
     2
 10
0.0
 20
0.0
 11
0.0
 21
0.0
 12
0.0
 22
0.0
 32
0.0
 14
0.0
 24
0.0
 34
0.0
 15
0.0
 25
0.0
 35
0.0
146
0.0
 13
0.0
 23
0.0
 33
0.0
 16
1.0
 26
0.0
 36
0.0
 17
0.0
 27
1.0
 37
0.0
 76
     0
330
23
  0
LAYOUT
  5
22
102
{ACAD_REACTORS
330
1A
102
}
330
1A
100
AcDbPlotSettings
  1

  2

  4

  6

 40
0.0
 41
0.0
 42
0.0
 43
0.0
 44
0.0
 45
0.0
 46
0.0
 47
0.0
 48
0.0
 49
0.0
140
0.0
141
0.0
142
1.0
143
1.0
 70
  1712
 72
     0
 73
     0
 74
     0
  7

 75
     0
 76
     0
 77
     2
 78
   300
147
1.0
148
0.0
149
0.0
100
AcDbLayout
  1
Model
 70
     1
 71
     0
 10
0.0
 20
0.0
 11
0.0
 21
0.0
 12
0.0
 22
0.0
 32
0.0
 14
147.364803895853
 24
-24.5152913634127
 34
0.0
 15
263.708218885696
 25
63.51465473721257
 35
0.0
146
0.0
 13
0.0
 23
0.0
 33
0.0
 16
1.0
 26
0.0
 36
0.0
 17
0.0
 27
1.0
 37
0.0
 76
     0
330
1F
  0
MLINESTYLE
  5
18
102
{ACAD_REACTORS
330
17
102
}
330
17
100
AcDbMlineStyle
  2
Standard
 70
     0
  3

 62
   256
 51
90.0
 52
90.0
 71
     2
 49
0.5
 62
   256
  6
BYLAYER
 49
-0.5
 62
   256
  6
BYLAYER
  0
ACDBPLACEHOLDER
  5
F
102
{ACAD_REACTORS
330
E
102
}
330
E
  0
ENDSEC
  0
EOF
