  0
SECTION
  2
HEADER
  9
$ACADVER
  1
AC1018
  9
$ACADMAINTVER
 70
     0
  9
$DWGCODEPAGE
  3
ANSI_1252
  9
$INSBASE
 10
0.0
 20
0.0
 30
0.0
  9
$EXTMIN
 10
280.767521477666
 20
-120.3064922597548
 30
0.0
  9
$EXTMAX
 10
624.4035770209366
 20
107.3704072010586
 30
0.0
  9
$LIMMIN
 10
0.0
 20
0.0
  9
$LIMMAX
 10
12.0
 20
9.0
  9
$ORTHOMODE
 70
     0
  9
$REGENMODE
 70
     1
  9
$FILLMODE
 70
     1
  9
$QTEXTMODE
 70
     0
  9
$MIRRTEXT
 70
     1
  9
$LTSCALE
 40
1.0
  9
$ATTMODE
 70
     1
  9
$TEXTSIZE
 40
0.2
  9
$TRACEWID
 40
0.05
  9
$TEXTSTYLE
  7
Standard
  9
$CLAYER
  8
0
  9
$CELTYPE
  6
ByLayer
  9
$CECOLOR
 62
   256
  9
$CELTSCALE
 40
1.0
  9
$DISPSILH
 70
     0
  9
$DIMSCALE
 40
1.0
  9
$DIMASZ
 40
0.18
  9
$DIMEXO
 40
0.0625
  9
$DIMDLI
 40
0.38
  9
$DIMRND
 40
0.0
  9
$DIMDLE
 40
0.0
  9
$DIMEXE
 40
0.18
  9
$DIMTP
 40
0.0
  9
$DIMTM
 40
0.0
  9
$DIMTXT
 40
0.18
  9
$DIMCEN
 40
0.09
  9
$DIMTSZ
 40
0.0
  9
$DIMTOL
 70
     0
  9
$DIMLIM
 70
     0
  9
$DIMTIH
 70
     1
  9
$DIMTOH
 70
     1
  9
$DIMSE1
 70
     0
  9
$DIMSE2
 70
     0
  9
$DIMTAD
 70
     0
  9
$DIMZIN
 70
     0
  9
$DIMBLK
  1

  9
$DIMASO
 70
     1
  9
$DIMSHO
 70
     1
  9
$DIMPOST
  1

  9
$DIMAPOST
  1

  9
$DIMALT
 70
     0
  9
$DIMALTD
 70
     2
  9
$DIMALTF
 40
25.4
  9
$DIMLFAC
 40
1.0
  9
$DIMTOFL
 70
     0
  9
$DIMTVP
 40
0.0
  9
$DIMTIX
 70
     0
  9
$DIMSOXD
 70
     0
  9
$DIMSAH
 70
     0
  9
$DIMBLK1
  1

  9
$DIMBLK2
  1

  9
$DIMSTYLE
  2
Standard
  9
$DIMCLRD
 70
     0
  9
$DIMCLRE
 70
     0
  9
$DIMCLRT
 70
     0
  9
$DIMTFAC
 40
1.0
  9
$DIMGAP
 40
0.09
  9
$DIMJUST
 70
     0
  9
$DIMSD1
 70
     0
  9
$DIMSD2
 70
     0
  9
$DIMTOLJ
 70
     1
  9
$DIMTZIN
 70
     0
  9
$DIMALTZ
 70
     0
  9
$DIMALTTZ
 70
     0
  9
$DIMUPT
 70
     0
  9
$DIMDEC
 70
     4
  9
$DIMTDEC
 70
     4
  9
$DIMALTU
 70
     2
  9
$DIMALTTD
 70
     2
  9
$DIMTXSTY
  7
Standard
  9
$DIMAUNIT
 70
     0
  9
$DIMADEC
 70
     0
  9
$DIMALTRND
 40
0.0
  9
$DIMAZIN
 70
     0
  9
$DIMDSEP
 70
    46
  9
$DIMATFIT
 70
     3
  9
$DIMFRAC
 70
     0
  9
$DIMLDRBLK
  1

  9
$DIMLUNIT
 70
     2
  9
$DIMLWD
 70
    -2
  9
$DIMLWE
 70
    -2
  9
$DIMTMOVE
 70
     0
  9
$LUNITS
 70
     2
  9
$LUPREC
 70
     4
  9
$SKETCHINC
 40
0.1
  9
$FILLETRAD
 40
0.5
  9
$AUNITS
 70
     0
  9
$AUPREC
 70
     0
  9
$MENU
  1
.
  9
$ELEVATION
 40
0.0
  9
$PELEVATION
 40
0.0
  9
$THICKNESS
 40
0.0
  9
$LIMCHECK
 70
     0
  9
$CHAMFERA
 40
0.5
  9
$CHAMFERB
 40
0.5
  9
$CHAMFERC
 40
1.0
  9
$CHAMFERD
 40
0.0
  9
$SKPOLY
 70
     0
  9
$TDCREATE
 40
2454623.420862014
  9
$TDUCREATE
 40
2454623.33752868
  9
$TDUPDATE
 40
2454623.420862026
  9
$TDUUPDATE
 40
2454623.337528692
  9
$TDINDWG
 40
0.0000000116
  9
$TDUSRTIMER
 40
0.0000000116
  9
$USRTIMER
 70
     1
  9
$ANGBASE
 50
0.0
  9
$ANGDIR
 70
     0
  9
$PDMODE
 70
     0
  9
$PDSIZE
 40
0.0
  9
$PLINEWID
 40
0.0
  9
$SPLFRAME
 70
     0
  9
$SPLINETYPE
 70
     6
  9
$SPLINESEGS
 70
     8
  9
$HANDSEED
  5
1E2
  9
$SURFTAB1
 70
     6
  9
$SURFTAB2
 70
     6
  9
$SURFTYPE
 70
     6
  9
$SURFU
 70
     6
  9
$SURFV
 70
     6
  9
$UCSBASE
  2

  9
$UCSNAME
  2

  9
$UCSORG
 10
0.0
 20
0.0
 30
0.0
  9
$UCSXDIR
 10
1.0
 20
0.0
 30
0.0
  9
$UCSYDIR
 10
0.0
 20
1.0
 30
0.0
  9
$UCSORTHOREF
  2

  9
$UCSORTHOVIEW
 70
     0
  9
$UCSORGTOP
 10
0.0
 20
0.0
 30
0.0
  9
$UCSORGBOTTOM
 10
0.0
 20
0.0
 30
0.0
  9
$UCSORGLEFT
 10
0.0
 20
0.0
 30
0.0
  9
$UCSORGRIGHT
 10
0.0
 20
0.0
 30
0.0
  9
$UCSORGFRONT
 10
0.0
 20
0.0
 30
0.0
  9
$UCSORGBACK
 10
0.0
 20
0.0
 30
0.0
  9
$PUCSBASE
  2

  9
$PUCSNAME
  2

  9
$PUCSORG
 10
0.0
 20
0.0
 30
0.0
  9
$PUCSXDIR
 10
1.0
 20
0.0
 30
0.0
  9
$PUCSYDIR
 10
0.0
 20
1.0
 30
0.0
  9
$PUCSORTHOREF
  2

  9
$PUCSORTHOVIEW
 70
     0
  9
$PUCSORGTOP
 10
0.0
 20
0.0
 30
0.0
  9
$PUCSORGBOTTOM
 10
0.0
 20
0.0
 30
0.0
  9
$PUCSORGLEFT
 10
0.0
 20
0.0
 30
0.0
  9
$PUCSORGRIGHT
 10
0.0
 20
0.0
 30
0.0
  9
$PUCSORGFRONT
 10
0.0
 20
0.0
 30
0.0
  9
$PUCSORGBACK
 10
0.0
 20
0.0
 30
0.0
  9
$USERI1
 70
     0
  9
$USERI2
 70
     0
  9
$USERI3
 70
     0
  9
$USERI4
 70
     0
  9
$USERI5
 70
     0
  9
$USERR1
 40
14.5
  9
$USERR2
 40
0.0
  9
$USERR3
 40
0.0
  9
$USERR4
 40
0.0
  9
$USERR5
 40
0.0
  9
$WORLDVIEW
 70
     1
  9
$SHADEDGE
 70
     3
  9
$SHADEDIF
 70
    70
  9
$TILEMODE
 70
     1
  9
$MAXACTVP
 70
    64
  9
$PINSBASE
 10
0.0
 20
0.0
 30
0.0
  9
$PLIMCHECK
 70
     0
  9
$PEXTMIN
 10
1.00000000000000E+20
 20
1.00000000000000E+20
 30
1.00000000000000E+20
  9
$PEXTMAX
 10
-1.00000000000000E+20
 20
-1.00000000000000E+20
 30
-1.00000000000000E+20
  9
$PLIMMIN
 10
0.0
 20
0.0
  9
$PLIMMAX
 10
12.0
 20
9.0
  9
$UNITMODE
 70
     0
  9
$VISRETAIN
 70
     1
  9
$PLINEGEN
 70
     0
  9
$PSLTSCALE
 70
     1
  9
$TREEDEPTH
 70
  3020
  9
$CMLSTYLE
  2
Standard
  9
$CMLJUST
 70
     0
  9
$CMLSCALE
 40
1.0
  9
$PROXYGRAPHICS
 70
     1
  9
$MEASUREMENT
 70
     1
  9
$CELWEIGHT
370
    -1
  9
$ENDCAPS
280
     0
  9
$JOINSTYLE
280
     0
  9
$LWDISPLAY
290
     0
  9
$INSUNITS
 70
     1
  9
$HYPERLINKBASE
  1

  9
$STYLESHEET
  1

  9
$XEDIT
290
     1
  9
$CEPSNTYPE
380
     0
  9
$PSTYLEMODE
290
     1
  9
$FINGERPRINTGUID
  2
{ECA1BEF8-D09B-4EEF-8123-D384755FD11E}
  9
$VERSIONGUID
  2
{FAEB1C32-E019-11D5-929B-00C0DF256EC4}
  9
$EXTNAMES
290
     1
  9
$PSVPSCALE
 40
0.0
  9
$OLESTARTUP
290
     0
  9
$SORTENTS
280
   127
  9
$INDEXCTL
280
     0
  9
$HIDETEXT
280
     1
  9
$XCLIPFRAME
290
     0
  9
$HALOGAP
280
     0
  9
$OBSCOLOR
 70
   257
  9
$OBSLTYPE
280
     0
  9
$INTERSECTIONDISPLAY
280
     0
  9
$INTERSECTIONCOLOR
 70
   257
  9
$DIMASSOC
280
     2
  9
$PROJECTNAME
  1

  0
ENDSEC
  0
SECTION
  2
CLASSES
  0
CLASS
  1
ACDBDICTIONARYWDFLT
  2
AcDbDictionaryWithDefault
  3
ObjectDBX Classes
 90
        0
 91
        3
280
     0
281
     0
  0
CLASS
  1

  2
exOdDbCircle
  3

 90
        0
 91
        3
280
     0
281
     1
  0
CLASS
  1

  2
exOdDbSpline
  3

 90
        0
 91
        3
280
     0
281
     1
  0
ENDSEC
  0
SECTION
  2
TABLES
  0
TABLE
  2
VPORT
  5
8
330
0
100
AcDbSymbolTable
 70
     1
  0
VPORT
  5
29
330
8
100
AcDbSymbolTableRecord
100
AcDbViewportTableRecord
  2
*Active
 70
     0
 10
0.0
 20
0.0
 11
1.0
 21
1.0
 12
452.5855492493013
 22
-6.4680425293481
 13
0.0
 23
0.0
 14
0.5
 24
0.5
 15
0.5
 25
0.5
 16
0.0
 26
0.0
 36
1.0
 17
0.0
 27
0.0
 37
0.0
 40
250.4445894068947
 41
1.60267857142857
 42
50.0
 43
0.0
 44
0.0
 50
0.0
 51
0.0
 71
     0
 72
   100
 73
     1
 74
     3
 75
     0
 76
     0
 77
     0
 78
     0
281
     0
 65
     1
110
0.0
120
0.0
130
0.0
111
1.0
121
0.0
131
0.0
112
0.0
122
1.0
132
0.0
 79
     0
146
0.0
  0
ENDTAB
  0
TABLE
  2
LTYPE
  5
5
330
0
100
AcDbSymbolTable
 70
     8
  0
LTYPE
  5
14
330
5
100
AcDbSymbolTableRecord
100
AcDbLinetypeTableRecord
  2
ByBlock
 70
     0
  3

 72
    65
 73
     0
 40
0.0
  0
LTYPE
  5
15
330
5
100
AcDbSymbolTableRecord
100
AcDbLinetypeTableRecord
  2
ByLayer
 70
     0
  3

 72
    65
 73
     0
 40
0.0
  0
LTYPE
  5
16
330
5
100
AcDbSymbolTableRecord
100
AcDbLinetypeTableRecord
  2
Continuous
 70
     0
  3
Solid line
 72
    65
 73
     0
 40
0.0
  0
LTYPE
  5
2A
330
5
100
AcDbSymbolTableRecord
100
AcDbLinetypeTableRecord
  2
DASHED
 70
     0
  3
Dashed
 72
    65
 73
     2
 40
15.0
 49
7.0
 74
     0
 49
-8.0
 74
     0
  0
LTYPE
  5
2B
330
5
100
AcDbSymbolTableRecord
100
AcDbLinetypeTableRecord
  2
DOTTED
 70
     0
  3
Dotted
 72
    65
 73
     2
 40
1.0
 49
0.0
 74
     0
 49
-1.0
 74
     0
  0
LTYPE
  5
2C
330
5
100
AcDbSymbolTableRecord
100
AcDbLinetypeTableRecord
  2
DOT_CENTER
 70
     0
  3
Dot_Center
 72
    65
 73
     4
 40
14.0
 49
12.0
 74
     0
 49
-1.0
 74
     0
 49
0.0
 74
     0
 49
-1.0
 74
     0
  0
LTYPE
  5
2D
330
5
100
AcDbSymbolTableRecord
100
AcDbLinetypeTableRecord
  2
LONG_DASHED
 70
     0
  3
Long_Dashed
 72
    65
 73
     2
 40
15.0
 49
10.0
 74
     0
 49
-5.0
 74
     0
  0
LTYPE
  5
2E
330
5
100
AcDbSymbolTableRecord
100
AcDbLinetypeTableRecord
  2
DASH_CENTER
 70
     0
  3
Dash_Center
 72
    65
 73
     4
 40
14.0
 49
11.0
 74
     0
 49
-1.0
 74
     0
 49
1.0
 74
     0
 49
-1.0
 74
     0
  0
LTYPE
  5
2F
330
5
100
AcDbSymbolTableRecord
100
AcDbLinetypeTableRecord
  2
PHANTOM
 70
     0
  3
Phantom
 72
    65
 73
     6
 40
13.0
 49
10.0
 74
     0
 49
-1.0
 74
     0
 49
0.0
 74
     0
 49
-1.0
 74
     0
 49
0.0
 74
     0
 49
-1.0
 74
     0
  0
LTYPE
  5
30
330
5
100
AcDbSymbolTableRecord
100
AcDbLinetypeTableRecord
  2
CENTER_DASH_DASH
 70
     0
  3
Center_Dash_Dash
 72
    65
 73
     6
 40
14.0
 49
9.0
 74
     0
 49
-1.0
 74
     0
 49
1.0
 74
     0
 49
-1.0
 74
     0
 49
1.0
 74
     0
 49
-1.0
 74
     0
  0
ENDTAB
  0
TABLE
  2
LAYER
  5
2
330
0
100
AcDbSymbolTable
 70
     2
  0
LAYER
  5
10
330
2
100
AcDbSymbolTableRecord
100
AcDbLayerTableRecord
  2
0
 70
     0
 62
     7
  6
Continuous
370
    -3
390
F
  0
LAYER
  5
31
330
2
100
AcDbSymbolTableRecord
100
AcDbLayerTableRecord
  2
1
 70
     0
 62
     7
  6
Continuous
370
    -3
390
F
  0
ENDTAB
  0
TABLE
  2
STYLE
  5
3
330
0
100
AcDbSymbolTable
 70
     2
  0
STYLE
  5
11
330
3
100
AcDbSymbolTableRecord
100
AcDbTextStyleTableRecord
  2
Standard
 70
     0
 40
0.0
 41
1.0
 50
0.0
 71
     0
 42
0.2
  3
txt
  4

  0
STYLE
  5
11D
330
3
100
AcDbSymbolTableRecord
100
AcDbTextStyleTableRecord
  2
CONVERTER_11
 70
     0
 40
0.0
 41
0.9
 50
0.0
 71
     0
 42
0.2
  3
txt.shx
  4

  0
ENDTAB
  0
TABLE
  2
VIEW
  5
6
330
0
100
AcDbSymbolTable
 70
     0
  0
ENDTAB
  0
TABLE
  2
UCS
  5
7
330
0
100
AcDbSymbolTable
 70
     0
  0
ENDTAB
  0
TABLE
  2
APPID
  5
9
330
0
100
AcDbSymbolTable
 70
     1
  0
APPID
  5
12
330
9
100
AcDbSymbolTableRecord
100
AcDbRegAppTableRecord
  2
ACAD
 70
     0
  0
ENDTAB
  0
TABLE
  2
DIMSTYLE
  5
A
330
0
100
AcDbSymbolTable
 70
    16
100
AcDbDimStyleTable
  0
DIMSTYLE
105
27
330
A
100
AcDbSymbolTableRecord
100
AcDbDimStyleTableRecord
  2
Standard
 70
     0
340
11
  0
DIMSTYLE
105
12A
102
{ACAD_REACTORS
330
12B
102
}
330
A
100
AcDbSymbolTableRecord
100
AcDbDimStyleTableRecord
  2
ME10_DIM_10
 70
     0
 41
3.5
 42
0.0
 44
2.0
 73
     0
 74
     0
 77
     1
 78
     8
140
3.5
147
2.0
172
     1
173
     1
176
     2
177
     2
178
     2
271
     2
340
11D
  0
DIMSTYLE
105
135
102
{ACAD_REACTORS
330
136
102
}
330
A
100
AcDbSymbolTableRecord
100
AcDbDimStyleTableRecord
  2
ME10_DIM_11
 70
     0
  3
min.<>
 41
3.5
 42
0.0
 44
2.0
 73
     0
 74
     0
 77
     1
 78
     8
140
3.5
147
2.0
172
     1
173
     1
176
     2
177
     2
178
     2
271
     2
340
11D
  0
DIMSTYLE
105
140
102
{ACAD_REACTORS
330
141
102
}
330
A
100
AcDbSymbolTableRecord
100
AcDbDimStyleTableRecord
  2
ME10_DIM_12
 70
     0
 41
3.5
 42
0.0
 44
2.0
 73
     0
 74
     0
 77
     1
 78
     8
140
3.5
147
2.0
172
     1
173
     1
176
     2
177
     2
178
     2
271
     2
340
11D
  0
DIMSTYLE
105
14D
102
{ACAD_REACTORS
330
14E
102
}
330
A
100
AcDbSymbolTableRecord
100
AcDbDimStyleTableRecord
  2
ME10_DIM_13
 70
     0
  3
...5
 41
3.5
 42
0.0
 44
2.0
 73
     0
 74
     0
 77
     1
 78
     8
140
3.5
147
2.0
172
     1
173
     1
176
     2
177
     2
178
     2
271
     2
340
11D
  0
DIMSTYLE
105
15A
102
{ACAD_REACTORS
330
15B
102
}
330
A
100
AcDbSymbolTableRecord
100
AcDbDimStyleTableRecord
  2
ME10_DIM_14
 70
     0
  3
...5
 41
3.5
 42
0.0
 44
2.0
 73
     0
 74
     0
 77
     1
 78
     8
140
3.5
147
2.0
172
     1
173
     1
176
     2
177
     2
178
     2
271
     2
340
11D
  0
DIMSTYLE
105
165
102
{ACAD_REACTORS
330
166
102
}
330
A
100
AcDbSymbolTableRecord
100
AcDbDimStyleTableRecord
  2
ME10_DIM_15
 70
     0
 41
3.5
 42
0.0
 44
2.0
 73
     0
 74
     0
 77
     1
 78
     8
140
3.5
147
2.0
172
     1
173
     1
176
     2
177
     2
178
     2
271
     2
340
11D
  0
DIMSTYLE
105
170
102
{ACAD_REACTORS
330
171
102
}
330
A
100
AcDbSymbolTableRecord
100
AcDbDimStyleTableRecord
  2
ME10_DIM_16
 70
     0
 41
3.5
 42
0.0
 44
2.0
 73
     0
 74
     0
 77
     1
 78
     8
140
3.5
147
2.0
172
     1
173
     1
176
     2
177
     2
178
     2
271
     2
340
11D
  0
DIMSTYLE
105
17B
102
{ACAD_REACTORS
330
17C
102
}
330
A
100
AcDbSymbolTableRecord
100
AcDbDimStyleTableRecord
  2
ME10_DIM_17
 70
     0
 41
3.5
 42
0.0
 44
2.0
 73
     0
 74
     0
 77
     1
 78
     8
140
3.5
147
2.0
172
     1
173
     1
176
     2
177
     2
178
     2
271
     2
340
11D
  0
DIMSTYLE
105
186
102
{ACAD_REACTORS
330
187
102
}
330
A
100
AcDbSymbolTableRecord
100
AcDbDimStyleTableRecord
  2
ME10_DIM_18
 70
     0
 41
3.5
 42
0.0
 44
2.0
 73
     0
 74
     0
 77
     1
 78
     8
140
3.5
147
2.0
172
     1
173
     1
176
     2
177
     2
178
     2
271
     2
340
11D
  0
DIMSTYLE
105
191
102
{ACAD_REACTORS
330
192
102
}
330
A
100
AcDbSymbolTableRecord
100
AcDbDimStyleTableRecord
  2
ME10_DIM_19
 70
     0
 41
3.5
 42
0.0
 44
2.0
 73
     0
 74
     0
 77
     1
 78
     8
140
3.5
147
2.0
172
     1
173
     1
176
     2
177
     2
178
     2
271
     3
340
11D
  0
DIMSTYLE
105
19C
102
{ACAD_REACTORS
330
19D
102
}
330
A
100
AcDbSymbolTableRecord
100
AcDbDimStyleTableRecord
  2
ME10_DIM_20
 70
     0
 41
3.5
 42
0.0
 44
2.0
 73
     0
 74
     0
 77
     1
 78
     8
140
3.5
147
2.0
172
     1
173
     1
176
     2
177
     2
178
     2
271
     3
340
11D
  0
DIMSTYLE
105
1A7
102
{ACAD_REACTORS
330
1A8
102
}
330
A
100
AcDbSymbolTableRecord
100
AcDbDimStyleTableRecord
  2
ME10_DIM_21
 70
     0
 41
3.5
 42
0.0
 44
2.0
 73
     0
 74
     0
 77
     1
 78
     8
140
3.5
147
2.0
172
     1
173
     1
176
     2
177
     2
178
     2
271
     3
340
11D
  0
DIMSTYLE
105
1B2
102
{ACAD_REACTORS
330
1B3
102
}
330
A
100
AcDbSymbolTableRecord
100
AcDbDimStyleTableRecord
  2
ME10_DIM_22
 70
     0
 41
3.5
 42
0.0
 44
2.0
 73
     0
 74
     0
 77
     1
 78
     8
140
3.5
147
2.0
172
     1
173
     1
176
     2
177
     2
178
     2
271
     3
340
11D
  0
DIMSTYLE
105
1BF
102
{ACAD_REACTORS
330
1C0
102
}
330
A
100
AcDbSymbolTableRecord
100
AcDbDimStyleTableRecord
  2
ME10_DIM_23
 70
     0
 41
3.5
 42
0.0
 44
2.0
 73
     0
 74
     0
 77
     1
 78
     8
140
3.5
147
2.0
172
     1
173
     1
176
     2
177
     2
178
     2
271
     2
340
11D
  0
DIMSTYLE
105
1CA
102
{ACAD_REACTORS
330
1CB
102
}
330
A
100
AcDbSymbolTableRecord
100
AcDbDimStyleTableRecord
  2
ME10_DIM_24
 70
     0
 41
3.5
 42
0.0
 44
2.0
 73
     0
 74
     0
 77
     1
 78
     8
140
3.5
147
2.0
172
     1
173
     1
176
     2
177
     2
178
     2
271
     2
340
11D
  0
ENDTAB
  0
TABLE
  2
BLOCK_RECORD
  5
1
330
0
100
AcDbSymbolTable
 70
    22
  0
BLOCK_RECORD
  5
1F
330
1
100
AcDbSymbolTableRecord
100
AcDbBlockTableRecord
  2
*Model_Space
340
22
  0
BLOCK_RECORD
  5
1B
330
1
100
AcDbSymbolTableRecord
100
AcDbBlockTableRecord
  2
*Paper_Space
340
1E
  0
BLOCK_RECORD
  5
23
330
1
100
AcDbSymbolTableRecord
100
AcDbBlockTableRecord
  2
*Paper_Space0
340
26
  0
BLOCK_RECORD
  5
32
330
1
100
AcDbSymbolTableRecord
100
AcDbBlockTableRecord
  2
FL
340
0
102
{BLKREFS
331
3C
102
}
  0
BLOCK_RECORD
  5
35
330
1
100
AcDbSymbolTableRecord
100
AcDbBlockTableRecord
  2
A
340
0
102
{BLKREFS
331
39
102
}
  0
BLOCK_RECORD
  5
38
330
1
100
AcDbSymbolTableRecord
100
AcDbBlockTableRecord
  2
RA
340
0
102
{BLKREFS
331
3D
102
}
  0
BLOCK_RECORD
  5
121
330
1
100
AcDbSymbolTableRecord
100
AcDbBlockTableRecord
  2
*D4
340
0
  0
BLOCK_RECORD
  5
12C
330
1
100
AcDbSymbolTableRecord
100
AcDbBlockTableRecord
  2
*D5
340
0
  0
BLOCK_RECORD
  5
137
330
1
100
AcDbSymbolTableRecord
100
AcDbBlockTableRecord
  2
*D6
340
0
  0
BLOCK_RECORD
  5
142
330
1
100
AcDbSymbolTableRecord
100
AcDbBlockTableRecord
  2
*D7
340
0
  0
BLOCK_RECORD
  5
14F
330
1
100
AcDbSymbolTableRecord
100
AcDbBlockTableRecord
  2
*D8
340
0
  0
BLOCK_RECORD
  5
15C
330
1
100
AcDbSymbolTableRecord
100
AcDbBlockTableRecord
  2
*D9
340
0
  0
BLOCK_RECORD
  5
167
330
1
100
AcDbSymbolTableRecord
100
AcDbBlockTableRecord
  2
*D10
340
0
  0
BLOCK_RECORD
  5
172
330
1
100
AcDbSymbolTableRecord
100
AcDbBlockTableRecord
  2
*D11
340
0
  0
BLOCK_RECORD
  5
17D
330
1
100
AcDbSymbolTableRecord
100
AcDbBlockTableRecord
  2
*D12
340
0
  0
BLOCK_RECORD
  5
188
330
1
100
AcDbSymbolTableRecord
100
AcDbBlockTableRecord
  2
*D13
340
0
  0
BLOCK_RECORD
  5
193
330
1
100
AcDbSymbolTableRecord
100
AcDbBlockTableRecord
  2
*D14
340
0
  0
BLOCK_RECORD
  5
19E
330
1
100
AcDbSymbolTableRecord
100
AcDbBlockTableRecord
  2
*D15
340
0
  0
BLOCK_RECORD
  5
1A9
330
1
100
AcDbSymbolTableRecord
100
AcDbBlockTableRecord
  2
*D16
340
0
  0
BLOCK_RECORD
  5
1B4
330
1
100
AcDbSymbolTableRecord
100
AcDbBlockTableRecord
  2
*D17
340
0
  0
BLOCK_RECORD
  5
1C1
330
1
100
AcDbSymbolTableRecord
100
AcDbBlockTableRecord
  2
*D18
340
0
  0
BLOCK_RECORD
  5
1CC
330
1
100
AcDbSymbolTableRecord
100
AcDbBlockTableRecord
  2
*D19
340
0
102
{BLKREFS
331
1D2
102
}
  0
BLOCK_RECORD
  5
1D3
330
1
100
AcDbSymbolTableRecord
100
AcDbBlockTableRecord
  2
*D20
340
0
102
{BLKREFS
331
1D9
102
}
  0
BLOCK_RECORD
  5
1DA
330
1
100
AcDbSymbolTableRecord
100
AcDbBlockTableRecord
  2
*D21
340
0
102
{BLKREFS
331
1E1
102
}
  0
ENDTAB
  0
ENDSEC
  0
SECTION
  2
BLOCKS
  0
BLOCK
  5
20
330
1F
100
AcDbEntity
  8
0
100
AcDbBlockBegin
  2
*Model_Space
 70
     0
 71
     0
 10
0.0
 20
0.0
 30
0.0
  3
*Model_Space
  1

  0
ENDBLK
  5
21
330
1F
100
AcDbEntity
  8
0
100
AcDbBlockEnd
  0
BLOCK
  5
1C
330
1B
100
AcDbEntity
 67
     1
  8
0
100
AcDbBlockBegin
  2
*Paper_Space
 70
     0
 71
     0
 10
0.0
 20
0.0
 30
0.0
  3
*Paper_Space
  1

  0
ENDBLK
  5
1D
330
1B
100
AcDbEntity
 67
     1
  8
0
100
AcDbBlockEnd
  0
BLOCK
  5
24
330
23
100
AcDbEntity
  8
0
100
AcDbBlockBegin
  2
*Paper_Space0
 70
     0
 71
     0
 10
0.0
 20
0.0
 30
0.0
  3
*Paper_Space0
  1

  0
ENDBLK
  5
25
330
23
100
AcDbEntity
  8
0
100
AcDbBlockEnd
  0
BLOCK
  5
33
330
32
100
AcDbEntity
  8
0
100
AcDbBlockBegin
  2
FL
 70
     0
 71
     0
 10
535.8134114828082
 20
30.29464136638865
 30
0.0
  3
FL
  1

  0
ENDBLK
  5
34
330
32
100
AcDbEntity
  8
0
100
AcDbBlockEnd
  0
BLOCK
  5
36
330
35
100
AcDbEntity
  8
0
100
AcDbBlockBegin
  2
A
 70
     0
 71
     0
 10
429.1957279141113
 20
-52.24693273133689
 30
0.0
  3
A
  1

  0
ENDBLK
  5
37
330
35
100
AcDbEntity
  8
0
100
AcDbBlockEnd
  0
BLOCK
  5
3A
330
38
100
AcDbEntity
  8
0
100
AcDbBlockBegin
  2
RA
 70
     0
 71
     0
 10
368.9654402972519
 20
1.37035763478835
 30
0.0
  3
RA
  1

  0
INSERT
  5
39
330
38
100
AcDbEntity
  8
0
100
AcDbBlockReference
  2
A
 10
429.1957279141113
 20
-52.24693273133689
 30
0.0
  0
ENDBLK
  5
3B
330
38
100
AcDbEntity
  8
0
100
AcDbBlockEnd
  0
BLOCK
  5
128
330
121
100
AcDbEntity
  8
0
100
AcDbBlockBegin
  2
*D4
 70
     1
 71
     0
 10
0.0
 20
0.0
 30
0.0
  3
*D4
  1

  0
LINE
  5
122
330
121
100
AcDbEntity
  8
1
  6
Continuous
 62
     2
100
AcDbLine
 10
539.9737945543541
 20
-44.92239266876233
 30
0.0
 11
539.9737945543541
 21
51.57760733123767
 31
0.0
  0
LINE
  5
123
330
121
100
AcDbEntity
  8
1
  6
Continuous
 62
     2
100
AcDbLine
 10
517.0075345846553
 20
-44.92239266876233
 30
0.0
 11
541.9737945543541
 21
-44.92239266876233
 31
0.0
  0
LINE
  5
124
330
121
100
AcDbEntity
  8
1
  6
Continuous
 62
     2
100
AcDbLine
 10
517.0075345846553
 20
51.57760733123767
 30
0.0
 11
541.9737945543541
 21
51.57760733123767
 31
0.0
  0
SOLID
  5
125
330
121
100
AcDbEntity
  8
1
 62
     2
100
AcDbTrace
 10
540.43457829591
 20
48.07760733123767
 30
0.0
 11
539.5130108127981
 21
48.07760733123767
 31
0.0
 12
539.9737945543541
 22
51.57760733123767
 32
0.0
 13
539.9737945543541
 23
51.57760733123767
 33
0.0
  0
SOLID
  5
126
330
121
100
AcDbEntity
  8
1
 62
     2
100
AcDbTrace
 10
539.5130108127981
 20
-41.42239266876233
 30
0.0
 11
540.43457829591
 21
-41.42239266876233
 31
0.0
 12
539.9737945543541
 22
-44.92239266876233
 32
0.0
 13
539.9737945543541
 23
-44.92239266876233
 33
0.0
  0
MTEXT
  5
127
330
121
100
AcDbEntity
  8
1
 62
     2
100
AcDbMText
 10
537.9737945543541
 20
-7.68942275242953
 30
0.0
 40
3.5
 41
0.0
 71
     7
 72
     1
  1
96.5
  7
CONVERTER_11
 11
0.0
 21
1.0
 31
0.0
 73
     1
 44
0.60024009603842
  0
ENDBLK
  5
129
330
121
100
AcDbEntity
  8
0
100
AcDbBlockEnd
  0
BLOCK
  5
133
330
12C
100
AcDbEntity
  8
0
100
AcDbBlockBegin
  2
*D5
 70
     1
 71
     0
 10
0.0
 20
0.0
 30
0.0
  3
*D5
  1

  0
LINE
  5
12D
330
12C
100
AcDbEntity
  8
1
  6
Continuous
 62
     2
100
AcDbLine
 10
390.6957279141109
 20
-82.83187466673789
 30
0.0
 11
430.6957279141114
 21
-82.83187466673789
 31
0.0
  0
LINE
  5
12E
330
12C
100
AcDbEntity
  8
1
  6
Continuous
 62
     2
100
AcDbLine
 10
390.6957279141109
 20
-69.24693273133693
 30
0.0
 11
390.6957279141109
 21
-84.83187466673789
 31
0.0
  0
LINE
  5
12F
330
12C
100
AcDbEntity
  8
1
  6
Continuous
 62
     2
100
AcDbLine
 10
430.6957279141114
 20
-69.24693273133687
 30
0.0
 11
430.6957279141114
 21
-84.83187466673789
 31
0.0
  0
SOLID
  5
130
330
12C
100
AcDbEntity
  8
1
 62
     2
100
AcDbTrace
 10
394.1957279141109
 20
-82.371090925182
 30
0.0
 11
394.1957279141109
 21
-83.29265840829378
 31
0.0
 12
390.6957279141109
 22
-82.83187466673789
 32
0.0
 13
390.6957279141109
 23
-82.83187466673789
 33
0.0
  0
SOLID
  5
131
330
12C
100
AcDbEntity
  8
1
 62
     2
100
AcDbTrace
 10
427.1957279141114
 20
-83.29265840829378
 30
0.0
 11
427.1957279141114
 21
-82.371090925182
 31
0.0
 12
430.6957279141114
 22
-82.83187466673789
 32
0.0
 13
430.6957279141114
 23
-82.83187466673789
 33
0.0
  0
MTEXT
  5
132
330
12C
100
AcDbEntity
  8
1
 62
     2
100
AcDbMText
 10
403.2526523258542
 20
-80.83190249504318
 30
0.0
 40
3.5
 41
0.0
 71
     7
 72
     1
  1
\C2;min.\C2;40
  7
CONVERTER_11
 11
0.9999999999970621
 21
2.424068405545307E-6
 31
0.0
 73
     1
 44
0.60024009603842
  0
ENDBLK
  5
134
330
12C
100
AcDbEntity
  8
0
100
AcDbBlockEnd
  0
BLOCK
  5
13E
330
137
100
AcDbEntity
  8
0
100
AcDbBlockBegin
  2
*D6
 70
     1
 71
     0
 10
0.0
 20
0.0
 30
0.0
  3
*D6
  1

  0
LINE
  5
138
330
137
100
AcDbEntity
  8
1
  6
Continuous
 62
     2
100
AcDbLine
 10
286.267521477666
 20
-67.17239266876234
 30
0.0
 11
286.267521477666
 21
73.82760733123766
 31
0.0
  0
LINE
  5
139
330
137
100
AcDbEntity
  8
1
  6
Continuous
 62
     2
100
AcDbLine
 10
315.4024483117452
 20
73.82760733123766
 30
0.0
 11
284.267521477666
 21
73.82760733123766
 31
0.0
  0
LINE
  5
13A
330
137
100
AcDbEntity
  8
1
  6
Continuous
 62
     2
100
AcDbLine
 10
315.4024483117452
 20
-67.17239266876234
 30
0.0
 11
284.267521477666
 21
-67.17239266876234
 31
0.0
  0
SOLID
  5
13B
330
137
100
AcDbEntity
  8
1
 62
     2
100
AcDbTrace
 10
286.7283052192219
 20
70.32760733123766
 30
0.0
 11
285.8067377361101
 21
70.32760733123766
 31
0.0
 12
286.267521477666
 22
73.82760733123766
 32
0.0
 13
286.267521477666
 23
73.82760733123766
 33
0.0
  0
SOLID
  5
13C
330
137
100
AcDbEntity
  8
1
 62
     2
100
AcDbTrace
 10
285.8067377361101
 20
-63.67239266876234
 30
0.0
 11
286.7283052192219
 21
-63.67239266876234
 31
0.0
 12
286.267521477666
 22
-67.17239266876234
 32
0.0
 13
286.267521477666
 23
-67.17239266876234
 33
0.0
  0
MTEXT
  5
13D
330
137
100
AcDbEntity
  8
1
 62
     2
100
AcDbMText
 10
284.267521477666
 20
-0.88613692760968
 30
0.0
 40
3.5
 41
0.0
 71
     7
 72
     1
  1
141
  7
CONVERTER_11
 11
0.0
 21
1.0
 31
0.0
 73
     1
 44
0.60024009603842
  0
ENDBLK
  5
13F
330
137
100
AcDbEntity
  8
0
100
AcDbBlockEnd
  0
BLOCK
  5
14B
330
142
100
AcDbEntity
  8
0
100
AcDbBlockBegin
  2
*D7
 70
     1
 71
     0
 10
0.0
 20
0.0
 30
0.0
  3
*D7
  1

  0
LINE
  5
143
330
142
100
AcDbEntity
  8
1
  6
Continuous
 62
     2
100
AcDbLine
 10
457.796914628181
 20
-82.94814920836546
 30
0.0
 11
457.796914628181
 21
-71.24693273133687
 31
0.0
  0
LINE
  5
144
330
142
100
AcDbEntity
  8
1
  6
Continuous
 62
     2
100
AcDbLine
 10
457.796914628181
 20
-71.24693273133687
 30
0.0
 11
457.796914628181
 21
-67.24693273133707
 31
0.0
  0
LINE
  5
145
330
142
100
AcDbEntity
  8
1
  6
Continuous
 62
     2
100
AcDbLine
 10
457.796914628181
 20
-67.24693273133707
 30
0.0
 11
457.796914628181
 21
-60.24693273133707
 31
0.0
  0
LINE
  5
146
330
142
100
AcDbEntity
  8
1
  6
Continuous
 62
     2
100
AcDbLine
 10
479.1957279141109
 20
-71.24693273133687
 30
0.0
 11
455.796914628181
 21
-71.24693273133687
 31
0.0
  0
LINE
  5
147
330
142
100
AcDbEntity
  8
1
  6
Continuous
 62
     2
100
AcDbLine
 10
466.1957279141108
 20
-67.24693273133707
 30
0.0
 11
455.796914628181
 21
-67.24693273133707
 31
0.0
  0
SOLID
  5
148
330
142
100
AcDbEntity
  8
1
 62
     2
100
AcDbTrace
 10
458.2576983697369
 20
-74.74693273133687
 30
0.0
 11
457.3361308866251
 21
-74.74693273133687
 31
0.0
 12
457.796914628181
 22
-71.24693273133687
 32
0.0
 13
457.796914628181
 23
-71.24693273133687
 33
0.0
  0
SOLID
  5
149
330
142
100
AcDbEntity
  8
1
 62
     2
100
AcDbTrace
 10
457.3361308866251
 20
-63.74693273133707
 30
0.0
 11
458.2576983697369
 21
-63.74693273133707
 31
0.0
 12
457.796914628181
 22
-67.24693273133707
 32
0.0
 13
457.796914628181
 23
-67.24693273133707
 33
0.0
  0
MTEXT
  5
14A
330
142
100
AcDbEntity
  8
1
 62
     2
100
AcDbMText
 10
455.796914628181
 20
-82.94814920836546
 30
0.0
 40
3.5
 41
0.0
 71
     7
 72
     1
  1
\C2;4\C2;...5
  7
CONVERTER_11
 11
0.0
 21
1.0
 31
0.0
 73
     1
 44
0.60024009603842
  0
ENDBLK
  5
14C
330
142
100
AcDbEntity
  8
0
100
AcDbBlockEnd
  0
BLOCK
  5
158
330
14F
100
AcDbEntity
  8
0
100
AcDbBlockBegin
  2
*D8
 70
     1
 71
     0
 10
0.0
 20
0.0
 30
0.0
  3
*D8
  1

  0
LINE
  5
150
330
14F
100
AcDbEntity
  8
1
  6
Continuous
 62
     2
100
AcDbLine
 10
522.0075345846553
 20
-110.8346627757187
 30
0.0
 11
529.0075345846553
 21
-110.8346627757187
 31
0.0
  0
LINE
  5
151
330
14F
100
AcDbEntity
  8
1
  6
Continuous
 62
     2
100
AcDbLine
 10
529.0075345846553
 20
-110.8346627757187
 30
0.0
 11
533.0075345846553
 21
-110.8346627757187
 31
0.0
  0
LINE
  5
152
330
14F
100
AcDbEntity
  8
1
  6
Continuous
 62
     2
100
AcDbLine
 10
533.0075345846553
 20
-110.8346627757187
 30
0.0
 11
545.669771368856
 21
-110.8346627757187
 31
0.0
  0
LINE
  5
153
330
14F
100
AcDbEntity
  8
1
  6
Continuous
 62
     2
100
AcDbLine
 10
529.0075345846553
 20
-52.92239266876236
 30
0.0
 11
529.0075345846553
 21
-112.8346627757187
 31
0.0
  0
LINE
  5
154
330
14F
100
AcDbEntity
  8
1
  6
Continuous
 62
     2
100
AcDbLine
 10
533.0075345846553
 20
-96.67239266876237
 30
0.0
 11
533.0075345846553
 21
-112.8346627757187
 31
0.0
  0
SOLID
  5
155
330
14F
100
AcDbEntity
  8
1
 62
     2
100
AcDbTrace
 10
525.5075345846553
 20
-111.2954465172746
 30
0.0
 11
525.5075345846553
 21
-110.3738790341628
 31
0.0
 12
529.0075345846553
 22
-110.8346627757187
 32
0.0
 13
529.0075345846553
 23
-110.8346627757187
 33
0.0
  0
SOLID
  5
156
330
14F
100
AcDbEntity
  8
1
 62
     2
100
AcDbTrace
 10
536.5075345846553
 20
-110.3738790341628
 30
0.0
 11
536.5075345846553
 21
-111.2954465172746
 31
0.0
 12
533.0075345846553
 22
-110.8346627757187
 32
0.0
 13
533.0075345846553
 23
-110.8346627757187
 33
0.0
  0
MTEXT
  5
157
330
14F
100
AcDbEntity
  8
1
 62
     2
100
AcDbMText
 10
536.307271368856
 20
-108.9330663646337
 30
0.0
 40
3.5
 41
0.0
 71
     7
 72
     1
  1
\C2;4\C2;...5
  7
CONVERTER_11
 11
0.9999999999970621
 21
2.424068405545307E-6
 31
0.0
 73
     1
 44
0.60024009603842
  0
ENDBLK
  5
159
330
14F
100
AcDbEntity
  8
0
100
AcDbBlockEnd
  0
BLOCK
  5
163
330
15C
100
AcDbEntity
  8
0
100
AcDbBlockBegin
  2
*D9
 70
     1
 71
     0
 10
0.0
 20
0.0
 30
0.0
  3
*D9
  1

  0
LINE
  5
15D
330
15C
100
AcDbEntity
  8
1
  6
Continuous
 62
     2
100
AcDbLine
 10
585.7208680783832
 20
-116.6719531886357
 30
0.0
 11
617.7208680783832
 21
-116.6719531886357
 31
0.0
  0
LINE
  5
15E
330
15C
100
AcDbEntity
  8
1
  6
Continuous
 62
     2
100
AcDbLine
 10
585.7208680783832
 20
-44.92239266876236
 30
0.0
 11
585.7208680783832
 21
-118.6719531886357
 31
0.0
  0
LINE
  5
15F
330
15C
100
AcDbEntity
  8
1
  6
Continuous
 62
     2
100
AcDbLine
 10
617.7208680783832
 20
-61.67239266876233
 30
0.0
 11
617.7208680783832
 21
-118.6719531886357
 31
0.0
  0
SOLID
  5
160
330
15C
100
AcDbEntity
  8
1
 62
     2
100
AcDbTrace
 10
614.2208680783832
 20
-117.1327369301916
 30
0.0
 11
614.2208680783832
 21
-116.2111694470798
 31
0.0
 12
617.7208680783832
 22
-116.6719531886357
 32
0.0
 13
617.7208680783832
 23
-116.6719531886357
 33
0.0
  0
SOLID
  5
161
330
15C
100
AcDbEntity
  8
1
 62
     2
100
AcDbTrace
 10
589.2208680783832
 20
-116.2111694470798
 30
0.0
 11
589.2208680783832
 21
-117.1327369301916
 31
0.0
 12
585.7208680783832
 22
-116.6719531886357
 32
0.0
 13
585.7208680783832
 23
-116.6719531886357
 33
0.0
  0
MTEXT
  5
162
330
15C
100
AcDbEntity
  8
1
 62
     2
100
AcDbMText
 10
599.045483485137
 20
-114.6719531886357
 30
0.0
 40
3.5
 41
0.0
 71
     7
 72
     1
  1
32
  7
CONVERTER_11
 11
0.9999999999970621
 21
2.424068405545307E-6
 31
0.0
 73
     1
 44
0.60024009603842
  0
ENDBLK
  5
164
330
15C
100
AcDbEntity
  8
0
100
AcDbBlockEnd
  0
BLOCK
  5
16E
330
167
100
AcDbEntity
  8
0
100
AcDbBlockBegin
  2
*D10
 70
     1
 71
     0
 10
0.0
 20
0.0
 30
0.0
  3
*D10
  1

  0
LINE
  5
168
330
167
100
AcDbEntity
  8
1
  6
Continuous
 62
     2
100
AcDbLine
 10
607.7208680783832
 20
-105.8346627757187
 30
0.0
 11
617.7208680783832
 21
-105.8346627757187
 31
0.0
  0
LINE
  5
169
330
167
100
AcDbEntity
  8
1
  6
Continuous
 62
     2
100
AcDbLine
 10
607.7208680783832
 20
-61.67239266876233
 30
0.0
 11
607.7208680783832
 21
-107.8346627757187
 31
0.0
  0
LINE
  5
16A
330
167
100
AcDbEntity
  8
1
  6
Continuous
 62
     2
100
AcDbLine
 10
617.7208680783832
 20
-96.67239266876236
 30
0.0
 11
617.7208680783832
 21
-107.8346627757187
 31
0.0
  0
SOLID
  5
16B
330
167
100
AcDbEntity
  8
1
 62
     2
100
AcDbTrace
 10
611.2208680783832
 20
-105.3738790341628
 30
0.0
 11
611.2208680783832
 21
-106.2954465172746
 31
0.0
 12
607.7208680783832
 22
-105.8346627757187
 32
0.0
 13
607.7208680783832
 23
-105.8346627757187
 33
0.0
  0
SOLID
  5
16C
330
167
100
AcDbEntity
  8
1
 62
     2
100
AcDbTrace
 10
614.2208680783832
 20
-106.2954465172746
 30
0.0
 11
614.2208680783832
 21
-105.3738790341628
 31
0.0
 12
617.7208680783832
 22
-105.8346627757187
 32
0.0
 13
617.7208680783832
 23
-105.8346627757187
 33
0.0
  0
MTEXT
  5
16D
330
167
100
AcDbEntity
  8
1
 62
     2
100
AcDbMText
 10
610.139356414393
 20
-103.8346627757187
 30
0.0
 40
3.5
 41
0.0
 71
     7
 72
     1
  1
10
  7
CONVERTER_11
 11
0.9999999999970621
 21
2.424068405545307E-6
 31
0.0
 73
     1
 44
0.60024009603842
  0
ENDBLK
  5
16F
330
167
100
AcDbEntity
  8
0
100
AcDbBlockEnd
  0
BLOCK
  5
179
330
172
100
AcDbEntity
  8
0
100
AcDbBlockBegin
  2
*D11
 70
     1
 71
     0
 10
0.0
 20
0.0
 30
0.0
  3
*D11
  1

  0
LINE
  5
173
330
172
100
AcDbEntity
  8
1
  6
Continuous
 62
     2
100
AcDbLine
 10
562.739426486748
 20
-66.67239266876234
 30
0.0
 11
562.739426486748
 21
73.32760733123766
 31
0.0
  0
LINE
  5
174
330
172
100
AcDbEntity
  8
1
  6
Continuous
 62
     2
100
AcDbLine
 10
515.2575345846553
 20
-66.67239266876234
 30
0.0
 11
564.739426486748
 21
-66.67239266876234
 31
0.0
  0
LINE
  5
175
330
172
100
AcDbEntity
  8
1
  6
Continuous
 62
     2
100
AcDbLine
 10
515.2575345846553
 20
73.32760733123766
 30
0.0
 11
564.739426486748
 21
73.32760733123766
 31
0.0
  0
SOLID
  5
176
330
172
100
AcDbEntity
  8
1
 62
     2
100
AcDbTrace
 10
563.200210228304
 20
69.82760733123766
 30
0.0
 11
562.2786427451921
 21
69.82760733123766
 31
0.0
 12
562.739426486748
 22
73.32760733123766
 32
0.0
 13
562.739426486748
 23
73.32760733123766
 33
0.0
  0
SOLID
  5
177
330
172
100
AcDbEntity
  8
1
 62
     2
100
AcDbTrace
 10
562.2786427451921
 20
-63.17239266876234
 30
0.0
 11
563.200210228304
 21
-63.17239266876234
 31
0.0
 12
562.739426486748
 22
-66.67239266876234
 32
0.0
 13
562.739426486748
 23
-66.67239266876234
 33
0.0
  0
MTEXT
  5
178
330
172
100
AcDbEntity
  8
1
 62
     2
100
AcDbMText
 10
560.739426486748
 20
-1.63173797017821
 30
0.0
 40
3.5
 41
0.0
 71
     7
 72
     1
  1
140
  7
CONVERTER_11
 11
0.0
 21
1.0
 31
0.0
 73
     1
 44
0.60024009603842
  0
ENDBLK
  5
17A
330
172
100
AcDbEntity
  8
0
100
AcDbBlockEnd
  0
BLOCK
  5
184
330
17D
100
AcDbEntity
  8
0
100
AcDbBlockBegin
  2
*D12
 70
     1
 71
     0
 10
0.0
 20
0.0
 30
0.0
  3
*D12
  1

  0
LINE
  5
17E
330
17D
100
AcDbEntity
  8
1
  6
Continuous
 62
     2
100
AcDbLine
 10
501.5075345846553
 20
-110.8346627757187
 30
0.0
 11
529.0075345846553
 21
-110.8346627757187
 31
0.0
  0
LINE
  5
17F
330
17D
100
AcDbEntity
  8
1
  6
Continuous
 62
     2
100
AcDbLine
 10
501.5075345846553
 20
-52.92239266876233
 30
0.0
 11
501.5075345846553
 21
-112.8346627757187
 31
0.0
  0
LINE
  5
180
330
17D
100
AcDbEntity
  8
1
  6
Continuous
 62
     2
100
AcDbLine
 10
529.0075345846553
 20
-52.92239266876233
 30
0.0
 11
529.0075345846553
 21
-112.8346627757187
 31
0.0
  0
SOLID
  5
181
330
17D
100
AcDbEntity
  8
1
 62
     2
100
AcDbTrace
 10
505.0075345846553
 20
-110.3738790341628
 30
0.0
 11
505.0075345846553
 21
-111.2954465172746
 31
0.0
 12
501.5075345846553
 22
-110.8346627757187
 32
0.0
 13
501.5075345846553
 23
-110.8346627757187
 33
0.0
  0
SOLID
  5
182
330
17D
100
AcDbEntity
  8
1
 62
     2
100
AcDbTrace
 10
525.5075345846553
 20
-111.2954465172746
 30
0.0
 11
525.5075345846553
 21
-110.3738790341628
 31
0.0
 12
529.0075345846553
 22
-110.8346627757187
 32
0.0
 13
529.0075345846553
 23
-110.8346627757187
 33
0.0
  0
MTEXT
  5
183
330
17D
100
AcDbEntity
  8
1
 62
     2
100
AcDbMText
 10
510.635381054309
 20
-108.8346627757187
 30
0.0
 40
3.5
 41
0.0
 71
     7
 72
     1
  1
27.5
  7
CONVERTER_11
 11
0.9999999999970621
 21
2.424068405545307E-6
 31
0.0
 73
     1
 44
0.60024009603842
  0
ENDBLK
  5
185
330
17D
100
AcDbEntity
  8
0
100
AcDbBlockEnd
  0
BLOCK
  5
18F
330
188
100
AcDbEntity
  8
0
100
AcDbBlockBegin
  2
*D13
 70
     1
 71
     0
 10
0.0
 20
0.0
 30
0.0
  3
*D13
  1

  0
LINE
  5
189
330
188
100
AcDbEntity
  8
1
  6
Continuous
 62
     2
100
AcDbLine
 10
547.334111645278
 20
-46.67239266876234
 30
0.0
 11
547.334111645278
 21
53.32760733123766
 31
0.0
  0
LINE
  5
18A
330
188
100
AcDbEntity
  8
1
  6
Continuous
 62
     2
100
AcDbLine
 10
518.0335519212149
 20
-46.67239266876234
 30
0.0
 11
549.334111645278
 21
-46.67239266876234
 31
0.0
  0
LINE
  5
18B
330
188
100
AcDbEntity
  8
1
  6
Continuous
 62
     2
100
AcDbLine
 10
518.0335519212149
 20
53.32760733123766
 30
0.0
 11
549.334111645278
 21
53.32760733123766
 31
0.0
  0
SOLID
  5
18C
330
188
100
AcDbEntity
  8
1
 62
     2
100
AcDbTrace
 10
547.7948953868339
 20
49.82760733123766
 30
0.0
 11
546.873327903722
 21
49.82760733123766
 31
0.0
 12
547.334111645278
 22
53.32760733123766
 32
0.0
 13
547.334111645278
 23
53.32760733123766
 33
0.0
  0
SOLID
  5
18D
330
188
100
AcDbEntity
  8
1
 62
     2
100
AcDbTrace
 10
546.873327903722
 20
-43.17239266876234
 30
0.0
 11
547.7948953868339
 21
-43.17239266876234
 31
0.0
 12
547.334111645278
 22
-46.67239266876234
 32
0.0
 13
547.334111645278
 23
-46.67239266876234
 33
0.0
  0
MTEXT
  5
18E
330
188
100
AcDbEntity
  8
1
 62
     2
100
AcDbMText
 10
545.334111645278
 20
-1.80290813508343
 30
0.0
 40
3.5
 41
0.0
 71
     7
 72
     1
  1
100
  7
CONVERTER_11
 11
0.0
 21
1.0
 31
0.0
 73
     1
 44
0.60024009603842
  0
ENDBLK
  5
190
330
188
100
AcDbEntity
  8
0
100
AcDbBlockEnd
  0
BLOCK
  5
19A
330
193
100
AcDbEntity
  8
0
100
AcDbBlockBegin
  2
*D14
 70
     1
 71
     0
 10
0.0
 20
0.0
 30
0.0
  3
*D14
  1

  0
LINE
  5
194
330
193
100
AcDbEntity
  8
1
  6
Continuous
 62
     2
100
AcDbLine
 10
555.036769066013
 20
-56.67239266876233
 30
0.0
 11
555.036769066013
 21
63.32760733123767
 31
0.0
  0
LINE
  5
195
330
193
100
AcDbEntity
  8
1
  6
Continuous
 62
     2
100
AcDbLine
 10
518.0335519212149
 20
-56.67239266876233
 30
0.0
 11
557.036769066013
 21
-56.67239266876233
 31
0.0
  0
LINE
  5
196
330
193
100
AcDbEntity
  8
1
  6
Continuous
 62
     2
100
AcDbLine
 10
518.0335519212149
 20
63.32760733123767
 30
0.0
 11
557.036769066013
 21
63.32760733123767
 31
0.0
  0
SOLID
  5
197
330
193
100
AcDbEntity
  8
1
 62
     2
100
AcDbTrace
 10
555.4975528075689
 20
59.82760733123767
 30
0.0
 11
554.5759853244571
 21
59.82760733123767
 31
0.0
 12
555.036769066013
 22
63.32760733123767
 32
0.0
 13
555.036769066013
 23
63.32760733123767
 33
0.0
  0
SOLID
  5
198
330
193
100
AcDbEntity
  8
1
 62
     2
100
AcDbTrace
 10
554.5759853244571
 20
-53.17239266876233
 30
0.0
 11
555.4975528075689
 21
-53.17239266876233
 31
0.0
 12
555.036769066013
 22
-56.67239266876233
 32
0.0
 13
555.036769066013
 23
-56.67239266876233
 33
0.0
  0
MTEXT
  5
199
330
193
100
AcDbEntity
  8
1
 62
     2
100
AcDbMText
 10
553.036769066013
 20
-3.51460978413562
 30
0.0
 40
3.5
 41
0.0
 71
     7
 72
     1
  1
120
  7
CONVERTER_11
 11
0.0
 21
1.0
 31
0.0
 73
     1
 44
0.60024009603842
  0
ENDBLK
  5
19B
330
193
100
AcDbEntity
  8
0
100
AcDbBlockEnd
  0
BLOCK
  5
1A5
330
19E
100
AcDbEntity
  8
0
100
AcDbBlockBegin
  2
*D15
 70
     1
 71
     0
 10
0.0
 20
0.0
 30
0.0
  3
*D15
  1

  0
LINE
  5
19F
330
19E
100
AcDbEntity
  8
1
  6
Continuous
 62
     2
100
AcDbLine
 10
393.6957279141114
 20
-20.09660351897049
 30
0.0
 11
429.1957279141114
 21
-20.09660351897049
 31
0.0
  0
LINE
  5
1A0
330
19E
100
AcDbEntity
  8
1
  6
Continuous
 62
     2
100
AcDbLine
 10
429.1957279141114
 20
-12.74693273133693
 30
0.0
 11
429.1957279141114
 21
-22.09660351897049
 31
0.0
  0
LINE
  5
1A1
330
19E
100
AcDbEntity
  8
1
  6
Continuous
 62
     2
100
AcDbLine
 10
393.6957279141114
 20
-33.74693273133688
 30
0.0
 11
393.6957279141114
 21
-18.09660351897049
 31
0.0
  0
SOLID
  5
1A2
330
19E
100
AcDbEntity
  8
1
 62
     2
100
AcDbTrace
 10
397.1957279141114
 20
-19.6358197774146
 30
0.0
 11
397.1957279141114
 21
-20.55738726052637
 31
0.0
 12
393.6957279141114
 22
-20.09660351897049
 32
0.0
 13
393.6957279141114
 23
-20.09660351897049
 33
0.0
  0
SOLID
  5
1A3
330
19E
100
AcDbEntity
  8
1
 62
     2
100
AcDbTrace
 10
425.6957279141114
 20
-20.55738726052637
 30
0.0
 11
425.6957279141114
 21
-19.6358197774146
 31
0.0
 12
429.1957279141114
 22
-20.09660351897049
 32
0.0
 13
429.1957279141114
 23
-20.09660351897049
 33
0.0
  0
MTEXT
  5
1A4
330
19E
100
AcDbEntity
  8
1
 62
     2
100
AcDbMText
 10
406.8285639297651
 20
-18.09660351897049
 30
0.0
 40
3.5
 41
0.0
 71
     7
 72
     1
  1
35.5
  7
CONVERTER_11
 11
0.9999999999970621
 21
2.424068405545307E-6
 31
0.0
 73
     1
 44
0.60024009603842
  0
ENDBLK
  5
1A6
330
19E
100
AcDbEntity
  8
0
100
AcDbBlockEnd
  0
BLOCK
  5
1B0
330
1A9
100
AcDbEntity
  8
0
100
AcDbBlockBegin
  2
*D16
 70
     1
 71
     0
 10
0.0
 20
0.0
 30
0.0
  3
*D16
  1

  0
LINE
  5
1AA
330
1A9
100
AcDbEntity
  8
1
  6
Continuous
 62
     2
100
AcDbLine
 10
381.6539260309696
 20
-71.24693273133693
 30
0.0
 11
381.6539260309696
 21
-31.74693273133687
 31
0.0
  0
LINE
  5
1AB
330
1A9
100
AcDbEntity
  8
1
  6
Continuous
 62
     2
100
AcDbLine
 10
395.6957279141114
 20
-31.74693273133687
 30
0.0
 11
379.6539260309696
 21
-31.74693273133687
 31
0.0
  0
LINE
  5
1AC
330
1A9
100
AcDbEntity
  8
1
  6
Continuous
 62
     2
100
AcDbLine
 10
395.1957279141114
 20
-71.24693273133693
 30
0.0
 11
379.6539260309696
 21
-71.24693273133693
 31
0.0
  0
SOLID
  5
1AD
330
1A9
100
AcDbEntity
  8
1
 62
     2
100
AcDbTrace
 10
381.1931422894137
 20
-67.74693273133693
 30
0.0
 11
382.1147097725255
 21
-67.74693273133693
 31
0.0
 12
381.6539260309696
 22
-71.24693273133693
 32
0.0
 13
381.6539260309696
 23
-71.24693273133693
 33
0.0
  0
SOLID
  5
1AE
330
1A9
100
AcDbEntity
  8
1
 62
     2
100
AcDbTrace
 10
382.1147097725255
 20
-35.24693273133687
 30
0.0
 11
381.1931422894137
 21
-35.24693273133687
 31
0.0
 12
381.6539260309696
 22
-31.74693273133687
 32
0.0
 13
381.6539260309696
 23
-31.74693273133687
 33
0.0
  0
MTEXT
  5
1AF
330
1A9
100
AcDbEntity
  8
1
 62
     2
100
AcDbMText
 10
379.6539260309696
 20
-54.58261129763978
 30
0.0
 40
3.5
 41
0.0
 71
     7
 72
     1
  1
39.5
  7
CONVERTER_11
 11
0.0
 21
1.0
 31
0.0
 73
     1
 44
0.60024009603842
  0
ENDBLK
  5
1B1
330
1A9
100
AcDbEntity
  8
0
100
AcDbBlockEnd
  0
BLOCK
  5
1BD
330
1B4
100
AcDbEntity
  8
0
100
AcDbBlockBegin
  2
*D17
 70
     1
 71
     0
 10
0.0
 20
0.0
 30
0.0
  3
*D17
  1

  0
LINE
  5
1B5
330
1B4
100
AcDbEntity
  8
1
  6
Continuous
 62
     2
100
AcDbLine
 10
285.358452353813
 20
-110.2443670851137
 30
0.0
 11
295.8024483117452
 21
-110.2443670851137
 31
0.0
  0
LINE
  5
1B6
330
1B4
100
AcDbEntity
  8
1
  6
Continuous
 62
     2
100
AcDbLine
 10
295.8024483117452
 20
-110.2443670851137
 30
0.0
 11
300.8024483117452
 21
-110.2443670851137
 31
0.0
  0
LINE
  5
1B7
330
1B4
100
AcDbEntity
  8
1
  6
Continuous
 62
     2
100
AcDbLine
 10
300.8024483117452
 20
-110.2443670851137
 30
0.0
 11
307.8024483117452
 21
-110.2443670851137
 31
0.0
  0
LINE
  5
1B8
330
1B4
100
AcDbEntity
  8
1
  6
Continuous
 62
     2
100
AcDbLine
 10
300.8024483117452
 20
-52.57239266876235
 30
0.0
 11
300.8024483117452
 21
-112.2443670851137
 31
0.0
  0
LINE
  5
1B9
330
1B4
100
AcDbEntity
  8
1
  6
Continuous
 62
     2
100
AcDbLine
 10
295.8024483117452
 20
-96.67239266876233
 30
0.0
 11
295.8024483117452
 21
-112.2443670851137
 31
0.0
  0
SOLID
  5
1BA
330
1B4
100
AcDbEntity
  8
1
 62
     2
100
AcDbTrace
 10
292.3024483117452
 20
-110.7051508266696
 30
0.0
 11
292.3024483117452
 21
-109.7835833435578
 31
0.0
 12
295.8024483117452
 22
-110.2443670851137
 32
0.0
 13
295.8024483117452
 23
-110.2443670851137
 33
0.0
  0
SOLID
  5
1BB
330
1B4
100
AcDbEntity
  8
1
 62
     2
100
AcDbTrace
 10
304.3024483117452
 20
-109.7835833435578
 30
0.0
 11
304.3024483117452
 21
-110.7051508266696
 31
0.0
 12
300.8024483117452
 22
-110.2443670851137
 32
0.0
 13
300.8024483117452
 23
-110.2443670851137
 33
0.0
  0
MTEXT
  5
1BC
330
1B4
100
AcDbEntity
  8
1
 62
     2
100
AcDbMText
 10
285.358452353813
 20
-108.2443670851137
 30
0.0
 40
3.5
 41
0.0
 71
     7
 72
     1
  1
5
  7
CONVERTER_11
 11
0.9999999999970621
 21
2.424068405545307E-6
 31
0.0
 73
     1
 44
0.60024009603842
  0
ENDBLK
  5
1BE
330
1B4
100
AcDbEntity
  8
0
100
AcDbBlockEnd
  0
BLOCK
  5
1C8
330
1C1
100
AcDbEntity
  8
0
100
AcDbBlockBegin
  2
*D18
 70
     1
 71
     0
 10
0.0
 20
0.0
 30
0.0
  3
*D18
  1

  0
LINE
  5
1C2
330
1C1
100
AcDbEntity
  8
1
  6
Continuous
 62
     2
100
AcDbLine
 10
300.8024483117452
 20
-110.2443670851137
 30
0.0
 11
330.0024483117452
 21
-110.2443670851137
 31
0.0
  0
LINE
  5
1C3
330
1C1
100
AcDbEntity
  8
1
  6
Continuous
 62
     2
100
AcDbLine
 10
330.0024483117452
 20
-52.57239266876235
 30
0.0
 11
330.0024483117452
 21
-112.2443670851137
 31
0.0
  0
LINE
  5
1C4
330
1C1
100
AcDbEntity
  8
1
  6
Continuous
 62
     2
100
AcDbLine
 10
300.8024483117452
 20
-52.57239266876235
 30
0.0
 11
300.8024483117452
 21
-112.2443670851137
 31
0.0
  0
SOLID
  5
1C5
330
1C1
100
AcDbEntity
  8
1
 62
     2
100
AcDbTrace
 10
304.3024483117452
 20
-109.7835833435578
 30
0.0
 11
304.3024483117452
 21
-110.7051508266696
 31
0.0
 12
300.8024483117452
 22
-110.2443670851137
 32
0.0
 13
300.8024483117452
 23
-110.2443670851137
 33
0.0
  0
SOLID
  5
1C6
330
1C1
100
AcDbEntity
  8
1
 62
     2
100
AcDbTrace
 10
326.5024483117452
 20
-110.7051508266696
 30
0.0
 11
326.5024483117452
 21
-109.7835833435578
 31
0.0
 12
330.0024483117452
 22
-110.2443670851137
 32
0.0
 13
330.0024483117452
 23
-110.2443670851137
 33
0.0
  0
MTEXT
  5
1C7
330
1C1
100
AcDbEntity
  8
1
 62
     2
100
AcDbMText
 10
310.6336983117452
 20
-108.2443670851137
 30
0.0
 40
3.5
 41
0.0
 71
     7
 72
     1
  1
29.2
  7
CONVERTER_11
 11
0.9999999999970621
 21
2.424068405545307E-6
 31
0.0
 73
     1
 44
0.60024009603842
  0
ENDBLK
  5
1C9
330
1C1
100
AcDbEntity
  8
0
100
AcDbBlockEnd
  0
BLOCK
  5
1D0
330
1CC
100
AcDbEntity
  8
0
100
AcDbBlockBegin
  2
*D19
 70
     1
 71
     0
 10
0.0
 20
0.0
 30
0.0
  3
*D19
  1

  0
LINE
  5
1CD
330
1CC
100
AcDbEntity
  8
1
  6
Continuous
 62
     2
100
AcDbLine
 10
506.3780478486486
 20
31.08013048721001
 30
0.0
 11
526.3805890028003
 21
47.07066083928704
 31
0.0
  0
SOLID
  5
1CE
330
1CC
100
AcDbEntity
  8
1
 62
     2
100
AcDbTrace
 10
523.9345045667679
 20
44.5252743090559
 30
0.0
 11
523.3590583615817
 21
45.24509948982251
 31
0.0
 12
526.3805890028003
 22
47.07066083928704
 32
0.0
 13
526.3805890028003
 23
47.07066083928704
 33
0.0
  0
MTEXT
  5
1CF
330
1CC
100
AcDbEntity
  8
1
 62
     2
100
AcDbMText
 10
506.1680524619848
 20
33.47278632070965
 30
0.0
 40
3.5
 41
0.0
 71
     7
 72
     1
  1
\C2;R\C2;12
  7
CONVERTER_11
 11
0.7810878681787556
 21
0.6244211256707823
 31
0.0
 73
     1
 44
0.60024009603842
  0
ENDBLK
  5
1D1
330
1CC
100
AcDbEntity
  8
0
100
AcDbBlockEnd
  0
BLOCK
  5
1D7
330
1D3
100
AcDbEntity
  8
0
100
AcDbBlockBegin
  2
*D20
 70
     1
 71
     0
 10
0.0
 20
0.0
 30
0.0
  3
*D20
  1

  0
LINE
  5
1D4
330
1D3
100
AcDbEntity
  8
1
  6
Continuous
 62
     2
100
AcDbLine
 10
323.9708443916005
 20
71.04888427659009
 30
0.0
 11
333.9534917496431
 21
84.82131472534749
 31
0.0
  0
SOLID
  5
1D5
330
1D3
100
AcDbEntity
  8
1
 62
     2
100
AcDbTrace
 10
325.6518261764392
 20
74.15317516107926
 30
0.0
 11
326.3979977135417
 21
73.61232891384523
 31
0.0
 12
323.9708443916005
 22
71.04888427659009
 32
0.0
 13
323.9708443916005
 23
71.04888427659009
 33
0.0
  0
MTEXT
  5
1D6
330
1D3
100
AcDbEntity
  8
1
 62
     2
100
AcDbMText
 10
325.66868953268
 20
76.79916672896876
 30
0.0
 40
3.5
 41
0.0
 71
     7
 72
     1
  1
\C2;R\C2;14.6
  7
CONVERTER_11
 11
0.5868764438257033
 21
0.8096765031063309
 31
0.0
 73
     1
 44
0.60024009603842
  0
ENDBLK
  5
1D8
330
1D3
100
AcDbEntity
  8
0
100
AcDbBlockEnd
  0
BLOCK
  5
1DF
330
1DA
100
AcDbEntity
  8
0
100
AcDbBlockBegin
  2
*D21
 70
     1
 71
     0
 10
0.0
 20
0.0
 30
0.0
  3
*D21
  1

  0
LINE
  5
1DB
330
1DA
100
AcDbEntity
  8
1
  6
Continuous
 62
     2
100
AcDbLine
 10
521.6672746483515
 20
-61.72117906763076
 30
0.0
 11
463.7903485741623
 21
0.68849403158971
 31
0.0
  0
SOLID
  5
1DC
330
1DA
100
AcDbEntity
  8
1
 62
     2
100
AcDbTrace
 10
508.0655801827057
 20
-46.37659600650781
 30
0.0
 11
507.3898572297021
 21
-47.00324193262003
 31
0.0
 12
505.3477945209593
 22
-44.12360626989392
 32
0.0
 13
505.3477945209593
 23
-44.12360626989392
 33
0.0
  0
SOLID
  5
1DD
330
1DA
100
AcDbEntity
  8
1
 62
     2
100
AcDbTrace
 10
518.9494889866049
 20
-59.46818933101698
 30
0.0
 11
519.6252119396086
 21
-58.84154340490473
 31
0.0
 12
521.6672746483515
 22
-61.72117906763076
 32
0.0
 13
521.6672746483515
 23
-61.72117906763076
 33
0.0
  0
MTEXT
  5
1DE
330
1DA
100
AcDbEntity
  8
1
 62
     2
100
AcDbMText
 10
466.3039796154814
 20
0.91927312101761
 30
0.0
 40
3.5
 41
0.0
 71
     7
 72
     1
  1
\C2;Fräser ø\C2;24
  7
CONVERTER_11
 11
0.679978338641346
 21
-0.7332321999057019
 31
0.0
 73
     1
 44
0.60024009603842
  0
ENDBLK
  5
1E0
330
1DA
100
AcDbEntity
  8
0
100
AcDbBlockEnd
  0
ENDSEC
  0
SECTION
  2
ENTITIES
  0
INSERT
  5
3C
330
1F
100
AcDbEntity
  8
0
100
AcDbBlockReference
  2
FL
 10
535.8134114828082
 20
30.29464136638865
 30
0.0
  0
INSERT
  5
3D
330
1F
100
AcDbEntity
  8
0
100
AcDbBlockReference
  2
RA
 10
368.9654402972519
 20
1.37035763478835
 30
0.0
  0
LINE
  5
3E
330
1F
100
AcDbEntity
  8
1
  6
Continuous
 62
     2
100
AcDbLine
 10
396.8993812620944
 20
11.94117567090101
 30
0.0
 11
404.4374782620938
 21
-43.64720010790938
 31
0.0
  0
LINE
  5
3F
330
1F
100
AcDbEntity
  8
1
  6
Continuous
 62
     2
100
AcDbLine
 10
396.8993812620944
 20
11.94117567090101
 30
0.0
 11
444.4414601609078
 21
11.94117567090101
 31
0.0
  0
LINE
  5
40
330
1F
100
AcDbEntity
  8
1
  6
DOT_CENTER
 62
     2
100
AcDbLine
 10
422.1957279141113
 20
-52.24693273133691
 30
0.0
 11
435.8919965560834
 21
-52.24693273133691
 31
0.0
  0
LINE
  5
41
330
1F
100
AcDbEntity
  8
1
  6
Continuous
 62
     7
100
AcDbLine
 10
306.3024483117453
 20
69.18708301350337
 30
0.0
 11
306.3024483117453
 21
-63.98948511824351
 31
0.0
  0
LINE
  5
42
330
1F
100
AcDbEntity
  8
1
  6
DASHED
 62
     2
100
AcDbLine
 10
306.3024483117453
 20
-63.98948511824351
 30
0.0
 11
306.3024483117453
 21
-96.67239266876233
 31
0.0
  0
LINE
  5
43
330
1F
100
AcDbEntity
  8
1
  6
Continuous
 62
     7
100
AcDbLine
 10
429.1957279141113
 20
-37.54693273133687
 30
0.0
 11
429.1957279141113
 21
-12.74693273133693
 31
0.0
  0
LINE
  5
44
330
1F
100
AcDbEntity
  8
1
  6
Continuous
 62
     7
100
AcDbLine
 10
430.6957279141113
 20
-66.74693273133687
 30
0.0
 11
430.6957279141113
 21
-69.24693273133687
 31
0.0
  0
LINE
  5
45
330
1F
100
AcDbEntity
  8
1
  6
Continuous
 62
     7
100
AcDbLine
 10
429.1957279141113
 20
-66.74693273133687
 30
0.0
 11
429.1957279141113
 21
-37.54693273133687
 31
0.0
  0
LINE
  5
46
330
1F
100
AcDbEntity
  8
1
  6
Continuous
 62
     7
100
AcDbLine
 10
430.6957279141112
 20
-37.54693273133685
 30
0.0
 11
430.6957279141113
 21
-66.74693273133687
 31
0.0
  0
LINE
  5
47
330
1F
100
AcDbEntity
  8
1
  6
DASHED
 62
     2
100
AcDbLine
 10
306.3024483117453
 20
103.3276073312377
 30
0.0
 11
306.3024483117453
 21
69.18708301350337
 31
0.0
  0
LINE
  5
48
330
1F
100
AcDbEntity
  8
1
  6
DOT_CENTER
 62
     2
100
AcDbLine
 10
297.3024483117453
 20
103.3276073312377
 30
0.0
 11
367.9739705144363
 21
103.3276073312377
 31
0.0
  0
LINE
  5
49
330
1F
100
AcDbEntity
  8
1
  6
DOT_CENTER
 62
     2
100
AcDbLine
 10
364.5639043102884
 20
-96.67239266876233
 30
0.0
 11
364.5639043102884
 21
-100.586892061661
 31
0.0
  0
LINE
  5
4A
330
1F
100
AcDbEntity
  8
1
  6
DOT_CENTER
 62
     2
100
AcDbLine
 10
364.5639043102884
 20
-96.67239266876233
 30
0.0
 11
368.5337970821573
 21
-96.67239266876233
 31
0.0
  0
LINE
  5
4B
330
1F
100
AcDbEntity
  8
1
  6
DOT_CENTER
 62
     2
100
AcDbLine
 10
364.5639043102884
 20
103.3276073312377
 30
0.0
 11
364.5639043102884
 21
-96.67239266876233
 31
0.0
  0
LINE
  5
4C
330
1F
100
AcDbEntity
  8
1
  6
DOT_CENTER
 62
     2
100
AcDbLine
 10
356.3024483117453
 20
-96.67239266876233
 30
0.0
 11
364.5639043102884
 21
-96.67239266876233
 31
0.0
  0
LINE
  5
4D
330
1F
100
AcDbEntity
  8
1
  6
DASHED
 62
     2
100
AcDbLine
 10
356.3024483117453
 20
103.3276073312377
 30
0.0
 11
356.3024483117453
 21
-96.67239266876233
 31
0.0
  0
LINE
  5
4E
330
1F
100
AcDbEntity
  8
1
  6
DOT_CENTER
 62
     2
100
AcDbLine
 10
354.8024483117453
 20
-96.67239266876233
 30
0.0
 11
356.3024483117453
 21
-96.67239266876233
 31
0.0
  0
LINE
  5
4F
330
1F
100
AcDbEntity
  8
1
  6
DASHED
 62
     2
100
AcDbLine
 10
354.8024483117453
 20
103.3276073312377
 30
0.0
 11
354.8024483117453
 21
-96.67239266876233
 31
0.0
  0
LINE
  5
50
330
1F
100
AcDbEntity
  8
1
  6
DOT_CENTER
 62
     2
100
AcDbLine
 10
342.8024483117453
 20
-96.67239266876233
 30
0.0
 11
354.8024483117453
 21
-96.67239266876233
 31
0.0
  0
LINE
  5
51
330
1F
100
AcDbEntity
  8
1
  6
DASHED
 62
     2
100
AcDbLine
 10
342.8024483117453
 20
103.3276073312377
 30
0.0
 11
342.8024483117453
 21
-96.67239266876233
 31
0.0
  0
LINE
  5
52
330
1F
100
AcDbEntity
  8
1
  6
DOT_CENTER
 62
     2
100
AcDbLine
 10
297.3024483117453
 20
-96.67239266876233
 30
0.0
 11
341.3024483117453
 21
-96.67239266876233
 31
0.0
  0
LINE
  5
53
330
1F
100
AcDbEntity
  8
1
  6
DASHED
 62
     2
100
AcDbLine
 10
297.3024483117453
 20
103.3276073312377
 30
0.0
 11
297.3024483117453
 21
-96.67239266876233
 31
0.0
  0
LINE
  5
54
330
1F
100
AcDbEntity
  8
1
  6
DOT_CENTER
 62
     2
100
AcDbLine
 10
341.3024483117453
 20
-96.67239266876233
 30
0.0
 11
342.8024483117453
 21
-96.67239266876233
 31
0.0
  0
LINE
  5
55
330
1F
100
AcDbEntity
  8
1
  6
Continuous
 62
     7
100
AcDbLine
 10
341.3024483117453
 20
103.3276073312377
 30
0.0
 11
341.3024483117453
 21
-96.67239266876233
 31
0.0
  0
LINE
  5
56
330
1F
100
AcDbEntity
  8
1
  6
DOT_CENTER
 62
     2
100
AcDbLine
 10
295.8024483117453
 20
-96.67239266876233
 30
0.0
 11
297.3024483117453
 21
-96.67239266876233
 31
0.0
  0
LINE
  5
57
330
1F
100
AcDbEntity
  8
1
  6
DOT_CENTER
 62
     2
100
AcDbLine
 10
295.8024483117453
 20
103.3276073312377
 30
0.0
 11
297.3024483117453
 21
103.3276073312377
 31
0.0
  0
LINE
  5
58
330
1F
100
AcDbEntity
  8
1
  6
Continuous
 62
     7
100
AcDbLine
 10
295.8024483117453
 20
103.3276073312377
 30
0.0
 11
295.8024483117453
 21
-96.67239266876233
 31
0.0
  0
LINE
  5
59
330
1F
100
AcDbEntity
  8
1
  6
DOT_CENTER
 62
     2
100
AcDbLine
 10
292.2259146675813
 20
-96.67239266876233
 30
0.0
 11
295.8024483117453
 21
-96.67239266876233
 31
0.0
  0
LINE
  5
5A
330
1F
100
AcDbEntity
  8
1
  6
DOT_CENTER
 62
     2
100
AcDbLine
 10
294.7259146675813
 20
3.32760733123766
 30
0.0
 11
368.5337970821573
 21
3.32760733123766
 31
0.0
  0
LINE
  5
5B
330
1F
100
AcDbEntity
  8
1
  6
DOT_CENTER
 62
     2
100
AcDbLine
 10
292.2259146675813
 20
103.3276073312377
 30
0.0
 11
295.8024483117453
 21
103.3276073312377
 31
0.0
  0
LINE
  5
5C
330
1F
100
AcDbEntity
  8
1
  6
Continuous
 62
     7
100
AcDbLine
 10
444.1957279141113
 20
-23.74693273133693
 30
0.0
 11
444.1957279141113
 21
-3.15422989363639
 31
0.0
  0
LINE
  5
5D
330
1F
100
AcDbEntity
  8
1
  6
Continuous
 62
     7
100
AcDbLine
 10
445.6957279141113
 20
-24.24693273133693
 30
0.0
 11
445.6957279141113
 21
-3.15422989363639
 31
0.0
  0
LINE
  5
5E
330
1F
100
AcDbEntity
  8
1
  6
Continuous
 62
     7
100
AcDbLine
 10
441.6848645619737
 20
-26.24693273133693
 30
0.0
 11
443.6957279141113
 21
-26.24693273133695
 31
0.0
  0
LINE
  5
5F
330
1F
100
AcDbEntity
  8
1
  6
Continuous
 62
     7
100
AcDbLine
 10
442.3364772483943
 20
-24.74693273133693
 30
0.0
 11
443.1957279141113
 21
-24.74693273133693
 31
0.0
  0
LINE
  5
60
330
1F
100
AcDbEntity
  8
1
  6
Continuous
 62
     7
100
AcDbLine
 10
444.144616653545
 20
-13.13516129899074
 30
0.0
 11
441.3705514221052
 21
-23.48811368623438
 31
0.0
  0
LINE
  5
61
330
1F
100
AcDbEntity
  8
1
  6
Continuous
 62
     7
100
AcDbLine
 10
430.6957279141113
 20
-11.24693273133693
 30
0.0
 11
442.6957279141113
 21
-11.24693273133693
 31
0.0
  0
LINE
  5
62
330
1F
100
AcDbEntity
  8
1
  6
Continuous
 62
     7
100
AcDbLine
 10
442.5270781408353
 20
-13.3763422538882
 30
0.0
 11
441.683829274455
 21
-16.52338986664449
 31
0.0
  0
LINE
  5
63
330
1F
100
AcDbEntity
  8
1
  6
Continuous
 62
     7
100
AcDbLine
 10
431.1957279141113
 20
-12.74693273133693
 30
0.0
 11
433.6957279141113
 21
-12.74693273133693
 31
0.0
  0
LINE
  5
64
330
1F
100
AcDbEntity
  8
1
  6
Continuous
 62
     7
100
AcDbLine
 10
430.6957279141113
 20
-27.24693273133688
 30
0.0
 11
430.6957279141113
 21
-15.74693273133693
 31
0.0
  0
LINE
  5
65
330
1F
100
AcDbEntity
  8
1
  6
Continuous
 62
     7
100
AcDbLine
 10
432.6957279141113
 20
-29.24693273133688
 30
0.0
 11
440.5016486053538
 21
-29.24693273133693
 31
0.0
  0
LINE
  5
66
330
1F
100
AcDbEntity
  8
1
  6
Continuous
 62
     7
100
AcDbLine
 10
433.6957279141113
 20
-12.74693273133693
 30
0.0
 11
438.7860517955879
 21
-12.74693273133693
 31
0.0
  0
LINE
  5
67
330
1F
100
AcDbEntity
  8
1
  6
Continuous
 62
     7
100
AcDbLine
 10
430.6957279141113
 20
-15.74693273133693
 30
0.0
 11
430.6957279141113
 21
-13.24693273133693
 31
0.0
  0
LINE
  5
68
330
1F
100
AcDbEntity
  8
1
  6
Continuous
 62
     7
100
AcDbLine
 10
438.7860517955879
 20
-12.74693273133693
 30
0.0
 11
442.0441152276908
 21
-12.74693273133693
 31
0.0
  0
LINE
  5
69
330
1F
100
AcDbEntity
  8
1
  6
Continuous
 62
     7
100
AcDbLine
 10
441.683829274455
 20
-16.52338986664449
 30
0.0
 11
439.7530129093956
 21
-23.7292946411319
 31
0.0
  0
LINE
  5
6A
330
1F
100
AcDbEntity
  8
1
  6
Continuous
 62
     7
100
AcDbLine
 10
432.6957279141113
 20
-28.24693273133688
 30
0.0
 11
440.5016486053538
 21
-28.24693273133688
 31
0.0
  0
LINE
  5
6B
330
1F
100
AcDbEntity
  8
1
  6
Continuous
 62
     7
100
AcDbLine
 10
431.6957279141113
 20
-27.24693273133688
 30
0.0
 11
431.6957279141113
 21
-15.74693273133693
 31
0.0
  0
LINE
  5
6C
330
1F
100
AcDbEntity
  8
1
  6
Continuous
 62
     7
100
AcDbLine
 10
433.6957279141113
 20
-13.74693273133693
 30
0.0
 11
438.7860517955879
 21
-13.74693273133693
 31
0.0
  0
LINE
  5
6D
330
1F
100
AcDbEntity
  8
1
  6
Continuous
 62
     7
100
AcDbLine
 10
440.7179034481659
 20
-16.26457082154195
 30
0.0
 11
438.7870870831065
 21
-23.47047559602936
 31
0.0
  0
LINE
  5
6E
330
1F
100
AcDbEntity
  8
1
  6
Continuous
 62
     7
100
AcDbLine
 10
392.1957279141108
 20
-61.74693273133693
 30
0.0
 11
390.6957279141108
 21
-61.74693273133693
 31
0.0
  0
LINE
  5
6F
330
1F
100
AcDbEntity
  8
1
  6
Continuous
 62
     7
100
AcDbLine
 10
390.6957279141108
 20
-61.74693273133693
 30
0.0
 11
390.6957279141108
 21
-69.24693273133693
 31
0.0
  0
LINE
  5
70
330
1F
100
AcDbEntity
  8
1
  6
Continuous
 62
     7
100
AcDbLine
 10
393.1957279141108
 20
-71.74693273133693
 30
0.0
 11
428.1957279141113
 21
-71.74693273133687
 31
0.0
  0
LINE
  5
71
330
1F
100
AcDbEntity
  8
1
  6
Continuous
 62
     7
100
AcDbLine
 10
430.6957279141112
 20
-37.54693273133685
 30
0.0
 11
430.6957279141113
 21
-27.24693273133688
 31
0.0
  0
LINE
  5
72
330
1F
100
AcDbEntity
  8
1
  6
Continuous
 62
     7
100
AcDbLine
 10
428.1957279141113
 20
-70.24693273133687
 30
0.0
 11
393.1957279141108
 21
-70.24693273133693
 31
0.0
  0
LINE
  5
73
330
1F
100
AcDbEntity
  8
1
  6
Continuous
 62
     7
100
AcDbLine
 10
392.1957279141108
 20
-69.24693273133693
 30
0.0
 11
392.1957279141108
 21
-61.74693273133693
 31
0.0
  0
LINE
  5
74
330
1F
100
AcDbEntity
  8
1
  6
Continuous
 62
     7
100
AcDbLine
 10
429.1957279141113
 20
-69.24693273133687
 30
0.0
 11
429.1957279141113
 21
-66.74693273133687
 31
0.0
  0
LINE
  5
75
330
1F
100
AcDbEntity
  8
1
  6
Continuous
 62
     7
100
AcDbLine
 10
430.6957279141113
 20
-66.74693273133687
 30
0.0
 11
429.1957279141113
 21
-66.74693273133687
 31
0.0
  0
LINE
  5
76
330
1F
100
AcDbEntity
  8
1
  6
Continuous
 62
     7
100
AcDbLine
 10
429.1957279141113
 20
-37.54693273133687
 30
0.0
 11
430.6957279141112
 21
-37.54693273133685
 31
0.0
  0
LINE
  5
77
330
1F
100
AcDbEntity
  8
1
  6
Continuous
 62
     7
100
AcDbLine
 10
330.0024483117452
 20
59.22760733123768
 30
0.0
 11
330.0024483117452
 21
-52.57239266876235
 31
0.0
  0
LINE
  5
78
330
1F
100
AcDbEntity
  8
1
  6
Continuous
 62
     7
100
AcDbLine
 10
300.8024483117453
 20
-52.57239266876235
 30
0.0
 11
300.8024483117453
 21
59.22760733123768
 31
0.0
  0
LINE
  5
79
330
1F
100
AcDbEntity
  8
1
  6
DOT_CENTER
 62
     2
100
AcDbLine
 10
315.4024483117452
 20
78.04628711799491
 30
0.0
 11
315.4024483117452
 21
-72.55108523493269
 31
0.0
  0
LINE
  5
7A
330
1F
100
AcDbEntity
  8
1
  6
DOT_CENTER
 62
     2
100
AcDbLine
 10
333.3468162156491
 20
-52.57239266876233
 30
0.0
 11
298.7408799052921
 21
-52.57239266876233
 31
0.0
  0
LINE
  5
7B
330
1F
100
AcDbEntity
  8
1
  6
DOT_CENTER
 62
     2
100
AcDbLine
 10
298.7408799052921
 20
59.22760733123766
 30
0.0
 11
333.3468162156491
 21
59.22760733123766
 31
0.0
  0
LINE
  5
7C
330
1F
100
AcDbEntity
  8
1
  6
DASHED
 62
     2
100
AcDbLine
 10
418.1957279141113
 20
-71.20497262288671
 30
0.0
 11
418.1957279141113
 21
-68.2469327313369
 31
0.0
  0
LINE
  5
7D
330
1F
100
AcDbEntity
  8
1
  6
Continuous
 62
     7
100
AcDbLine
 10
420.6957279141113
 20
-56.74693273133693
 30
0.0
 11
420.6957279141113
 21
-56.99693273133693
 31
0.0
  0
LINE
  5
7E
330
1F
100
AcDbEntity
  8
1
  6
Continuous
 62
     7
100
AcDbLine
 10
418.1957279141113
 20
-56.74693273133693
 30
0.0
 11
418.1957279141113
 21
-56.99693273133693
 31
0.0
  0
LINE
  5
7F
330
1F
100
AcDbEntity
  8
1
  6
DASHED
 62
     2
100
AcDbLine
 10
420.6957279141113
 20
-36.24693273133688
 30
0.0
 11
420.6957279141113
 21
-44.49693273133688
 31
0.0
  0
LINE
  5
80
330
1F
100
AcDbEntity
  8
1
  6
DASHED
 62
     2
100
AcDbLine
 10
418.1957279141113
 20
-36.24693273133688
 30
0.0
 11
418.1957279141113
 21
-44.49693273133688
 31
0.0
  0
LINE
  5
81
330
1F
100
AcDbEntity
  8
1
  6
Continuous
 62
     7
100
AcDbLine
 10
420.6957279141113
 20
-44.49693273133688
 30
0.0
 11
420.6957279141113
 21
-44.74693273133688
 31
0.0
  0
LINE
  5
82
330
1F
100
AcDbEntity
  8
1
  6
Continuous
 62
     7
100
AcDbLine
 10
418.1957279141113
 20
-44.49693273133688
 30
0.0
 11
418.1957279141113
 21
-44.74693273133688
 31
0.0
  0
LINE
  5
83
330
1F
100
AcDbEntity
  8
1
  6
Continuous
 62
     7
100
AcDbLine
 10
420.6957279141113
 20
-44.74693273133688
 30
0.0
 11
418.1957279141113
 21
-44.74693273133688
 31
0.0
  0
LINE
  5
84
330
1F
100
AcDbEntity
  8
1
  6
Continuous
 62
     7
100
AcDbLine
 10
420.6957279141113
 20
-44.74693273133688
 30
0.0
 11
420.6957279141113
 21
-56.74693273133693
 31
0.0
  0
LINE
  5
85
330
1F
100
AcDbEntity
  8
1
  6
Continuous
 62
     7
100
AcDbLine
 10
418.1957279141113
 20
-44.74693273133688
 30
0.0
 11
418.1957279141113
 21
-56.74693273133693
 31
0.0
  0
LINE
  5
86
330
1F
100
AcDbEntity
  8
1
  6
Continuous
 62
     7
100
AcDbLine
 10
420.6957279141113
 20
-56.74693273133693
 30
0.0
 11
418.1957279141113
 21
-56.74693273133693
 31
0.0
  0
LINE
  5
87
330
1F
100
AcDbEntity
  8
1
  6
DASHED
 62
     2
100
AcDbLine
 10
408.1957279141113
 20
-68.2469327313369
 30
0.0
 11
418.1957279141113
 21
-68.2469327313369
 31
0.0
  0
LINE
  5
88
330
1F
100
AcDbEntity
  8
1
  6
DASHED
 62
     2
100
AcDbLine
 10
420.6957279141113
 20
-56.99693273133693
 30
0.0
 11
420.6957279141113
 21
-68.2469327313369
 31
0.0
  0
LINE
  5
89
330
1F
100
AcDbEntity
  8
1
  6
DASHED
 62
     2
100
AcDbLine
 10
420.6957279141113
 20
-68.2469327313369
 30
0.0
 11
425.7457279141113
 21
-68.2469327313369
 31
0.0
  0
LINE
  5
8A
330
1F
100
AcDbEntity
  8
1
  6
Continuous
 62
     7
100
AcDbLine
 10
426.6957279141113
 20
-36.24693273133688
 30
0.0
 11
425.7457279141113
 21
-36.24693273133688
 31
0.0
  0
LINE
  5
8B
330
1F
100
AcDbEntity
  8
1
  6
DOT_CENTER
 62
     2
100
AcDbLine
 10
434.9134305278419
 20
-52.24693273133689
 30
0.0
 11
391.7054086407635
 21
-52.24693273133689
 31
0.0
  0
LINE
  5
8C
330
1F
100
AcDbEntity
  8
1
  6
DASHED
 62
     2
100
AcDbLine
 10
408.1957279141113
 20
-68.2469327313369
 30
0.0
 11
408.1957279141113
 21
-71.2469327313369
 31
0.0
  0
LINE
  5
8D
330
1F
100
AcDbEntity
  8
1
  6
DASHED
 62
     2
100
AcDbLine
 10
418.1957279141113
 20
-68.2469327313369
 30
0.0
 11
420.6957279141113
 21
-68.2469327313369
 31
0.0
  0
LINE
  5
8E
330
1F
100
AcDbEntity
  8
1
  6
DASHED
 62
     2
100
AcDbLine
 10
429.1957279141113
 20
-59.24693273133693
 30
0.0
 11
418.1957279141113
 21
-59.24693273133693
 31
0.0
  0
LINE
  5
8F
330
1F
100
AcDbEntity
  8
1
  6
Continuous
 62
     7
100
AcDbLine
 10
425.7457279141113
 20
-68.2469327313369
 30
0.0
 11
426.6957279141113
 21
-68.2469327313369
 31
0.0
  0
LINE
  5
90
330
1F
100
AcDbEntity
  8
1
  6
DASHED
 62
     2
100
AcDbLine
 10
425.7457279141113
 20
-36.24693273133688
 30
0.0
 11
420.6957279141113
 21
-36.24693273133688
 31
0.0
  0
LINE
  5
91
330
1F
100
AcDbEntity
  8
1
  6
DASHED
 62
     2
100
AcDbLine
 10
408.1957279141113
 20
-36.24693273133688
 30
0.0
 11
408.1957279141113
 21
-33.24693273133688
 31
0.0
  0
LINE
  5
92
330
1F
100
AcDbEntity
  8
1
  6
DASHED
 62
     2
100
AcDbLine
 10
408.1957279141113
 20
-36.24693273133688
 30
0.0
 11
418.1957279141113
 21
-36.24693273133688
 31
0.0
  0
LINE
  5
93
330
1F
100
AcDbEntity
  8
1
  6
DASHED
 62
     2
100
AcDbLine
 10
418.1957279141113
 20
-36.24693273133688
 30
0.0
 11
420.6957279141113
 21
-36.24693273133688
 31
0.0
  0
LINE
  5
94
330
1F
100
AcDbEntity
  8
1
  6
DASHED
 62
     2
100
AcDbLine
 10
418.1957279141113
 20
-56.99693273133693
 30
0.0
 11
418.1957279141113
 21
-68.2469327313369
 31
0.0
  0
LINE
  5
95
330
1F
100
AcDbEntity
  8
1
  6
DASHED
 62
     2
100
AcDbLine
 10
418.1957279141113
 20
-42.24693273133688
 30
0.0
 11
429.1957279141113
 21
-42.24693273133688
 31
0.0
  0
LINE
  5
96
330
1F
100
AcDbEntity
  8
1
  6
Continuous
 62
     7
100
AcDbLine
 10
426.6957279141113
 20
-36.24693273133688
 30
0.0
 11
429.1957279141113
 21
-36.24693273133688
 31
0.0
  0
LINE
  5
97
330
1F
100
AcDbEntity
  8
1
  6
Continuous
 62
     7
100
AcDbLine
 10
426.6957279141113
 20
-68.2469327313369
 30
0.0
 11
426.6957279141113
 21
-36.24693273133688
 31
0.0
  0
LINE
  5
98
330
1F
100
AcDbEntity
  8
1
  6
Continuous
 62
     7
100
AcDbLine
 10
429.1957279141113
 20
-68.2469327313369
 30
0.0
 11
426.6957279141113
 21
-68.2469327313369
 31
0.0
  0
LINE
  5
99
330
1F
100
AcDbEntity
  8
1
  6
Continuous
 62
     7
100
AcDbLine
 10
429.1957279141113
 20
-59.24693273133693
 30
0.0
 11
429.1957279141113
 21
-68.2469327313369
 31
0.0
  0
LINE
  5
9A
330
1F
100
AcDbEntity
  8
1
  6
Continuous
 62
     7
100
AcDbLine
 10
429.1957279141113
 20
-36.24693273133688
 30
0.0
 11
429.1957279141113
 21
-59.24693273133693
 31
0.0
  0
LINE
  5
9B
330
1F
100
AcDbEntity
  8
1
  6
Continuous
 62
     7
100
AcDbLine
 10
426.1957279141113
 20
-33.24693273133688
 30
0.0
 11
426.1957279141113
 21
-41.74693273133688
 31
0.0
  0
LINE
  5
9C
330
1F
100
AcDbEntity
  8
1
  6
Continuous
 62
     2
100
AcDbLine
 10
426.1957279141113
 20
-41.74693273133688
 30
0.0
 11
421.7957279141114
 21
-41.74693273133688
 31
0.0
  0
LINE
  5
9D
330
1F
100
AcDbEntity
  8
1
  6
Continuous
 62
     2
100
AcDbLine
 10
420.7957279141114
 20
-42.74693273133688
 30
0.0
 11
420.7957279141114
 21
-44.49693273133688
 31
0.0
  0
LINE
  5
9E
330
1F
100
AcDbEntity
  8
1
  6
Continuous
 62
     7
100
AcDbLine
 10
426.1957279141113
 20
-41.74693273133688
 30
0.0
 11
426.1957279141113
 21
-59.74693273133693
 31
0.0
  0
LINE
  5
9F
330
1F
100
AcDbEntity
  8
1
  6
Continuous
 62
     2
100
AcDbLine
 10
426.1957279141113
 20
-59.74693273133693
 30
0.0
 11
421.7957279141114
 21
-59.74693273133693
 31
0.0
  0
LINE
  5
A0
330
1F
100
AcDbEntity
  8
1
  6
Continuous
 62
     2
100
AcDbLine
 10
420.7957279141114
 20
-58.74693273133693
 30
0.0
 11
420.7957279141114
 21
-56.99693273133693
 31
0.0
  0
LINE
  5
A1
330
1F
100
AcDbEntity
  8
1
  6
Continuous
 62
     7
100
AcDbLine
 10
426.1957279141113
 20
-33.24693273133688
 30
0.0
 11
429.1957279141113
 21
-33.24693273133688
 31
0.0
  0
LINE
  5
A2
330
1F
100
AcDbEntity
  8
1
  6
Continuous
 62
     7
100
AcDbLine
 10
429.1957279141113
 20
-33.24693273133688
 30
0.0
 11
429.1957279141113
 21
-31.74693273133688
 31
0.0
  0
LINE
  5
A3
330
1F
100
AcDbEntity
  8
1
  6
Continuous
 62
     7
100
AcDbLine
 10
429.1957279141113
 20
-31.74693273133688
 30
0.0
 11
425.7457279141113
 21
-31.74693273133688
 31
0.0
  0
LINE
  5
A4
330
1F
100
AcDbEntity
  8
1
  6
Continuous
 62
     7
100
AcDbLine
 10
426.1957279141113
 20
-33.24693273133688
 30
0.0
 11
393.7592362410076
 21
-33.24693273133688
 31
0.0
  0
LINE
  5
A5
330
1F
100
AcDbEntity
  8
1
  6
Continuous
 62
     7
100
AcDbLine
 10
393.6957279141113
 20
-71.24693273133693
 30
0.0
 11
395.1957279141113
 21
-71.24693273133693
 31
0.0
  0
LINE
  5
A6
330
1F
100
AcDbEntity
  8
1
  6
DASHED
 62
     2
100
AcDbLine
 10
395.1957279141113
 20
-33.74693273133688
 30
0.0
 11
395.1957279141113
 21
-71.24693273133693
 31
0.0
  0
LINE
  5
A7
330
1F
100
AcDbEntity
  8
1
  6
Continuous
 62
     7
100
AcDbLine
 10
425.7457279141113
 20
-31.74693273133688
 30
0.0
 11
395.6957279141113
 21
-31.74693273133688
 31
0.0
  0
LINE
  5
A8
330
1F
100
AcDbEntity
  8
1
  6
Continuous
 62
     7
100
AcDbLine
 10
393.6957279141113
 20
-33.74693273133688
 30
0.0
 11
393.6957279141113
 21
-71.24693273133693
 31
0.0
  0
LINE
  5
A9
330
1F
100
AcDbEntity
  8
1
  6
Continuous
 62
     7
100
AcDbLine
 10
420.7957279141114
 20
-56.99693273133693
 30
0.0
 11
418.1957279141113
 21
-56.99693273133693
 31
0.0
  0
LINE
  5
AA
330
1F
100
AcDbEntity
  8
1
  6
Continuous
 62
     7
100
AcDbLine
 10
420.7957279141114
 20
-44.49693273133688
 30
0.0
 11
420.7957279141114
 21
-56.99693273133693
 31
0.0
  0
LINE
  5
AB
330
1F
100
AcDbEntity
  8
1
  6
Continuous
 62
     7
100
AcDbLine
 10
418.1957279141113
 20
-44.49693273133688
 30
0.0
 11
420.7957279141114
 21
-44.49693273133688
 31
0.0
  0
LINE
  5
AC
330
1F
100
AcDbEntity
  8
1
  6
Continuous
 62
     7
100
AcDbLine
 10
418.1957279141113
 20
-56.99693273133693
 30
0.0
 11
418.1957279141113
 21
-44.49693273133688
 31
0.0
  0
LINE
  5
AD
330
1F
100
AcDbEntity
  8
1
  6
Continuous
 62
     7
100
AcDbLine
 10
426.1957279141113
 20
-59.74693273133693
 30
0.0
 11
426.1957279141113
 21
-71.24693273133693
 31
0.0
  0
LINE
  5
AE
330
1F
100
AcDbEntity
  8
1
  6
Continuous
 62
     7
100
AcDbLine
 10
395.1957279141113
 20
-71.24693273133693
 30
0.0
 11
426.1957279141113
 21
-71.24693273133693
 31
0.0
  0
LINE
  5
AF
330
1F
100
AcDbEntity
  8
1
  6
Continuous
 62
     7
100
AcDbLine
 10
529.0075345846553
 20
39.57760733123767
 30
0.0
 11
529.0075345846553
 21
-32.92239266876234
 31
0.0
  0
LINE
  5
B0
330
1F
100
AcDbEntity
  8
1
  6
Continuous
 62
     7
100
AcDbLine
 10
501.5075345846553
 20
39.57760733123767
 30
0.0
 11
501.5075345846553
 21
-32.92239266876234
 31
0.0
  0
LINE
  5
B1
330
1F
100
AcDbEntity
  8
1
  6
Continuous
 62
     7
100
AcDbLine
 10
501.5075345846553
 20
-32.92239266876234
 30
0.0
 11
501.5075345846553
 21
-52.92239266876234
 31
0.0
  0
LINE
  5
B2
330
1F
100
AcDbEntity
  8
1
  6
Continuous
 62
     7
100
AcDbLine
 10
529.0075345846553
 20
-32.92239266876234
 30
0.0
 11
529.0075345846553
 21
-52.92239266876234
 31
0.0
  0
LINE
  5
B3
330
1F
100
AcDbEntity
  8
1
  6
Continuous
 62
     7
100
AcDbLine
 10
517.0075345846553
 20
-44.92239266876234
 30
0.0
 11
513.5075345846553
 21
-44.92239266876234
 31
0.0
  0
LINE
  5
B4
330
1F
100
AcDbEntity
  8
1
  6
Continuous
 62
     7
100
AcDbLine
 10
434.1957279141107
 20
-67.24693273133687
 30
0.0
 11
434.1957279141109
 21
-40.24693273133678
 31
0.0
  0
LINE
  5
B5
330
1F
100
AcDbEntity
  8
1
  6
Continuous
 62
     7
100
AcDbLine
 10
434.1957279141109
 20
-40.24693273133678
 30
0.0
 11
434.1957279141109
 21
-29.2469327313369
 31
0.0
  0
LINE
  5
B6
330
1F
100
AcDbEntity
  8
1
  6
Continuous
 62
     7
100
AcDbLine
 10
607.7208680783832
 20
-44.92239266876236
 30
0.0
 11
607.7208680783832
 21
-32.92239266876234
 31
0.0
  0
LINE
  5
B7
330
1F
100
AcDbEntity
  8
1
  6
Continuous
 62
     7
100
AcDbLine
 10
607.7208680783832
 20
51.57760733123767
 30
0.0
 11
607.7208680783832
 21
39.57760733123767
 31
0.0
  0
LINE
  5
B8
330
1F
100
AcDbEntity
  8
1
  6
DOT_CENTER
 62
     2
100
AcDbLine
 10
471.6519318961858
 20
-53.74693273133696
 30
0.0
 11
430.2559373704569
 21
-53.74693273133696
 31
0.0
  0
LINE
  5
B9
330
1F
100
AcDbEntity
  8
1
  6
Continuous
 62
     7
100
AcDbLine
 10
529.0075345846553
 20
59.57760733123767
 30
0.0
 11
529.0075345846553
 21
39.57760733123767
 31
0.0
  0
LINE
  5
BA
330
1F
100
AcDbEntity
  8
1
  6
Continuous
 62
     7
100
AcDbLine
 10
501.5075345846553
 20
59.57760733123767
 30
0.0
 11
501.5075345846553
 21
39.57760733123767
 31
0.0
  0
LINE
  5
BB
330
1F
100
AcDbEntity
  8
1
  6
DOT_CENTER
 62
     2
100
AcDbLine
 10
568.6164084156339
 20
3.32760733123766
 30
0.0
 11
624.1298299549733
 21
3.32760733123766
 31
0.0
  0
LINE
  5
BC
330
1F
100
AcDbEntity
  8
1
  6
DOT_CENTER
 62
     2
100
AcDbLine
 10
572.7208680783832
 20
103.3276073312377
 30
0.0
 11
572.7208680783832
 21
107.3704072010586
 31
0.0
  0
LINE
  5
BD
330
1F
100
AcDbEntity
  8
1
  6
DOT_CENTER
 62
     2
100
AcDbLine
 10
572.7208680783832
 20
-96.67239266876236
 30
0.0
 11
572.7208680783832
 21
-106.1602822876524
 31
0.0
  0
LINE
  5
BE
330
1F
100
AcDbEntity
  8
1
  6
DOT_CENTER
 62
     2
100
AcDbLine
 10
572.7208680783832
 20
103.3276073312377
 30
0.0
 11
572.7208680783832
 21
-96.67239266876236
 31
0.0
  0
LINE
  5
BF
330
1F
100
AcDbEntity
  8
1
  6
Continuous
 62
     7
100
AcDbLine
 10
617.7208680783832
 20
-61.67239266876234
 30
0.0
 11
617.7208680783832
 21
-96.67239266876236
 31
0.0
  0
LINE
  5
C0
330
1F
100
AcDbEntity
  8
1
  6
Continuous
 62
     7
100
AcDbLine
 10
607.7208680783832
 20
-61.67239266876234
 30
0.0
 11
617.7208680783832
 21
-61.67239266876234
 31
0.0
  0
LINE
  5
C1
330
1F
100
AcDbEntity
  8
1
  6
Continuous
 62
     7
100
AcDbLine
 10
607.7208680783832
 20
-44.92239266876236
 30
0.0
 11
607.7208680783832
 21
-61.67239266876234
 31
0.0
  0
LINE
  5
C2
330
1F
100
AcDbEntity
  8
1
  6
Continuous
 62
     7
100
AcDbLine
 10
585.7208680783832
 20
-44.92239266876236
 30
0.0
 11
607.7208680783832
 21
-44.92239266876236
 31
0.0
  0
LINE
  5
C3
330
1F
100
AcDbEntity
  8
1
  6
Continuous
 62
     7
100
AcDbLine
 10
585.7208680783832
 20
51.57760733123767
 30
0.0
 11
585.7208680783832
 21
-44.92239266876236
 31
0.0
  0
LINE
  5
C4
330
1F
100
AcDbEntity
  8
1
  6
Continuous
 62
     7
100
AcDbLine
 10
607.7208680783832
 20
51.57760733123767
 30
0.0
 11
585.7208680783832
 21
51.57760733123767
 31
0.0
  0
LINE
  5
C5
330
1F
100
AcDbEntity
  8
1
  6
Continuous
 62
     7
100
AcDbLine
 10
607.7208680783832
 20
68.32760733123766
 30
0.0
 11
607.7208680783832
 21
51.57760733123767
 31
0.0
  0
LINE
  5
C6
330
1F
100
AcDbEntity
  8
1
  6
Continuous
 62
     7
100
AcDbLine
 10
617.7208680783832
 20
68.32760733123766
 30
0.0
 11
617.7208680783832
 21
-61.67239266876234
 31
0.0
  0
LINE
  5
C7
330
1F
100
AcDbEntity
  8
1
  6
Continuous
 62
     7
100
AcDbLine
 10
617.7208680783832
 20
68.32760733123766
 30
0.0
 11
607.7208680783832
 21
68.32760733123766
 31
0.0
  0
LINE
  5
C8
330
1F
100
AcDbEntity
  8
1
  6
Continuous
 62
     7
100
AcDbLine
 10
617.7208680783832
 20
103.3276073312377
 30
0.0
 11
617.7208680783832
 21
68.32760733123766
 31
0.0
  0
LINE
  5
C9
330
1F
100
AcDbEntity
  8
1
  6
DOT_CENTER
 62
     2
100
AcDbLine
 10
617.7208680783832
 20
-96.67239266876236
 30
0.0
 11
624.4035770209366
 21
-96.67239266876236
 31
0.0
  0
LINE
  5
CA
330
1F
100
AcDbEntity
  8
1
  6
DOT_CENTER
 62
     2
100
AcDbLine
 10
572.7208680783832
 20
-96.67239266876236
 30
0.0
 11
617.7208680783832
 21
-96.67239266876236
 31
0.0
  0
LINE
  5
CB
330
1F
100
AcDbEntity
  8
1
  6
DOT_CENTER
 62
     2
100
AcDbLine
 10
571.5817056663175
 20
-96.67239266876236
 30
0.0
 11
577.7208680783832
 21
-96.67239266876236
 31
0.0
  0
LINE
  5
CC
330
1F
100
AcDbEntity
  8
1
  6
DOT_CENTER
 62
     2
100
AcDbLine
 10
617.7208680783832
 20
103.3276073312377
 30
0.0
 11
624.4035770209366
 21
103.3276073312377
 31
0.0
  0
LINE
  5
CD
330
1F
100
AcDbEntity
  8
1
  6
DOT_CENTER
 62
     2
100
AcDbLine
 10
572.7208680783832
 20
103.3276073312377
 30
0.0
 11
617.7208680783832
 21
103.3276073312377
 31
0.0
  0
LINE
  5
CE
330
1F
100
AcDbEntity
  8
1
  6
DOT_CENTER
 62
     2
100
AcDbLine
 10
571.5817056663175
 20
103.3276073312377
 30
0.0
 11
577.7208680783832
 21
103.3276073312377
 31
0.0
  0
LINE
  5
CF
330
1F
100
AcDbEntity
  8
1
  6
Continuous
 62
     7
100
AcDbLine
 10
444.1957279141107
 20
-67.24693273133687
 30
0.0
 11
466.1957279141107
 21
-67.24693273133707
 31
0.0
  0
LINE
  5
D0
330
1F
100
AcDbEntity
  8
1
  6
Continuous
 62
     7
100
AcDbLine
 10
444.1957279141107
 20
-40.24693273133686
 30
0.0
 11
434.1957279141109
 21
-40.24693273133678
 31
0.0
  0
LINE
  5
D1
330
1F
100
AcDbEntity
  8
1
  6
Continuous
 62
     7
100
AcDbLine
 10
444.1957279141107
 20
-40.24693273133686
 30
0.0
 11
444.1957279141107
 21
-67.24693273133687
 31
0.0
  0
LINE
  5
D2
330
1F
100
AcDbEntity
  8
1
  6
DOT_CENTER
 62
     2
100
AcDbLine
 10
486.8683721725897
 20
3.32760733123766
 30
0.0
 11
534.6902435272087
 21
3.32760733123766
 31
0.0
  0
LINE
  5
D3
330
1F
100
AcDbEntity
  8
1
  6
DOT_CENTER
 62
     2
100
AcDbLine
 10
533.0075345846553
 20
-96.67239266876236
 30
0.0
 11
539.6902435272087
 21
-96.67239266876236
 31
0.0
  0
LINE
  5
D4
330
1F
100
AcDbEntity
  8
1
  6
DOT_CENTER
 62
     2
100
AcDbLine
 10
533.0075345846553
 20
103.3276073312377
 30
0.0
 11
539.6902435272087
 21
103.3276073312377
 31
0.0
  0
LINE
  5
D5
330
1F
100
AcDbEntity
  8
1
  6
Continuous
 62
     7
100
AcDbLine
 10
533.0075345846553
 20
-96.67239266876236
 30
0.0
 11
533.0075345846553
 21
103.3276073312377
 31
0.0
  0
LINE
  5
D6
330
1F
100
AcDbEntity
  8
1
  6
DOT_CENTER
 62
     2
100
AcDbLine
 10
493.0075345846553
 20
-96.67239266876236
 30
0.0
 11
533.0075345846553
 21
-96.67239266876236
 31
0.0
  0
LINE
  5
D7
330
1F
100
AcDbEntity
  8
1
  6
DOT_CENTER
 62
     2
100
AcDbLine
 10
493.0075345846553
 20
103.3276073312377
 30
0.0
 11
533.0075345846553
 21
103.3276073312377
 31
0.0
  0
LINE
  5
D8
330
1F
100
AcDbEntity
  8
1
  6
Continuous
 62
     7
100
AcDbLine
 10
493.0075345846553
 20
-96.67239266876236
 30
0.0
 11
493.0075345846553
 21
103.3276073312377
 31
0.0
  0
LINE
  5
D9
330
1F
100
AcDbEntity
  8
1
  6
DOT_CENTER
 62
     2
100
AcDbLine
 10
486.8683721725897
 20
-96.67239266876236
 30
0.0
 11
493.0075345846553
 21
-96.67239266876236
 31
0.0
  0
LINE
  5
DA
330
1F
100
AcDbEntity
  8
1
  6
DOT_CENTER
 62
     2
100
AcDbLine
 10
486.8683721725897
 20
103.3276073312377
 30
0.0
 11
493.0075345846553
 21
103.3276073312377
 31
0.0
  0
LINE
  5
DB
330
1F
100
AcDbEntity
  8
1
  6
Continuous
 62
     7
100
AcDbLine
 10
479.1957279141109
 20
-71.24693273133687
 30
0.0
 11
434.1957279141107
 21
-71.24693273133687
 31
0.0
  0
LINE
  5
DC
330
1F
100
AcDbEntity
  8
1
  6
PHANTOM
 62
     2
100
AcDbLine
 10
479.1957279141109
 20
-71.24693273133687
 30
0.0
 11
479.1957279141109
 21
-29.2469327313369
 31
0.0
  0
LINE
  5
DD
330
1F
100
AcDbEntity
  8
1
  6
Continuous
 62
     7
100
AcDbLine
 10
434.1957279141107
 20
-67.24693273133687
 30
0.0
 11
444.1957279141107
 21
-67.24693273133687
 31
0.0
  0
LINE
  5
DE
330
1F
100
AcDbEntity
  8
1
  6
Continuous
 62
     7
100
AcDbLine
 10
466.1957279141107
 20
-67.24693273133707
 30
0.0
 11
466.1957279141107
 21
-40.24693273133686
 31
0.0
  0
LINE
  5
DF
330
1F
100
AcDbEntity
  8
1
  6
Continuous
 62
     7
100
AcDbLine
 10
466.1957279141107
 20
-40.24693273133686
 30
0.0
 11
444.1957279141107
 21
-40.24693273133686
 31
0.0
  0
LINE
  5
E0
330
1F
100
AcDbEntity
  8
1
  6
Continuous
 62
     7
100
AcDbLine
 10
434.1957279141107
 20
-71.24693273133687
 30
0.0
 11
434.1957279141107
 21
-67.24693273133687
 31
0.0
  0
LINE
  5
E1
330
1F
100
AcDbEntity
  8
1
  6
Continuous
 62
     7
100
AcDbLine
 10
434.1957279141109
 20
-29.2469327313369
 30
0.0
 11
479.1957279141109
 21
-29.2469327313369
 31
0.0
  0
LINE
  5
E2
330
1F
100
AcDbEntity
  8
1
  6
PHANTOM
 62
     2
100
AcDbLine
 10
479.1957279141109
 20
-29.2469327313369
 30
0.0
 11
479.1957279141109
 21
-24.42138604507406
 31
0.0
  0
LINE
  5
E3
330
1F
100
AcDbEntity
  8
1
  6
PHANTOM
 62
     2
100
AcDbLine
 10
479.1957279141109
 20
-73.02266333844034
 30
0.0
 11
479.1957279141109
 21
-71.24693273133687
 31
0.0
  0
LINE
  5
E4
330
1F
100
AcDbEntity
  8
1
  6
Continuous
 62
     7
100
AcDbLine
 10
513.5075345846553
 20
51.57760733123767
 30
0.0
 11
517.0075345846553
 21
51.57760733123767
 31
0.0
  0
LINE
  5
E5
330
1F
100
AcDbEntity
  8
1
  6
DOT_CENTER
 62
     2
100
AcDbLine
 10
512.5778907244737
 20
53.32760733123767
 30
0.0
 11
518.0335519212149
 21
53.32760733123767
 31
0.0
  0
LINE
  5
E6
330
1F
100
AcDbEntity
  8
1
  6
DOT_CENTER
 62
     2
100
AcDbLine
 10
512.5778907244737
 20
63.32760733123767
 30
0.0
 11
518.0335519212149
 21
63.32760733123767
 31
0.0
  0
LINE
  5
E7
330
1F
100
AcDbEntity
  8
1
  6
DOT_CENTER
 62
     2
100
AcDbLine
 10
518.0335519212149
 20
-46.67239266876234
 30
0.0
 11
512.5778907244737
 21
-46.67239266876234
 31
0.0
  0
LINE
  5
E8
330
1F
100
AcDbEntity
  8
1
  6
DOT_CENTER
 62
     2
100
AcDbLine
 10
518.0335519212149
 20
-56.67239266876234
 30
0.0
 11
512.5778907244737
 21
-56.67239266876234
 31
0.0
  0
LINE
  5
E9
330
1F
100
AcDbEntity
  8
1
  6
DOT_CENTER
 62
     2
100
AcDbLine
 10
531.8825345846553
 20
59.57760733123767
 30
0.0
 11
498.6325345846553
 21
59.57760733123767
 31
0.0
  0
LINE
  5
EA
330
1F
100
AcDbEntity
  8
1
  6
DOT_CENTER
 62
     2
100
AcDbLine
 10
515.2575345846553
 20
76.20260733123766
 30
0.0
 11
515.2575345846553
 21
-26.29739266876234
 31
0.0
  0
LINE
  5
EB
330
1F
100
AcDbEntity
  8
1
  6
DOT_CENTER
 62
     2
100
AcDbLine
 10
531.8825345846553
 20
-52.92239266876234
 30
0.0
 11
498.6325345846553
 21
-52.92239266876234
 31
0.0
  0
LINE
  5
EC
330
1F
100
AcDbEntity
  8
1
  6
DOT_CENTER
 62
     2
100
AcDbLine
 10
515.2575345846553
 20
-26.29739266876234
 30
0.0
 11
515.2575345846553
 21
-69.54739266876234
 31
0.0
  0
ARC
  5
ED
330
1F
100
AcDbEntity
  8
1
  6
Continuous
 62
     7
100
AcDbCircle
 10
432.6957279141113
 20
-27.24693273133688
 30
0.0
 40
2.0
100
AcDbArc
 50
180.0
 51
-90.0
  0
ARC
  5
EE
330
1F
100
AcDbEntity
  8
1
  6
Continuous
 62
     7
100
AcDbCircle
 10
440.5016486053538
 20
-27.6469327313369
 30
0.0
 40
1.60000000000003
100
AcDbArc
 50
-90.0
 51
70.81186354628032
  0
ARC
  5
EF
330
1F
100
AcDbEntity
  8
1
  6
Continuous
 62
     7
100
AcDbCircle
 10
433.6957279141113
 20
-15.74693273133693
 30
0.0
 40
3.0
100
AcDbArc
 50
90.0
 51
180.0
  0
ARC
  5
F0
330
1F
100
AcDbEntity
  8
1
  6
Continuous
 62
     7
100
AcDbCircle
 10
438.7860517955879
 20
-15.74693273133693
 30
0.0
 40
2.999999999999856
100
AcDbArc
 50
-15.00000000000069
 51
90.0
  0
ARC
  5
F1
330
1F
100
AcDbEntity
  8
1
  6
Continuous
 62
     7
100
AcDbCircle
 10
432.6957279141113
 20
-27.24693273133688
 30
0.0
 40
1.0
100
AcDbArc
 50
180.0
 51
-90.0
  0
ARC
  5
F2
330
1F
100
AcDbEntity
  8
1
  6
Continuous
 62
     7
100
AcDbCircle
 10
433.6957279141113
 20
-15.74693273133693
 30
0.0
 40
2.0
100
AcDbArc
 50
90.0
 51
180.0
  0
ARC
  5
F3
330
1F
100
AcDbEntity
  8
1
  6
Continuous
 62
     7
100
AcDbCircle
 10
438.7860517955879
 20
-15.74693273133693
 30
0.0
 40
1.999999999999826
100
AcDbArc
 50
-15.00000000000076
 51
90.0
  0
ARC
  5
F4
330
1F
100
AcDbEntity
  8
1
  6
Continuous
 62
     7
100
AcDbCircle
 10
440.5016486053538
 20
-27.6469327313369
 30
0.0
 40
0.5999999999999801
100
AcDbArc
 50
-90.0
 51
70.81186354629537
  0
ARC
  5
F5
330
1F
100
AcDbEntity
  8
1
  6
Continuous
 62
     7
100
AcDbCircle
 10
315.4024483117452
 20
-52.57239266876233
 30
0.0
 40
14.60000000000001
100
AcDbArc
 50
-90.0
 51
-0.00000000000006
  0
ARC
  5
F6
330
1F
100
AcDbEntity
  8
1
  6
Continuous
 62
     7
100
AcDbCircle
 10
315.4024483117452
 20
59.22760733123766
 30
0.0
 40
14.6
100
AcDbArc
 50
90.0
 51
179.9999999999999
  0
ARC
  5
F7
330
1F
100
AcDbEntity
  8
1
  6
Continuous
 62
     7
100
AcDbCircle
 10
315.4024483117452
 20
-52.57239266876233
 30
0.0
 40
14.59999999999991
100
AcDbArc
 50
-179.9999999999999
 51
-90.0
  0
ARC
  5
F8
330
1F
100
AcDbEntity
  8
1
  6
Continuous
 62
     7
100
AcDbCircle
 10
315.4024483117452
 20
59.22760733123766
 30
0.0
 40
14.59999999999997
100
AcDbArc
 50
0.00000000000008
 51
90.0
  0
CIRCLE
  5
F9
330
1F
100
AcDbEntity
  8
1
  6
PHANTOM
 62
     2
100
AcDbCircle
 10
513.5075345846553
 20
-52.92239266876234
 30
0.0
 40
12.0
  0
CIRCLE
  5
FA
330
1F
100
AcDbEntity
  8
1
  6
Continuous
 62
     7
100
AcDbCircle
 10
515.2575345846553
 20
53.32760733123767
 30
0.0
 40
1.5
  0
CIRCLE
  5
FB
330
1F
100
AcDbEntity
  8
1
  6
Continuous
 62
     7
100
AcDbCircle
 10
515.2575345846553
 20
63.32760733123767
 30
0.0
 40
1.5
  0
CIRCLE
  5
FC
330
1F
100
AcDbEntity
  8
1
  6
Continuous
 62
     7
100
AcDbCircle
 10
515.2575345846553
 20
-46.67239266876234
 30
0.0
 40
1.5
  0
CIRCLE
  5
FD
330
1F
100
AcDbEntity
  8
1
  6
Continuous
 62
     7
100
AcDbCircle
 10
515.2575345846553
 20
-56.67239266876234
 30
0.0
 40
1.5
  0
SPLINE
  5
FE
330
1F
100
AcDbEntity
  8
1
  6
Continuous
 62
     2
100
AcDbSpline
210
0.0
220
0.0
230
1.0
 70
     8
 71
     3
 72
    12
 73
     8
 74
     6
 42
0.0000000001
 43
0.0000000001
 44
0.00000001
 40
0.0
 40
0.0
 40
0.0
 40
0.0
 40
0.2775291599796777
 40
0.5641738536600427
 40
0.8992522958634975
 40
1.297504019331762
 40
1.680834346735561
 40
1.680834346735561
 40
1.680834346735561
 40
1.680834346735561
 10
444.1957279141113
 20
-3.154229893636393
 30
0.0
 10
444.2836717880622
 20
-3.085030186865334
 30
0.0
 10
444.4624480805296
 20
-2.944357886902216
 30
0.0
 10
444.6635956641446
 20
-3.309105865597198
 30
0.0
 10
445.033179307453
 20
-3.144953657489209
 30
0.0
 10
445.3520271228787
 20
-2.880171463691084
 30
0.0
 10
445.5826284747978
 20
-3.064047224417791
 30
0.0
 10
445.6957279141113
 20
-3.154229893636393
 30
0.0
 11
444.1957279141113
 21
-3.154229893636393
 31
0.0
 11
444.4468358536531
 21
-3.036046826583293
 31
0.0
 11
444.6710871217032
 21
-3.214586875852417
 31
0.0
 11
444.998528795614
 21
-3.143456624791305
 31
0.0
 11
445.3582170434945
 21
-2.972492302249759
 31
0.0
 11
445.6957279141113
 21
-3.154229893636393
 31
0.0
  0
ARC
  5
FF
330
1F
100
AcDbEntity
  8
1
  6
Continuous
 62
     7
100
AcDbCircle
 10
430.6957279141113
 20
-12.74693273133693
 30
0.0
 40
1.5
100
AcDbArc
 50
90.0
 51
180.0
  0
ARC
  5
100
330
1F
100
AcDbEntity
  8
1
  6
Continuous
 62
     7
100
AcDbCircle
 10
431.1957279141113
 20
-13.24693273133693
 30
0.0
 40
0.5
100
AcDbArc
 50
90.0
 51
180.0
  0
ARC
  5
101
330
1F
100
AcDbEntity
  8
1
  6
Continuous
 62
     7
100
AcDbCircle
 10
443.6957279141113
 20
-24.24693273133693
 30
0.0
 40
2.000000000000021
100
AcDbArc
 50
-90.0
 51
0.0
  0
ARC
  5
102
330
1F
100
AcDbEntity
  8
1
  6
Continuous
 62
     7
100
AcDbCircle
 10
441.6848645619737
 20
-24.24693273133693
 30
0.0
 40
1.999999999999968
100
AcDbArc
 50
-109.1881364537217
 51
-90.0
  0
ARC
  5
103
330
1F
100
AcDbEntity
  8
1
  6
Continuous
 62
     7
100
AcDbCircle
 10
443.1957279141113
 20
-23.74693273133693
 30
0.0
 40
1.0
100
AcDbArc
 50
-90.0
 51
0.0
  0
ARC
  5
104
330
1F
100
AcDbEntity
  8
1
  6
Continuous
 62
     7
100
AcDbCircle
 10
442.3364772483943
 20
-23.74693273133693
 30
0.0
 40
1.000000000000032
100
AcDbArc
 50
164.9999999999989
 51
-90.0
  0
ARC
  5
105
330
1F
100
AcDbEntity
  8
1
  6
Continuous
 62
     7
100
AcDbCircle
 10
442.6957279141113
 20
-12.74693273133693
 30
0.0
 40
1.5000000000001
100
AcDbArc
 50
-15.00000000000012
 51
90.0
  0
ARC
  5
106
330
1F
100
AcDbEntity
  8
1
  6
Continuous
 62
     7
100
AcDbCircle
 10
442.0441152276908
 20
-13.24693273133693
 30
0.0
 40
0.4999999999999603
100
AcDbArc
 50
-15.00000000000243
 51
90.0
  0
ARC
  5
107
330
1F
100
AcDbEntity
  8
1
  6
Continuous
 62
     7
100
AcDbCircle
 10
441.6848645619737
 20
-24.24693273133693
 30
0.0
 40
1.999999999999992
100
AcDbArc
 50
165.0000000000003
 51
-109.1881364537217
  0
ARC
  5
108
330
1F
100
AcDbEntity
  8
1
  6
Continuous
 62
     7
100
AcDbCircle
 10
441.6848645619737
 20
-24.24693273133693
 30
0.0
 40
3.000000000000023
100
AcDbArc
 50
165.0
 51
-109.188136453724
  0
ARC
  5
109
330
1F
100
AcDbEntity
  8
1
  6
Continuous
 62
     7
100
AcDbCircle
 10
393.1957279141108
 20
-69.24693273133693
 30
0.0
 40
1.0
100
AcDbArc
 50
180.0
 51
-90.0
  0
ARC
  5
10A
330
1F
100
AcDbEntity
  8
1
  6
Continuous
 62
     7
100
AcDbCircle
 10
393.1957279141108
 20
-69.24693273133693
 30
0.0
 40
2.5
100
AcDbArc
 50
180.0
 51
-90.0
  0
ARC
  5
10B
330
1F
100
AcDbEntity
  8
1
  6
Continuous
 62
     7
100
AcDbCircle
 10
428.1957279141113
 20
-69.24693273133687
 30
0.0
 40
2.5
100
AcDbArc
 50
-90.0
 51
0.0
  0
ARC
  5
10C
330
1F
100
AcDbEntity
  8
1
  6
Continuous
 62
     7
100
AcDbCircle
 10
428.1957279141113
 20
-69.24693273133687
 30
0.0
 40
1.0
100
AcDbArc
 50
-90.0
 51
0.0
  0
ARC
  5
10D
330
1F
100
AcDbEntity
  8
1
  6
DASHED
 62
     2
100
AcDbCircle
 10
417.6957279141113
 20
-68.2469327313369
 30
0.0
 40
3.000000000000008
100
AcDbArc
 50
-80.40593177313957
 51
0.0
  0
ARC
  5
10E
330
1F
100
AcDbEntity
  8
1
  6
DASHED
 62
     2
100
AcDbCircle
 10
417.6957279141113
 20
-68.2469327313369
 30
0.0
 40
3.0
100
AcDbArc
 50
-90.0
 51
-80.40593177313957
  0
ARC
  5
10F
330
1F
100
AcDbEntity
  8
1
  6
DASHED
 62
     2
100
AcDbCircle
 10
417.6957279141113
 20
-36.24693273133688
 30
0.0
 40
3.0
100
AcDbArc
 50
0.0
 51
90.0
  0
ARC
  5
110
330
1F
100
AcDbEntity
  8
1
  6
Continuous
 62
     2
100
AcDbCircle
 10
421.7957279141114
 20
-58.74693273133693
 30
0.0
 40
1.0
100
AcDbArc
 50
180.0
 51
-90.0
  0
ARC
  5
111
330
1F
100
AcDbEntity
  8
1
  6
Continuous
 62
     2
100
AcDbCircle
 10
421.7957279141114
 20
-42.74693273133688
 30
0.0
 40
1.0
100
AcDbArc
 50
90.0
 51
180.0
  0
ARC
  5
112
330
1F
100
AcDbEntity
  8
1
  6
Continuous
 62
     7
100
AcDbCircle
 10
395.6957279141113
 20
-33.74693273133688
 30
0.0
 40
1.999999999999996
100
AcDbArc
 50
90.0
 51
165.5224878140697
  0
ARC
  5
113
330
1F
100
AcDbEntity
  8
1
  6
DASHED
 62
     2
100
AcDbCircle
 10
395.6957279141113
 20
-33.74693273133688
 30
0.0
 40
0.5
100
AcDbArc
 50
90.0
 51
180.0
  0
ARC
  5
114
330
1F
100
AcDbEntity
  8
1
  6
Continuous
 62
     7
100
AcDbCircle
 10
395.6957279141113
 20
-33.74693273133688
 30
0.0
 40
1.999999999999953
100
AcDbArc
 50
165.5224878140697
 51
180.0
  0
ARC
  5
115
330
1F
100
AcDbEntity
  8
1
  6
Continuous
 62
     7
100
AcDbCircle
 10
513.5075345846553
 20
39.57760733123767
 30
0.0
 40
12.0
100
AcDbArc
 50
90.0
 51
180.0
  0
ARC
  5
116
330
1F
100
AcDbEntity
  8
1
  6
Continuous
 62
     7
100
AcDbCircle
 10
517.0075345846553
 20
39.57760733123767
 30
0.0
 40
12.0
100
AcDbArc
 50
0.0
 51
90.0
  0
ARC
  5
117
330
1F
100
AcDbEntity
  8
1
  6
Continuous
 62
     7
100
AcDbCircle
 10
517.0075345846553
 20
-32.92239266876234
 30
0.0
 40
12.0
100
AcDbArc
 50
-90.0
 51
0.0
  0
ARC
  5
118
330
1F
100
AcDbEntity
  8
1
  6
Continuous
 62
     7
100
AcDbCircle
 10
513.5075345846553
 20
-32.92239266876234
 30
0.0
 40
12.00000000000006
100
AcDbArc
 50
180.0
 51
-90.0
  0
ARC
  5
119
330
1F
100
AcDbEntity
  8
1
  6
Continuous
 62
     7
100
AcDbCircle
 10
515.2575345846553
 20
59.57760733123767
 30
0.0
 40
13.74999999999999
100
AcDbArc
 50
90.0
 51
180.0
  0
ARC
  5
11A
330
1F
100
AcDbEntity
  8
1
  6
Continuous
 62
     7
100
AcDbCircle
 10
515.2575345846553
 20
59.57760733123767
 30
0.0
 40
13.75
100
AcDbArc
 50
0.0
 51
90.0
  0
ARC
  5
11B
330
1F
100
AcDbEntity
  8
1
  6
Continuous
 62
     7
100
AcDbCircle
 10
515.2575345846553
 20
-52.92239266876234
 30
0.0
 40
13.75
100
AcDbArc
 50
-90.0
 51
0.0
  0
ARC
  5
11C
330
1F
100
AcDbEntity
  8
1
  6
Continuous
 62
     7
100
AcDbCircle
 10
515.2575345846553
 20
-52.92239266876234
 30
0.0
 40
13.75000000000006
100
AcDbArc
 50
180.0
 51
-90.0
  0
MTEXT
  5
11E
330
1F
100
AcDbEntity
  8
1
 62
     3
100
AcDbMText
 10
444.2144841228034
 20
-98.8064922597548
 30
0.0
 40
5.0
 41
0.0
 71
     4
 72
     1
  1
Fräsbild\PFlügel
  7
CONVERTER_11
 73
     1
 44
1.32052821128451
  0
MTEXT
  5
11F
330
1F
100
AcDbEntity
  8
1
 62
     3
100
AcDbMText
 10
380.0482037056538
 20
-106.8064922597548
 30
0.0
 40
5.0
 41
0.0
 71
     4
 72
     1
  1
Fräsbild\PStahlzarge\PRahmen
  7
CONVERTER_11
 73
     1
 44
1.32052821128451
  0
MTEXT
  5
120
330
1F
100
AcDbEntity
  8
1
 62
     2
100
AcDbMText
 10
397.5760453118784
 20
12.20950876801917
 30
0.0
 40
3.5
 41
0.0
 71
     4
 72
     1
  1
Aufnahmeelement\PTE310-3D SZ
  7
CONVERTER_11
 73
     1
 44
1.32052821128451
  0
DIMENSION
  5
12B
330
1F
100
AcDbEntity
  8
1
100
AcDbDimension
  2
*D4
 10
539.9737945543541
 20
51.57760733123767
 30
0.0
 11
536.2237945543541
 21
-2.92067275242953
 31
0.0
 70
    32
  1
<>
 71
     5
 42
-1.0
 53
90.0
  3
ME10_DIM_10
100
AcDbAlignedDimension
 13
517.0075345846553
 23
-44.92239266876234
 33
0.0
 14
517.0075345846553
 24
51.57760733123767
 34
0.0
 50
90.0
100
AcDbRotatedDimension
  0
DIMENSION
  5
136
330
1F
100
AcDbEntity
  8
1
100
AcDbDimension
  2
*D5
 10
390.6957279141109
 20
-82.83187466673789
 30
0.0
 11
412.5889023258204
 21
-79.08187466673789
 31
0.0
 70
    32
  1
<>
 71
     5
 42
-1.0
 53
0.00013888888889
  3
ME10_DIM_11
100
AcDbAlignedDimension
 13
430.6957279141113
 23
-69.24693273133687
 33
0.0
 14
390.6957279141108
 24
-69.24693273133693
 34
0.0
100
AcDbRotatedDimension
  0
DIMENSION
  5
141
330
1F
100
AcDbEntity
  8
1
100
AcDbDimension
  2
*D6
 10
286.267521477666
 20
73.82760733123766
 30
0.0
 11
282.517521477666
 21
2.26386307239032
 31
0.0
 70
    32
  1
<>
 71
     5
 42
-1.0
 53
90.0
  3
ME10_DIM_12
100
AcDbAlignedDimension
 13
315.4024483117452
 23
-67.17239266876234
 33
0.0
 14
315.4024483117452
 24
73.82760733123766
 34
0.0
 50
90.0
100
AcDbRotatedDimension
  0
DIMENSION
  5
14E
330
1F
100
AcDbEntity
  8
1
100
AcDbDimension
  2
*D7
 10
457.796914628181
 20
-71.24693273133687
 30
0.0
 11
454.046914628181
 21
-78.26689920836546
 31
0.0
 70
    32
  1
<>
 71
     5
 42
-1.0
 53
90.0
  3
ME10_DIM_13
100
AcDbAlignedDimension
 13
466.1957279141107
 23
-67.24693273133707
 33
0.0
 14
479.1957279141109
 24
-71.24693273133687
 34
0.0
 50
90.0
100
AcDbRotatedDimension
  0
DIMENSION
  5
15B
330
1F
100
AcDbEntity
  8
1
100
AcDbDimension
  2
*D8
 10
529.0075345846553
 20
-110.8346627757187
 30
0.0
 11
540.988521368856
 21
-107.1830663646337
 31
0.0
 70
    32
  1
<>
 71
     5
 42
-1.0
 53
0.00013888888889
  3
ME10_DIM_14
100
AcDbAlignedDimension
 13
533.0075345846553
 23
-96.67239266876236
 33
0.0
 14
529.0075345846553
 24
-52.92239266876234
 34
0.0
100
AcDbRotatedDimension
  0
DIMENSION
  5
166
330
1F
100
AcDbEntity
  8
1
100
AcDbDimension
  2
*D9
 10
617.7208680783832
 20
-116.6719531886357
 30
0.0
 11
601.670483485137
 21
-112.9219531886357
 31
0.0
 70
    32
  1
<>
 71
     5
 42
-1.0
 53
0.00013888888889
  3
ME10_DIM_15
100
AcDbAlignedDimension
 13
585.7208680783832
 23
-44.92239266876236
 33
0.0
 14
617.7208680783832
 24
-61.67239266876234
 34
0.0
100
AcDbRotatedDimension
  0
DIMENSION
  5
171
330
1F
100
AcDbEntity
  8
1
100
AcDbDimension
  2
*D10
 10
607.7208680783832
 20
-105.8346627757187
 30
0.0
 11
612.239356414393
 21
-102.0846627757187
 31
0.0
 70
    32
  1
<>
 71
     5
 42
-1.0
 53
0.00013888888889
  3
ME10_DIM_16
100
AcDbAlignedDimension
 13
617.7208680783832
 23
-96.67239266876236
 33
0.0
 14
607.7208680783832
 24
-61.67239266876234
 34
0.0
100
AcDbRotatedDimension
  0
DIMENSION
  5
17C
330
1F
100
AcDbEntity
  8
1
100
AcDbDimension
  2
*D11
 10
562.739426486748
 20
73.32760733123766
 30
0.0
 11
558.989426486748
 21
2.04326202982179
 31
0.0
 70
    32
  1
<>
 71
     5
 42
-1.0
 53
90.0
  3
ME10_DIM_17
100
AcDbAlignedDimension
 13
515.2575345846553
 23
-66.67239266876234
 33
0.0
 14
515.2575345846553
 24
73.32760733123766
 34
0.0
 50
90.0
100
AcDbRotatedDimension
  0
DIMENSION
  5
187
330
1F
100
AcDbEntity
  8
1
100
AcDbDimension
  2
*D12
 10
501.5075345846553
 20
-110.8346627757187
 30
0.0
 11
515.404131054309
 21
-107.0846627757187
 31
0.0
 70
    32
  1
<>
 71
     5
 42
-1.0
 53
0.00013888888889
  3
ME10_DIM_18
100
AcDbAlignedDimension
 13
529.0075345846553
 23
-52.92239266876234
 33
0.0
 14
501.5075345846553
 24
-52.92239266876234
 34
0.0
100
AcDbRotatedDimension
  0
DIMENSION
  5
192
330
1F
100
AcDbEntity
  8
1
100
AcDbDimension
  2
*D13
 10
547.334111645278
 20
53.32760733123766
 30
0.0
 11
543.584111645278
 21
1.87209186491657
 31
0.0
 70
    32
  1
<>
 71
     5
 42
-1.0
 53
90.0
  3
ME10_DIM_19
100
AcDbAlignedDimension
 13
518.0335519212149
 23
-46.67239266876234
 33
0.0
 14
518.0335519212149
 24
53.32760733123767
 34
0.0
 50
90.0
100
AcDbRotatedDimension
  0
DIMENSION
  5
19D
330
1F
100
AcDbEntity
  8
1
100
AcDbDimension
  2
*D14
 10
555.036769066013
 20
63.32760733123767
 30
0.0
 11
551.286769066013
 21
0.16039021586438
 31
0.0
 70
    32
  1
<>
 71
     5
 42
-1.0
 53
90.0
  3
ME10_DIM_20
100
AcDbAlignedDimension
 13
518.0335519212149
 23
-56.67239266876234
 33
0.0
 14
518.0335519212149
 24
63.32760733123767
 34
0.0
 50
90.0
100
AcDbRotatedDimension
  0
DIMENSION
  5
1A8
330
1F
100
AcDbEntity
  8
1
100
AcDbDimension
  2
*D15
 10
393.6957279141114
 20
-20.09660351897049
 30
0.0
 11
411.5973139297651
 21
-16.34660351897049
 31
0.0
 70
    32
  1
<>
 71
     5
 42
-1.0
 53
0.00013888888889
  3
ME10_DIM_21
100
AcDbAlignedDimension
 13
429.1957279141113
 23
-12.74693273133693
 33
0.0
 14
393.6957279141113
 24
-33.74693273133688
 34
0.0
100
AcDbRotatedDimension
  0
DIMENSION
  5
1B3
330
1F
100
AcDbEntity
  8
1
100
AcDbDimension
  2
*D16
 10
381.6539260309696
 20
-71.24693273133693
 30
0.0
 11
377.9039260309696
 21
-49.81386129763978
 31
0.0
 70
    32
  1
<>
 71
     5
 42
-1.0
 53
90.0
  3
ME10_DIM_22
100
AcDbAlignedDimension
 13
395.6957279141113
 23
-31.74693273133688
 33
0.0
 14
395.1957279141113
 24
-71.24693273133693
 34
0.0
 50
90.0
100
AcDbRotatedDimension
  0
DIMENSION
  5
1C0
330
1F
100
AcDbEntity
  8
1
100
AcDbDimension
  2
*D17
 10
295.8024483117452
 20
-110.2443670851137
 30
0.0
 11
286.408452353813
 21
-106.4943670851137
 31
0.0
 70
    32
  1
<>
 71
     5
 42
-1.0
 53
0.00013888888889
  3
ME10_DIM_23
100
AcDbAlignedDimension
 13
300.8024483117453
 23
-52.57239266876235
 33
0.0
 14
295.8024483117453
 24
-96.67239266876233
 34
0.0
100
AcDbRotatedDimension
  0
DIMENSION
  5
1CB
330
1F
100
AcDbEntity
  8
1
100
AcDbDimension
  2
*D18
 10
300.8024483117452
 20
-110.2443670851137
 30
0.0
 11
315.4024483117452
 21
-106.4943670851137
 31
0.0
 70
    32
  1
<>
 71
     5
 42
-1.0
 53
0.00013888888889
  3
ME10_DIM_24
100
AcDbAlignedDimension
 13
330.0024483117452
 23
-52.57239266876235
 33
0.0
 14
300.8024483117453
 24
-52.57239266876235
 34
0.0
100
AcDbRotatedDimension
  0
INSERT
  5
1D2
330
1F
100
AcDbEntity
  8
1
100
AcDbBlockReference
  2
*D19
 10
0.0
 20
0.0
 30
0.0
  0
INSERT
  5
1D9
330
1F
100
AcDbEntity
  8
1
100
AcDbBlockReference
  2
*D20
 10
0.0
 20
0.0
 30
0.0
  0
INSERT
  5
1E1
330
1F
100
AcDbEntity
  8
1
100
AcDbBlockReference
  2
*D21
 10
0.0
 20
0.0
 30
0.0
  0
ENDSEC
  0
SECTION
  2
OBJECTS
  0
DICTIONARY
  5
C
330
0
100
AcDbDictionary
281
     1
  3
ACAD_GROUP
350
D
  3
ACAD_LAYOUT
350
1A
  3
ACAD_MLINESTYLE
350
17
  3
ACAD_PLOTSETTINGS
350
19
  3
ACAD_PLOTSTYLENAME
350
E
  0
DICTIONARY
  5
D
102
{ACAD_REACTORS
330
C
102
}
330
C
100
AcDbDictionary
281
     1
  0
DICTIONARY
  5
1A
102
{ACAD_REACTORS
330
C
102
}
330
C
100
AcDbDictionary
281
     1
  3
Layout1
350
1E
  3
Layout2
350
26
  3
Model
350
22
  0
DICTIONARY
  5
17
102
{ACAD_REACTORS
330
C
102
}
330
C
100
AcDbDictionary
281
     1
  3
Standard
350
18
  0
DICTIONARY
  5
19
102
{ACAD_REACTORS
330
C
102
}
330
C
100
AcDbDictionary
281
     1
  0
ACDBDICTIONARYWDFLT
  5
E
102
{ACAD_REACTORS
330
C
102
}
330
C
100
AcDbDictionary
281
     1
  3
Normal
350
F
100
AcDbDictionaryWithDefault
340
F
  0
LAYOUT
  5
1E
102
{ACAD_REACTORS
330
1A
102
}
330
1A
100
AcDbPlotSettings
  1

  2

  4

  6

 40
0.0
 41
0.0
 42
0.0
 43
0.0
 44
0.0
 45
0.0
 46
0.0
 47
0.0
 48
0.0
 49
0.0
140
0.0
141
0.0
142
1.0
143
1.0
 70
   688
 72
     0
 73
     0
 74
     5
  7

 75
    16
 76
     0
 77
     2
 78
   300
147
1.0
148
0.0
149
0.0
100
AcDbLayout
  1
Layout1
 70
     1
 71
     1
 10
0.0
 20
0.0
 11
0.0
 21
0.0
 12
0.0
 22
0.0
 32
0.0
 14
0.0
 24
0.0
 34
0.0
 15
0.0
 25
0.0
 35
0.0
146
0.0
 13
0.0
 23
0.0
 33
0.0
 16
1.0
 26
0.0
 36
0.0
 17
0.0
 27
1.0
 37
0.0
 76
     0
330
1B
  0
LAYOUT
  5
26
102
{ACAD_REACTORS
330
1A
102
}
330
1A
100
AcDbPlotSettings
  1

  2

  4

  6

 40
0.0
 41
0.0
 42
0.0
 43
0.0
 44
0.0
 45
0.0
 46
0.0
 47
0.0
 48
0.0
 49
0.0
140
0.0
141
0.0
142
1.0
143
1.0
 70
   688
 72
     0
 73
     0
 74
     5
  7

 75
    16
 76
     0
 77
     2
 78
   300
147
1.0
148
0.0
149
0.0
100
AcDbLayout
  1
Layout2
 70
     1
 71
     2
 10
0.0
 20
0.0
 11
0.0
 21
0.0
 12
0.0
 22
0.0
 32
0.0
 14
0.0
 24
0.0
 34
0.0
 15
0.0
 25
0.0
 35
0.0
146
0.0
 13
0.0
 23
0.0
 33
0.0
 16
1.0
 26
0.0
 36
0.0
 17
0.0
 27
1.0
 37
0.0
 76
     0
330
23
  0
LAYOUT
  5
22
102
{ACAD_REACTORS
330
1A
102
}
330
1A
100
AcDbPlotSettings
  1

  2

  4

  6

 40
0.0
 41
0.0
 42
0.0
 43
0.0
 44
0.0
 45
0.0
 46
0.0
 47
0.0
 48
0.0
 49
0.0
140
0.0
141
0.0
142
1.0
143
1.0
 70
  1712
 72
     0
 73
     0
 74
     0
  7

 75
     0
 76
     0
 77
     2
 78
   300
147
1.0
148
0.0
149
0.0
100
AcDbLayout
  1
Model
 70
     1
 71
     0
 10
0.0
 20
0.0
 11
0.0
 21
0.0
 12
0.0
 22
0.0
 32
0.0
 14
280.767521477666
 24
-120.3064922597548
 34
0.0
 15
624.4035770209366
 25
107.3704072010586
 35
0.0
146
0.0
 13
0.0
 23
0.0
 33
0.0
 16
1.0
 26
0.0
 36
0.0
 17
0.0
 27
1.0
 37
0.0
 76
     0
330
1F
  0
MLINESTYLE
  5
18
102
{ACAD_REACTORS
330
17
102
}
330
17
100
AcDbMlineStyle
  2
Standard
 70
     0
  3

 62
   256
 51
90.0
 52
90.0
 71
     2
 49
0.5
 62
   256
  6
BYLAYER
 49
-0.5
 62
   256
  6
BYLAYER
  0
ACDBPLACEHOLDER
  5
F
102
{ACAD_REACTORS
330
E
102
}
330
E
  0
ENDSEC
  0
EOF
