  0
SECTION
  2
HEADER
  9
$ACADVER
  1
AC1018
  9
$ACADMAINTVER
 70
     0
  9
$DWGCODEPAGE
  3
ANSI_1252
  9
$INSBASE
 10
0.0
 20
0.0
 30
0.0
  9
$EXTMIN
 10
-204.6000806359427
 20
-126.2960061849887
 30
0.0
  9
$EXTMAX
 10
180.5946427794926
 20
109.761881720986
 30
0.0
  9
$LIMMIN
 10
0.0
 20
0.0
  9
$LIMMAX
 10
12.0
 20
9.0
  9
$ORTHOMODE
 70
     0
  9
$REGENMODE
 70
     1
  9
$FILLMODE
 70
     1
  9
$QTEXTMODE
 70
     0
  9
$MIRRTEXT
 70
     1
  9
$LTSCALE
 40
1.0
  9
$ATTMODE
 70
     1
  9
$TEXTSIZE
 40
0.2
  9
$TRACEWID
 40
0.05
  9
$TEXTSTYLE
  7
Standard
  9
$CLAYER
  8
0
  9
$CELTYPE
  6
ByLayer
  9
$CECOLOR
 62
   256
  9
$CELTSCALE
 40
1.0
  9
$DISPSILH
 70
     0
  9
$DIMSCALE
 40
1.0
  9
$DIMASZ
 40
0.18
  9
$DIMEXO
 40
0.0625
  9
$DIMDLI
 40
0.38
  9
$DIMRND
 40
0.0
  9
$DIMDLE
 40
0.0
  9
$DIMEXE
 40
0.18
  9
$DIMTP
 40
0.0
  9
$DIMTM
 40
0.0
  9
$DIMTXT
 40
0.18
  9
$DIMCEN
 40
0.09
  9
$DIMTSZ
 40
0.0
  9
$DIMTOL
 70
     0
  9
$DIMLIM
 70
     0
  9
$DIMTIH
 70
     1
  9
$DIMTOH
 70
     1
  9
$DIMSE1
 70
     0
  9
$DIMSE2
 70
     0
  9
$DIMTAD
 70
     0
  9
$DIMZIN
 70
     0
  9
$DIMBLK
  1

  9
$DIMASO
 70
     1
  9
$DIMSHO
 70
     1
  9
$DIMPOST
  1

  9
$DIMAPOST
  1

  9
$DIMALT
 70
     0
  9
$DIMALTD
 70
     2
  9
$DIMALTF
 40
25.4
  9
$DIMLFAC
 40
1.0
  9
$DIMTOFL
 70
     0
  9
$DIMTVP
 40
0.0
  9
$DIMTIX
 70
     0
  9
$DIMSOXD
 70
     0
  9
$DIMSAH
 70
     0
  9
$DIMBLK1
  1

  9
$DIMBLK2
  1

  9
$DIMSTYLE
  2
Standard
  9
$DIMCLRD
 70
     0
  9
$DIMCLRE
 70
     0
  9
$DIMCLRT
 70
     0
  9
$DIMTFAC
 40
1.0
  9
$DIMGAP
 40
0.09
  9
$DIMJUST
 70
     0
  9
$DIMSD1
 70
     0
  9
$DIMSD2
 70
     0
  9
$DIMTOLJ
 70
     1
  9
$DIMTZIN
 70
     0
  9
$DIMALTZ
 70
     0
  9
$DIMALTTZ
 70
     0
  9
$DIMUPT
 70
     0
  9
$DIMDEC
 70
     4
  9
$DIMTDEC
 70
     4
  9
$DIMALTU
 70
     2
  9
$DIMALTTD
 70
     2
  9
$DIMTXSTY
  7
Standard
  9
$DIMAUNIT
 70
     0
  9
$DIMADEC
 70
     0
  9
$DIMALTRND
 40
0.0
  9
$DIMAZIN
 70
     0
  9
$DIMDSEP
 70
    46
  9
$DIMATFIT
 70
     3
  9
$DIMFRAC
 70
     0
  9
$DIMLDRBLK
  1

  9
$DIMLUNIT
 70
     2
  9
$DIMLWD
 70
    -2
  9
$DIMLWE
 70
    -2
  9
$DIMTMOVE
 70
     0
  9
$LUNITS
 70
     2
  9
$LUPREC
 70
     4
  9
$SKETCHINC
 40
0.1
  9
$FILLETRAD
 40
0.5
  9
$AUNITS
 70
     0
  9
$AUPREC
 70
     0
  9
$MENU
  1
.
  9
$ELEVATION
 40
0.0
  9
$PELEVATION
 40
0.0
  9
$THICKNESS
 40
0.0
  9
$LIMCHECK
 70
     0
  9
$CHAMFERA
 40
0.5
  9
$CHAMFERB
 40
0.5
  9
$CHAMFERC
 40
1.0
  9
$CHAMFERD
 40
0.0
  9
$SKPOLY
 70
     0
  9
$TDCREATE
 40
2454623.420534861
  9
$TDUCREATE
 40
2454623.337201528
  9
$TDUPDATE
 40
2454623.420534873
  9
$TDUUPDATE
 40
2454623.337201539
  9
$TDINDWG
 40
0.0000000116
  9
$TDUSRTIMER
 40
0.0000000116
  9
$USRTIMER
 70
     1
  9
$ANGBASE
 50
0.0
  9
$ANGDIR
 70
     0
  9
$PDMODE
 70
     0
  9
$PDSIZE
 40
0.0
  9
$PLINEWID
 40
0.0
  9
$SPLFRAME
 70
     0
  9
$SPLINETYPE
 70
     6
  9
$SPLINESEGS
 70
     8
  9
$HANDSEED
  5
1CC
  9
$SURFTAB1
 70
     6
  9
$SURFTAB2
 70
     6
  9
$SURFTYPE
 70
     6
  9
$SURFU
 70
     6
  9
$SURFV
 70
     6
  9
$UCSBASE
  2

  9
$UCSNAME
  2

  9
$UCSORG
 10
0.0
 20
0.0
 30
0.0
  9
$UCSXDIR
 10
1.0
 20
0.0
 30
0.0
  9
$UCSYDIR
 10
0.0
 20
1.0
 30
0.0
  9
$UCSORTHOREF
  2

  9
$UCSORTHOVIEW
 70
     0
  9
$UCSORGTOP
 10
0.0
 20
0.0
 30
0.0
  9
$UCSORGBOTTOM
 10
0.0
 20
0.0
 30
0.0
  9
$UCSORGLEFT
 10
0.0
 20
0.0
 30
0.0
  9
$UCSORGRIGHT
 10
0.0
 20
0.0
 30
0.0
  9
$UCSORGFRONT
 10
0.0
 20
0.0
 30
0.0
  9
$UCSORGBACK
 10
0.0
 20
0.0
 30
0.0
  9
$PUCSBASE
  2

  9
$PUCSNAME
  2

  9
$PUCSORG
 10
0.0
 20
0.0
 30
0.0
  9
$PUCSXDIR
 10
1.0
 20
0.0
 30
0.0
  9
$PUCSYDIR
 10
0.0
 20
1.0
 30
0.0
  9
$PUCSORTHOREF
  2

  9
$PUCSORTHOVIEW
 70
     0
  9
$PUCSORGTOP
 10
0.0
 20
0.0
 30
0.0
  9
$PUCSORGBOTTOM
 10
0.0
 20
0.0
 30
0.0
  9
$PUCSORGLEFT
 10
0.0
 20
0.0
 30
0.0
  9
$PUCSORGRIGHT
 10
0.0
 20
0.0
 30
0.0
  9
$PUCSORGFRONT
 10
0.0
 20
0.0
 30
0.0
  9
$PUCSORGBACK
 10
0.0
 20
0.0
 30
0.0
  9
$USERI1
 70
     0
  9
$USERI2
 70
     0
  9
$USERI3
 70
     0
  9
$USERI4
 70
     0
  9
$USERI5
 70
     0
  9
$USERR1
 40
14.5
  9
$USERR2
 40
0.0
  9
$USERR3
 40
0.0
  9
$USERR4
 40
0.0
  9
$USERR5
 40
0.0
  9
$WORLDVIEW
 70
     1
  9
$SHADEDGE
 70
     3
  9
$SHADEDIF
 70
    70
  9
$TILEMODE
 70
     1
  9
$MAXACTVP
 70
    64
  9
$PINSBASE
 10
0.0
 20
0.0
 30
0.0
  9
$PLIMCHECK
 70
     0
  9
$PEXTMIN
 10
1.00000000000000E+20
 20
1.00000000000000E+20
 30
1.00000000000000E+20
  9
$PEXTMAX
 10
-1.00000000000000E+20
 20
-1.00000000000000E+20
 30
-1.00000000000000E+20
  9
$PLIMMIN
 10
0.0
 20
0.0
  9
$PLIMMAX
 10
12.0
 20
9.0
  9
$UNITMODE
 70
     0
  9
$VISRETAIN
 70
     1
  9
$PLINEGEN
 70
     0
  9
$PSLTSCALE
 70
     1
  9
$TREEDEPTH
 70
  3020
  9
$CMLSTYLE
  2
Standard
  9
$CMLJUST
 70
     0
  9
$CMLSCALE
 40
1.0
  9
$PROXYGRAPHICS
 70
     1
  9
$MEASUREMENT
 70
     1
  9
$CELWEIGHT
370
    -1
  9
$ENDCAPS
280
     0
  9
$JOINSTYLE
280
     0
  9
$LWDISPLAY
290
     0
  9
$INSUNITS
 70
     1
  9
$HYPERLINKBASE
  1

  9
$STYLESHEET
  1

  9
$XEDIT
290
     1
  9
$CEPSNTYPE
380
     0
  9
$PSTYLEMODE
290
     1
  9
$FINGERPRINTGUID
  2
{3C721DF0-33B8-4959-81DD-1E3A8C87494C}
  9
$VERSIONGUID
  2
{FAEB1C32-E019-11D5-929B-00C0DF256EC4}
  9
$EXTNAMES
290
     1
  9
$PSVPSCALE
 40
0.0
  9
$OLESTARTUP
290
     0
  9
$SORTENTS
280
   127
  9
$INDEXCTL
280
     0
  9
$HIDETEXT
280
     1
  9
$XCLIPFRAME
290
     0
  9
$HALOGAP
280
     0
  9
$OBSCOLOR
 70
   257
  9
$OBSLTYPE
280
     0
  9
$INTERSECTIONDISPLAY
280
     0
  9
$INTERSECTIONCOLOR
 70
   257
  9
$DIMASSOC
280
     2
  9
$PROJECTNAME
  1

  0
ENDSEC
  0
SECTION
  2
CLASSES
  0
CLASS
  1
ACDBDICTIONARYWDFLT
  2
AcDbDictionaryWithDefault
  3
ObjectDBX Classes
 90
        0
 91
        3
280
     0
281
     0
  0
CLASS
  1

  2
exOdDbCircle
  3

 90
        0
 91
        3
280
     0
281
     1
  0
ENDSEC
  0
SECTION
  2
TABLES
  0
TABLE
  2
VPORT
  5
8
330
0
100
AcDbSymbolTable
 70
     1
  0
VPORT
  5
29
330
8
100
AcDbSymbolTableRecord
100
AcDbViewportTableRecord
  2
*Active
 70
     0
 10
0.0
 20
0.0
 11
1.0
 21
1.0
 12
-12.00271892822505
 22
-8.26706223200135
 13
0.0
 23
0.0
 14
0.5
 24
0.5
 15
0.5
 25
0.5
 16
0.0
 26
0.0
 36
1.0
 17
0.0
 27
0.0
 37
0.0
 40
264.3787739542153
 41
1.60267857142857
 42
50.0
 43
0.0
 44
0.0
 50
0.0
 51
0.0
 71
     0
 72
   100
 73
     1
 74
     3
 75
     0
 76
     0
 77
     0
 78
     0
281
     0
 65
     1
110
0.0
120
0.0
130
0.0
111
1.0
121
0.0
131
0.0
112
0.0
122
1.0
132
0.0
 79
     0
146
0.0
  0
ENDTAB
  0
TABLE
  2
LTYPE
  5
5
330
0
100
AcDbSymbolTable
 70
     8
  0
LTYPE
  5
14
330
5
100
AcDbSymbolTableRecord
100
AcDbLinetypeTableRecord
  2
ByBlock
 70
     0
  3

 72
    65
 73
     0
 40
0.0
  0
LTYPE
  5
15
330
5
100
AcDbSymbolTableRecord
100
AcDbLinetypeTableRecord
  2
ByLayer
 70
     0
  3

 72
    65
 73
     0
 40
0.0
  0
LTYPE
  5
16
330
5
100
AcDbSymbolTableRecord
100
AcDbLinetypeTableRecord
  2
Continuous
 70
     0
  3
Solid line
 72
    65
 73
     0
 40
0.0
  0
LTYPE
  5
2A
330
5
100
AcDbSymbolTableRecord
100
AcDbLinetypeTableRecord
  2
DASHED
 70
     0
  3
Dashed
 72
    65
 73
     2
 40
15.0
 49
7.0
 74
     0
 49
-8.0
 74
     0
  0
LTYPE
  5
2B
330
5
100
AcDbSymbolTableRecord
100
AcDbLinetypeTableRecord
  2
DOTTED
 70
     0
  3
Dotted
 72
    65
 73
     2
 40
1.0
 49
0.0
 74
     0
 49
-1.0
 74
     0
  0
LTYPE
  5
2C
330
5
100
AcDbSymbolTableRecord
100
AcDbLinetypeTableRecord
  2
DOT_CENTER
 70
     0
  3
Dot_Center
 72
    65
 73
     4
 40
14.0
 49
12.0
 74
     0
 49
-1.0
 74
     0
 49
0.0
 74
     0
 49
-1.0
 74
     0
  0
LTYPE
  5
2D
330
5
100
AcDbSymbolTableRecord
100
AcDbLinetypeTableRecord
  2
LONG_DASHED
 70
     0
  3
Long_Dashed
 72
    65
 73
     2
 40
15.0
 49
10.0
 74
     0
 49
-5.0
 74
     0
  0
LTYPE
  5
2E
330
5
100
AcDbSymbolTableRecord
100
AcDbLinetypeTableRecord
  2
DASH_CENTER
 70
     0
  3
Dash_Center
 72
    65
 73
     4
 40
14.0
 49
11.0
 74
     0
 49
-1.0
 74
     0
 49
1.0
 74
     0
 49
-1.0
 74
     0
  0
LTYPE
  5
2F
330
5
100
AcDbSymbolTableRecord
100
AcDbLinetypeTableRecord
  2
PHANTOM
 70
     0
  3
Phantom
 72
    65
 73
     6
 40
13.0
 49
10.0
 74
     0
 49
-1.0
 74
     0
 49
0.0
 74
     0
 49
-1.0
 74
     0
 49
0.0
 74
     0
 49
-1.0
 74
     0
  0
LTYPE
  5
30
330
5
100
AcDbSymbolTableRecord
100
AcDbLinetypeTableRecord
  2
CENTER_DASH_DASH
 70
     0
  3
Center_Dash_Dash
 72
    65
 73
     6
 40
14.0
 49
9.0
 74
     0
 49
-1.0
 74
     0
 49
1.0
 74
     0
 49
-1.0
 74
     0
 49
1.0
 74
     0
 49
-1.0
 74
     0
  0
ENDTAB
  0
TABLE
  2
LAYER
  5
2
330
0
100
AcDbSymbolTable
 70
     2
  0
LAYER
  5
10
330
2
100
AcDbSymbolTableRecord
100
AcDbLayerTableRecord
  2
0
 70
     0
 62
     7
  6
Continuous
370
    -3
390
F
  0
LAYER
  5
31
330
2
100
AcDbSymbolTableRecord
100
AcDbLayerTableRecord
  2
1
 70
     0
 62
     7
  6
Continuous
370
    -3
390
F
  0
ENDTAB
  0
TABLE
  2
STYLE
  5
3
330
0
100
AcDbSymbolTable
 70
     2
  0
STYLE
  5
11
330
3
100
AcDbSymbolTableRecord
100
AcDbTextStyleTableRecord
  2
Standard
 70
     0
 40
0.0
 41
1.0
 50
0.0
 71
     0
 42
0.2
  3
txt
  4

  0
STYLE
  5
F9
330
3
100
AcDbSymbolTableRecord
100
AcDbTextStyleTableRecord
  2
CONVERTER_11
 70
     0
 40
0.0
 41
0.9
 50
0.0
 71
     0
 42
0.2
  3
txt.shx
  4

  0
ENDTAB
  0
TABLE
  2
VIEW
  5
6
330
0
100
AcDbSymbolTable
 70
     0
  0
ENDTAB
  0
TABLE
  2
UCS
  5
7
330
0
100
AcDbSymbolTable
 70
     0
  0
ENDTAB
  0
TABLE
  2
APPID
  5
9
330
0
100
AcDbSymbolTable
 70
     1
  0
APPID
  5
12
330
9
100
AcDbSymbolTableRecord
100
AcDbRegAppTableRecord
  2
ACAD
 70
     0
  0
ENDTAB
  0
TABLE
  2
DIMSTYLE
  5
A
330
0
100
AcDbSymbolTable
 70
    17
100
AcDbDimStyleTable
  0
DIMSTYLE
105
27
330
A
100
AcDbSymbolTableRecord
100
AcDbDimStyleTableRecord
  2
Standard
 70
     0
340
11
  0
DIMSTYLE
105
106
102
{ACAD_REACTORS
330
107
102
}
330
A
100
AcDbSymbolTableRecord
100
AcDbDimStyleTableRecord
  2
ME10_DIM_10
 70
     0
 41
3.5
 42
0.0
 44
2.0
 73
     0
 74
     0
 77
     1
 78
     8
140
3.5
147
2.0
172
     1
173
     1
176
     2
177
     2
178
     2
271
     2
340
F9
  0
DIMSTYLE
105
111
102
{ACAD_REACTORS
330
112
102
}
330
A
100
AcDbSymbolTableRecord
100
AcDbDimStyleTableRecord
  2
ME10_DIM_11
 70
     0
 41
3.5
 42
0.0
 44
2.0
 73
     0
 74
     0
 77
     1
 78
     8
140
3.5
147
2.0
172
     1
173
     1
176
     2
177
     2
178
     2
271
     2
340
F9
  0
DIMSTYLE
105
11C
102
{ACAD_REACTORS
330
11D
102
}
330
A
100
AcDbSymbolTableRecord
100
AcDbDimStyleTableRecord
  2
ME10_DIM_12
 70
     0
 41
3.5
 42
0.0
 44
2.0
 73
     0
 74
     0
 77
     1
 78
     8
140
3.5
147
2.0
172
     1
173
     1
176
     2
177
     2
178
     2
271
     2
340
F9
  0
DIMSTYLE
105
127
102
{ACAD_REACTORS
330
128
102
}
330
A
100
AcDbSymbolTableRecord
100
AcDbDimStyleTableRecord
  2
ME10_DIM_13
 70
     0
 41
3.5
 42
0.0
 44
2.0
 73
     0
 74
     0
 77
     1
 78
     8
140
3.5
147
2.0
172
     1
173
     1
176
     2
177
     2
178
     2
271
     2
340
F9
  0
DIMSTYLE
105
132
102
{ACAD_REACTORS
330
133
102
}
330
A
100
AcDbSymbolTableRecord
100
AcDbDimStyleTableRecord
  2
ME10_DIM_14
 70
     0
 41
3.5
 42
0.0
 44
2.0
 73
     0
 74
     0
 77
     1
 78
     8
140
3.5
147
2.0
172
     1
173
     1
176
     2
177
     2
178
     2
271
     2
340
F9
  0
DIMSTYLE
105
13D
102
{ACAD_REACTORS
330
13E
102
}
330
A
100
AcDbSymbolTableRecord
100
AcDbDimStyleTableRecord
  2
ME10_DIM_15
 70
     0
 41
3.5
 42
0.0
 44
2.0
 73
     0
 74
     0
 77
     1
 78
     8
140
3.5
147
2.0
172
     1
173
     1
176
     2
177
     2
178
     2
271
     2
340
F9
  0
DIMSTYLE
105
14A
102
{ACAD_REACTORS
330
14B
102
}
330
A
100
AcDbSymbolTableRecord
100
AcDbDimStyleTableRecord
  2
ME10_DIM_16
 70
     0
 41
3.5
 42
0.0
 44
2.0
 73
     0
 74
     0
 77
     1
 78
     8
140
3.5
147
2.0
172
     1
173
     1
176
     2
177
     2
178
     2
271
     2
340
F9
  0
DIMSTYLE
105
155
102
{ACAD_REACTORS
330
156
102
}
330
A
100
AcDbSymbolTableRecord
100
AcDbDimStyleTableRecord
  2
ME10_DIM_17
 70
     0
 41
3.5
 42
0.0
 44
2.0
 73
     0
 74
     0
 77
     1
 78
     8
140
3.5
147
2.0
172
     1
173
     1
176
     2
177
     2
178
     2
271
     2
340
F9
  0
DIMSTYLE
105
162
102
{ACAD_REACTORS
330
163
102
}
330
A
100
AcDbSymbolTableRecord
100
AcDbDimStyleTableRecord
  2
ME10_DIM_18
 70
     0
 41
3.5
 42
0.0
 44
2.0
 73
     0
 74
     0
 77
     1
 78
     8
140
3.5
147
2.0
172
     1
173
     1
176
     2
177
     2
178
     2
271
     2
340
F9
  0
DIMSTYLE
105
16F
102
{ACAD_REACTORS
330
170
102
}
330
A
100
AcDbSymbolTableRecord
100
AcDbDimStyleTableRecord
  2
ME10_DIM_19
 70
     0
 41
3.5
 42
0.0
 44
2.0
 73
     0
 74
     0
 77
     1
 78
     8
140
3.5
147
2.0
172
     1
173
     1
176
     2
177
     2
178
     2
271
     2
340
F9
  0
DIMSTYLE
105
17A
102
{ACAD_REACTORS
330
17B
102
}
330
A
100
AcDbSymbolTableRecord
100
AcDbDimStyleTableRecord
  2
ME10_DIM_20
 70
     0
 41
3.5
 42
0.0
 44
2.0
 73
     0
 74
     0
 77
     1
 78
     8
140
3.5
147
2.0
172
     1
173
     1
176
     2
177
     2
178
     2
271
     2
340
F9
  0
DIMSTYLE
105
185
102
{ACAD_REACTORS
330
186
102
}
330
A
100
AcDbSymbolTableRecord
100
AcDbDimStyleTableRecord
  2
ME10_DIM_21
 70
     0
 41
3.5
 42
0.0
 44
2.0
 73
     0
 74
     0
 77
     1
 78
     8
140
3.5
147
2.0
172
     1
173
     1
176
     2
177
     2
178
     2
271
     2
340
F9
  0
DIMSTYLE
105
190
102
{ACAD_REACTORS
330
191
102
}
330
A
100
AcDbSymbolTableRecord
100
AcDbDimStyleTableRecord
  2
ME10_DIM_22
 70
     0
 41
3.5
 42
0.0
 44
2.0
 73
     0
 74
     0
 77
     1
 78
     8
140
3.5
147
2.0
172
     1
173
     1
176
     2
177
     2
178
     2
271
     3
340
F9
  0
DIMSTYLE
105
19B
102
{ACAD_REACTORS
330
19C
102
}
330
A
100
AcDbSymbolTableRecord
100
AcDbDimStyleTableRecord
  2
ME10_DIM_23
 70
     0
 41
3.5
 42
0.0
 44
2.0
 73
     0
 74
     0
 77
     1
 78
     8
140
3.5
147
2.0
172
     1
173
     1
176
     2
177
     2
178
     2
271
     3
340
F9
  0
DIMSTYLE
105
1A8
102
{ACAD_REACTORS
330
1A9
102
}
330
A
100
AcDbSymbolTableRecord
100
AcDbDimStyleTableRecord
  2
ME10_DIM_24
 70
     0
 41
3.5
 42
0.0
 44
2.0
 73
     0
 74
     0
 77
     1
 78
     8
140
3.5
147
2.0
172
     1
173
     1
176
     2
177
     2
178
     2
271
     2
340
F9
  0
DIMSTYLE
105
1B3
102
{ACAD_REACTORS
330
1B4
102
}
330
A
100
AcDbSymbolTableRecord
100
AcDbDimStyleTableRecord
  2
ME10_DIM_25
 70
     0
 41
3.5
 42
0.0
 44
2.0
 73
     0
 74
     0
 77
     1
 78
     8
140
3.5
147
2.0
172
     1
173
     1
176
     2
177
     2
178
     2
271
     2
340
F9
  0
ENDTAB
  0
TABLE
  2
BLOCK_RECORD
  5
1
330
0
100
AcDbSymbolTable
 70
    20
  0
BLOCK_RECORD
  5
1F
330
1
100
AcDbSymbolTableRecord
100
AcDbBlockTableRecord
  2
*Model_Space
340
22
  0
BLOCK_RECORD
  5
1B
330
1
100
AcDbSymbolTableRecord
100
AcDbBlockTableRecord
  2
*Paper_Space
340
1E
  0
BLOCK_RECORD
  5
23
330
1
100
AcDbSymbolTableRecord
100
AcDbBlockTableRecord
  2
*Paper_Space0
340
26
  0
BLOCK_RECORD
  5
FD
330
1
100
AcDbSymbolTableRecord
100
AcDbBlockTableRecord
  2
*D1
340
0
  0
BLOCK_RECORD
  5
108
330
1
100
AcDbSymbolTableRecord
100
AcDbBlockTableRecord
  2
*D2
340
0
  0
BLOCK_RECORD
  5
113
330
1
100
AcDbSymbolTableRecord
100
AcDbBlockTableRecord
  2
*D3
340
0
  0
BLOCK_RECORD
  5
11E
330
1
100
AcDbSymbolTableRecord
100
AcDbBlockTableRecord
  2
*D4
340
0
  0
BLOCK_RECORD
  5
129
330
1
100
AcDbSymbolTableRecord
100
AcDbBlockTableRecord
  2
*D5
340
0
  0
BLOCK_RECORD
  5
134
330
1
100
AcDbSymbolTableRecord
100
AcDbBlockTableRecord
  2
*D6
340
0
  0
BLOCK_RECORD
  5
13F
330
1
100
AcDbSymbolTableRecord
100
AcDbBlockTableRecord
  2
*D7
340
0
  0
BLOCK_RECORD
  5
14C
330
1
100
AcDbSymbolTableRecord
100
AcDbBlockTableRecord
  2
*D8
340
0
  0
BLOCK_RECORD
  5
157
330
1
100
AcDbSymbolTableRecord
100
AcDbBlockTableRecord
  2
*D9
340
0
  0
BLOCK_RECORD
  5
164
330
1
100
AcDbSymbolTableRecord
100
AcDbBlockTableRecord
  2
*D10
340
0
  0
BLOCK_RECORD
  5
171
330
1
100
AcDbSymbolTableRecord
100
AcDbBlockTableRecord
  2
*D11
340
0
  0
BLOCK_RECORD
  5
17C
330
1
100
AcDbSymbolTableRecord
100
AcDbBlockTableRecord
  2
*D12
340
0
  0
BLOCK_RECORD
  5
187
330
1
100
AcDbSymbolTableRecord
100
AcDbBlockTableRecord
  2
*D13
340
0
  0
BLOCK_RECORD
  5
192
330
1
100
AcDbSymbolTableRecord
100
AcDbBlockTableRecord
  2
*D14
340
0
  0
BLOCK_RECORD
  5
19D
330
1
100
AcDbSymbolTableRecord
100
AcDbBlockTableRecord
  2
*D15
340
0
  0
BLOCK_RECORD
  5
1AA
330
1
100
AcDbSymbolTableRecord
100
AcDbBlockTableRecord
  2
*D16
340
0
  0
BLOCK_RECORD
  5
1B5
330
1
100
AcDbSymbolTableRecord
100
AcDbBlockTableRecord
  2
*D17
340
0
102
{BLKREFS
331
1BB
102
}
  0
BLOCK_RECORD
  5
1BC
330
1
100
AcDbSymbolTableRecord
100
AcDbBlockTableRecord
  2
*D18
340
0
102
{BLKREFS
331
1C3
102
}
  0
BLOCK_RECORD
  5
1C4
330
1
100
AcDbSymbolTableRecord
100
AcDbBlockTableRecord
  2
*D19
340
0
102
{BLKREFS
331
1CB
102
}
  0
ENDTAB
  0
ENDSEC
  0
SECTION
  2
BLOCKS
  0
BLOCK
  5
20
330
1F
100
AcDbEntity
  8
0
100
AcDbBlockBegin
  2
*Model_Space
 70
     0
 71
     0
 10
0.0
 20
0.0
 30
0.0
  3
*Model_Space
  1

  0
ENDBLK
  5
21
330
1F
100
AcDbEntity
  8
0
100
AcDbBlockEnd
  0
BLOCK
  5
1C
330
1B
100
AcDbEntity
 67
     1
  8
0
100
AcDbBlockBegin
  2
*Paper_Space
 70
     0
 71
     0
 10
0.0
 20
0.0
 30
0.0
  3
*Paper_Space
  1

  0
ENDBLK
  5
1D
330
1B
100
AcDbEntity
 67
     1
  8
0
100
AcDbBlockEnd
  0
BLOCK
  5
24
330
23
100
AcDbEntity
  8
0
100
AcDbBlockBegin
  2
*Paper_Space0
 70
     0
 71
     0
 10
0.0
 20
0.0
 30
0.0
  3
*Paper_Space0
  1

  0
ENDBLK
  5
25
330
23
100
AcDbEntity
  8
0
100
AcDbBlockEnd
  0
BLOCK
  5
104
330
FD
100
AcDbEntity
  8
0
100
AcDbBlockBegin
  2
*D1
 70
     1
 71
     0
 10
0.0
 20
0.0
 30
0.0
  3
*D1
  1

  0
LINE
  5
FE
330
FD
100
AcDbEntity
  8
1
  6
Continuous
 62
     2
100
AcDbLine
 10
-100.8017786518813
 20
-107.942164087583
 30
0.0
 11
-68.80177865188125
 21
-107.942164087583
 31
0.0
  0
LINE
  5
FF
330
FD
100
AcDbEntity
  8
1
  6
Continuous
 62
     2
100
AcDbLine
 10
-68.80177865188125
 20
-65.12339990768865
 30
0.0
 11
-68.80177865188125
 21
-109.942164087583
 31
0.0
  0
LINE
  5
100
330
FD
100
AcDbEntity
  8
1
  6
Continuous
 62
     2
100
AcDbLine
 10
-100.8017786518813
 20
-65.12339990768865
 30
0.0
 11
-100.8017786518813
 21
-109.942164087583
 31
0.0
  0
SOLID
  5
101
330
FD
100
AcDbEntity
  8
1
 62
     2
100
AcDbTrace
 10
-72.30177865188125
 20
-108.4029478291389
 30
0.0
 11
-72.30177865188125
 21
-107.4813803460271
 31
0.0
 12
-68.80177865188125
 22
-107.942164087583
 32
0.0
 13
-68.80177865188125
 23
-107.942164087583
 33
0.0
  0
SOLID
  5
102
330
FD
100
AcDbEntity
  8
1
 62
     2
100
AcDbTrace
 10
-97.3017786518813
 20
-107.4813803460271
 30
0.0
 11
-97.3017786518813
 21
-108.4029478291389
 31
0.0
 12
-100.8017786518813
 22
-107.942164087583
 32
0.0
 13
-100.8017786518813
 23
-107.942164087583
 33
0.0
  0
MTEXT
  5
103
330
FD
100
AcDbEntity
  8
1
 62
     2
100
AcDbMText
 10
-87.45517793776801
 20
-105.942164087583
 30
0.0
 40
3.5
 41
0.0
 71
     7
 72
     1
  1
32
  7
CONVERTER_11
 11
0.9999999999970621
 21
2.424068405545307E-6
 31
0.0
 73
     1
 44
0.60024009603842
  0
ENDBLK
  5
105
330
FD
100
AcDbEntity
  8
0
100
AcDbBlockEnd
  0
BLOCK
  5
10F
330
108
100
AcDbEntity
  8
0
100
AcDbBlockBegin
  2
*D2
 70
     1
 71
     0
 10
0.0
 20
0.0
 30
0.0
  3
*D2
  1

  0
LINE
  5
109
330
108
100
AcDbEntity
  8
1
  6
Continuous
 62
     2
100
AcDbLine
 10
-120.187322226027
 20
-65.12339990768865
 30
0.0
 11
-120.187322226027
 21
75.87660009231135
 31
0.0
  0
LINE
  5
10A
330
108
100
AcDbEntity
  8
1
  6
Continuous
 62
     2
100
AcDbLine
 10
-179.3592983114338
 20
75.87660009231135
 30
0.0
 11
-118.187322226027
 21
75.87660009231135
 31
0.0
  0
LINE
  5
10B
330
108
100
AcDbEntity
  8
1
  6
Continuous
 62
     2
100
AcDbLine
 10
-179.3592983114338
 20
-65.12339990768865
 30
0.0
 11
-118.187322226027
 21
-65.12339990768865
 31
0.0
  0
SOLID
  5
10C
330
108
100
AcDbEntity
  8
1
 62
     2
100
AcDbTrace
 10
-119.7265384844711
 20
72.37660009231135
 30
0.0
 11
-120.6481059675829
 21
72.37660009231135
 31
0.0
 12
-120.187322226027
 22
75.87660009231135
 32
0.0
 13
-120.187322226027
 23
75.87660009231135
 33
0.0
  0
SOLID
  5
10D
330
108
100
AcDbEntity
  8
1
 62
     2
100
AcDbTrace
 10
-120.6481059675829
 20
-61.62339990768865
 30
0.0
 11
-119.7265384844711
 21
-61.62339990768865
 31
0.0
 12
-120.187322226027
 22
-65.12339990768865
 32
0.0
 13
-120.187322226027
 23
-65.12339990768865
 33
0.0
  0
MTEXT
  5
10E
330
108
100
AcDbEntity
  8
1
 62
     2
100
AcDbMText
 10
-122.187322226027
 20
3.28288849145399
 30
0.0
 40
3.5
 41
0.0
 71
     7
 72
     1
  1
141
  7
CONVERTER_11
 11
0.0
 21
1.0
 31
0.0
 73
     1
 44
0.60024009603842
  0
ENDBLK
  5
110
330
108
100
AcDbEntity
  8
0
100
AcDbBlockEnd
  0
BLOCK
  5
11A
330
113
100
AcDbEntity
  8
0
100
AcDbBlockBegin
  2
*D3
 70
     1
 71
     0
 10
0.0
 20
0.0
 30
0.0
  3
*D3
  1

  0
LINE
  5
114
330
113
100
AcDbEntity
  8
1
  6
Continuous
 62
     2
100
AcDbLine
 10
69.69860034321128
 20
-108.785670014645
 30
0.0
 11
97.19860034321128
 21
-108.785670014645
 31
0.0
  0
LINE
  5
115
330
113
100
AcDbEntity
  8
1
  6
Continuous
 62
     2
100
AcDbLine
 10
97.19860034321128
 20
-50.87339990768864
 30
0.0
 11
97.19860034321128
 21
-110.785670014645
 31
0.0
  0
LINE
  5
116
330
113
100
AcDbEntity
  8
1
  6
Continuous
 62
     2
100
AcDbLine
 10
69.69860034321128
 20
-50.87339990768864
 30
0.0
 11
69.69860034321128
 21
-110.785670014645
 31
0.0
  0
SOLID
  5
117
330
113
100
AcDbEntity
  8
1
 62
     2
100
AcDbTrace
 10
73.19860034321128
 20
-108.3248862730891
 30
0.0
 11
73.19860034321128
 21
-109.2464537562009
 31
0.0
 12
69.69860034321128
 22
-108.785670014645
 32
0.0
 13
69.69860034321128
 23
-108.785670014645
 33
0.0
  0
SOLID
  5
118
330
113
100
AcDbEntity
  8
1
 62
     2
100
AcDbTrace
 10
93.69860034321128
 20
-109.2464537562009
 30
0.0
 11
93.69860034321128
 21
-108.3248862730891
 31
0.0
 12
97.19860034321128
 22
-108.785670014645
 32
0.0
 13
97.19860034321128
 23
-108.785670014645
 33
0.0
  0
MTEXT
  5
119
330
113
100
AcDbEntity
  8
1
 62
     2
100
AcDbMText
 10
78.826446812865
 20
-106.785670014645
 30
0.0
 40
3.5
 41
0.0
 71
     7
 72
     1
  1
27.5
  7
CONVERTER_11
 11
0.9999999999970621
 21
2.424068405545307E-6
 31
0.0
 73
     1
 44
0.60024009603842
  0
ENDBLK
  5
11B
330
113
100
AcDbEntity
  8
0
100
AcDbBlockEnd
  0
BLOCK
  5
125
330
11E
100
AcDbEntity
  8
0
100
AcDbBlockBegin
  2
*D4
 70
     1
 71
     0
 10
0.0
 20
0.0
 30
0.0
  3
*D4
  1

  0
LINE
  5
11F
330
11E
100
AcDbEntity
  8
1
  6
Continuous
 62
     2
100
AcDbLine
 10
128.202127671972
 20
-64.62339990768865
 30
0.0
 11
128.202127671972
 21
75.37660009231135
 31
0.0
  0
LINE
  5
120
330
11E
100
AcDbEntity
  8
1
  6
Continuous
 62
     2
100
AcDbLine
 10
83.44860034321128
 20
-64.62339990768865
 30
0.0
 11
130.202127671972
 21
-64.62339990768865
 31
0.0
  0
LINE
  5
121
330
11E
100
AcDbEntity
  8
1
  6
Continuous
 62
     2
100
AcDbLine
 10
83.44860034321128
 20
75.37660009231135
 30
0.0
 11
130.202127671972
 21
75.37660009231135
 31
0.0
  0
SOLID
  5
122
330
11E
100
AcDbEntity
  8
1
 62
     2
100
AcDbTrace
 10
128.6629114135279
 20
71.87660009231135
 30
0.0
 11
127.7413439304161
 21
71.87660009231135
 31
0.0
 12
128.202127671972
 22
75.37660009231135
 32
0.0
 13
128.202127671972
 23
75.37660009231135
 33
0.0
  0
SOLID
  5
123
330
11E
100
AcDbEntity
  8
1
 62
     2
100
AcDbTrace
 10
127.7413439304161
 20
-61.12339990768865
 30
0.0
 11
128.6629114135279
 21
-61.12339990768865
 31
0.0
 12
128.202127671972
 22
-64.62339990768865
 32
0.0
 13
128.202127671972
 23
-64.62339990768865
 33
0.0
  0
MTEXT
  5
124
330
11E
100
AcDbEntity
  8
1
 62
     2
100
AcDbMText
 10
126.202127671972
 20
0.68227955081747
 30
0.0
 40
3.5
 41
0.0
 71
     7
 72
     1
  1
140
  7
CONVERTER_11
 11
0.0
 21
1.0
 31
0.0
 73
     1
 44
0.60024009603842
  0
ENDBLK
  5
126
330
11E
100
AcDbEntity
  8
0
100
AcDbBlockEnd
  0
BLOCK
  5
130
330
129
100
AcDbEntity
  8
0
100
AcDbBlockBegin
  2
*D5
 70
     1
 71
     0
 10
0.0
 20
0.0
 30
0.0
  3
*D5
  1

  0
LINE
  5
12A
330
129
100
AcDbEntity
  8
1
  6
Continuous
 62
     2
100
AcDbLine
 10
167.9119338369392
 20
-103.785670014645
 30
0.0
 11
177.9119338369392
 21
-103.785670014645
 31
0.0
  0
LINE
  5
12B
330
129
100
AcDbEntity
  8
1
  6
Continuous
 62
     2
100
AcDbLine
 10
177.9119338369392
 20
-94.62339990768866
 30
0.0
 11
177.9119338369392
 21
-105.785670014645
 31
0.0
  0
LINE
  5
12C
330
129
100
AcDbEntity
  8
1
  6
Continuous
 62
     2
100
AcDbLine
 10
167.9119338369392
 20
-59.62339990768864
 30
0.0
 11
167.9119338369392
 21
-105.785670014645
 31
0.0
  0
SOLID
  5
12D
330
129
100
AcDbEntity
  8
1
 62
     2
100
AcDbTrace
 10
171.4119338369392
 20
-103.3248862730891
 30
0.0
 11
171.4119338369392
 21
-104.2464537562009
 31
0.0
 12
167.9119338369392
 22
-103.785670014645
 32
0.0
 13
167.9119338369392
 23
-103.785670014645
 33
0.0
  0
SOLID
  5
12E
330
129
100
AcDbEntity
  8
1
 62
     2
100
AcDbTrace
 10
174.4119338369392
 20
-104.2464537562009
 30
0.0
 11
174.4119338369392
 21
-103.3248862730891
 31
0.0
 12
177.9119338369392
 22
-103.785670014645
 32
0.0
 13
177.9119338369392
 23
-103.785670014645
 33
0.0
  0
MTEXT
  5
12F
330
129
100
AcDbEntity
  8
1
 62
     2
100
AcDbMText
 10
170.330422172949
 20
-101.785670014645
 30
0.0
 40
3.5
 41
0.0
 71
     7
 72
     1
  1
10
  7
CONVERTER_11
 11
0.9999999999970621
 21
2.424068405545307E-6
 31
0.0
 73
     1
 44
0.60024009603842
  0
ENDBLK
  5
131
330
129
100
AcDbEntity
  8
0
100
AcDbBlockEnd
  0
BLOCK
  5
13B
330
134
100
AcDbEntity
  8
0
100
AcDbBlockBegin
  2
*D6
 70
     1
 71
     0
 10
0.0
 20
0.0
 30
0.0
  3
*D6
  1

  0
LINE
  5
135
330
134
100
AcDbEntity
  8
1
  6
Continuous
 62
     2
100
AcDbLine
 10
145.9119338369392
 20
-114.622960427562
 30
0.0
 11
177.9119338369392
 21
-114.622960427562
 31
0.0
  0
LINE
  5
136
330
134
100
AcDbEntity
  8
1
  6
Continuous
 62
     2
100
AcDbLine
 10
145.9119338369392
 20
-42.87339990768864
 30
0.0
 11
145.9119338369392
 21
-116.622960427562
 31
0.0
  0
LINE
  5
137
330
134
100
AcDbEntity
  8
1
  6
Continuous
 62
     2
100
AcDbLine
 10
177.9119338369392
 20
-59.62339990768864
 30
0.0
 11
177.9119338369392
 21
-116.622960427562
 31
0.0
  0
SOLID
  5
138
330
134
100
AcDbEntity
  8
1
 62
     2
100
AcDbTrace
 10
174.4119338369392
 20
-115.0837441691179
 30
0.0
 11
174.4119338369392
 21
-114.1621766860061
 31
0.0
 12
177.9119338369392
 22
-114.622960427562
 32
0.0
 13
177.9119338369392
 23
-114.622960427562
 33
0.0
  0
SOLID
  5
139
330
134
100
AcDbEntity
  8
1
 62
     2
100
AcDbTrace
 10
149.4119338369392
 20
-114.1621766860061
 30
0.0
 11
149.4119338369392
 21
-115.0837441691179
 31
0.0
 12
145.9119338369392
 22
-114.622960427562
 32
0.0
 13
145.9119338369392
 23
-114.622960427562
 33
0.0
  0
MTEXT
  5
13A
330
134
100
AcDbEntity
  8
1
 62
     2
100
AcDbMText
 10
159.2365492436929
 20
-112.622960427562
 30
0.0
 40
3.5
 41
0.0
 71
     7
 72
     1
  1
32
  7
CONVERTER_11
 11
0.9999999999970621
 21
2.424068405545307E-6
 31
0.0
 73
     1
 44
0.60024009603842
  0
ENDBLK
  5
13C
330
134
100
AcDbEntity
  8
0
100
AcDbBlockEnd
  0
BLOCK
  5
148
330
13F
100
AcDbEntity
  8
0
100
AcDbBlockBegin
  2
*D7
 70
     1
 71
     0
 10
0.0
 20
0.0
 30
0.0
  3
*D7
  1

  0
LINE
  5
140
330
13F
100
AcDbEntity
  8
1
  6
Continuous
 62
     2
100
AcDbLine
 10
90.19860034321128
 20
-108.785670014645
 30
0.0
 11
97.19860034321128
 21
-108.785670014645
 31
0.0
  0
LINE
  5
141
330
13F
100
AcDbEntity
  8
1
  6
Continuous
 62
     2
100
AcDbLine
 10
97.19860034321128
 20
-108.785670014645
 30
0.0
 11
101.1986003432113
 21
-108.785670014645
 31
0.0
  0
LINE
  5
142
330
13F
100
AcDbEntity
  8
1
  6
Continuous
 62
     2
100
AcDbLine
 10
101.1986003432113
 20
-108.785670014645
 30
0.0
 11
109.500828588057
 21
-108.785670014645
 31
0.0
  0
LINE
  5
143
330
13F
100
AcDbEntity
  8
1
  6
Continuous
 62
     2
100
AcDbLine
 10
97.19860034321128
 20
-50.87339990768864
 30
0.0
 11
97.19860034321128
 21
-110.785670014645
 31
0.0
  0
LINE
  5
144
330
13F
100
AcDbEntity
  8
1
  6
Continuous
 62
     2
100
AcDbLine
 10
101.1986003432113
 20
-94.62339990768866
 30
0.0
 11
101.1986003432113
 21
-110.785670014645
 31
0.0
  0
SOLID
  5
145
330
13F
100
AcDbEntity
  8
1
 62
     2
100
AcDbTrace
 10
93.69860034321128
 20
-109.2464537562009
 30
0.0
 11
93.69860034321128
 21
-108.3248862730891
 31
0.0
 12
97.19860034321128
 22
-108.785670014645
 32
0.0
 13
97.19860034321128
 23
-108.785670014645
 33
0.0
  0
SOLID
  5
146
330
13F
100
AcDbEntity
  8
1
 62
     2
100
AcDbTrace
 10
104.6986003432113
 20
-108.3248862730891
 30
0.0
 11
104.6986003432113
 21
-109.2464537562009
 31
0.0
 12
101.1986003432113
 22
-108.785670014645
 32
0.0
 13
101.1986003432113
 23
-108.785670014645
 33
0.0
  0
MTEXT
  5
147
330
13F
100
AcDbEntity
  8
1
 62
     2
100
AcDbMText
 10
107.400828588057
 20
-106.785670014645
 30
0.0
 40
3.5
 41
0.0
 71
     7
 72
     1
  1
4
  7
CONVERTER_11
 11
0.9999999999970621
 21
2.424068405545307E-6
 31
0.0
 73
     1
 44
0.60024009603842
  0
ENDBLK
  5
149
330
13F
100
AcDbEntity
  8
0
100
AcDbBlockEnd
  0
BLOCK
  5
153
330
14C
100
AcDbEntity
  8
0
100
AcDbBlockBegin
  2
*D8
 70
     1
 71
     0
 10
0.0
 20
0.0
 30
0.0
  3
*D8
  1

  0
LINE
  5
14D
330
14C
100
AcDbEntity
  8
1
  6
Continuous
 62
     2
100
AcDbLine
 10
-48.1172272678153
 20
-66.6979399702632
 30
0.0
 11
-48.1172272678153
 21
-26.69793997026326
 31
0.0
  0
LINE
  5
14E
330
14C
100
AcDbEntity
  8
1
  6
Continuous
 62
     2
100
AcDbLine
 10
0.61884448023565
 20
-26.69793997026326
 30
0.0
 11
-50.1172272678153
 21
-26.69793997026326
 31
0.0
  0
LINE
  5
14F
330
14C
100
AcDbEntity
  8
1
  6
Continuous
 62
     2
100
AcDbLine
 10
-44.11320632733313
 20
-66.6979399702632
 30
0.0
 11
-50.1172272678153
 21
-66.6979399702632
 31
0.0
  0
SOLID
  5
150
330
14C
100
AcDbEntity
  8
1
 62
     2
100
AcDbTrace
 10
-48.57801100937119
 20
-63.19793997026321
 30
0.0
 11
-47.65644352625942
 21
-63.19793997026321
 31
0.0
 12
-48.1172272678153
 22
-66.6979399702632
 32
0.0
 13
-48.1172272678153
 23
-66.6979399702632
 33
0.0
  0
SOLID
  5
151
330
14C
100
AcDbEntity
  8
1
 62
     2
100
AcDbTrace
 10
-47.65644352625942
 20
-30.19793997026326
 30
0.0
 11
-48.57801100937119
 21
-30.19793997026326
 31
0.0
 12
-48.1172272678153
 22
-26.69793997026326
 32
0.0
 13
-48.1172272678153
 23
-26.69793997026326
 33
0.0
  0
MTEXT
  5
152
330
14C
100
AcDbEntity
  8
1
 62
     2
100
AcDbMText
 10
-50.1172272678153
 20
-46.61145013916492
 30
0.0
 40
3.5
 41
0.0
 71
     7
 72
     1
  1
A
  7
CONVERTER_11
 11
0.0
 21
1.0
 31
0.0
 73
     1
 44
0.60024009603842
  0
ENDBLK
  5
154
330
14C
100
AcDbEntity
  8
0
100
AcDbBlockEnd
  0
BLOCK
  5
160
330
157
100
AcDbEntity
  8
0
100
AcDbBlockBegin
  2
*D9
 70
     1
 71
     0
 10
0.0
 20
0.0
 30
0.0
  3
*D9
  1

  0
LINE
  5
158
330
157
100
AcDbEntity
  8
1
  6
Continuous
 62
     2
100
AcDbLine
 10
-27.1056526723777
 20
-63.44793997026305
 30
0.0
 11
-27.1056526723777
 21
-56.44793997026305
 31
0.0
  0
LINE
  5
159
330
157
100
AcDbEntity
  8
1
  6
Continuous
 62
     2
100
AcDbLine
 10
-27.1056526723777
 20
-66.6979399702632
 30
0.0
 11
-27.1056526723777
 21
-63.44793997026305
 31
0.0
  0
LINE
  5
15A
330
157
100
AcDbEntity
  8
1
  6
Continuous
 62
     2
100
AcDbLine
 10
-27.1056526723777
 20
-77.55562666779903
 30
0.0
 11
-27.1056526723777
 21
-66.6979399702632
 31
0.0
  0
LINE
  5
15B
330
157
100
AcDbEntity
  8
1
  6
Continuous
 62
     2
100
AcDbLine
 10
-33.11320632733319
 20
-63.44793997026305
 30
0.0
 11
-25.1056526723777
 21
-63.44793997026305
 31
0.0
  0
LINE
  5
15C
330
157
100
AcDbEntity
  8
1
  6
Continuous
 62
     2
100
AcDbLine
 10
-44.11320632733313
 20
-66.6979399702632
 30
0.0
 11
-25.1056526723777
 21
-66.6979399702632
 31
0.0
  0
SOLID
  5
15D
330
157
100
AcDbEntity
  8
1
 62
     2
100
AcDbTrace
 10
-26.64486893082182
 20
-70.1979399702632
 30
0.0
 11
-27.56643641393359
 21
-70.1979399702632
 31
0.0
 12
-27.1056526723777
 22
-66.6979399702632
 32
0.0
 13
-27.1056526723777
 23
-66.6979399702632
 33
0.0
  0
SOLID
  5
15E
330
157
100
AcDbEntity
  8
1
 62
     2
100
AcDbTrace
 10
-27.56643641393359
 20
-59.94793997026305
 30
0.0
 11
-26.64486893082181
 21
-59.94793997026305
 31
0.0
 12
-27.1056526723777
 22
-63.44793997026305
 32
0.0
 13
-27.1056526723777
 23
-63.44793997026305
 33
0.0
  0
MTEXT
  5
15F
330
157
100
AcDbEntity
  8
1
 62
     2
100
AcDbMText
 10
-29.1056526723777
 20
-77.55562666779903
 30
0.0
 40
3.5
 41
0.0
 71
     7
 72
     1
  1
X
  7
CONVERTER_11
 11
0.0
 21
1.0
 31
0.0
 73
     1
 44
0.60024009603842
  0
ENDBLK
  5
161
330
157
100
AcDbEntity
  8
0
100
AcDbBlockEnd
  0
BLOCK
  5
16D
330
164
100
AcDbEntity
  8
0
100
AcDbBlockBegin
  2
*D10
 70
     1
 71
     0
 10
0.0
 20
0.0
 30
0.0
  3
*D10
  1

  0
LINE
  5
165
330
164
100
AcDbEntity
  8
1
  6
Continuous
 62
     2
100
AcDbLine
 10
25.9879803867369
 20
-74.7679064472918
 30
0.0
 11
25.9879803867369
 21
-66.6979399702632
 31
0.0
  0
LINE
  5
166
330
164
100
AcDbEntity
  8
1
  6
Continuous
 62
     2
100
AcDbLine
 10
25.9879803867369
 20
-66.6979399702632
 30
0.0
 11
25.9879803867369
 21
-62.69793997026319
 31
0.0
  0
LINE
  5
167
330
164
100
AcDbEntity
  8
1
  6
Continuous
 62
     2
100
AcDbLine
 10
25.9879803867369
 20
-62.69793997026319
 30
0.0
 11
25.9879803867369
 21
-55.69793997026319
 31
0.0
  0
LINE
  5
168
330
164
100
AcDbEntity
  8
1
  6
Continuous
 62
     2
100
AcDbLine
 10
47.38679367266684
 20
-66.6979399702632
 30
0.0
 11
23.9879803867369
 21
-66.6979399702632
 31
0.0
  0
LINE
  5
169
330
164
100
AcDbEntity
  8
1
  6
Continuous
 62
     2
100
AcDbLine
 10
34.38679367266664
 20
-62.69793997026319
 30
0.0
 11
23.9879803867369
 21
-62.69793997026319
 31
0.0
  0
SOLID
  5
16A
330
164
100
AcDbEntity
  8
1
 62
     2
100
AcDbTrace
 10
26.44876412829278
 20
-70.1979399702632
 30
0.0
 11
25.52719664518101
 21
-70.1979399702632
 31
0.0
 12
25.9879803867369
 22
-66.6979399702632
 32
0.0
 13
25.9879803867369
 23
-66.6979399702632
 33
0.0
  0
SOLID
  5
16B
330
164
100
AcDbEntity
  8
1
 62
     2
100
AcDbTrace
 10
25.52719664518101
 20
-59.19793997026319
 30
0.0
 11
26.44876412829279
 21
-59.19793997026319
 31
0.0
 12
25.9879803867369
 22
-62.69793997026319
 32
0.0
 13
25.9879803867369
 23
-62.69793997026319
 33
0.0
  0
MTEXT
  5
16C
330
164
100
AcDbEntity
  8
1
 62
     2
100
AcDbMText
 10
23.9879803867369
 20
-74.7679064472918
 30
0.0
 40
3.5
 41
0.0
 71
     7
 72
     1
  1
4
  7
CONVERTER_11
 11
0.0
 21
1.0
 31
0.0
 73
     1
 44
0.60024009603842
  0
ENDBLK
  5
16E
330
164
100
AcDbEntity
  8
0
100
AcDbBlockEnd
  0
BLOCK
  5
178
330
171
100
AcDbEntity
  8
0
100
AcDbBlockBegin
  2
*D11
 70
     1
 71
     0
 10
0.0
 20
0.0
 30
0.0
  3
*D11
  1

  0
LINE
  5
172
330
171
100
AcDbEntity
  8
1
  6
Continuous
 62
     2
100
AcDbLine
 10
55.4844431973561
 20
-66.6979399702632
 30
0.0
 11
55.4844431973561
 21
-26.69793997026321
 31
0.0
  0
LINE
  5
173
330
171
100
AcDbEntity
  8
1
  6
Continuous
 62
     2
100
AcDbLine
 10
47.38679367266684
 20
-66.6979399702632
 30
0.0
 11
57.4844431973561
 21
-66.6979399702632
 31
0.0
  0
LINE
  5
174
330
171
100
AcDbEntity
  8
1
  6
Continuous
 62
     2
100
AcDbLine
 10
47.38679367266683
 20
-26.69793997026321
 30
0.0
 11
57.4844431973561
 21
-26.69793997026321
 31
0.0
  0
SOLID
  5
175
330
171
100
AcDbEntity
  8
1
 62
     2
100
AcDbTrace
 10
55.94522693891199
 20
-30.19793997026321
 30
0.0
 11
55.02365945580021
 21
-30.19793997026321
 31
0.0
 12
55.4844431973561
 22
-26.69793997026321
 32
0.0
 13
55.4844431973561
 23
-26.69793997026321
 33
0.0
  0
SOLID
  5
176
330
171
100
AcDbEntity
  8
1
 62
     2
100
AcDbTrace
 10
55.02365945580021
 20
-63.19793997026321
 30
0.0
 11
55.94522693891199
 21
-63.19793997026321
 31
0.0
 12
55.4844431973561
 22
-66.6979399702632
 32
0.0
 13
55.4844431973561
 23
-66.6979399702632
 33
0.0
  0
MTEXT
  5
177
330
171
100
AcDbEntity
  8
1
 62
     2
100
AcDbMText
 10
53.4844431973561
 20
-46.9320883199056
 30
0.0
 40
3.5
 41
0.0
 71
     7
 72
     1
  1
B
  7
CONVERTER_11
 11
0.0
 21
1.0
 31
0.0
 73
     1
 44
0.60024009603842
  0
ENDBLK
  5
179
330
171
100
AcDbEntity
  8
0
100
AcDbBlockEnd
  0
BLOCK
  5
183
330
17C
100
AcDbEntity
  8
0
100
AcDbBlockBegin
  2
*D12
 70
     1
 71
     0
 10
0.0
 20
0.0
 30
0.0
  3
*D12
  1

  0
LINE
  5
17D
330
17C
100
AcDbEntity
  8
1
  6
Continuous
 62
     2
100
AcDbLine
 10
107.618165580336
 20
-42.87339990768864
 30
0.0
 11
107.618165580336
 21
53.62660009231136
 31
0.0
  0
LINE
  5
17E
330
17C
100
AcDbEntity
  8
1
  6
Continuous
 62
     2
100
AcDbLine
 10
85.19860034321128
 20
-42.87339990768864
 30
0.0
 11
109.618165580336
 21
-42.87339990768864
 31
0.0
  0
LINE
  5
17F
330
17C
100
AcDbEntity
  8
1
  6
Continuous
 62
     2
100
AcDbLine
 10
85.19860034321128
 20
53.62660009231136
 30
0.0
 11
109.618165580336
 21
53.62660009231136
 31
0.0
  0
SOLID
  5
180
330
17C
100
AcDbEntity
  8
1
 62
     2
100
AcDbTrace
 10
107.1573818387801
 20
-39.37339990768864
 30
0.0
 11
108.0789493218919
 21
-39.37339990768864
 31
0.0
 12
107.618165580336
 22
-42.87339990768864
 32
0.0
 13
107.618165580336
 23
-42.87339990768864
 33
0.0
  0
SOLID
  5
181
330
17C
100
AcDbEntity
  8
1
 62
     2
100
AcDbTrace
 10
108.0789493218919
 20
50.12660009231136
 30
0.0
 11
107.1573818387801
 21
50.12660009231136
 31
0.0
 12
107.618165580336
 22
53.62660009231136
 32
0.0
 13
107.618165580336
 23
53.62660009231136
 33
0.0
  0
MTEXT
  5
182
330
17C
100
AcDbEntity
  8
1
 62
     2
100
AcDbMText
 10
105.618165580336
 20
-5.40152186533691
 30
0.0
 40
3.5
 41
0.0
 71
     7
 72
     1
  1
96.5
  7
CONVERTER_11
 11
0.0
 21
1.0
 31
0.0
 73
     1
 44
0.60024009603842
  0
ENDBLK
  5
184
330
17C
100
AcDbEntity
  8
0
100
AcDbBlockEnd
  0
BLOCK
  5
18E
330
187
100
AcDbEntity
  8
0
100
AcDbBlockBegin
  2
*D13
 70
     1
 71
     0
 10
0.0
 20
0.0
 30
0.0
  3
*D13
  1

  0
LINE
  5
188
330
187
100
AcDbEntity
  8
1
  6
Continuous
 62
     2
100
AcDbLine
 10
114.271567468542
 20
-44.62339990768865
 30
0.0
 11
114.271567468542
 21
55.37660009231135
 31
0.0
  0
LINE
  5
189
330
187
100
AcDbEntity
  8
1
  6
Continuous
 62
     2
100
AcDbLine
 10
86.6034409897556
 20
-44.62339990768865
 30
0.0
 11
116.271567468542
 21
-44.62339990768865
 31
0.0
  0
LINE
  5
18A
330
187
100
AcDbEntity
  8
1
  6
Continuous
 62
     2
100
AcDbLine
 10
86.6034409897556
 20
55.37660009231135
 30
0.0
 11
116.271567468542
 21
55.37660009231135
 31
0.0
  0
SOLID
  5
18B
330
187
100
AcDbEntity
  8
1
 62
     2
100
AcDbTrace
 10
113.8107837269861
 20
-41.12339990768865
 30
0.0
 11
114.7323512100979
 21
-41.12339990768865
 31
0.0
 12
114.271567468542
 22
-44.62339990768865
 32
0.0
 13
114.271567468542
 23
-44.62339990768865
 33
0.0
  0
SOLID
  5
18C
330
187
100
AcDbEntity
  8
1
 62
     2
100
AcDbTrace
 10
114.7323512100979
 20
51.87660009231135
 30
0.0
 11
113.8107837269861
 21
51.87660009231135
 31
0.0
 12
114.271567468542
 22
55.37660009231135
 32
0.0
 13
114.271567468542
 23
55.37660009231135
 33
0.0
  0
MTEXT
  5
18D
330
187
100
AcDbEntity
  8
1
 62
     2
100
AcDbMText
 10
112.271567468542
 20
1.30603597783675
 30
0.0
 40
3.5
 41
0.0
 71
     7
 72
     1
  1
100
  7
CONVERTER_11
 11
0.0
 21
1.0
 31
0.0
 73
     1
 44
0.60024009603842
  0
ENDBLK
  5
18F
330
187
100
AcDbEntity
  8
0
100
AcDbBlockEnd
  0
BLOCK
  5
199
330
192
100
AcDbEntity
  8
0
100
AcDbBlockBegin
  2
*D14
 70
     1
 71
     0
 10
0.0
 20
0.0
 30
0.0
  3
*D14
  1

  0
LINE
  5
193
330
192
100
AcDbEntity
  8
1
  6
Continuous
 62
     2
100
AcDbLine
 10
121.34080697476
 20
-54.62339990768865
 30
0.0
 11
121.34080697476
 21
65.37660009231135
 31
0.0
  0
LINE
  5
194
330
192
100
AcDbEntity
  8
1
  6
Continuous
 62
     2
100
AcDbLine
 10
86.6034409897556
 20
-54.62339990768865
 30
0.0
 11
123.34080697476
 21
-54.62339990768865
 31
0.0
  0
LINE
  5
195
330
192
100
AcDbEntity
  8
1
  6
Continuous
 62
     2
100
AcDbLine
 10
86.6034409897556
 20
65.37660009231135
 30
0.0
 11
123.34080697476
 21
65.37660009231135
 31
0.0
  0
SOLID
  5
196
330
192
100
AcDbEntity
  8
1
 62
     2
100
AcDbTrace
 10
120.8800232332041
 20
-51.12339990768865
 30
0.0
 11
121.8015907163159
 21
-51.12339990768865
 31
0.0
 12
121.34080697476
 22
-54.62339990768865
 32
0.0
 13
121.34080697476
 23
-54.62339990768865
 33
0.0
  0
SOLID
  5
197
330
192
100
AcDbEntity
  8
1
 62
     2
100
AcDbTrace
 10
121.8015907163159
 20
61.87660009231135
 30
0.0
 11
120.8800232332041
 21
61.87660009231135
 31
0.0
 12
121.34080697476
 22
65.37660009231135
 32
0.0
 13
121.34080697476
 23
65.37660009231135
 33
0.0
  0
MTEXT
  5
198
330
192
100
AcDbEntity
  8
1
 62
     2
100
AcDbMText
 10
119.34080697476
 20
1.30603597783675
 30
0.0
 40
3.5
 41
0.0
 71
     7
 72
     1
  1
120
  7
CONVERTER_11
 11
0.0
 21
1.0
 31
0.0
 73
     1
 44
0.60024009603842
  0
ENDBLK
  5
19A
330
192
100
AcDbEntity
  8
0
100
AcDbBlockEnd
  0
BLOCK
  5
1A6
330
19D
100
AcDbEntity
  8
0
100
AcDbBlockBegin
  2
*D15
 70
     1
 71
     0
 10
0.0
 20
0.0
 30
0.0
  3
*D15
  1

  0
LINE
  5
19E
330
19D
100
AcDbEntity
  8
1
  6
Continuous
 62
     2
100
AcDbLine
 10
-204.1092983114338
 20
-108.487423372669
 30
0.0
 11
-197.1092983114338
 21
-108.487423372669
 31
0.0
  0
LINE
  5
19F
330
19D
100
AcDbEntity
  8
1
  6
Continuous
 62
     2
100
AcDbLine
 10
-197.1092983114338
 20
-108.487423372669
 30
0.0
 11
-193.8592983114338
 21
-108.487423372669
 31
0.0
  0
LINE
  5
1A0
330
19D
100
AcDbEntity
  8
1
  6
Continuous
 62
     2
100
AcDbLine
 10
-193.8592983114338
 20
-108.487423372669
 30
0.0
 11
-186.8592983114338
 21
-108.487423372669
 31
0.0
  0
LINE
  5
1A1
330
19D
100
AcDbEntity
  8
1
  6
Continuous
 62
     2
100
AcDbLine
 10
-193.8592983114338
 20
-50.12339990768865
 30
0.0
 11
-193.8592983114338
 21
-110.487423372669
 31
0.0
  0
LINE
  5
1A2
330
19D
100
AcDbEntity
  8
1
  6
Continuous
 62
     2
100
AcDbLine
 10
-197.1092983114338
 20
-94.62339990768865
 30
0.0
 11
-197.1092983114338
 21
-110.487423372669
 31
0.0
  0
SOLID
  5
1A3
330
19D
100
AcDbEntity
  8
1
 62
     2
100
AcDbTrace
 10
-200.6092983114338
 20
-108.9482071142249
 30
0.0
 11
-200.6092983114338
 21
-108.0266396311131
 31
0.0
 12
-197.1092983114338
 22
-108.487423372669
 32
0.0
 13
-197.1092983114338
 23
-108.487423372669
 33
0.0
  0
SOLID
  5
1A4
330
19D
100
AcDbEntity
  8
1
 62
     2
100
AcDbTrace
 10
-190.3592983114338
 20
-108.0266396311131
 30
0.0
 11
-190.3592983114338
 21
-108.9482071142249
 31
0.0
 12
-193.8592983114338
 22
-108.487423372669
 32
0.0
 13
-193.8592983114338
 23
-108.487423372669
 33
0.0
  0
MTEXT
  5
1A5
330
19D
100
AcDbEntity
  8
1
 62
     2
100
AcDbMText
 10
-203.8745805820408
 20
-106.487423372669
 30
0.0
 40
3.5
 41
0.0
 71
     7
 72
     1
  1
X
  7
CONVERTER_11
 11
0.9999999999970621
 21
2.424068405545307E-6
 31
0.0
 73
     1
 44
0.60024009603842
  0
ENDBLK
  5
1A7
330
19D
100
AcDbEntity
  8
0
100
AcDbBlockEnd
  0
BLOCK
  5
1B1
330
1AA
100
AcDbEntity
  8
0
100
AcDbBlockBegin
  2
*D16
 70
     1
 71
     0
 10
0.0
 20
0.0
 30
0.0
  3
*D16
  1

  0
LINE
  5
1AB
330
1AA
100
AcDbEntity
  8
1
  6
Continuous
 62
     2
100
AcDbLine
 10
-193.8592983114338
 20
-108.487423372669
 30
0.0
 11
-164.8592983114338
 21
-108.487423372669
 31
0.0
  0
LINE
  5
1AC
330
1AA
100
AcDbEntity
  8
1
  6
Continuous
 62
     2
100
AcDbLine
 10
-164.8592983114338
 20
-50.12339990768865
 30
0.0
 11
-164.8592983114338
 21
-110.487423372669
 31
0.0
  0
LINE
  5
1AD
330
1AA
100
AcDbEntity
  8
1
  6
Continuous
 62
     2
100
AcDbLine
 10
-193.8592983114338
 20
-50.12339990768865
 30
0.0
 11
-193.8592983114338
 21
-110.487423372669
 31
0.0
  0
SOLID
  5
1AE
330
1AA
100
AcDbEntity
  8
1
 62
     2
100
AcDbTrace
 10
-190.3592983114338
 20
-108.0266396311131
 30
0.0
 11
-190.3592983114338
 21
-108.9482071142249
 31
0.0
 12
-193.8592983114338
 22
-108.487423372669
 32
0.0
 13
-193.8592983114338
 23
-108.487423372669
 33
0.0
  0
SOLID
  5
1AF
330
1AA
100
AcDbEntity
  8
1
 62
     2
100
AcDbTrace
 10
-168.3592983114338
 20
-108.9482071142249
 30
0.0
 11
-168.3592983114338
 21
-108.0266396311131
 31
0.0
 12
-164.8592983114338
 22
-108.487423372669
 32
0.0
 13
-164.8592983114338
 23
-108.487423372669
 33
0.0
  0
MTEXT
  5
1B0
330
1AA
100
AcDbEntity
  8
1
 62
     2
100
AcDbMText
 10
-181.9842983114338
 20
-106.487423372669
 30
0.0
 40
3.5
 41
0.0
 71
     7
 72
     1
  1
29
  7
CONVERTER_11
 11
0.9999999999970621
 21
2.424068405545307E-6
 31
0.0
 73
     1
 44
0.60024009603842
  0
ENDBLK
  5
1B2
330
1AA
100
AcDbEntity
  8
0
100
AcDbBlockEnd
  0
BLOCK
  5
1B9
330
1B5
100
AcDbEntity
  8
0
100
AcDbBlockBegin
  2
*D17
 70
     1
 71
     0
 10
0.0
 20
0.0
 30
0.0
  3
*D17
  1

  0
LINE
  5
1B6
330
1B5
100
AcDbEntity
  8
1
  6
Continuous
 62
     2
100
AcDbLine
 10
75.42932375858081
 20
34.31779022550833
 30
0.0
 11
94.80716107781707
 21
48.8151716200484
 31
0.0
  0
SOLID
  5
1B7
330
1B5
100
AcDbEntity
  8
1
 62
     2
100
AcDbTrace
 10
92.28069560397311
 20
46.34954921060355
 30
0.0
 11
91.72863278980765
 21
47.08746063831332
 31
0.0
 12
94.80716107781707
 22
48.8151716200484
 32
0.0
 13
94.80716107781707
 23
48.8151716200484
 33
0.0
  0
MTEXT
  5
1B8
330
1B5
100
AcDbEntity
  8
1
 62
     2
100
AcDbMText
 10
75.2961773187101
 20
36.71595035893348
 30
0.0
 40
3.5
 41
0.0
 71
     7
 72
     1
  1
\C2;R\C2;12
  7
CONVERTER_11
 11
0.8007133945504825
 21
0.5990476273114212
 31
0.0
 73
     1
 44
0.60024009603842
  0
ENDBLK
  5
1BA
330
1B5
100
AcDbEntity
  8
0
100
AcDbBlockEnd
  0
BLOCK
  5
1C1
330
1BC
100
AcDbEntity
  8
0
100
AcDbBlockBegin
  2
*D18
 70
     1
 71
     0
 10
0.0
 20
0.0
 30
0.0
  3
*D18
  1

  0
LINE
  5
1BD
330
1BC
100
AcDbEntity
  8
1
  6
Continuous
 62
     2
100
AcDbLine
 10
-181.3388147556684
 20
-39.24083809892998
 30
0.0
 11
-146.3095857519451
 21
-126.2960061849887
 31
0.0
  0
SOLID
  5
1BE
330
1BC
100
AcDbEntity
  8
1
 62
     2
100
AcDbTrace
 10
-174.1137827870461
 20
-58.43097188452063
 30
0.0
 11
-173.2588322064891
 21
-58.08695715993137
 31
0.0
 12
-172.3797818671991
 22
-61.50596171644727
 32
0.0
 13
-172.3797818671991
 23
-61.50596171644727
 33
0.0
  0
SOLID
  5
1BF
330
1BC
100
AcDbEntity
  8
1
 62
     2
100
AcDbTrace
 10
-179.6048138358215
 20
-42.31582793085663
 30
0.0
 11
-180.4597644163785
 21
-42.65984265544589
 31
0.0
 12
-181.3388147556684
 22
-39.24083809892998
 32
0.0
 13
-181.3388147556684
 23
-39.24083809892998
 33
0.0
  0
MTEXT
  5
1C0
330
1BC
100
AcDbEntity
  8
1
 62
     2
100
AcDbMText
 10
-154.9847553581403
 20
-99.37862272552617
 30
0.0
 40
3.5
 41
0.0
 71
     7
 72
     1
  1
\C2;Fräser ø\C2;24
  7
CONVERTER_11
 11
0.3732930370195528
 21
-0.9277134840632203
 31
0.0
 73
     1
 44
0.60024009603842
  0
ENDBLK
  5
1C2
330
1BC
100
AcDbEntity
  8
0
100
AcDbBlockEnd
  0
BLOCK
  5
1C9
330
1C4
100
AcDbEntity
  8
0
100
AcDbBlockBegin
  2
*D19
 70
     1
 71
     0
 10
0.0
 20
0.0
 30
0.0
  3
*D19
  1

  0
LINE
  5
1C5
330
1C4
100
AcDbEntity
  8
1
  6
Continuous
 62
     2
100
AcDbLine
 10
89.68245234016656
 20
-59.83208883468646
 30
0.0
 11
33.02039370323161
 21
3.74846820534822
 31
0.0
  0
SOLID
  5
1C6
330
1C4
100
AcDbEntity
  8
1
 62
     2
100
AcDbTrace
 10
76.38737336230272
 20
-44.22109281813309
 30
0.0
 11
75.69937032843318
 21
-44.83423101733067
 31
0.0
 12
73.714748346256
 22
-41.91471098069084
 32
0.0
 13
73.714748346256
 23
-41.91471098069084
 33
0.0
  0
SOLID
  5
1C7
330
1C4
100
AcDbEntity
  8
1
 62
     2
100
AcDbTrace
 10
87.00982732411984
 20
-57.52570699724421
 30
0.0
 11
87.69783035798939
 21
-56.91256879804664
 31
0.0
 12
89.68245234016656
 22
-59.83208883468646
 32
0.0
 13
89.68245234016656
 23
-59.83208883468646
 33
0.0
  0
MTEXT
  5
1C8
330
1C4
100
AcDbEntity
  8
1
 62
     2
100
AcDbMText
 10
35.53810286400718
 20
3.92941179254271
 30
0.0
 40
3.5
 41
0.0
 71
     7
 72
     1
  1
\C2;Fräser ø\C2;24
  7
CONVERTER_11
 11
0.6653209997462731
 21
-0.7465574105831511
 31
0.0
 73
     1
 44
0.60024009603842
  0
ENDBLK
  5
1CA
330
1C4
100
AcDbEntity
  8
0
100
AcDbBlockEnd
  0
ENDSEC
  0
SECTION
  2
ENTITIES
  0
POINT
  5
32
330
1F
100
AcDbEntity
  8
1
 62
     3
100
AcDbPoint
 10
-14.90000000000001
 20
-3.74299999999998
 30
0.0
  0
LINE
  5
33
330
1F
100
AcDbEntity
  8
1
  6
Continuous
 62
     2
100
AcDbLine
 10
-33.3616405948243
 20
55.1865255568431
 30
0.0
 11
27.08714915668849
 21
55.1865255568431
 31
0.0
  0
LINE
  5
34
330
1F
100
AcDbEntity
  8
1
  6
Continuous
 62
     2
100
AcDbLine
 10
-33.3616405948243
 20
55.1865255568431
 30
0.0
 11
-13.3129731556586
 21
14.1146026779967
 31
0.0
  0
LINE
  5
35
330
1F
100
AcDbEntity
  8
1
  6
DASHED
 62
     2
100
AcDbLine
 10
-178.3592983114338
 20
-94.62339990768865
 30
0.0
 11
-178.3592983114338
 21
-65.09002945478451
 31
0.0
  0
LINE
  5
36
330
1F
100
AcDbEntity
  8
1
  6
DASHED
 62
     2
100
AcDbLine
 10
-178.3592983114338
 20
105.3766000923114
 30
0.0
 11
-178.3592983114338
 21
75.84322963940727
 31
0.0
  0
LINE
  5
37
330
1F
100
AcDbEntity
  8
1
  6
Continuous
 62
     7
100
AcDbLine
 10
-178.3592983114338
 20
-65.09002945478451
 30
0.0
 11
-178.3592983114338
 21
75.84322963940727
 31
0.0
  0
LINE
  5
38
330
1F
100
AcDbEntity
  8
1
  6
PHANTOM
 62
     2
100
AcDbLine
 10
-15.11320632733325
 20
-33.44793997026311
 30
0.0
 11
-15.11320632733319
 21
-53.94793997026326
 31
0.0
  0
LINE
  5
39
330
1F
100
AcDbEntity
  8
1
  6
PHANTOM
 62
     2
100
AcDbLine
 10
-15.11320632733319
 20
-59.34793997026317
 30
0.0
 11
-15.11320632733319
 21
-59.9479399702632
 31
0.0
  0
LINE
  5
3A
330
1F
100
AcDbEntity
  8
1
  6
PHANTOM
 62
     2
100
AcDbLine
 10
-11.11320632733319
 20
-62.86475153417534
 30
0.0
 11
-15.11320632733319
 21
-62.86475153417534
 31
0.0
  0
LINE
  5
3B
330
1F
100
AcDbEntity
  8
1
  6
PHANTOM
 62
     2
100
AcDbLine
 10
-15.11320632733307
 20
-15.44793997026326
 30
0.0
 11
-15.11320632733325
 21
-33.44793997026311
 31
0.0
  0
LINE
  5
3C
330
1F
100
AcDbEntity
  8
1
  6
PHANTOM
 62
     2
100
AcDbLine
 10
-11.11320632733319
 20
-33.44793997026311
 30
0.0
 11
-15.11320632733325
 21
-33.44793997026311
 31
0.0
  0
LINE
  5
3D
330
1F
100
AcDbEntity
  8
1
  6
PHANTOM
 62
     2
100
AcDbLine
 10
-12.8632063273333
 20
-15.44793997026326
 30
0.0
 11
-12.8632063273333
 21
-9.94793997026326
 31
0.0
  0
LINE
  5
3E
330
1F
100
AcDbEntity
  8
1
  6
PHANTOM
 62
     2
100
AcDbLine
 10
-12.8632063273333
 20
-9.94793997026326
 30
0.0
 11
-15.1132063273333
 21
-7.69793997026323
 31
0.0
  0
LINE
  5
3F
330
1F
100
AcDbEntity
  8
1
  6
PHANTOM
 62
     2
100
AcDbLine
 10
-15.11320632733307
 20
4.55206002973677
 30
0.0
 11
-15.11320632733307
 21
-9.94793997026326
 31
0.0
  0
LINE
  5
40
330
1F
100
AcDbEntity
  8
1
  6
PHANTOM
 62
     2
100
AcDbLine
 10
-11.1132063273333
 20
-9.94793997026326
 30
0.0
 11
-12.8632063273333
 21
-9.94793997026326
 31
0.0
  0
LINE
  5
41
330
1F
100
AcDbEntity
  8
1
  6
PHANTOM
 62
     2
100
AcDbLine
 10
-12.8632063273333
 20
-15.44793997026326
 30
0.0
 11
-15.1132063273333
 21
-17.69793997026326
 31
0.0
  0
LINE
  5
42
330
1F
100
AcDbEntity
  8
1
  6
PHANTOM
 62
     2
100
AcDbLine
 10
-15.11320632733307
 20
-9.94793997026326
 30
0.0
 11
-15.11320632733307
 21
-15.44793997026326
 31
0.0
  0
LINE
  5
43
330
1F
100
AcDbEntity
  8
1
  6
PHANTOM
 62
     2
100
AcDbLine
 10
-11.1132063273333
 20
-15.44793997026326
 30
0.0
 11
-12.8632063273333
 21
-15.44793997026326
 31
0.0
  0
LINE
  5
44
330
1F
100
AcDbEntity
  8
1
  6
PHANTOM
 62
     2
100
AcDbLine
 10
-9.61320632733319
 20
-12.69793997026326
 30
0.0
 11
-16.61320632733319
 21
-12.69793997026326
 31
0.0
  0
LINE
  5
45
330
1F
100
AcDbEntity
  8
1
  6
PHANTOM
 62
     2
100
AcDbLine
 10
-12.8632063273333
 20
4.55206002973677
 30
0.0
 11
-12.8632063273333
 21
10.05206002973677
 31
0.0
  0
LINE
  5
46
330
1F
100
AcDbEntity
  8
1
  6
PHANTOM
 62
     2
100
AcDbLine
 10
-12.8632063273333
 20
10.05206002973677
 30
0.0
 11
-15.1132063273333
 21
12.30206002973677
 31
0.0
  0
LINE
  5
47
330
1F
100
AcDbEntity
  8
1
  6
PHANTOM
 62
     2
100
AcDbLine
 10
-15.11320632733319
 20
17.30206002973677
 30
0.0
 11
-15.11320632733307
 21
10.05206002973677
 31
0.0
  0
LINE
  5
48
330
1F
100
AcDbEntity
  8
1
  6
PHANTOM
 62
     2
100
AcDbLine
 10
-11.1132063273333
 20
10.05206002973677
 30
0.0
 11
-12.8632063273333
 21
10.05206002973677
 31
0.0
  0
LINE
  5
49
330
1F
100
AcDbEntity
  8
1
  6
PHANTOM
 62
     2
100
AcDbLine
 10
-12.8632063273333
 20
4.55206002973677
 30
0.0
 11
-15.1132063273333
 21
2.30206002973677
 31
0.0
  0
LINE
  5
4A
330
1F
100
AcDbEntity
  8
1
  6
PHANTOM
 62
     2
100
AcDbLine
 10
-15.11320632733307
 20
10.05206002973677
 30
0.0
 11
-15.11320632733307
 21
4.55206002973677
 31
0.0
  0
LINE
  5
4B
330
1F
100
AcDbEntity
  8
1
  6
PHANTOM
 62
     2
100
AcDbLine
 10
-11.1132063273333
 20
4.55206002973677
 30
0.0
 11
-12.8632063273333
 21
4.55206002973677
 31
0.0
  0
LINE
  5
4C
330
1F
100
AcDbEntity
  8
1
  6
PHANTOM
 62
     2
100
AcDbLine
 10
-9.61320632733319
 20
7.30206002973677
 30
0.0
 11
-16.61320632733319
 21
7.30206002973677
 31
0.0
  0
LINE
  5
4D
330
1F
100
AcDbEntity
  8
1
  6
PHANTOM
 62
     2
100
AcDbLine
 10
-6.61320632733319
 20
-56.9479399702632
 30
0.0
 11
-19.61320632733319
 21
-56.9479399702632
 31
0.0
  0
LINE
  5
4E
330
1F
100
AcDbEntity
  8
1
  6
PHANTOM
 62
     2
100
AcDbLine
 10
-11.11320632733319
 20
-59.9479399702632
 30
0.0
 11
-15.11320632733319
 21
-59.9479399702632
 31
0.0
  0
LINE
  5
4F
330
1F
100
AcDbEntity
  8
1
  6
PHANTOM
 62
     2
100
AcDbLine
 10
-11.11320632733319
 20
-53.94793997026326
 30
0.0
 11
-15.11320632733319
 21
-53.94793997026326
 31
0.0
  0
LINE
  5
50
330
1F
100
AcDbEntity
  8
1
  6
PHANTOM
 62
     2
100
AcDbLine
 10
-15.11320632733319
 20
-54.54793997026317
 30
0.0
 11
-15.11320632733319
 21
-59.34793997026317
 31
0.0
  0
LINE
  5
51
330
1F
100
AcDbEntity
  8
1
  6
PHANTOM
 62
     2
100
AcDbLine
 10
-11.11320632733319
 20
-59.34793997026317
 30
0.0
 11
-15.11320632733319
 21
-59.34793997026317
 31
0.0
  0
LINE
  5
52
330
1F
100
AcDbEntity
  8
1
  6
PHANTOM
 62
     2
100
AcDbLine
 10
-15.11320632733319
 20
-53.94793997026326
 30
0.0
 11
-15.11320632733319
 21
-54.54793997026317
 31
0.0
  0
LINE
  5
53
330
1F
100
AcDbEntity
  8
1
  6
PHANTOM
 62
     2
100
AcDbLine
 10
-11.11320632733319
 20
-54.54793997026317
 30
0.0
 11
-15.11320632733319
 21
-54.54793997026317
 31
0.0
  0
LINE
  5
54
330
1F
100
AcDbEntity
  8
1
  6
PHANTOM
 62
     2
100
AcDbLine
 10
-11.11320632733319
 20
17.30206002973677
 30
0.0
 11
-15.11320632733319
 21
17.30206002973677
 31
0.0
  0
LINE
  5
55
330
1F
100
AcDbEntity
  8
1
  6
PHANTOM
 62
     2
100
AcDbLine
 10
-15.11320632733319
 20
-59.9479399702632
 30
0.0
 11
-15.11320632733307
 21
-63.44793997026305
 31
0.0
  0
LINE
  5
56
330
1F
100
AcDbEntity
  8
1
  6
PHANTOM
 62
     2
100
AcDbLine
 10
-15.11320632733325
 20
-33.44793997026311
 30
0.0
 11
-15.11320632733319
 21
-37.94793997026311
 31
0.0
  0
LINE
  5
57
330
1F
100
AcDbEntity
  8
1
  6
PHANTOM
 62
     2
100
AcDbLine
 10
-15.11320632733319
 20
-43.34793997026308
 30
0.0
 11
-15.11320632733319
 21
-43.94793997026311
 31
0.0
  0
LINE
  5
58
330
1F
100
AcDbEntity
  8
1
  6
PHANTOM
 62
     2
100
AcDbLine
 10
-11.11320632733319
 20
-43.94793997026311
 30
0.0
 11
-15.11320632733319
 21
-43.94793997026311
 31
0.0
  0
LINE
  5
59
330
1F
100
AcDbEntity
  8
1
  6
PHANTOM
 62
     2
100
AcDbLine
 10
-11.11320632733319
 20
-37.94793997026311
 30
0.0
 11
-15.11320632733319
 21
-37.94793997026311
 31
0.0
  0
LINE
  5
5A
330
1F
100
AcDbEntity
  8
1
  6
PHANTOM
 62
     2
100
AcDbLine
 10
-15.11320632733319
 20
-38.54793997026302
 30
0.0
 11
-15.11320632733319
 21
-43.34793997026308
 31
0.0
  0
LINE
  5
5B
330
1F
100
AcDbEntity
  8
1
  6
PHANTOM
 62
     2
100
AcDbLine
 10
-11.11320632733319
 20
-43.34793997026308
 30
0.0
 11
-15.11320632733319
 21
-43.34793997026308
 31
0.0
  0
LINE
  5
5C
330
1F
100
AcDbEntity
  8
1
  6
PHANTOM
 62
     2
100
AcDbLine
 10
-15.11320632733319
 20
-37.94793997026311
 30
0.0
 11
-15.11320632733319
 21
-38.54793997026302
 31
0.0
  0
LINE
  5
5D
330
1F
100
AcDbEntity
  8
1
  6
PHANTOM
 62
     2
100
AcDbLine
 10
-11.11320632733319
 20
-38.54793997026302
 30
0.0
 11
-15.11320632733319
 21
-38.54793997026302
 31
0.0
  0
LINE
  5
5E
330
1F
100
AcDbEntity
  8
1
  6
PHANTOM
 62
     2
100
AcDbLine
 10
-6.61320632733319
 20
-40.94793997026311
 30
0.0
 11
-19.61320632733319
 21
-40.94793997026311
 31
0.0
  0
LINE
  5
5F
330
1F
100
AcDbEntity
  8
1
  6
DOT_CENTER
 62
     2
100
AcDbLine
 10
11.88679367266693
 20
24.08734679886908
 30
0.0
 11
18.90126688979782
 21
24.08734679886908
 31
0.0
  0
LINE
  5
60
330
1F
100
AcDbEntity
  8
1
  6
Continuous
 62
     7
100
AcDbLine
 10
-1.11320632733307
 20
-23.69793997026326
 30
0.0
 11
0.61884448023565
 21
-26.69793997026326
 31
0.0
  0
LINE
  5
61
330
1F
100
AcDbEntity
  8
1
  6
Continuous
 62
     7
100
AcDbLine
 10
0.61884448023565
 20
-26.69793997026326
 30
0.0
 11
10.15474286509797
 21
-26.69793997026326
 31
0.0
  0
LINE
  5
62
330
1F
100
AcDbEntity
  8
1
  6
Continuous
 62
     7
100
AcDbLine
 10
10.15474286509797
 20
-26.69793997026326
 30
0.0
 11
11.88679367266693
 21
-23.69793997026326
 31
0.0
  0
LINE
  5
63
330
1F
100
AcDbEntity
  8
1
  6
Continuous
 62
     7
100
AcDbLine
 10
11.88679367266693
 20
-23.69793997026326
 30
0.0
 11
11.88679367266693
 21
-21.69793997026326
 31
0.0
  0
LINE
  5
64
330
1F
100
AcDbEntity
  8
1
  6
Continuous
 62
     7
100
AcDbLine
 10
-0.11320632733307
 20
-22.69793997026326
 30
0.0
 11
10.88679367266693
 21
-22.69793997026326
 31
0.0
  0
LINE
  5
65
330
1F
100
AcDbEntity
  8
1
  6
Continuous
 62
     7
100
AcDbLine
 10
10.88679367266693
 20
-22.69793997026326
 30
0.0
 11
10.88679367266693
 21
-23.42999077783222
 31
0.0
  0
LINE
  5
66
330
1F
100
AcDbEntity
  8
1
  6
Continuous
 62
     7
100
AcDbLine
 10
10.88679367266693
 20
-23.42999077783222
 30
0.0
 11
9.57739259590838
 21
-25.69793997026326
 31
0.0
  0
LINE
  5
67
330
1F
100
AcDbEntity
  8
1
  6
Continuous
 62
     7
100
AcDbLine
 10
9.57739259590838
 20
-25.69793997026326
 30
0.0
 11
1.1961947494253
 21
-25.69793997026326
 31
0.0
  0
LINE
  5
68
330
1F
100
AcDbEntity
  8
1
  6
Continuous
 62
     7
100
AcDbLine
 10
1.1961947494253
 20
-25.69793997026326
 30
0.0
 11
-0.11320632733307
 21
-23.42999077783222
 31
0.0
  0
LINE
  5
69
330
1F
100
AcDbEntity
  8
1
  6
Continuous
 62
     7
100
AcDbLine
 10
-0.11320632733307
 20
-23.42999077783222
 30
0.0
 11
-0.11320632733307
 21
-22.69793997026326
 31
0.0
  0
LINE
  5
6A
330
1F
100
AcDbEntity
  8
1
  6
Continuous
 62
     7
100
AcDbLine
 10
-1.11320632733308
 20
-63.44793997026305
 30
0.0
 11
-11.11320632733307
 21
-63.44793997026304
 31
0.0
  0
LINE
  5
6B
330
1F
100
AcDbEntity
  8
1
  6
Continuous
 62
     7
100
AcDbLine
 10
-1.11320632733319
 20
-21.69793997026326
 30
0.0
 11
-1.11320632733319
 21
-34.44793997026299
 31
0.0
  0
LINE
  5
6C
330
1F
100
AcDbEntity
  8
1
  6
Continuous
 62
     7
100
AcDbLine
 10
-33.11320632733319
 20
-63.44793997026305
 30
0.0
 11
-33.11320632733319
 21
-47.44793997026326
 31
0.0
  0
LINE
  5
6D
330
1F
100
AcDbEntity
  8
1
  6
Continuous
 62
     7
100
AcDbLine
 10
-1.11320632733319
 20
-21.69793997026326
 30
0.0
 11
11.88679367266693
 21
-21.69793997026326
 31
0.0
  0
LINE
  5
6E
330
1F
100
AcDbEntity
  8
1
  6
Continuous
 62
     7
100
AcDbLine
 10
11.88679367266693
 20
-21.69793997026326
 30
0.0
 11
11.88679367266693
 21
24.08734679886908
 31
0.0
  0
LINE
  5
6F
330
1F
100
AcDbEntity
  8
1
  6
DOT_CENTER
 62
     2
100
AcDbLine
 10
11.88679367266693
 20
24.08734679886908
 30
0.0
 11
-11.11320632733319
 21
24.08734679886908
 31
0.0
  0
LINE
  5
70
330
1F
100
AcDbEntity
  8
1
  6
Continuous
 62
     7
100
AcDbLine
 10
-1.11320632733307
 20
-66.69793997026315
 30
0.0
 11
-44.11320632733313
 21
-66.6979399702632
 31
0.0
  0
LINE
  5
71
330
1F
100
AcDbEntity
  8
1
  6
Continuous
 62
     7
100
AcDbLine
 10
-11.11320632733307
 20
-63.44793997026304
 30
0.0
 11
-15.11320632733307
 21
-63.44793997026305
 31
0.0
  0
LINE
  5
72
330
1F
100
AcDbEntity
  8
1
  6
Continuous
 62
     7
100
AcDbLine
 10
-11.11320632733319
 20
-34.44793997026326
 30
0.0
 11
-1.11320632733319
 21
-34.44793997026299
 31
0.0
  0
LINE
  5
73
330
1F
100
AcDbEntity
  8
1
  6
DOT_CENTER
 62
     2
100
AcDbLine
 10
-11.11320632733319
 20
24.08734679886908
 30
0.0
 11
-15.34507646136601
 21
24.08734679886908
 31
0.0
  0
LINE
  5
74
330
1F
100
AcDbEntity
  8
1
  6
Continuous
 62
     7
100
AcDbLine
 10
-44.11320632733313
 20
-47.44793997026326
 30
0.0
 11
-33.11320632733319
 21
-47.44793997026326
 31
0.0
  0
LINE
  5
75
330
1F
100
AcDbEntity
  8
1
  6
Continuous
 62
     7
100
AcDbLine
 10
-44.11320632733313
 20
-47.44793997026326
 30
0.0
 11
-44.11320632733313
 21
-66.6979399702632
 31
0.0
  0
LINE
  5
76
330
1F
100
AcDbEntity
  8
1
  6
Continuous
 62
     7
100
AcDbLine
 10
-11.11320632733319
 20
-47.44793997026326
 30
0.0
 11
-11.11320632733319
 21
-34.44793997026326
 31
0.0
  0
LINE
  5
77
330
1F
100
AcDbEntity
  8
1
  6
Continuous
 62
     7
100
AcDbLine
 10
-33.11320632733319
 20
-47.44793997026326
 30
0.0
 11
-11.11320632733319
 21
-47.44793997026326
 31
0.0
  0
LINE
  5
78
330
1F
100
AcDbEntity
  8
1
  6
DOT_CENTER
 62
     2
100
AcDbLine
 10
-78.80177865188125
 20
105.3766000923113
 30
0.0
 11
-68.80177865188125
 21
105.3766000923113
 31
0.0
  0
LINE
  5
79
330
1F
100
AcDbEntity
  8
1
  6
DASHED
 62
     2
100
AcDbLine
 10
-78.80177865188125
 20
75.87660009231135
 30
0.0
 11
-78.80177865188125
 21
105.3766000923113
 31
0.0
  0
LINE
  5
7A
330
1F
100
AcDbEntity
  8
1
  6
DOT_CENTER
 62
     2
100
AcDbLine
 10
-78.80177865188125
 20
-94.62339990768865
 30
0.0
 11
-68.80177865188125
 21
-94.62339990768865
 31
0.0
  0
LINE
  5
7B
330
1F
100
AcDbEntity
  8
1
  6
DASHED
 62
     2
100
AcDbLine
 10
-78.80177865188125
 20
-65.12339990768865
 30
0.0
 11
-78.80177865188125
 21
-94.62339990768865
 31
0.0
  0
LINE
  5
7C
330
1F
100
AcDbEntity
  8
1
  6
Continuous
 62
     7
100
AcDbLine
 10
-193.8592983114338
 20
5.37660009231135
 30
0.0
 11
-193.8592983114338
 21
-50.12339990768865
 31
0.0
  0
LINE
  5
7D
330
1F
100
AcDbEntity
  8
1
  6
Continuous
 62
     7
100
AcDbLine
 10
-164.8592983114337
 20
5.37660009231135
 30
0.0
 11
-164.8592983114338
 21
-50.12339990768865
 31
0.0
  0
LINE
  5
7E
330
1F
100
AcDbEntity
  8
1
  6
Continuous
 62
     7
100
AcDbLine
 10
-164.8592983114338
 20
60.87660009231136
 30
0.0
 11
-164.8592983114337
 21
5.37660009231135
 31
0.0
  0
LINE
  5
7F
330
1F
100
AcDbEntity
  8
1
  6
Continuous
 62
     7
100
AcDbLine
 10
-193.8592983114338
 20
60.87660009231136
 30
0.0
 11
-193.8592983114338
 21
5.37660009231135
 31
0.0
  0
LINE
  5
80
330
1F
100
AcDbEntity
  8
1
  6
Continuous
 62
     7
100
AcDbLine
 10
-68.80177865188125
 20
-65.12339990768865
 30
0.0
 11
-68.80177865188125
 21
-94.62339990768865
 31
0.0
  0
LINE
  5
81
330
1F
100
AcDbEntity
  8
1
  6
Continuous
 62
     7
100
AcDbLine
 10
-100.8017786518813
 20
-65.12339990768865
 30
0.0
 11
-68.80177865188125
 21
-65.12339990768865
 31
0.0
  0
LINE
  5
82
330
1F
100
AcDbEntity
  8
1
  6
Continuous
 62
     7
100
AcDbLine
 10
-100.8017786518813
 20
75.87660009231135
 30
0.0
 11
-100.8017786518813
 21
-65.12339990768865
 31
0.0
  0
LINE
  5
83
330
1F
100
AcDbEntity
  8
1
  6
Continuous
 62
     7
100
AcDbLine
 10
-68.80177865188125
 20
75.87660009231135
 30
0.0
 11
-68.80177865188125
 21
-65.12339990768865
 31
0.0
  0
LINE
  5
84
330
1F
100
AcDbEntity
  8
1
  6
Continuous
 62
     7
100
AcDbLine
 10
-68.80177865188125
 20
75.87660009231135
 30
0.0
 11
-100.8017786518813
 21
75.87660009231135
 31
0.0
  0
LINE
  5
85
330
1F
100
AcDbEntity
  8
1
  6
DOT_CENTER
 62
     2
100
AcDbLine
 10
-68.80177865188125
 20
-94.62339990768865
 30
0.0
 11
-55.80177865188119
 21
-94.62339990768865
 31
0.0
  0
LINE
  5
86
330
1F
100
AcDbEntity
  8
1
  6
DOT_CENTER
 62
     2
100
AcDbLine
 10
-68.80177865188125
 20
105.3766000923113
 30
0.0
 11
-55.80177865188119
 21
105.3766000923113
 31
0.0
  0
LINE
  5
87
330
1F
100
AcDbEntity
  8
1
  6
Continuous
 62
     7
100
AcDbLine
 10
-68.80177865188125
 20
105.3766000923113
 30
0.0
 11
-68.80177865188125
 21
75.87660009231135
 31
0.0
  0
LINE
  5
88
330
1F
100
AcDbEntity
  8
1
  6
DOT_CENTER
 62
     2
100
AcDbLine
 10
-55.80177865188119
 20
-94.62339990768865
 30
0.0
 11
-51.29189472598307
 21
-94.62339990768865
 31
0.0
  0
LINE
  5
89
330
1F
100
AcDbEntity
  8
1
  6
DOT_CENTER
 62
     2
100
AcDbLine
 10
-55.80177865188119
 20
105.3766000923113
 30
0.0
 11
-51.29189472598307
 21
105.3766000923113
 31
0.0
  0
LINE
  5
8A
330
1F
100
AcDbEntity
  8
1
  6
Continuous
 62
     7
100
AcDbLine
 10
-55.80177865188119
 20
-94.62339990768865
 30
0.0
 11
-55.80177865188119
 21
105.3766000923113
 31
0.0
  0
LINE
  5
8B
330
1F
100
AcDbEntity
  8
1
  6
DOT_CENTER
 62
     2
100
AcDbLine
 10
-111.8017786518812
 20
-94.62339990768865
 30
0.0
 11
-78.80177865188125
 21
-94.62339990768865
 31
0.0
  0
LINE
  5
8C
330
1F
100
AcDbEntity
  8
1
  6
DOT_CENTER
 62
     2
100
AcDbLine
 10
-111.8017786518812
 20
105.3766000923113
 30
0.0
 11
-78.80177865188125
 21
105.3766000923113
 31
0.0
  0
LINE
  5
8D
330
1F
100
AcDbEntity
  8
1
  6
Continuous
 62
     7
100
AcDbLine
 10
-111.8017786518812
 20
105.3766000923113
 30
0.0
 11
-111.8017786518812
 21
-94.62339990768865
 31
0.0
  0
LINE
  5
8E
330
1F
100
AcDbEntity
  8
1
  6
DOT_CENTER
 62
     2
100
AcDbLine
 10
-114.5635309971518
 20
-94.62339990768865
 30
0.0
 11
-111.8017786518812
 21
-94.62339990768865
 31
0.0
  0
LINE
  5
8F
330
1F
100
AcDbEntity
  8
1
  6
DOT_CENTER
 62
     2
100
AcDbLine
 10
-114.5635309971518
 20
5.37660009231135
 30
0.0
 11
-51.29189472598307
 21
5.37660009231135
 31
0.0
  0
LINE
  5
90
330
1F
100
AcDbEntity
  8
1
  6
DOT_CENTER
 62
     2
100
AcDbLine
 10
-114.5635309971518
 20
105.3766000923113
 30
0.0
 11
-111.8017786518812
 21
105.3766000923113
 31
0.0
  0
LINE
  5
91
330
1F
100
AcDbEntity
  8
1
  6
DOT_CENTER
 62
     2
100
AcDbLine
 10
-204.6000806359427
 20
5.37660009231135
 30
0.0
 11
-131.8383329234636
 21
5.37660009231135
 31
0.0
  0
LINE
  5
92
330
1F
100
AcDbEntity
  8
1
  6
DOT_CENTER
 62
     2
100
AcDbLine
 10
-155.1092983114338
 20
-94.62339990768865
 30
0.0
 11
-136.7937815471108
 21
-94.62339990768865
 31
0.0
  0
LINE
  5
93
330
1F
100
AcDbEntity
  8
1
  6
DOT_CENTER
 62
     2
100
AcDbLine
 10
-155.1092983114338
 20
105.3766000923113
 30
0.0
 11
-136.7937815471108
 21
105.3766000923113
 31
0.0
  0
LINE
  5
94
330
1F
100
AcDbEntity
  8
1
  6
Continuous
 62
     7
100
AcDbLine
 10
-155.1092983114338
 20
105.3766000923113
 30
0.0
 11
-155.1092983114338
 21
-94.62339990768865
 31
0.0
  0
LINE
  5
95
330
1F
100
AcDbEntity
  8
1
  6
DOT_CENTER
 62
     2
100
AcDbLine
 10
-197.1092983114338
 20
-94.62339990768865
 30
0.0
 11
-155.1092983114338
 21
-94.62339990768865
 31
0.0
  0
LINE
  5
96
330
1F
100
AcDbEntity
  8
1
  6
DOT_CENTER
 62
     2
100
AcDbLine
 10
-197.1092983114338
 20
105.3766000923113
 30
0.0
 11
-155.1092983114338
 21
105.3766000923113
 31
0.0
  0
LINE
  5
97
330
1F
100
AcDbEntity
  8
1
  6
Continuous
 62
     7
100
AcDbLine
 10
-197.1092983114338
 20
105.3766000923113
 30
0.0
 11
-197.1092983114338
 21
-94.62339990768865
 31
0.0
  0
LINE
  5
98
330
1F
100
AcDbEntity
  8
1
  6
DOT_CENTER
 62
     2
100
AcDbLine
 10
-136.7937815471108
 20
105.3766000923113
 30
0.0
 11
-136.7937815471108
 21
109.761881720986
 31
0.0
  0
LINE
  5
99
330
1F
100
AcDbEntity
  8
1
  6
DOT_CENTER
 62
     2
100
AcDbLine
 10
-136.7937815471108
 20
-94.62339990768865
 30
0.0
 11
-136.7937815471108
 21
-99.90359801694666
 31
0.0
  0
LINE
  5
9A
330
1F
100
AcDbEntity
  8
1
  6
DOT_CENTER
 62
     2
100
AcDbLine
 10
-136.7937815471108
 20
-94.62339990768865
 30
0.0
 11
-131.8383329234636
 21
-94.62339990768865
 31
0.0
  0
LINE
  5
9B
330
1F
100
AcDbEntity
  8
1
  6
DOT_CENTER
 62
     2
100
AcDbLine
 10
-136.7937815471108
 20
105.3766000923113
 30
0.0
 11
-131.8383329234636
 21
105.3766000923113
 31
0.0
  0
LINE
  5
9C
330
1F
100
AcDbEntity
  8
1
  6
DOT_CENTER
 62
     2
100
AcDbLine
 10
-136.7937815471108
 20
105.3766000923113
 30
0.0
 11
-136.7937815471108
 21
-94.62339990768865
 31
0.0
  0
LINE
  5
9D
330
1F
100
AcDbEntity
  8
1
  6
DOT_CENTER
 62
     2
100
AcDbLine
 10
-203.6000806359427
 20
-94.62339990768865
 30
0.0
 11
-197.1092983114338
 21
-94.62339990768865
 31
0.0
  0
LINE
  5
9E
330
1F
100
AcDbEntity
  8
1
  6
DOT_CENTER
 62
     2
100
AcDbLine
 10
-200.8500806359427
 20
105.3766000923113
 30
0.0
 11
-197.1092983114338
 21
105.3766000923113
 31
0.0
  0
LINE
  5
9F
330
1F
100
AcDbEntity
  8
1
  6
Continuous
 62
     7
100
AcDbLine
 10
-15.11320632733307
 20
-63.44793997026305
 30
0.0
 11
-33.11320632733319
 21
-63.44793997026305
 31
0.0
  0
LINE
  5
A0
330
1F
100
AcDbEntity
  8
1
  6
PHANTOM
 62
     2
100
AcDbLine
 10
-11.11320632733319
 20
-47.44793997026326
 30
0.0
 11
-11.11320632733307
 21
-63.44793997026304
 31
0.0
  0
LINE
  5
A1
330
1F
100
AcDbEntity
  8
1
  6
Continuous
 62
     7
100
AcDbLine
 10
-1.11320632733319
 20
-34.44793997026299
 30
0.0
 11
-1.11320632733308
 21
-63.44793997026305
 31
0.0
  0
LINE
  5
A2
330
1F
100
AcDbEntity
  8
1
  6
Continuous
 62
     7
100
AcDbLine
 10
-1.11320632733308
 20
-63.44793997026305
 30
0.0
 11
-1.11320632733307
 21
-66.69793997026315
 31
0.0
  0
LINE
  5
A3
330
1F
100
AcDbEntity
  8
1
  6
Continuous
 62
     7
100
AcDbLine
 10
-11.11320632733319
 20
-34.44793997026326
 30
0.0
 11
-11.11320632733319
 21
24.08734679886908
 31
0.0
  0
LINE
  5
A4
330
1F
100
AcDbEntity
  8
1
  6
DOT_CENTER
 62
     2
100
AcDbLine
 10
0.73531270605325
 20
-48.94793997026321
 30
0.0
 11
-34.4824619341996
 21
-48.94793997026318
 31
0.0
  0
LINE
  5
A5
330
1F
100
AcDbEntity
  8
1
  6
DOT_CENTER
 62
     2
100
AcDbLine
 10
-161.4067561211155
 20
-50.37339990768865
 30
0.0
 11
-196.8118405017521
 21
-50.37339990768865
 31
0.0
  0
LINE
  5
A6
330
1F
100
AcDbEntity
  8
1
  6
DOT_CENTER
 62
     2
100
AcDbLine
 10
-179.1092983114338
 20
-43.88377536033774
 30
0.0
 11
-179.1092983114338
 21
-68.07594209800696
 31
0.0
  0
LINE
  5
A7
330
1F
100
AcDbEntity
  8
1
  6
DOT_CENTER
 62
     2
100
AcDbLine
 10
-161.4067561211155
 20
61.12660009231136
 30
0.0
 11
-196.8118405017521
 21
61.12660009231136
 31
0.0
  0
LINE
  5
A8
330
1F
100
AcDbEntity
  8
1
  6
DOT_CENTER
 62
     2
100
AcDbLine
 10
-179.1092983114338
 20
78.82914228262965
 30
0.0
 11
-179.1092983114338
 21
55.2257526955386
 31
0.0
  0
LINE
  5
A9
330
1F
100
AcDbEntity
  8
1
  6
Continuous
 62
     7
100
AcDbLine
 10
97.19860034321128
 20
41.62660009231135
 30
0.0
 11
97.19860034321128
 21
-30.87339990768865
 31
0.0
  0
LINE
  5
AA
330
1F
100
AcDbEntity
  8
1
  6
Continuous
 62
     7
100
AcDbLine
 10
85.19860034321128
 20
-42.87339990768865
 30
0.0
 11
81.69860034321128
 21
-42.87339990768865
 31
0.0
  0
LINE
  5
AB
330
1F
100
AcDbEntity
  8
1
  6
Continuous
 62
     7
100
AcDbLine
 10
81.69860034321128
 20
53.62660009231135
 30
0.0
 11
85.19860034321128
 21
53.62660009231135
 31
0.0
  0
LINE
  5
AC
330
1F
100
AcDbEntity
  8
1
  6
PHANTOM
 62
     2
100
AcDbLine
 10
47.38679367266684
 20
-68.47367057736668
 30
0.0
 11
47.38679367266684
 21
-66.6979399702632
 31
0.0
  0
LINE
  5
AD
330
1F
100
AcDbEntity
  8
1
  6
PHANTOM
 62
     2
100
AcDbLine
 10
47.38679367266683
 20
-26.69793997026321
 30
0.0
 11
47.38679367266684
 21
-21.87239328400037
 31
0.0
  0
LINE
  5
AE
330
1F
100
AcDbEntity
  8
1
  6
Continuous
 62
     7
100
AcDbLine
 10
2.38679367266687
 20
-26.69793997026321
 30
0.0
 11
47.38679367266683
 21
-26.69793997026321
 31
0.0
  0
LINE
  5
AF
330
1F
100
AcDbEntity
  8
1
  6
Continuous
 62
     7
100
AcDbLine
 10
2.38679367266664
 20
-66.6979399702632
 30
0.0
 11
2.38679367266664
 21
-62.69793997026299
 31
0.0
  0
LINE
  5
B0
330
1F
100
AcDbEntity
  8
1
  6
Continuous
 62
     7
100
AcDbLine
 10
34.38679367266664
 20
-35.19793997026321
 30
0.0
 11
12.38679367266664
 21
-35.19793997026321
 31
0.0
  0
LINE
  5
B1
330
1F
100
AcDbEntity
  8
1
  6
Continuous
 62
     7
100
AcDbLine
 10
34.38679367266664
 20
-62.6979399702632
 30
0.0
 11
34.38679367266664
 21
-35.19793997026321
 31
0.0
  0
LINE
  5
B2
330
1F
100
AcDbEntity
  8
1
  6
Continuous
 62
     7
100
AcDbLine
 10
2.38679367266664
 20
-62.69793997026299
 30
0.0
 11
12.38679367266663
 21
-62.69793997026299
 31
0.0
  0
LINE
  5
B3
330
1F
100
AcDbEntity
  8
1
  6
PHANTOM
 62
     2
100
AcDbLine
 10
47.38679367266684
 20
-66.6979399702632
 30
0.0
 11
47.38679367266683
 21
-26.69793997026321
 31
0.0
  0
LINE
  5
B4
330
1F
100
AcDbEntity
  8
1
  6
Continuous
 62
     7
100
AcDbLine
 10
47.38679367266684
 20
-66.6979399702632
 30
0.0
 11
2.38679367266664
 21
-66.6979399702632
 31
0.0
  0
LINE
  5
B5
330
1F
100
AcDbEntity
  8
1
  6
DOT_CENTER
 62
     2
100
AcDbLine
 10
55.8094379311456
 20
105.3766000923114
 30
0.0
 11
59.1986003432113
 21
105.3766000923114
 31
0.0
  0
LINE
  5
B6
330
1F
100
AcDbEntity
  8
1
  6
DOT_CENTER
 62
     2
100
AcDbLine
 10
55.8094379311456
 20
-94.62339990768866
 30
0.0
 11
59.1986003432113
 21
-94.62339990768866
 31
0.0
  0
LINE
  5
B7
330
1F
100
AcDbEntity
  8
1
  6
Continuous
 62
     7
100
AcDbLine
 10
59.1986003432113
 20
-94.62339990768866
 30
0.0
 11
59.1986003432113
 21
105.3766000923114
 31
0.0
  0
LINE
  5
B8
330
1F
100
AcDbEntity
  8
1
  6
DOT_CENTER
 62
     2
100
AcDbLine
 10
59.1986003432113
 20
105.3766000923114
 30
0.0
 11
101.1986003432113
 21
105.3766000923114
 31
0.0
  0
LINE
  5
B9
330
1F
100
AcDbEntity
  8
1
  6
DOT_CENTER
 62
     2
100
AcDbLine
 10
59.1986003432113
 20
-94.62339990768866
 30
0.0
 11
101.1986003432113
 21
-94.62339990768866
 31
0.0
  0
LINE
  5
BA
330
1F
100
AcDbEntity
  8
1
  6
Continuous
 62
     7
100
AcDbLine
 10
101.1986003432113
 20
-94.62339990768866
 30
0.0
 11
101.1986003432113
 21
105.3766000923114
 31
0.0
  0
LINE
  5
BB
330
1F
100
AcDbEntity
  8
1
  6
DOT_CENTER
 62
     2
100
AcDbLine
 10
101.1986003432113
 20
105.3766000923114
 30
0.0
 11
107.8813092857647
 21
105.3766000923114
 31
0.0
  0
LINE
  5
BC
330
1F
100
AcDbEntity
  8
1
  6
DOT_CENTER
 62
     2
100
AcDbLine
 10
101.1986003432113
 20
-94.62339990768866
 30
0.0
 11
107.1313092857647
 21
-94.62339990768866
 31
0.0
  0
LINE
  5
BD
330
1F
100
AcDbEntity
  8
1
  6
DOT_CENTER
 62
     2
100
AcDbLine
 10
55.5594379311456
 20
5.37660009231135
 30
0.0
 11
102.6313092857647
 21
5.37660009231135
 31
0.0
  0
LINE
  5
BE
330
1F
100
AcDbEntity
  8
1
  6
Continuous
 62
     7
100
AcDbLine
 10
12.38679367266664
 20
-35.19793997026321
 30
0.0
 11
12.38679367266663
 21
-62.69793997026299
 31
0.0
  0
LINE
  5
BF
330
1F
100
AcDbEntity
  8
1
  6
Continuous
 62
     7
100
AcDbLine
 10
12.38679367266664
 20
-35.19793997026321
 30
0.0
 11
2.38679367266681
 21
-35.19793997026312
 31
0.0
  0
LINE
  5
C0
330
1F
100
AcDbEntity
  8
1
  6
Continuous
 62
     7
100
AcDbLine
 10
12.38679367266663
 20
-62.69793997026299
 30
0.0
 11
34.38679367266664
 21
-62.6979399702632
 31
0.0
  0
LINE
  5
C1
330
1F
100
AcDbEntity
  8
1
  6
DOT_CENTER
 62
     2
100
AcDbLine
 10
131.7727714248735
 20
105.3766000923114
 30
0.0
 11
137.9119338369392
 21
105.3766000923114
 31
0.0
  0
LINE
  5
C2
330
1F
100
AcDbEntity
  8
1
  6
DOT_CENTER
 62
     2
100
AcDbLine
 10
132.9119338369392
 20
105.3766000923114
 30
0.0
 11
177.9119338369392
 21
105.3766000923114
 31
0.0
  0
LINE
  5
C3
330
1F
100
AcDbEntity
  8
1
  6
DOT_CENTER
 62
     2
100
AcDbLine
 10
177.9119338369392
 20
105.3766000923114
 30
0.0
 11
180.5946427794926
 21
105.3766000923114
 31
0.0
  0
LINE
  5
C4
330
1F
100
AcDbEntity
  8
1
  6
DOT_CENTER
 62
     2
100
AcDbLine
 10
131.7727714248735
 20
-94.62339990768866
 30
0.0
 11
137.9119338369392
 21
-94.62339990768866
 31
0.0
  0
LINE
  5
C5
330
1F
100
AcDbEntity
  8
1
  6
DOT_CENTER
 62
     2
100
AcDbLine
 10
132.9119338369392
 20
-94.62339990768866
 30
0.0
 11
177.9119338369392
 21
-94.62339990768866
 31
0.0
  0
LINE
  5
C6
330
1F
100
AcDbEntity
  8
1
  6
DOT_CENTER
 62
     2
100
AcDbLine
 10
177.9119338369392
 20
-94.62339990768866
 30
0.0
 11
180.5946427794926
 21
-94.62339990768866
 31
0.0
  0
LINE
  5
C7
330
1F
100
AcDbEntity
  8
1
  6
Continuous
 62
     7
100
AcDbLine
 10
177.9119338369392
 20
105.3766000923114
 30
0.0
 11
177.9119338369392
 21
70.37660009231132
 31
0.0
  0
LINE
  5
C8
330
1F
100
AcDbEntity
  8
1
  6
Continuous
 62
     7
100
AcDbLine
 10
177.9119338369392
 20
70.37660009231132
 30
0.0
 11
167.9119338369392
 21
70.37660009231135
 31
0.0
  0
LINE
  5
C9
330
1F
100
AcDbEntity
  8
1
  6
Continuous
 62
     7
100
AcDbLine
 10
177.9119338369392
 20
70.37660009231132
 30
0.0
 11
177.9119338369392
 21
-59.62339990768864
 31
0.0
  0
LINE
  5
CA
330
1F
100
AcDbEntity
  8
1
  6
Continuous
 62
     7
100
AcDbLine
 10
167.9119338369392
 20
70.37660009231135
 30
0.0
 11
167.9119338369392
 21
53.62660009231135
 31
0.0
  0
LINE
  5
CB
330
1F
100
AcDbEntity
  8
1
  6
Continuous
 62
     7
100
AcDbLine
 10
167.9119338369392
 20
53.62660009231135
 30
0.0
 11
145.9119338369392
 21
53.62660009231135
 31
0.0
  0
LINE
  5
CC
330
1F
100
AcDbEntity
  8
1
  6
Continuous
 62
     7
100
AcDbLine
 10
145.9119338369392
 20
53.62660009231135
 30
0.0
 11
145.9119338369392
 21
-42.87339990768864
 31
0.0
  0
LINE
  5
CD
330
1F
100
AcDbEntity
  8
1
  6
Continuous
 62
     7
100
AcDbLine
 10
145.9119338369392
 20
-42.87339990768864
 30
0.0
 11
167.9119338369392
 21
-42.87339990768867
 31
0.0
  0
LINE
  5
CE
330
1F
100
AcDbEntity
  8
1
  6
Continuous
 62
     7
100
AcDbLine
 10
167.9119338369392
 20
-42.87339990768867
 30
0.0
 11
167.9119338369392
 21
-59.62339990768865
 31
0.0
  0
LINE
  5
CF
330
1F
100
AcDbEntity
  8
1
  6
Continuous
 62
     7
100
AcDbLine
 10
167.9119338369392
 20
-59.62339990768865
 30
0.0
 11
177.9119338369392
 21
-59.62339990768864
 31
0.0
  0
LINE
  5
D0
330
1F
100
AcDbEntity
  8
1
  6
Continuous
 62
     7
100
AcDbLine
 10
177.9119338369392
 20
-59.62339990768864
 30
0.0
 11
177.9119338369392
 21
-94.62339990768866
 31
0.0
  0
LINE
  5
D1
330
1F
100
AcDbEntity
  8
1
  6
DOT_CENTER
 62
     2
100
AcDbLine
 10
132.9119338369392
 20
105.3766000923114
 30
0.0
 11
132.9119338369392
 21
-94.62339990768866
 31
0.0
  0
LINE
  5
D2
330
1F
100
AcDbEntity
  8
1
  6
DOT_CENTER
 62
     2
100
AcDbLine
 10
132.9119338369392
 20
-94.62339990768866
 30
0.0
 11
132.9119338369392
 21
-104.1112895265787
 31
0.0
  0
LINE
  5
D3
330
1F
100
AcDbEntity
  8
1
  6
DOT_CENTER
 62
     2
100
AcDbLine
 10
132.9119338369392
 20
105.3766000923114
 30
0.0
 11
132.9119338369392
 21
109.4193999621323
 31
0.0
  0
LINE
  5
D4
330
1F
100
AcDbEntity
  8
1
  6
DOT_CENTER
 62
     2
100
AcDbLine
 10
131.540436888203
 20
5.37660009231135
 30
0.0
 11
180.3208957135293
 21
5.37660009231135
 31
0.0
  0
LINE
  5
D5
330
1F
100
AcDbEntity
  8
1
  6
Continuous
 62
     7
100
AcDbLine
 10
97.19860034321128
 20
61.62660009231135
 30
0.0
 11
97.19860034321128
 21
41.62660009231135
 31
0.0
  0
LINE
  5
D6
330
1F
100
AcDbEntity
  8
1
  6
DOT_CENTER
 62
     2
100
AcDbLine
 10
39.84299765474182
 20
-48.94793997026321
 30
0.0
 11
0.73531270605325
 21
-48.94793997026321
 31
0.0
  0
LINE
  5
D7
330
1F
100
AcDbEntity
  8
1
  6
Continuous
 62
     7
100
AcDbLine
 10
167.9119338369392
 20
53.62660009231135
 30
0.0
 11
167.9119338369392
 21
41.62660009231135
 31
0.0
  0
LINE
  5
D8
330
1F
100
AcDbEntity
  8
1
  6
Continuous
 62
     7
100
AcDbLine
 10
167.9119338369392
 20
-42.87339990768867
 30
0.0
 11
167.9119338369392
 21
-30.87339990768865
 31
0.0
  0
LINE
  5
D9
330
1F
100
AcDbEntity
  8
1
  6
Continuous
 62
     7
100
AcDbLine
 10
2.38679367266681
 20
-35.19793997026312
 30
0.0
 11
2.38679367266687
 21
-26.69793997026321
 31
0.0
  0
LINE
  5
DA
330
1F
100
AcDbEntity
  8
1
  6
Continuous
 62
     7
100
AcDbLine
 10
2.38679367266664
 20
-62.69793997026299
 30
0.0
 11
2.38679367266681
 21
-35.19793997026312
 31
0.0
  0
LINE
  5
DB
330
1F
100
AcDbEntity
  8
1
  6
Continuous
 62
     7
100
AcDbLine
 10
69.69860034321128
 20
61.62660009231135
 30
0.0
 11
69.69860034321128
 21
41.62660009231135
 31
0.0
  0
LINE
  5
DC
330
1F
100
AcDbEntity
  8
1
  6
Continuous
 62
     7
100
AcDbLine
 10
97.19860034321128
 20
-30.87339990768865
 30
0.0
 11
97.19860034321128
 21
-50.87339990768864
 31
0.0
  0
LINE
  5
DD
330
1F
100
AcDbEntity
  8
1
  6
Continuous
 62
     7
100
AcDbLine
 10
69.69860034321128
 20
-30.87339990768865
 30
0.0
 11
69.69860034321128
 21
-50.87339990768864
 31
0.0
  0
LINE
  5
DE
330
1F
100
AcDbEntity
  8
1
  6
Continuous
 62
     7
100
AcDbLine
 10
69.69860034321128
 20
41.62660009231135
 30
0.0
 11
69.69860034321128
 21
-30.87339990768865
 31
0.0
  0
LINE
  5
DF
330
1F
100
AcDbEntity
  8
1
  6
DOT_CENTER
 62
     2
100
AcDbLine
 10
80.2045927707841
 20
55.37660009231135
 30
0.0
 11
86.6034409897556
 21
55.37660009231135
 31
0.0
  0
LINE
  5
E0
330
1F
100
AcDbEntity
  8
1
  6
DOT_CENTER
 62
     2
100
AcDbLine
 10
80.2045927707841
 20
65.37660009231135
 30
0.0
 11
86.6034409897556
 21
65.37660009231135
 31
0.0
  0
LINE
  5
E1
330
1F
100
AcDbEntity
  8
1
  6
DOT_CENTER
 62
     2
100
AcDbLine
 10
86.6034409897556
 20
-44.62339990768865
 30
0.0
 11
80.2045927707841
 21
-44.62339990768865
 31
0.0
  0
LINE
  5
E2
330
1F
100
AcDbEntity
  8
1
  6
DOT_CENTER
 62
     2
100
AcDbLine
 10
86.6034409897556
 20
-54.62339990768865
 30
0.0
 11
80.2045927707841
 21
-54.62339990768865
 31
0.0
  0
LINE
  5
E3
330
1F
100
AcDbEntity
  8
1
  6
DOT_CENTER
 62
     2
100
AcDbLine
 10
100.0736003432113
 20
-50.87339990768865
 30
0.0
 11
66.82360034321128
 21
-50.87339990768865
 31
0.0
  0
LINE
  5
E4
330
1F
100
AcDbEntity
  8
1
  6
DOT_CENTER
 62
     2
100
AcDbLine
 10
83.44860034321128
 20
-24.24839990768865
 30
0.0
 11
83.44860034321128
 21
-67.49839990768865
 31
0.0
  0
LINE
  5
E5
330
1F
100
AcDbEntity
  8
1
  6
DOT_CENTER
 62
     2
100
AcDbLine
 10
100.0736003432113
 20
61.62660009231135
 30
0.0
 11
66.82360034321128
 21
61.62660009231135
 31
0.0
  0
LINE
  5
E6
330
1F
100
AcDbEntity
  8
1
  6
DOT_CENTER
 62
     2
100
AcDbLine
 10
83.44860034321128
 20
78.25160009231135
 30
0.0
 11
83.44860034321128
 21
-24.24839990768865
 31
0.0
  0
ARC
  5
E7
330
1F
100
AcDbEntity
  8
1
  6
Continuous
 62
     7
100
AcDbCircle
 10
-179.6092983114338
 20
61.12660009231136
 30
0.0
 40
14.75211849193193
100
AcDbArc
 50
-0.97102193107917
 51
89.02897806892084
  0
ARC
  5
E8
330
1F
100
AcDbEntity
  8
1
  6
Continuous
 62
     7
100
AcDbCircle
 10
-179.1092983114338
 20
-50.37339990768865
 30
0.0
 40
14.75211849193193
100
AcDbArc
 50
179.0289780689208
 51
-90.97102193107918
  0
ARC
  5
E9
330
1F
100
AcDbEntity
  8
1
  6
Continuous
 62
     7
100
AcDbCircle
 10
-179.6092983114338
 20
-50.37339990768865
 30
0.0
 40
14.75211849193193
100
AcDbArc
 50
-89.02897806892084
 51
0.97102193107917
  0
ARC
  5
EA
330
1F
100
AcDbEntity
  8
1
  6
Continuous
 62
     7
100
AcDbCircle
 10
-179.1092983114338
 20
61.12660009231136
 30
0.0
 40
14.75211849193192
100
AcDbArc
 50
90.97102193107918
 51
-179.0289780689208
  0
CIRCLE
  5
EB
330
1F
100
AcDbEntity
  8
1
  6
PHANTOM
 62
     2
100
AcDbCircle
 10
-176.8592983114338
 20
-50.37339990768865
 30
0.0
 40
12.0
  0
CIRCLE
  5
EC
330
1F
100
AcDbEntity
  8
1
  6
PHANTOM
 62
     2
100
AcDbCircle
 10
81.69860034321128
 20
-50.87339990768865
 30
0.0
 40
12.0
  0
CIRCLE
  5
ED
330
1F
100
AcDbEntity
  8
1
  6
Continuous
 62
     7
100
AcDbCircle
 10
83.44860034321128
 20
55.37660009231135
 30
0.0
 40
1.5
  0
CIRCLE
  5
EE
330
1F
100
AcDbEntity
  8
1
  6
Continuous
 62
     7
100
AcDbCircle
 10
83.44860034321128
 20
65.37660009231135
 30
0.0
 40
1.5
  0
CIRCLE
  5
EF
330
1F
100
AcDbEntity
  8
1
  6
Continuous
 62
     7
100
AcDbCircle
 10
83.44860034321128
 20
-44.62339990768865
 30
0.0
 40
1.5
  0
CIRCLE
  5
F0
330
1F
100
AcDbEntity
  8
1
  6
Continuous
 62
     7
100
AcDbCircle
 10
83.44860034321128
 20
-54.62339990768865
 30
0.0
 40
1.5
  0
ARC
  5
F1
330
1F
100
AcDbEntity
  8
1
  6
Continuous
 62
     7
100
AcDbCircle
 10
83.44860034321128
 20
-50.87339990768865
 30
0.0
 40
13.75
100
AcDbArc
 50
180.0
 51
-90.0
  0
ARC
  5
F2
330
1F
100
AcDbEntity
  8
1
  6
Continuous
 62
     7
100
AcDbCircle
 10
83.44860034321128
 20
-50.87339990768865
 30
0.0
 40
13.75
100
AcDbArc
 50
-90.0
 51
0.00000000000003
  0
ARC
  5
F3
330
1F
100
AcDbEntity
  8
1
  6
Continuous
 62
     7
100
AcDbCircle
 10
83.44860034321128
 20
61.62660009231135
 30
0.0
 40
13.75
100
AcDbArc
 50
0.0
 51
90.0
  0
ARC
  5
F4
330
1F
100
AcDbEntity
  8
1
  6
Continuous
 62
     7
100
AcDbCircle
 10
83.44860034321128
 20
61.62660009231135
 30
0.0
 40
13.75
100
AcDbArc
 50
90.0
 51
180.0
  0
ARC
  5
F5
330
1F
100
AcDbEntity
  8
1
  6
Continuous
 62
     7
100
AcDbCircle
 10
85.19860034321128
 20
-30.87339990768865
 30
0.0
 40
12.0
100
AcDbArc
 50
-90.0
 51
0.0
  0
ARC
  5
F6
330
1F
100
AcDbEntity
  8
1
  6
Continuous
 62
     7
100
AcDbCircle
 10
81.69860034321128
 20
-30.87339990768865
 30
0.0
 40
12.0
100
AcDbArc
 50
180.0
 51
-90.0
  0
ARC
  5
F7
330
1F
100
AcDbEntity
  8
1
  6
Continuous
 62
     7
100
AcDbCircle
 10
81.69860034321128
 20
41.62660009231135
 30
0.0
 40
12.0
100
AcDbArc
 50
90.0
 51
180.0
  0
ARC
  5
F8
330
1F
100
AcDbEntity
  8
1
  6
Continuous
 62
     7
100
AcDbCircle
 10
85.19860034321128
 20
41.62660009231135
 30
0.0
 40
12.0
100
AcDbArc
 50
0.0
 51
90.0
  0
MTEXT
  5
FA
330
1F
100
AcDbEntity
  8
1
 62
     2
100
AcDbMText
 10
-30.40997654504031
 20
55.45485865396127
 30
0.0
 40
3.5
 41
0.0
 71
     4
 72
     1
  1
Befestigungsplatte\PTE310-3D FZ
  7
CONVERTER_11
 73
     1
 44
1.32052821128451
  0
MTEXT
  5
FB
330
1F
100
AcDbEntity
  8
1
 62
     3
100
AcDbMText
 10
-47.01073053579021
 20
-105.7574994986811
 30
0.0
 40
5.0
 41
0.0
 71
     4
 72
     1
  1
Fräsbild\PFutterzarge\PRahmen
  7
CONVERTER_11
 73
     1
 44
1.32052821128451
  0
MTEXT
  5
FC
330
1F
100
AcDbEntity
  8
1
 62
     3
100
AcDbMText
 10
14.40554988135929
 20
-99.1402873584762
 30
0.0
 40
5.0
 41
0.0
 71
     4
 72
     1
  1
Fräsbild\PFlügel
  7
CONVERTER_11
 73
     1
 44
1.32052821128451
  0
DIMENSION
  5
107
330
1F
100
AcDbEntity
  8
1
100
AcDbDimension
  2
*D1
 10
-68.80177865188125
 20
-107.942164087583
 30
0.0
 11
-84.83017793776801
 21
-104.192164087583
 31
0.0
 70
    32
  1
<>
 71
     5
 42
-1.0
 53
0.00013888888889
  3
ME10_DIM_10
100
AcDbAlignedDimension
 13
-100.8017786518813
 23
-65.12339990768865
 33
0.0
 14
-68.80177865188125
 24
-65.12339990768865
 34
0.0
100
AcDbRotatedDimension
  0
DIMENSION
  5
112
330
1F
100
AcDbEntity
  8
1
100
AcDbDimension
  2
*D2
 10
-120.187322226027
 20
75.87660009231135
 30
0.0
 11
-123.937322226027
 21
6.43288849145399
 31
0.0
 70
    32
  1
<>
 71
     5
 42
-1.0
 53
90.0
  3
ME10_DIM_11
100
AcDbAlignedDimension
 13
-179.3592983114338
 23
-65.12339990768865
 33
0.0
 14
-179.3592983114338
 24
75.87660009231135
 34
0.0
 50
90.0
100
AcDbRotatedDimension
  0
DIMENSION
  5
11D
330
1F
100
AcDbEntity
  8
1
100
AcDbDimension
  2
*D3
 10
69.69860034321128
 20
-108.785670014645
 30
0.0
 11
83.595196812865
 21
-105.035670014645
 31
0.0
 70
    32
  1
<>
 71
     5
 42
-1.0
 53
0.00013888888889
  3
ME10_DIM_12
100
AcDbAlignedDimension
 13
97.19860034321128
 23
-50.87339990768864
 33
0.0
 14
69.69860034321128
 24
-50.87339990768864
 34
0.0
100
AcDbRotatedDimension
  0
DIMENSION
  5
128
330
1F
100
AcDbEntity
  8
1
100
AcDbDimension
  2
*D4
 10
128.202127671972
 20
75.37660009231135
 30
0.0
 11
124.452127671972
 21
4.35727955081747
 31
0.0
 70
    32
  1
<>
 71
     5
 42
-1.0
 53
90.0
  3
ME10_DIM_13
100
AcDbAlignedDimension
 13
83.44860034321128
 23
-64.62339990768865
 33
0.0
 14
83.44860034321128
 24
75.37660009231135
 34
0.0
 50
90.0
100
AcDbRotatedDimension
  0
DIMENSION
  5
133
330
1F
100
AcDbEntity
  8
1
100
AcDbDimension
  2
*D5
 10
167.9119338369392
 20
-103.785670014645
 30
0.0
 11
172.430422172949
 21
-100.035670014645
 31
0.0
 70
    32
  1
<>
 71
     5
 42
-1.0
 53
0.00013888888889
  3
ME10_DIM_14
100
AcDbAlignedDimension
 13
177.9119338369392
 23
-94.62339990768866
 33
0.0
 14
167.9119338369392
 24
-59.62339990768865
 34
0.0
100
AcDbRotatedDimension
  0
DIMENSION
  5
13E
330
1F
100
AcDbEntity
  8
1
100
AcDbDimension
  2
*D6
 10
177.9119338369392
 20
-114.622960427562
 30
0.0
 11
161.8615492436929
 21
-110.872960427562
 31
0.0
 70
    32
  1
<>
 71
     5
 42
-1.0
 53
0.00013888888889
  3
ME10_DIM_15
100
AcDbAlignedDimension
 13
145.9119338369392
 23
-42.87339990768864
 33
0.0
 14
177.9119338369392
 24
-59.62339990768864
 34
0.0
100
AcDbRotatedDimension
  0
DIMENSION
  5
14B
330
1F
100
AcDbEntity
  8
1
100
AcDbDimension
  2
*D7
 10
97.19860034321128
 20
-108.785670014645
 30
0.0
 11
108.450828588057
 21
-105.035670014645
 31
0.0
 70
    32
  1
<>
 71
     5
 42
-1.0
 53
0.00013888888889
  3
ME10_DIM_16
100
AcDbAlignedDimension
 13
101.1986003432113
 23
-94.62339990768866
 33
0.0
 14
97.19860034321128
 24
-50.87339990768864
 34
0.0
100
AcDbRotatedDimension
  0
DIMENSION
  5
156
330
1F
100
AcDbEntity
  8
1
100
AcDbDimension
  2
*D8
 10
-48.1172272678153
 20
-66.6979399702632
 30
0.0
 11
-51.8672272678153
 21
-45.21145013916492
 31
0.0
 70
    32
  1
A
 71
     5
 42
-1.0
 53
90.0
  3
ME10_DIM_17
100
AcDbAlignedDimension
 13
0.61884448023565
 23
-26.69793997026326
 33
0.0
 14
-44.11320632733313
 24
-66.6979399702632
 34
0.0
 50
90.0
100
AcDbRotatedDimension
  0
DIMENSION
  5
163
330
1F
100
AcDbEntity
  8
1
100
AcDbDimension
  2
*D9
 10
-27.1056526723777
 20
-66.6979399702632
 30
0.0
 11
-30.8556526723777
 21
-76.33062666779904
 31
0.0
 70
    32
  1
X
 71
     5
 42
-1.0
 53
90.0
  3
ME10_DIM_18
100
AcDbAlignedDimension
 13
-33.11320632733319
 23
-63.44793997026305
 33
0.0
 14
-44.11320632733313
 24
-66.6979399702632
 34
0.0
 50
90.0
100
AcDbRotatedDimension
  0
DIMENSION
  5
170
330
1F
100
AcDbEntity
  8
1
100
AcDbDimension
  2
*D10
 10
25.9879803867369
 20
-66.6979399702632
 30
0.0
 11
22.2379803867369
 21
-73.7179064472918
 31
0.0
 70
    32
  1
<>
 71
     5
 42
-1.0
 53
90.0
  3
ME10_DIM_19
100
AcDbAlignedDimension
 13
34.38679367266664
 23
-62.6979399702632
 33
0.0
 14
47.38679367266684
 24
-66.6979399702632
 34
0.0
 50
90.0
100
AcDbRotatedDimension
  0
DIMENSION
  5
17B
330
1F
100
AcDbEntity
  8
1
100
AcDbDimension
  2
*D11
 10
55.4844431973561
 20
-26.69793997026321
 30
0.0
 11
51.7344431973561
 21
-45.7945883199056
 31
0.0
 70
    32
  1
B
 71
     5
 42
-1.0
 53
90.0
  3
ME10_DIM_20
100
AcDbAlignedDimension
 13
47.38679367266684
 23
-66.6979399702632
 33
0.0
 14
47.38679367266683
 24
-26.69793997026321
 34
0.0
 50
90.0
100
AcDbRotatedDimension
  0
DIMENSION
  5
186
330
1F
100
AcDbEntity
  8
1
100
AcDbDimension
  2
*D12
 10
107.618165580336
 20
-42.87339990768864
 30
0.0
 11
103.868165580336
 21
-0.63277186533691
 31
0.0
 70
    32
  1
<>
 71
     5
 42
-1.0
 53
90.0
  3
ME10_DIM_21
100
AcDbAlignedDimension
 13
85.19860034321128
 23
53.62660009231135
 33
0.0
 14
85.19860034321128
 24
-42.87339990768865
 34
0.0
 50
90.0
100
AcDbRotatedDimension
  0
DIMENSION
  5
191
330
1F
100
AcDbEntity
  8
1
100
AcDbDimension
  2
*D13
 10
114.271567468542
 20
-44.62339990768865
 30
0.0
 11
110.521567468542
 21
4.98103597783675
 31
0.0
 70
    32
  1
<>
 71
     5
 42
-1.0
 53
90.0
  3
ME10_DIM_22
100
AcDbAlignedDimension
 13
86.6034409897556
 23
55.37660009231135
 33
0.0
 14
86.6034409897556
 24
-44.62339990768865
 34
0.0
 50
90.0
100
AcDbRotatedDimension
  0
DIMENSION
  5
19C
330
1F
100
AcDbEntity
  8
1
100
AcDbDimension
  2
*D14
 10
121.34080697476
 20
-54.62339990768865
 30
0.0
 11
117.59080697476
 21
4.98103597783675
 31
0.0
 70
    32
  1
<>
 71
     5
 42
-1.0
 53
90.0
  3
ME10_DIM_23
100
AcDbAlignedDimension
 13
86.6034409897556
 23
65.37660009231135
 33
0.0
 14
86.6034409897556
 24
-54.62339990768865
 34
0.0
 50
90.0
100
AcDbRotatedDimension
  0
DIMENSION
  5
1A9
330
1F
100
AcDbEntity
  8
1
100
AcDbDimension
  2
*D15
 10
-197.1092983114338
 20
-108.487423372669
 30
0.0
 11
-202.6495805820408
 21
-104.737423372669
 31
0.0
 70
    32
  1
X
 71
     5
 42
-1.0
 53
0.00013888888889
  3
ME10_DIM_24
100
AcDbAlignedDimension
 13
-193.8592983114338
 23
-50.12339990768865
 33
0.0
 14
-197.1092983114338
 24
-94.62339990768865
 34
0.0
100
AcDbRotatedDimension
  0
DIMENSION
  5
1B4
330
1F
100
AcDbEntity
  8
1
100
AcDbDimension
  2
*D16
 10
-193.8592983114338
 20
-108.487423372669
 30
0.0
 11
-179.3592983114338
 21
-104.737423372669
 31
0.0
 70
    32
  1
<>
 71
     5
 42
-1.0
 53
0.00013888888889
  3
ME10_DIM_25
100
AcDbAlignedDimension
 13
-164.8592983114338
 23
-50.12339990768865
 33
0.0
 14
-193.8592983114338
 24
-50.12339990768865
 34
0.0
100
AcDbRotatedDimension
  0
INSERT
  5
1BB
330
1F
100
AcDbEntity
  8
1
100
AcDbBlockReference
  2
*D17
 10
0.0
 20
0.0
 30
0.0
  0
INSERT
  5
1C3
330
1F
100
AcDbEntity
  8
1
100
AcDbBlockReference
  2
*D18
 10
0.0
 20
0.0
 30
0.0
  0
INSERT
  5
1CB
330
1F
100
AcDbEntity
  8
1
100
AcDbBlockReference
  2
*D19
 10
0.0
 20
0.0
 30
0.0
  0
ENDSEC
  0
SECTION
  2
OBJECTS
  0
DICTIONARY
  5
C
330
0
100
AcDbDictionary
281
     1
  3
ACAD_GROUP
350
D
  3
ACAD_LAYOUT
350
1A
  3
ACAD_MLINESTYLE
350
17
  3
ACAD_PLOTSETTINGS
350
19
  3
ACAD_PLOTSTYLENAME
350
E
  0
DICTIONARY
  5
D
102
{ACAD_REACTORS
330
C
102
}
330
C
100
AcDbDictionary
281
     1
  0
DICTIONARY
  5
1A
102
{ACAD_REACTORS
330
C
102
}
330
C
100
AcDbDictionary
281
     1
  3
Layout1
350
1E
  3
Layout2
350
26
  3
Model
350
22
  0
DICTIONARY
  5
17
102
{ACAD_REACTORS
330
C
102
}
330
C
100
AcDbDictionary
281
     1
  3
Standard
350
18
  0
DICTIONARY
  5
19
102
{ACAD_REACTORS
330
C
102
}
330
C
100
AcDbDictionary
281
     1
  0
ACDBDICTIONARYWDFLT
  5
E
102
{ACAD_REACTORS
330
C
102
}
330
C
100
AcDbDictionary
281
     1
  3
Normal
350
F
100
AcDbDictionaryWithDefault
340
F
  0
LAYOUT
  5
1E
102
{ACAD_REACTORS
330
1A
102
}
330
1A
100
AcDbPlotSettings
  1

  2

  4

  6

 40
0.0
 41
0.0
 42
0.0
 43
0.0
 44
0.0
 45
0.0
 46
0.0
 47
0.0
 48
0.0
 49
0.0
140
0.0
141
0.0
142
1.0
143
1.0
 70
   688
 72
     0
 73
     0
 74
     5
  7

 75
    16
 76
     0
 77
     2
 78
   300
147
1.0
148
0.0
149
0.0
100
AcDbLayout
  1
Layout1
 70
     1
 71
     1
 10
0.0
 20
0.0
 11
0.0
 21
0.0
 12
0.0
 22
0.0
 32
0.0
 14
0.0
 24
0.0
 34
0.0
 15
0.0
 25
0.0
 35
0.0
146
0.0
 13
0.0
 23
0.0
 33
0.0
 16
1.0
 26
0.0
 36
0.0
 17
0.0
 27
1.0
 37
0.0
 76
     0
330
1B
  0
LAYOUT
  5
26
102
{ACAD_REACTORS
330
1A
102
}
330
1A
100
AcDbPlotSettings
  1

  2

  4

  6

 40
0.0
 41
0.0
 42
0.0
 43
0.0
 44
0.0
 45
0.0
 46
0.0
 47
0.0
 48
0.0
 49
0.0
140
0.0
141
0.0
142
1.0
143
1.0
 70
   688
 72
     0
 73
     0
 74
     5
  7

 75
    16
 76
     0
 77
     2
 78
   300
147
1.0
148
0.0
149
0.0
100
AcDbLayout
  1
Layout2
 70
     1
 71
     2
 10
0.0
 20
0.0
 11
0.0
 21
0.0
 12
0.0
 22
0.0
 32
0.0
 14
0.0
 24
0.0
 34
0.0
 15
0.0
 25
0.0
 35
0.0
146
0.0
 13
0.0
 23
0.0
 33
0.0
 16
1.0
 26
0.0
 36
0.0
 17
0.0
 27
1.0
 37
0.0
 76
     0
330
23
  0
LAYOUT
  5
22
102
{ACAD_REACTORS
330
1A
102
}
330
1A
100
AcDbPlotSettings
  1

  2

  4

  6

 40
0.0
 41
0.0
 42
0.0
 43
0.0
 44
0.0
 45
0.0
 46
0.0
 47
0.0
 48
0.0
 49
0.0
140
0.0
141
0.0
142
1.0
143
1.0
 70
  1712
 72
     0
 73
     0
 74
     0
  7

 75
     0
 76
     0
 77
     2
 78
   300
147
1.0
148
0.0
149
0.0
100
AcDbLayout
  1
Model
 70
     1
 71
     0
 10
0.0
 20
0.0
 11
0.0
 21
0.0
 12
0.0
 22
0.0
 32
0.0
 14
-204.6000806359427
 24
-126.2960061849887
 34
0.0
 15
180.5946427794926
 25
109.761881720986
 35
0.0
146
0.0
 13
0.0
 23
0.0
 33
0.0
 16
1.0
 26
0.0
 36
0.0
 17
0.0
 27
1.0
 37
0.0
 76
     0
330
1F
  0
MLINESTYLE
  5
18
102
{ACAD_REACTORS
330
17
102
}
330
17
100
AcDbMlineStyle
  2
Standard
 70
     0
  3

 62
   256
 51
90.0
 52
90.0
 71
     2
 49
0.5
 62
   256
  6
BYLAYER
 49
-0.5
 62
   256
  6
BYLAYER
  0
ACDBPLACEHOLDER
  5
F
102
{ACAD_REACTORS
330
E
102
}
330
E
  0
ENDSEC
  0
EOF
