  0
SECTION
  2
HEADER
  9
$ACADVER
  1
AC1018
  9
$ACADMAINTVER
 70
     0
  9
$DWGCODEPAGE
  3
ANSI_1252
  9
$INSBASE
 10
0.0
 20
0.0
 30
0.0
  9
$EXTMIN
 10
199.0763655173268
 20
104.880560840865
 30
0.0
  9
$EXTMAX
 10
297.209420596627
 20
228.5005638145
 30
0.0
  9
$LIMMIN
 10
0.0
 20
0.0
  9
$LIMMAX
 10
12.0
 20
9.0
  9
$ORTHOMODE
 70
     0
  9
$REGENMODE
 70
     1
  9
$FILLMODE
 70
     1
  9
$QTEXTMODE
 70
     0
  9
$MIRRTEXT
 70
     1
  9
$LTSCALE
 40
1.0
  9
$ATTMODE
 70
     1
  9
$TEXTSIZE
 40
0.2
  9
$TRACEWID
 40
0.05
  9
$TEXTSTYLE
  7
Standard
  9
$CLAYER
  8
0
  9
$CELTYPE
  6
ByLayer
  9
$CECOLOR
 62
   256
  9
$CELTSCALE
 40
1.0
  9
$DISPSILH
 70
     0
  9
$DIMSCALE
 40
1.0
  9
$DIMASZ
 40
0.18
  9
$DIMEXO
 40
0.0625
  9
$DIMDLI
 40
0.38
  9
$DIMRND
 40
0.0
  9
$DIMDLE
 40
0.0
  9
$DIMEXE
 40
0.18
  9
$DIMTP
 40
0.0
  9
$DIMTM
 40
0.0
  9
$DIMTXT
 40
0.18
  9
$DIMCEN
 40
0.09
  9
$DIMTSZ
 40
0.0
  9
$DIMTOL
 70
     0
  9
$DIMLIM
 70
     0
  9
$DIMTIH
 70
     1
  9
$DIMTOH
 70
     1
  9
$DIMSE1
 70
     0
  9
$DIMSE2
 70
     0
  9
$DIMTAD
 70
     0
  9
$DIMZIN
 70
     0
  9
$DIMBLK
  1

  9
$DIMASO
 70
     1
  9
$DIMSHO
 70
     1
  9
$DIMPOST
  1

  9
$DIMAPOST
  1

  9
$DIMALT
 70
     0
  9
$DIMALTD
 70
     2
  9
$DIMALTF
 40
25.4
  9
$DIMLFAC
 40
1.0
  9
$DIMTOFL
 70
     0
  9
$DIMTVP
 40
0.0
  9
$DIMTIX
 70
     0
  9
$DIMSOXD
 70
     0
  9
$DIMSAH
 70
     0
  9
$DIMBLK1
  1

  9
$DIMBLK2
  1

  9
$DIMSTYLE
  2
Standard
  9
$DIMCLRD
 70
     0
  9
$DIMCLRE
 70
     0
  9
$DIMCLRT
 70
     0
  9
$DIMTFAC
 40
1.0
  9
$DIMGAP
 40
0.09
  9
$DIMJUST
 70
     0
  9
$DIMSD1
 70
     0
  9
$DIMSD2
 70
     0
  9
$DIMTOLJ
 70
     1
  9
$DIMTZIN
 70
     0
  9
$DIMALTZ
 70
     0
  9
$DIMALTTZ
 70
     0
  9
$DIMUPT
 70
     0
  9
$DIMDEC
 70
     4
  9
$DIMTDEC
 70
     4
  9
$DIMALTU
 70
     2
  9
$DIMALTTD
 70
     2
  9
$DIMTXSTY
  7
Standard
  9
$DIMAUNIT
 70
     0
  9
$DIMADEC
 70
     0
  9
$DIMALTRND
 40
0.0
  9
$DIMAZIN
 70
     0
  9
$DIMDSEP
 70
    46
  9
$DIMATFIT
 70
     3
  9
$DIMFRAC
 70
     0
  9
$DIMLDRBLK
  1

  9
$DIMLUNIT
 70
     2
  9
$DIMLWD
 70
    -2
  9
$DIMLWE
 70
    -2
  9
$DIMTMOVE
 70
     0
  9
$LUNITS
 70
     2
  9
$LUPREC
 70
     4
  9
$SKETCHINC
 40
0.1
  9
$FILLETRAD
 40
0.5
  9
$AUNITS
 70
     0
  9
$AUPREC
 70
     0
  9
$MENU
  1
.
  9
$ELEVATION
 40
0.0
  9
$PELEVATION
 40
0.0
  9
$THICKNESS
 40
0.0
  9
$LIMCHECK
 70
     0
  9
$CHAMFERA
 40
0.5
  9
$CHAMFERB
 40
0.5
  9
$CHAMFERC
 40
1.0
  9
$CHAMFERD
 40
0.0
  9
$SKPOLY
 70
     0
  9
$TDCREATE
 40
2457038.49521713
  9
$TDUCREATE
 40
2457038.453550463
  9
$TDUPDATE
 40
2457038.495217141
  9
$TDUUPDATE
 40
2457038.453550475
  9
$TDINDWG
 40
0.0000000116
  9
$TDUSRTIMER
 40
0.0000000116
  9
$USRTIMER
 70
     1
  9
$ANGBASE
 50
0.0
  9
$ANGDIR
 70
     0
  9
$PDMODE
 70
     0
  9
$PDSIZE
 40
0.0
  9
$PLINEWID
 40
0.0
  9
$SPLFRAME
 70
     0
  9
$SPLINETYPE
 70
     6
  9
$SPLINESEGS
 70
     8
  9
$HANDSEED
  5
255
  9
$SURFTAB1
 70
     6
  9
$SURFTAB2
 70
     6
  9
$SURFTYPE
 70
     6
  9
$SURFU
 70
     6
  9
$SURFV
 70
     6
  9
$UCSBASE
  2

  9
$UCSNAME
  2

  9
$UCSORG
 10
0.0
 20
0.0
 30
0.0
  9
$UCSXDIR
 10
1.0
 20
0.0
 30
0.0
  9
$UCSYDIR
 10
0.0
 20
1.0
 30
0.0
  9
$UCSORTHOREF
  2

  9
$UCSORTHOVIEW
 70
     0
  9
$UCSORGTOP
 10
0.0
 20
0.0
 30
0.0
  9
$UCSORGBOTTOM
 10
0.0
 20
0.0
 30
0.0
  9
$UCSORGLEFT
 10
0.0
 20
0.0
 30
0.0
  9
$UCSORGRIGHT
 10
0.0
 20
0.0
 30
0.0
  9
$UCSORGFRONT
 10
0.0
 20
0.0
 30
0.0
  9
$UCSORGBACK
 10
0.0
 20
0.0
 30
0.0
  9
$PUCSBASE
  2

  9
$PUCSNAME
  2

  9
$PUCSORG
 10
0.0
 20
0.0
 30
0.0
  9
$PUCSXDIR
 10
1.0
 20
0.0
 30
0.0
  9
$PUCSYDIR
 10
0.0
 20
1.0
 30
0.0
  9
$PUCSORTHOREF
  2

  9
$PUCSORTHOVIEW
 70
     0
  9
$PUCSORGTOP
 10
0.0
 20
0.0
 30
0.0
  9
$PUCSORGBOTTOM
 10
0.0
 20
0.0
 30
0.0
  9
$PUCSORGLEFT
 10
0.0
 20
0.0
 30
0.0
  9
$PUCSORGRIGHT
 10
0.0
 20
0.0
 30
0.0
  9
$PUCSORGFRONT
 10
0.0
 20
0.0
 30
0.0
  9
$PUCSORGBACK
 10
0.0
 20
0.0
 30
0.0
  9
$USERI1
 70
     0
  9
$USERI2
 70
     0
  9
$USERI3
 70
     0
  9
$USERI4
 70
     0
  9
$USERI5
 70
     0
  9
$USERR1
 40
14.5
  9
$USERR2
 40
0.0
  9
$USERR3
 40
0.0
  9
$USERR4
 40
0.0
  9
$USERR5
 40
0.0
  9
$WORLDVIEW
 70
     1
  9
$SHADEDGE
 70
     3
  9
$SHADEDIF
 70
    70
  9
$TILEMODE
 70
     1
  9
$MAXACTVP
 70
    64
  9
$PINSBASE
 10
0.0
 20
0.0
 30
0.0
  9
$PLIMCHECK
 70
     0
  9
$PEXTMIN
 10
1.00000000000000E+20
 20
1.00000000000000E+20
 30
1.00000000000000E+20
  9
$PEXTMAX
 10
-1.00000000000000E+20
 20
-1.00000000000000E+20
 30
-1.00000000000000E+20
  9
$PLIMMIN
 10
0.0
 20
0.0
  9
$PLIMMAX
 10
12.0
 20
9.0
  9
$UNITMODE
 70
     0
  9
$VISRETAIN
 70
     1
  9
$PLINEGEN
 70
     0
  9
$PSLTSCALE
 70
     1
  9
$TREEDEPTH
 70
  3020
  9
$CMLSTYLE
  2
Standard
  9
$CMLJUST
 70
     0
  9
$CMLSCALE
 40
1.0
  9
$PROXYGRAPHICS
 70
     1
  9
$MEASUREMENT
 70
     1
  9
$CELWEIGHT
370
    -1
  9
$ENDCAPS
280
     0
  9
$JOINSTYLE
280
     0
  9
$LWDISPLAY
290
     0
  9
$INSUNITS
 70
     1
  9
$HYPERLINKBASE
  1

  9
$STYLESHEET
  1

  9
$XEDIT
290
     1
  9
$CEPSNTYPE
380
     0
  9
$PSTYLEMODE
290
     1
  9
$FINGERPRINTGUID
  2
{681DB537-D7FC-42B6-8366-22FEB1673351}
  9
$VERSIONGUID
  2
{FAEB1C32-E019-11D5-929B-00C0DF256EC4}
  9
$EXTNAMES
290
     1
  9
$PSVPSCALE
 40
0.0
  9
$OLESTARTUP
290
     0
  9
$SORTENTS
280
   127
  9
$INDEXCTL
280
     0
  9
$HIDETEXT
280
     1
  9
$XCLIPFRAME
290
     0
  9
$HALOGAP
280
     0
  9
$OBSCOLOR
 70
   257
  9
$OBSLTYPE
280
     0
  9
$INTERSECTIONDISPLAY
280
     0
  9
$INTERSECTIONCOLOR
 70
   257
  9
$DIMASSOC
280
     2
  9
$PROJECTNAME
  1

  0
ENDSEC
  0
SECTION
  2
CLASSES
  0
CLASS
  1
ACDBDICTIONARYWDFLT
  2
AcDbDictionaryWithDefault
  3
ObjectDBX Classes
 90
        0
 91
        3
280
     0
281
     0
  0
CLASS
  1

  2
exOdDbCircle
  3

 90
        0
 91
        3
280
     0
281
     1
  0
CLASS
  1

  2
exOdDbSpline
  3

 90
        0
 91
        3
280
     0
281
     1
  0
ENDSEC
  0
SECTION
  2
TABLES
  0
TABLE
  2
VPORT
  5
8
330
0
100
AcDbSymbolTable
 70
     1
  0
VPORT
  5
29
330
8
100
AcDbSymbolTableRecord
100
AcDbViewportTableRecord
  2
*Active
 70
     0
 10
0.0
 20
0.0
 11
1.0
 21
1.0
 12
248.1428930569769
 22
166.6905623276825
 13
0.0
 23
0.0
 14
0.5
 24
0.5
 15
0.5
 25
0.5
 16
0.0
 26
0.0
 36
1.0
 17
0.0
 27
0.0
 37
0.0
 40
135.9820032709985
 41
1.60267857142857
 42
50.0
 43
0.0
 44
0.0
 50
0.0
 51
0.0
 71
     0
 72
   100
 73
     1
 74
     3
 75
     0
 76
     0
 77
     0
 78
     0
281
     0
 65
     1
110
0.0
120
0.0
130
0.0
111
1.0
121
0.0
131
0.0
112
0.0
122
1.0
132
0.0
 79
     0
146
0.0
  0
ENDTAB
  0
TABLE
  2
LTYPE
  5
5
330
0
100
AcDbSymbolTable
 70
     9
  0
LTYPE
  5
14
330
5
100
AcDbSymbolTableRecord
100
AcDbLinetypeTableRecord
  2
ByBlock
 70
     0
  3

 72
    65
 73
     0
 40
0.0
  0
LTYPE
  5
15
330
5
100
AcDbSymbolTableRecord
100
AcDbLinetypeTableRecord
  2
ByLayer
 70
     0
  3

 72
    65
 73
     0
 40
0.0
  0
LTYPE
  5
16
330
5
100
AcDbSymbolTableRecord
100
AcDbLinetypeTableRecord
  2
Continuous
 70
     0
  3
Solid line
 72
    65
 73
     0
 40
0.0
  0
LTYPE
  5
2A
330
5
100
AcDbSymbolTableRecord
100
AcDbLinetypeTableRecord
  2
DASHED
 70
     0
  3
Dashed
 72
    65
 73
     2
 40
15.0
 49
7.0
 74
     0
 49
-8.0
 74
     0
  0
LTYPE
  5
2B
330
5
100
AcDbSymbolTableRecord
100
AcDbLinetypeTableRecord
  2
DOTTED
 70
     0
  3
Dotted
 72
    65
 73
     2
 40
1.0
 49
0.0
 74
     0
 49
-1.0
 74
     0
  0
LTYPE
  5
2C
330
5
100
AcDbSymbolTableRecord
100
AcDbLinetypeTableRecord
  2
DOT_CENTER
 70
     0
  3
Dot_Center
 72
    65
 73
     4
 40
14.0
 49
12.0
 74
     0
 49
-1.0
 74
     0
 49
0.0
 74
     0
 49
-1.0
 74
     0
  0
LTYPE
  5
2D
330
5
100
AcDbSymbolTableRecord
100
AcDbLinetypeTableRecord
  2
LONG_DASHED
 70
     0
  3
Long_Dashed
 72
    65
 73
     2
 40
15.0
 49
10.0
 74
     0
 49
-5.0
 74
     0
  0
LTYPE
  5
2E
330
5
100
AcDbSymbolTableRecord
100
AcDbLinetypeTableRecord
  2
DASH_CENTER
 70
     0
  3
Dash_Center
 72
    65
 73
     4
 40
14.0
 49
11.0
 74
     0
 49
-1.0
 74
     0
 49
1.0
 74
     0
 49
-1.0
 74
     0
  0
LTYPE
  5
2F
330
5
100
AcDbSymbolTableRecord
100
AcDbLinetypeTableRecord
  2
PHANTOM
 70
     0
  3
Phantom
 72
    65
 73
     6
 40
13.0
 49
10.0
 74
     0
 49
-1.0
 74
     0
 49
0.0
 74
     0
 49
-1.0
 74
     0
 49
0.0
 74
     0
 49
-1.0
 74
     0
  0
LTYPE
  5
30
330
5
100
AcDbSymbolTableRecord
100
AcDbLinetypeTableRecord
  2
CENTER_DASH_DASH
 70
     0
  3
Center_Dash_Dash
 72
    65
 73
     6
 40
14.0
 49
9.0
 74
     0
 49
-1.0
 74
     0
 49
1.0
 74
     0
 49
-1.0
 74
     0
 49
1.0
 74
     0
 49
-1.0
 74
     0
  0
LTYPE
  5
31
330
5
100
AcDbSymbolTableRecord
100
AcDbLinetypeTableRecord
  2
CENTER
 70
     0
  3
CENTER
 72
    65
 73
     4
 40
15.0
 49
9.0
 74
     0
 49
-2.0
 74
     0
 49
2.0
 74
     0
 49
-2.0
 74
     0
  0
ENDTAB
  0
TABLE
  2
LAYER
  5
2
330
0
100
AcDbSymbolTable
 70
     6
  0
LAYER
  5
10
330
2
100
AcDbSymbolTableRecord
100
AcDbLayerTableRecord
  2
0
 70
     0
 62
     7
  6
Continuous
370
    -3
390
F
  0
LAYER
  5
32
330
2
100
AcDbSymbolTableRecord
100
AcDbLayerTableRecord
  2
1
 70
     0
 62
     7
  6
Continuous
370
    -3
390
F
  0
LAYER
  5
33
330
2
100
AcDbSymbolTableRecord
100
AcDbLayerTableRecord
  2
A_ACHSEN
 70
     0
 62
     7
  6
Continuous
370
    -3
390
F
  0
LAYER
  5
34
330
2
100
AcDbSymbolTableRecord
100
AcDbLayerTableRecord
  2
A_FASEN
 70
     0
 62
     7
  6
Continuous
370
    -3
390
F
  0
LAYER
  5
35
330
2
100
AcDbSymbolTableRecord
100
AcDbLayerTableRecord
  2
A_RUNDUNGEN
 70
     0
 62
     7
  6
Continuous
370
    -3
390
F
  0
LAYER
  5
36
330
2
100
AcDbSymbolTableRecord
100
AcDbLayerTableRecord
  2
DEFAULT_1
 70
     0
 62
     7
  6
Continuous
370
    -3
390
F
  0
ENDTAB
  0
TABLE
  2
STYLE
  5
3
330
0
100
AcDbSymbolTable
 70
     2
  0
STYLE
  5
11
330
3
100
AcDbSymbolTableRecord
100
AcDbTextStyleTableRecord
  2
Standard
 70
     0
 40
0.0
 41
1.0
 50
0.0
 71
     0
 42
0.2
  3
txt
  4

  0
STYLE
  5
227
330
3
100
AcDbSymbolTableRecord
100
AcDbTextStyleTableRecord
  2
CONVERTER_11
 70
     0
 40
0.0
 41
0.9
 50
0.0
 71
     0
 42
0.2
  3
txt.shx
  4

  0
ENDTAB
  0
TABLE
  2
VIEW
  5
6
330
0
100
AcDbSymbolTable
 70
     0
  0
ENDTAB
  0
TABLE
  2
UCS
  5
7
330
0
100
AcDbSymbolTable
 70
     0
  0
ENDTAB
  0
TABLE
  2
APPID
  5
9
330
0
100
AcDbSymbolTable
 70
     1
  0
APPID
  5
12
330
9
100
AcDbSymbolTableRecord
100
AcDbRegAppTableRecord
  2
ACAD
 70
     0
  0
ENDTAB
  0
TABLE
  2
DIMSTYLE
  5
A
330
0
100
AcDbSymbolTable
 70
     5
100
AcDbDimStyleTable
  0
DIMSTYLE
105
27
330
A
100
AcDbSymbolTableRecord
100
AcDbDimStyleTableRecord
  2
Standard
 70
     0
340
11
  0
DIMSTYLE
105
232
102
{ACAD_REACTORS
330
233
102
}
330
A
100
AcDbSymbolTableRecord
100
AcDbDimStyleTableRecord
  2
ME10_DIM_10
 70
     0
 41
3.5
 42
0.0
 44
2.0
 73
     0
 74
     0
 77
     1
 78
     8
140
3.5
147
2.0
172
     1
173
     1
176
     2
177
     2
178
     2
271
     3
340
227
  0
DIMSTYLE
105
23D
102
{ACAD_REACTORS
330
23E
102
}
330
A
100
AcDbSymbolTableRecord
100
AcDbDimStyleTableRecord
  2
ME10_DIM_11
 70
     0
 41
3.5
 42
0.0
 44
2.0
 73
     0
 74
     0
 77
     1
 78
     8
140
3.5
147
2.0
172
     1
173
     1
176
     2
177
     2
178
     2
271
     1
340
227
  0
DIMSTYLE
105
248
102
{ACAD_REACTORS
330
249
102
}
330
A
100
AcDbSymbolTableRecord
100
AcDbDimStyleTableRecord
  2
ME10_DIM_12
 70
     0
 41
3.5
 42
0.0
 44
2.0
 73
     0
 74
     0
 77
     1
 78
     8
140
3.5
147
2.0
172
     1
173
     1
176
     2
177
     2
178
     2
271
     3
340
227
  0
DIMSTYLE
105
253
102
{ACAD_REACTORS
330
254
102
}
330
A
100
AcDbSymbolTableRecord
100
AcDbDimStyleTableRecord
  2
ME10_DIM_13
 70
     0
 41
3.5
 42
0.0
 44
2.0
 73
     0
 74
     0
 77
     1
 78
     8
140
3.5
147
2.0
172
     1
173
     1
176
     2
177
     2
178
     2
271
     2
340
227
  0
ENDTAB
  0
TABLE
  2
BLOCK_RECORD
  5
1
330
0
100
AcDbSymbolTable
 70
     5
  0
BLOCK_RECORD
  5
1F
330
1
100
AcDbSymbolTableRecord
100
AcDbBlockTableRecord
  2
*Model_Space
340
22
  0
BLOCK_RECORD
  5
1B
330
1
100
AcDbSymbolTableRecord
100
AcDbBlockTableRecord
  2
*Paper_Space
340
1E
  0
BLOCK_RECORD
  5
23
330
1
100
AcDbSymbolTableRecord
100
AcDbBlockTableRecord
  2
*Paper_Space0
340
26
  0
BLOCK_RECORD
  5
229
330
1
100
AcDbSymbolTableRecord
100
AcDbBlockTableRecord
  2
*D1
340
0
  0
BLOCK_RECORD
  5
234
330
1
100
AcDbSymbolTableRecord
100
AcDbBlockTableRecord
  2
*D2
340
0
  0
BLOCK_RECORD
  5
23F
330
1
100
AcDbSymbolTableRecord
100
AcDbBlockTableRecord
  2
*D3
340
0
  0
BLOCK_RECORD
  5
24A
330
1
100
AcDbSymbolTableRecord
100
AcDbBlockTableRecord
  2
*D4
340
0
  0
ENDTAB
  0
ENDSEC
  0
SECTION
  2
BLOCKS
  0
BLOCK
  5
20
330
1F
100
AcDbEntity
  8
0
100
AcDbBlockBegin
  2
*Model_Space
 70
     0
 71
     0
 10
0.0
 20
0.0
 30
0.0
  3
*Model_Space
  1

  0
ENDBLK
  5
21
330
1F
100
AcDbEntity
  8
0
100
AcDbBlockEnd
  0
BLOCK
  5
1C
330
1B
100
AcDbEntity
 67
     1
  8
0
100
AcDbBlockBegin
  2
*Paper_Space
 70
     0
 71
     0
 10
0.0
 20
0.0
 30
0.0
  3
*Paper_Space
  1

  0
ENDBLK
  5
1D
330
1B
100
AcDbEntity
 67
     1
  8
0
100
AcDbBlockEnd
  0
BLOCK
  5
24
330
23
100
AcDbEntity
  8
0
100
AcDbBlockBegin
  2
*Paper_Space0
 70
     0
 71
     0
 10
0.0
 20
0.0
 30
0.0
  3
*Paper_Space0
  1

  0
ENDBLK
  5
25
330
23
100
AcDbEntity
  8
0
100
AcDbBlockEnd
  0
BLOCK
  5
230
330
229
100
AcDbEntity
  8
0
100
AcDbBlockBegin
  2
*D1
 70
     1
 71
     0
 10
0.0
 20
0.0
 30
0.0
  3
*D1
  1

  0
LINE
  5
22A
330
229
100
AcDbEntity
  8
1
  6
Continuous
 62
     2
100
AcDbLine
 10
210.3857700362
 20
106.880560840865
 30
0.0
 11
239.2857319578
 21
106.880560840865
 31
0.0
  0
LINE
  5
22B
330
229
100
AcDbEntity
  8
1
  6
Continuous
 62
     2
100
AcDbLine
 10
210.3857700362
 20
131.5505638146
 30
0.0
 11
210.3857700362
 21
104.880560840865
 31
0.0
  0
LINE
  5
22C
330
229
100
AcDbEntity
  8
1
  6
Continuous
 62
     2
100
AcDbLine
 10
239.2857319578
 20
131.5505638145
 30
0.0
 11
239.2857319578
 21
104.880560840865
 31
0.0
  0
SOLID
  5
22D
330
229
100
AcDbEntity
  8
1
 62
     2
100
AcDbTrace
 10
213.8857700362
 20
107.3413445824209
 30
0.0
 11
213.8857700362
 21
106.4197770993091
 31
0.0
 12
210.3857700362
 22
106.880560840865
 32
0.0
 13
210.3857700362
 23
106.880560840865
 33
0.0
  0
SOLID
  5
22E
330
229
100
AcDbEntity
  8
1
 62
     2
100
AcDbTrace
 10
235.7857319578
 20
106.4197770993091
 30
0.0
 11
235.7857319578
 21
107.3413445824209
 31
0.0
 12
239.2857319578
 22
106.880560840865
 32
0.0
 13
239.2857319578
 23
106.880560840865
 33
0.0
  0
MTEXT
  5
22F
330
229
100
AcDbEntity
  8
1
 62
     2
100
AcDbMText
 10
222.210750997
 20
108.880560840865
 30
0.0
 40
3.5
 41
0.0
 71
     7
 72
     1
  1
29
  7
CONVERTER_11
 11
0.9999999999970621
 21
2.424068405545307E-6
 31
0.0
 73
     1
 44
0.60024009603842
  0
ENDBLK
  5
231
330
229
100
AcDbEntity
  8
0
100
AcDbBlockEnd
  0
BLOCK
  5
23B
330
234
100
AcDbEntity
  8
0
100
AcDbBlockBegin
  2
*D2
 70
     1
 71
     0
 10
0.0
 20
0.0
 30
0.0
  3
*D2
  1

  0
LINE
  5
235
330
234
100
AcDbEntity
  8
1
  6
Continuous
 62
     2
100
AcDbLine
 10
239.2857319578
 20
106.880560840865
 30
0.0
 11
255.6401630119
 21
106.880560840865
 31
0.0
  0
LINE
  5
236
330
234
100
AcDbEntity
  8
1
  6
Continuous
 62
     2
100
AcDbLine
 10
239.2857319578
 20
131.5505638145
 30
0.0
 11
239.2857319578
 21
104.880560840865
 31
0.0
  0
LINE
  5
237
330
234
100
AcDbEntity
  8
1
  6
Continuous
 62
     2
100
AcDbLine
 10
255.6401630119
 20
131.5005638145
 30
0.0
 11
255.6401630119
 21
104.880560840865
 31
0.0
  0
SOLID
  5
238
330
234
100
AcDbEntity
  8
1
 62
     2
100
AcDbTrace
 10
242.7857319578
 20
107.3413445824209
 30
0.0
 11
242.7857319578
 21
106.4197770993091
 31
0.0
 12
239.2857319578
 22
106.880560840865
 32
0.0
 13
239.2857319578
 23
106.880560840865
 33
0.0
  0
SOLID
  5
239
330
234
100
AcDbEntity
  8
1
 62
     2
100
AcDbTrace
 10
252.1401630119
 20
106.4197770993091
 30
0.0
 11
252.1401630119
 21
107.3413445824209
 31
0.0
 12
255.6401630119
 22
106.880560840865
 32
0.0
 13
255.6401630119
 23
106.880560840865
 33
0.0
  0
MTEXT
  5
23A
330
234
100
AcDbEntity
  8
1
 62
     2
100
AcDbMText
 10
242.8036218019136
 20
108.880560840865
 30
0.0
 40
3.5
 41
0.0
 71
     7
 72
     1
  1
16.4
  7
CONVERTER_11
 11
0.9999999999970621
 21
2.424068405545307E-6
 31
0.0
 73
     1
 44
0.60024009603842
  0
ENDBLK
  5
23C
330
234
100
AcDbEntity
  8
0
100
AcDbBlockEnd
  0
BLOCK
  5
246
330
23F
100
AcDbEntity
  8
0
100
AcDbBlockBegin
  2
*D3
 70
     1
 71
     0
 10
0.0
 20
0.0
 30
0.0
  3
*D3
  1

  0
LINE
  5
240
330
23F
100
AcDbEntity
  8
1
  6
Continuous
 62
     2
100
AcDbLine
 10
255.6401630119
 20
106.880560840865
 30
0.0
 11
284.5401630119
 21
106.880560840865
 31
0.0
  0
LINE
  5
241
330
23F
100
AcDbEntity
  8
1
  6
Continuous
 62
     2
100
AcDbLine
 10
255.6401630119
 20
131.5005638145
 30
0.0
 11
255.6401630119
 21
104.880560840865
 31
0.0
  0
LINE
  5
242
330
23F
100
AcDbEntity
  8
1
  6
Continuous
 62
     2
100
AcDbLine
 10
284.5401630119
 20
131.5005638145
 30
0.0
 11
284.5401630119
 21
104.880560840865
 31
0.0
  0
SOLID
  5
243
330
23F
100
AcDbEntity
  8
1
 62
     2
100
AcDbTrace
 10
259.1401630119
 20
107.3413445824209
 30
0.0
 11
259.1401630119
 21
106.4197770993091
 31
0.0
 12
255.6401630119
 22
106.880560840865
 32
0.0
 13
255.6401630119
 23
106.880560840865
 33
0.0
  0
SOLID
  5
244
330
23F
100
AcDbEntity
  8
1
 62
     2
100
AcDbTrace
 10
281.0401630119
 20
106.4197770993091
 30
0.0
 11
281.0401630119
 21
107.3413445824209
 31
0.0
 12
284.5401630119
 22
106.880560840865
 32
0.0
 13
284.5401630119
 23
106.880560840865
 33
0.0
  0
MTEXT
  5
245
330
23F
100
AcDbEntity
  8
1
 62
     2
100
AcDbMText
 10
269.0701013280591
 20
108.880560840865
 30
0.0
 40
3.5
 41
0.0
 71
     7
 72
     1
  1
29
  7
CONVERTER_11
 11
0.9999999999970621
 21
2.424068405545307E-6
 31
0.0
 73
     1
 44
0.60024009603842
  0
ENDBLK
  5
247
330
23F
100
AcDbEntity
  8
0
100
AcDbBlockEnd
  0
BLOCK
  5
251
330
24A
100
AcDbEntity
  8
0
100
AcDbBlockBegin
  2
*D4
 70
     1
 71
     0
 10
0.0
 20
0.0
 30
0.0
  3
*D4
  1

  0
LINE
  5
24B
330
24A
100
AcDbEntity
  8
1
  6
Continuous
 62
     2
100
AcDbLine
 10
295.209420596627
 20
228.5005638145
 30
0.0
 11
295.209420596627
 21
117.0506503199493
 31
0.0
  0
LINE
  5
24C
330
24A
100
AcDbEntity
  8
1
  6
Continuous
 62
     2
100
AcDbLine
 10
270.1401630119
 20
228.5005638145
 30
0.0
 11
297.209420596627
 21
228.5005638145
 31
0.0
  0
LINE
  5
24D
330
24A
100
AcDbEntity
  8
1
  6
Continuous
 62
     2
100
AcDbLine
 10
270.1401630119
 20
117.0506503199493
 30
0.0
 11
297.209420596627
 21
117.0506503199493
 31
0.0
  0
SOLID
  5
24E
330
24A
100
AcDbEntity
  8
1
 62
     2
100
AcDbTrace
 10
295.6702043381829
 20
225.0005638145
 30
0.0
 11
294.7486368550711
 21
225.0005638145
 31
0.0
 12
295.209420596627
 22
228.5005638145
 32
0.0
 13
295.209420596627
 23
228.5005638145
 33
0.0
  0
SOLID
  5
24F
330
24A
100
AcDbEntity
  8
1
 62
     2
100
AcDbTrace
 10
294.7486368550711
 20
120.5506503199493
 30
0.0
 11
295.6702043381829
 21
120.5506503199493
 31
0.0
 12
295.209420596627
 22
117.0506503199493
 32
0.0
 13
295.209420596627
 23
117.0506503199493
 33
0.0
  0
MTEXT
  5
250
330
24A
100
AcDbEntity
  8
1
 62
     2
100
AcDbMText
 10
293.209420596627
 20
166.80888231054
 30
0.0
 40
3.5
 41
0.0
 71
     7
 72
     1
  1
111.5
  7
CONVERTER_11
 11
0.0
 21
1.0
 31
0.0
 73
     1
 44
0.60024009603842
  0
ENDBLK
  5
252
330
24A
100
AcDbEntity
  8
0
100
AcDbBlockEnd
  0
ENDSEC
  0
SECTION
  2
ENTITIES
  0
POINT
  5
37
330
1F
100
AcDbEntity
  8
1
 62
     3
 60
     1
100
AcDbPoint
 10
270.1401630119
 20
206.5504638145
 30
0.0
  0
POINT
  5
38
330
1F
100
AcDbEntity
  8
1
 62
     3
 60
     1
100
AcDbPoint
 10
270.1401630119
 20
205.5504638145
 30
0.0
  0
POINT
  5
39
330
1F
100
AcDbEntity
  8
1
 62
     3
 60
     1
100
AcDbPoint
 10
270.1401630119
 20
214.5506638145
 30
0.0
  0
POINT
  5
3A
330
1F
100
AcDbEntity
  8
1
 62
     3
 60
     1
100
AcDbPoint
 10
270.1401630119
 20
215.5506638145
 30
0.0
  0
POINT
  5
3B
330
1F
100
AcDbEntity
  8
1
 62
     3
 60
     1
100
AcDbPoint
 10
275.2401630119
 20
212.0644717861
 30
0.0
  0
POINT
  5
3C
330
1F
100
AcDbEntity
  8
1
 62
     3
 60
     1
100
AcDbPoint
 10
275.2401630119
 20
211.0644717861
 30
0.0
  0
POINT
  5
3D
330
1F
100
AcDbEntity
  8
1
 62
     3
 60
     1
100
AcDbPoint
 10
265.0401630119
 20
212.0513386272
 30
0.0
  0
POINT
  5
3E
330
1F
100
AcDbEntity
  8
1
 62
     3
 60
     1
100
AcDbPoint
 10
265.0401630119
 20
211.0513386272
 30
0.0
  0
POINT
  5
3F
330
1F
100
AcDbEntity
  8
1
 62
     3
 60
     1
100
AcDbPoint
 10
265.0401630119
 20
224.8678806654
 30
0.0
  0
POINT
  5
40
330
1F
100
AcDbEntity
  8
1
 62
     3
 60
     1
100
AcDbPoint
 10
265.0401630119
 20
225.8678806654
 30
0.0
  0
POINT
  5
41
330
1F
100
AcDbEntity
  8
1
 62
     3
 60
     1
100
AcDbPoint
 10
275.2401630119
 20
224.8547475066
 30
0.0
  0
POINT
  5
42
330
1F
100
AcDbEntity
  8
1
 62
     3
 60
     1
100
AcDbPoint
 10
275.2401630119
 20
225.8547475066
 30
0.0
  0
POINT
  5
43
330
1F
100
AcDbEntity
  8
1
 62
     3
 60
     1
100
AcDbPoint
 10
275.2401630119
 20
133.5912283439
 30
0.0
  0
POINT
  5
44
330
1F
100
AcDbEntity
  8
1
 62
     3
 60
     1
100
AcDbPoint
 10
275.2401630119
 20
134.5912283439
 30
0.0
  0
POINT
  5
45
330
1F
100
AcDbEntity
  8
1
 62
     3
 60
     1
100
AcDbPoint
 10
265.0401630119
 20
133.6043615028
 30
0.0
  0
POINT
  5
46
330
1F
100
AcDbEntity
  8
1
 62
     3
 60
     1
100
AcDbPoint
 10
265.0401630119
 20
134.6043615028
 30
0.0
  0
POINT
  5
47
330
1F
100
AcDbEntity
  8
1
 62
     3
 60
     1
100
AcDbPoint
 10
265.0401630119
 20
120.5695294608
 30
0.0
  0
POINT
  5
48
330
1F
100
AcDbEntity
  8
1
 62
     3
 60
     1
100
AcDbPoint
 10
265.0401630119
 20
119.5695294608
 30
0.0
  0
POINT
  5
49
330
1F
100
AcDbEntity
  8
1
 62
     3
 60
     1
100
AcDbPoint
 10
275.2401630119
 20
120.4371359506
 30
0.0
  0
POINT
  5
4A
330
1F
100
AcDbEntity
  8
1
 62
     3
 60
     1
100
AcDbPoint
 10
275.2401630119
 20
119.4371359506
 30
0.0
  0
POINT
  5
4B
330
1F
100
AcDbEntity
  8
1
 62
     3
 60
     1
100
AcDbPoint
 10
280.7939106126
 20
128.0505638145
 30
0.0
  0
POINT
  5
4C
330
1F
100
AcDbEntity
  8
1
 62
     3
 60
     1
100
AcDbPoint
 10
281.7939106126
 20
128.0505638145
 30
0.0
  0
POINT
  5
4D
330
1F
100
AcDbEntity
  8
1
 62
     3
 60
     1
100
AcDbPoint
 10
280.8535908759
 20
126.0505638145
 30
0.0
  0
POINT
  5
4E
330
1F
100
AcDbEntity
  8
1
 62
     3
 60
     1
100
AcDbPoint
 10
281.8535908759
 20
126.0505638145
 30
0.0
  0
POINT
  5
4F
330
1F
100
AcDbEntity
  8
1
 62
     3
 60
     1
100
AcDbPoint
 10
259.4864154112
 20
128.0505638145
 30
0.0
  0
POINT
  5
50
330
1F
100
AcDbEntity
  8
1
 62
     3
 60
     1
100
AcDbPoint
 10
258.4864154112
 20
128.0505638145
 30
0.0
  0
POINT
  5
51
330
1F
100
AcDbEntity
  8
1
 62
     3
 60
     1
100
AcDbPoint
 10
259.5591286582
 20
126.0505638145
 30
0.0
  0
POINT
  5
52
330
1F
100
AcDbEntity
  8
1
 62
     3
 60
     1
100
AcDbPoint
 10
258.5591286582
 20
126.0505638145
 30
0.0
  0
POINT
  5
53
330
1F
100
AcDbEntity
  8
1
 62
     3
 60
     1
100
AcDbPoint
 10
255.7401630119
 20
196.3000800468
 30
0.0
  0
POINT
  5
54
330
1F
100
AcDbEntity
  8
1
 62
     3
 60
     1
100
AcDbPoint
 10
280.5443467039
 20
219.5505638145
 30
0.0
  0
POINT
  5
55
330
1F
100
AcDbEntity
  8
1
 62
     3
 60
     1
100
AcDbPoint
 10
281.5443467039
 20
219.5505638145
 30
0.0
  0
POINT
  5
56
330
1F
100
AcDbEntity
  8
1
 62
     3
 60
     1
100
AcDbPoint
 10
280.7262550404
 20
217.5505638145
 30
0.0
  0
POINT
  5
57
330
1F
100
AcDbEntity
  8
1
 62
     3
 60
     1
100
AcDbPoint
 10
281.7262550404
 20
217.5505638145
 30
0.0
  0
POINT
  5
58
330
1F
100
AcDbEntity
  8
1
 62
     3
 60
     1
100
AcDbPoint
 10
259.5409378246
 20
217.5505638145
 30
0.0
  0
POINT
  5
59
330
1F
100
AcDbEntity
  8
1
 62
     3
 60
     1
100
AcDbPoint
 10
258.5409378246
 20
217.5505638145
 30
0.0
  0
POINT
  5
5A
330
1F
100
AcDbEntity
  8
1
 62
     3
 60
     1
100
AcDbPoint
 10
259.722846161
 20
219.5505638145
 30
0.0
  0
POINT
  5
5B
330
1F
100
AcDbEntity
  8
1
 62
     3
 60
     1
100
AcDbPoint
 10
258.722846161
 20
219.5505638145
 30
0.0
  0
POINT
  5
5C
330
1F
100
AcDbEntity
  8
1
 62
     3
 60
     1
100
AcDbPoint
 10
234.335750997
 20
197.7183008081001
 30
0.0
  0
POINT
  5
5D
330
1F
100
AcDbEntity
  8
1
 62
     3
 60
     1
100
AcDbPoint
 10
225.3772405097001
 20
197.7183008081001
 30
0.0
  0
POINT
  5
5E
330
1F
100
AcDbEntity
  8
1
 62
     3
 60
     1
100
AcDbPoint
 10
260.7901630119001
 20
197.7183008081001
 30
0.0
  0
POINT
  5
5F
330
1F
100
AcDbEntity
  8
1
 62
     3
 60
     1
100
AcDbPoint
 10
270.5889569162999
 20
197.7183008081001
 30
0.0
  0
POINT
  5
60
330
1F
100
AcDbEntity
  8
1
 62
     3
 60
     1
100
AcDbPoint
 10
234.335750997
 20
148.4005638145
 30
0.0
  0
POINT
  5
61
330
1F
100
AcDbEntity
  8
1
 62
     3
 60
     1
100
AcDbPoint
 10
270.5889569162999
 20
148.4005638145
 30
0.0
  0
POINT
  5
62
330
1F
100
AcDbEntity
  8
1
 62
     3
 60
     1
100
AcDbPoint
 10
225.3772405097001
 20
148.4005638145
 30
0.0
  0
LINE
  5
63
330
1F
100
AcDbEntity
  8
A_RUNDUNGEN
  6
Continuous
 62
     7
100
AcDbLine
 10
256.3218117644
 20
149.3885409063
 30
0.0
 11
256.3197676658
 21
149.3964163946
 31
0.0
  0
LINE
  5
64
330
1F
100
AcDbEntity
  8
0
  6
Continuous
 62
     7
100
AcDbLine
 10
210.3857700362
 20
149.2005638145
 30
0.0
 11
210.3857700362
 21
131.5505638146
 31
0.0
  0
LINE
  5
65
330
1F
100
AcDbEntity
  8
0
  6
Continuous
 62
     7
100
AcDbLine
 10
239.2857319578
 20
149.2005638145
 30
0.0
 11
210.3857700362
 21
149.2005638145
 31
0.0
  0
LINE
  5
66
330
1F
100
AcDbEntity
  8
A_FASEN
  6
DASHED
 62
     2
100
AcDbLine
 10
270.1401630119
 20
130.2492253193
 30
0.0
 11
270.1401630209
 21
128.0505639385
 31
0.0
  0
LINE
  5
67
330
1F
100
AcDbEntity
  8
A_FASEN
  6
DASHED
 62
     2
100
AcDbLine
 10
270.1401630119
 20
126.0505638206
 30
0.0
 11
270.1401630119
 21
123.8519023098
 31
0.0
  0
LINE
  5
68
330
1F
100
AcDbEntity
  8
A_FASEN
  6
DASHED
 62
     2
100
AcDbLine
 10
270.1401630119
 20
215.3519023098
 30
0.0
 11
270.1401630177
 21
217.5505638949
 31
0.0
  0
LINE
  5
69
330
1F
100
AcDbEntity
  8
A_FASEN
  6
DASHED
 62
     2
100
AcDbLine
 10
270.1401629812
 20
219.5505642573
 30
0.0
 11
270.1401630119
 21
221.7492253193
 31
0.0
  0
LINE
  5
6A
330
1F
100
AcDbEntity
  8
0
  6
Continuous
 62
     7
100
AcDbLine
 10
281.9901630119
 20
155.0005638145
 30
0.0
 11
281.9464905953
 21
149.9962005468
 31
0.0
  0
LINE
  5
6B
330
1F
100
AcDbEntity
  8
0
  6
Continuous
 62
     7
100
AcDbLine
 10
283.1427673219
 20
149.9479526507
 30
0.0
 11
283.1427673219
 21
195.6531749784
 31
0.0
  0
LINE
  5
6C
330
1F
100
AcDbEntity
  8
A_FASEN
  6
DASHED
 62
     2
100
AcDbLine
 10
280.7939106126
 20
128.0505638145
 30
0.0
 11
280.7939106126
 21
126.0505638145
 31
0.0
  0
LINE
  5
6D
330
1F
100
AcDbEntity
  8
A_FASEN
  6
DASHED
 62
     2
100
AcDbLine
 10
280.7939106126
 20
219.5505638145
 30
0.0
 11
280.7939106126
 21
217.5505638145
 31
0.0
  0
LINE
  5
6E
330
1F
100
AcDbEntity
  8
A_FASEN
  6
DASHED
 62
     2
100
AcDbLine
 10
277.8200902191
 20
128.0505638145
 30
0.0
 11
277.8200902191
 21
126.0505638145
 31
0.0
  0
LINE
  5
6F
330
1F
100
AcDbEntity
  8
A_FASEN
  6
DASHED
 62
     2
100
AcDbLine
 10
277.8200902191
 20
219.5505638145
 30
0.0
 11
277.8200902191
 21
217.5505638145
 31
0.0
  0
LINE
  5
70
330
1F
100
AcDbEntity
  8
0
  6
Continuous
 62
     7
100
AcDbLine
 10
281.9464905953
 20
195.6049270823
 30
0.0
 11
281.9901630119
 21
190.6005638145
 31
0.0
  0
LINE
  5
71
330
1F
100
AcDbEntity
  8
A_ACHSEN
  6
DOT_CENTER
 62
     2
100
AcDbLine
 10
275.2401630119
 20
122.5098992851
 30
0.0
 11
275.2401630119
 21
120.4371359506
 31
0.0
  0
LINE
  5
72
330
1F
100
AcDbEntity
  8
A_ACHSEN
  6
DOT_CENTER
 62
     2
100
AcDbLine
 10
275.2401630119
 20
126.0505638145
 30
0.0
 11
275.2401630119
 21
122.5098992851
 31
0.0
  0
LINE
  5
73
330
1F
100
AcDbEntity
  8
A_ACHSEN
  6
DOT_CENTER
 62
     2
100
AcDbLine
 10
275.2401630119
 20
214.2463801225
 30
0.0
 11
275.2401630119
 21
212.0644717861
 31
0.0
  0
LINE
  5
74
330
1F
100
AcDbEntity
  8
A_ACHSEN
  6
DOT_CENTER
 62
     2
100
AcDbLine
 10
275.2401630119
 20
217.5505638145
 30
0.0
 11
275.2401630119
 21
214.2463801225
 31
0.0
  0
LINE
  5
75
330
1F
100
AcDbEntity
  8
A_ACHSEN
  6
DOT_CENTER
 62
     2
100
AcDbLine
 10
275.2401630119
 20
223.036655843
 30
0.0
 11
275.2401630119
 21
224.8547475066
 31
0.0
  0
LINE
  5
76
330
1F
100
AcDbEntity
  8
A_ACHSEN
  6
DOT_CENTER
 62
     2
100
AcDbLine
 10
275.2401630119
 20
222.5506638145
 30
0.0
 11
275.2401630119
 21
223.036655843
 31
0.0
  0
LINE
  5
77
330
1F
100
AcDbEntity
  8
A_ACHSEN
  6
DOT_CENTER
 62
     2
100
AcDbLine
 10
275.2401630119
 20
217.5505638145
 30
0.0
 11
275.2401630119
 21
219.5505638145
 31
0.0
  0
LINE
  5
78
330
1F
100
AcDbEntity
  8
A_ACHSEN
  6
DOT_CENTER
 62
     2
100
AcDbLine
 10
275.2401630119
 20
219.5505638145
 30
0.0
 11
275.2401630119
 21
222.5506638145
 31
0.0
  0
LINE
  5
79
330
1F
100
AcDbEntity
  8
A_ACHSEN
  6
DOT_CENTER
 62
     2
100
AcDbLine
 10
275.2401630119
 20
131.6639916785
 30
0.0
 11
275.2401630119
 21
133.5912283439
 31
0.0
  0
LINE
  5
7A
330
1F
100
AcDbEntity
  8
A_ACHSEN
  6
DOT_CENTER
 62
     2
100
AcDbLine
 10
275.2401630119
 20
131.0506638145
 30
0.0
 11
275.2401630119
 21
131.6639916785
 31
0.0
  0
LINE
  5
7B
330
1F
100
AcDbEntity
  8
A_ACHSEN
  6
DOT_CENTER
 62
     2
100
AcDbLine
 10
275.2401630119
 20
129.0506638145
 30
0.0
 11
275.2401630119
 21
131.0506638145
 31
0.0
  0
LINE
  5
7C
330
1F
100
AcDbEntity
  8
A_ACHSEN
  6
DOT_CENTER
 62
     2
100
AcDbLine
 10
275.2401630119
 20
126.0505638145
 30
0.0
 11
275.2401630119
 21
129.0506638145
 31
0.0
  0
LINE
  5
7D
330
1F
100
AcDbEntity
  8
0
  6
Continuous
 62
     7
100
AcDbLine
 10
274.5889569163
 20
189.3005638145
 30
0.0
 11
274.5889569163
 21
156.3005638145
 31
0.0
  0
LINE
  5
7E
330
1F
100
AcDbEntity
  8
A_ACHSEN
  6
Continuous
 62
     7
100
AcDbLine
 10
274.1577265551
 20
190.6005638145
 30
0.0
 11
274.1577265551
 21
189.3005638145
 31
0.0
  0
LINE
  5
7F
330
1F
100
AcDbEntity
  8
A_ACHSEN
  6
Continuous
 62
     7
100
AcDbLine
 10
274.1577265551
 20
155.0005638145
 30
0.0
 11
274.1577265551
 21
156.3005638145
 31
0.0
  0
LINE
  5
80
330
1F
100
AcDbEntity
  8
A_FASEN
  6
DASHED
 62
     2
100
AcDbLine
 10
272.6602358047
 20
217.5505638145
 30
0.0
 11
272.6602358047
 21
219.5505638145
 31
0.0
  0
LINE
  5
81
330
1F
100
AcDbEntity
  8
A_FASEN
  6
DASHED
 62
     2
100
AcDbLine
 10
272.6602358047
 20
126.0505638145
 30
0.0
 11
272.6602358047
 21
128.0505638145
 31
0.0
  0
LINE
  5
82
330
1F
100
AcDbEntity
  8
A_ACHSEN
  6
DOT_CENTER
 62
     2
100
AcDbLine
 10
270.1401630119
 20
133.0504638145
 30
0.0
 11
270.1401630119
 21
131.0504638145
 31
0.0
  0
LINE
  5
83
330
1F
100
AcDbEntity
  8
A_ACHSEN
  6
DOT_CENTER
 62
     2
100
AcDbLine
 10
270.1401630119
 20
134.0505638145
 30
0.0
 11
270.1401630119
 21
133.0504638145
 31
0.0
  0
LINE
  5
84
330
1F
100
AcDbEntity
  8
A_ACHSEN
  6
DOT_CENTER
 62
     2
100
AcDbLine
 10
270.1401630119
 20
208.5504638145
 30
0.0
 11
270.1401630119
 21
206.5504638145
 31
0.0
  0
LINE
  5
85
330
1F
100
AcDbEntity
  8
A_ACHSEN
  6
DOT_CENTER
 62
     2
100
AcDbLine
 10
270.1401630119
 20
209.5505638145
 30
0.0
 11
270.1401630119
 21
208.5504638145
 31
0.0
  0
LINE
  5
86
330
1F
100
AcDbEntity
  8
A_FASEN
  6
DASHED
 62
     2
100
AcDbLine
 10
270.1401630119
 20
219.5505642573
 30
0.0
 11
270.1401630119
 21
217.5505638949
 31
0.0
  0
LINE
  5
87
330
1F
100
AcDbEntity
  8
A_ACHSEN
  6
DOT_CENTER
 62
     2
100
AcDbLine
 10
270.1401630119
 20
212.5506638145
 30
0.0
 11
270.1401630119
 21
214.5506638145
 31
0.0
  0
LINE
  5
88
330
1F
100
AcDbEntity
  8
A_ACHSEN
  6
DOT_CENTER
 62
     2
100
AcDbLine
 10
270.1401630119
 20
209.5505638145
 30
0.0
 11
270.1401630119
 21
212.5506638145
 31
0.0
  0
LINE
  5
89
330
1F
100
AcDbEntity
  8
A_ACHSEN
  6
DOT_CENTER
 62
     2
100
AcDbLine
 10
270.1401630119
 20
137.0506638145
 30
0.0
 11
270.1401630119
 21
139.0506638145
 31
0.0
  0
LINE
  5
8A
330
1F
100
AcDbEntity
  8
A_ACHSEN
  6
DOT_CENTER
 62
     2
100
AcDbLine
 10
270.1401630119
 20
134.0505638145
 30
0.0
 11
270.1401630119
 21
137.0506638145
 31
0.0
  0
LINE
  5
8B
330
1F
100
AcDbEntity
  8
A_FASEN
  6
DASHED
 62
     2
100
AcDbLine
 10
270.1401630119
 20
126.0505638206
 30
0.0
 11
270.1401630119
 21
128.0505639385
 31
0.0
  0
LINE
  5
8C
330
1F
100
AcDbEntity
  8
A_FASEN
  6
DASHED
 62
     2
100
AcDbLine
 10
267.6200902191
 20
128.0505638145
 30
0.0
 11
267.6200902191
 21
126.0505638145
 31
0.0
  0
LINE
  5
8D
330
1F
100
AcDbEntity
  8
A_FASEN
  6
DASHED
 62
     2
100
AcDbLine
 10
267.6200902191
 20
219.5505638145
 30
0.0
 11
267.6200902191
 21
217.5505638145
 31
0.0
  0
LINE
  5
8E
330
1F
100
AcDbEntity
  8
A_ACHSEN
  6
Continuous
 62
     7
100
AcDbLine
 10
265.9323567488
 20
190.6005638145
 30
0.0
 11
265.9323567488
 21
189.3005638145
 31
0.0
  0
LINE
  5
8F
330
1F
100
AcDbEntity
  8
A_ACHSEN
  6
Continuous
 62
     7
100
AcDbLine
 10
265.9323567488
 20
155.0005638145
 30
0.0
 11
265.9323567488
 21
156.3005638145
 31
0.0
  0
LINE
  5
90
330
1F
100
AcDbEntity
  8
A_ACHSEN
  6
DOT_CENTER
 62
     2
100
AcDbLine
 10
265.0401630119
 20
122.4967661263
 30
0.0
 11
265.0401630119
 21
120.5695294608
 31
0.0
  0
LINE
  5
91
330
1F
100
AcDbEntity
  8
A_ACHSEN
  6
DOT_CENTER
 62
     2
100
AcDbLine
 10
265.0401630119
 20
126.0505638145
 30
0.0
 11
265.0401630119
 21
122.4967661263
 31
0.0
  0
LINE
  5
92
330
1F
100
AcDbEntity
  8
A_ACHSEN
  6
DOT_CENTER
 62
     2
100
AcDbLine
 10
265.0401630119
 20
214.2332469637
 30
0.0
 11
265.0401630119
 21
212.0513386272
 31
0.0
  0
LINE
  5
93
330
1F
100
AcDbEntity
  8
A_ACHSEN
  6
DOT_CENTER
 62
     2
100
AcDbLine
 10
265.0401630119
 20
217.5505638145
 30
0.0
 11
265.0401630119
 21
214.2332469637
 31
0.0
  0
LINE
  5
94
330
1F
100
AcDbEntity
  8
A_ACHSEN
  6
DOT_CENTER
 62
     2
100
AcDbLine
 10
265.0401630119
 20
223.0497890019
 30
0.0
 11
265.0401630119
 21
224.8678806654
 31
0.0
  0
LINE
  5
95
330
1F
100
AcDbEntity
  8
A_ACHSEN
  6
DOT_CENTER
 62
     2
100
AcDbLine
 10
265.0401630119
 20
222.5506638145
 30
0.0
 11
265.0401630119
 21
223.0497890019
 31
0.0
  0
LINE
  5
96
330
1F
100
AcDbEntity
  8
A_ACHSEN
  6
DOT_CENTER
 62
     2
100
AcDbLine
 10
265.0401630119
 20
220.5506638145
 30
0.0
 11
265.0401630119
 21
222.5506638145
 31
0.0
  0
LINE
  5
97
330
1F
100
AcDbEntity
  8
A_ACHSEN
  6
DOT_CENTER
 62
     2
100
AcDbLine
 10
265.0401630119
 20
217.5505638145
 30
0.0
 11
265.0401630119
 21
220.5506638145
 31
0.0
  0
LINE
  5
98
330
1F
100
AcDbEntity
  8
A_ACHSEN
  6
DOT_CENTER
 62
     2
100
AcDbLine
 10
265.0401630119
 20
131.5315981682001
 30
0.0
 11
265.0401630119
 21
133.6043615028
 31
0.0
  0
LINE
  5
99
330
1F
100
AcDbEntity
  8
A_ACHSEN
  6
CENTER
 62
     2
100
AcDbLine
 10
265.0401630119
 20
131.0506638145
 30
0.0
 11
265.0401630119
 21
131.5315981682001
 31
0.0
  0
LINE
  5
9A
330
1F
100
AcDbEntity
  8
A_ACHSEN
  6
DOT_CENTER
 62
     2
100
AcDbLine
 10
265.0401630119
 20
129.0506638145
 30
0.0
 11
265.0401630119
 21
131.0506638145
 31
0.0
  0
LINE
  5
9B
330
1F
100
AcDbEntity
  8
A_ACHSEN
  6
DOT_CENTER
 62
     2
100
AcDbLine
 10
265.0401630119
 20
126.0505638145
 30
0.0
 11
265.0401630119
 21
129.0506638145
 31
0.0
  0
LINE
  5
9C
330
1F
100
AcDbEntity
  8
A_ACHSEN
  6
Continuous
 62
     7
100
AcDbLine
 10
264.7901630119
 20
190.5505638145
 30
0.0
 11
264.7901630119
 21
189.3005638145
 31
0.0
  0
LINE
  5
9D
330
1F
100
AcDbEntity
  8
A_ACHSEN
  6
Continuous
 62
     7
100
AcDbLine
 10
264.7901630119
 20
155.0505638145
 30
0.0
 11
264.7901630119
 21
156.3005638145
 31
0.0
  0
LINE
  5
9E
330
1F
100
AcDbEntity
  8
0
  6
Continuous
 62
     7
100
AcDbLine
 10
262.7651630119
 20
190.5505638145
 30
0.0
 11
262.7651630119
 21
190.6005638145
 31
0.0
  0
LINE
  5
9F
330
1F
100
AcDbEntity
  8
0
  6
Continuous
 62
     7
100
AcDbLine
 10
262.7651630119
 20
155.0005638145
 30
0.0
 11
262.7651630119
 21
155.0505638145
 31
0.0
  0
LINE
  5
A0
330
1F
100
AcDbEntity
  8
A_FASEN
  6
DASHED
 62
     2
100
AcDbLine
 10
262.4602358047
 20
217.5505638145
 30
0.0
 11
262.4602358047
 21
219.5505638145
 31
0.0
  0
LINE
  5
A1
330
1F
100
AcDbEntity
  8
A_FASEN
  6
DASHED
 62
     2
100
AcDbLine
 10
262.4602358047
 20
126.0505638145
 30
0.0
 11
262.4602358047
 21
128.0505638145
 31
0.0
  0
LINE
  5
A2
330
1F
100
AcDbEntity
  8
A_RUNDUNGEN
  6
Continuous
 62
     7
100
AcDbLine
 10
262.216080334
 20
189.3005638145
 30
0.0
 11
262.216080334
 21
181.0505638145
 31
0.0
  0
LINE
  5
A3
330
1F
100
AcDbEntity
  8
A_RUNDUNGEN
  6
Continuous
 62
     7
100
AcDbLine
 10
262.216080334
 20
156.3005638145
 30
0.0
 11
262.216080334
 21
164.5505638145
 31
0.0
  0
LINE
  5
A4
330
1F
100
AcDbEntity
  8
A_FASEN
  6
DASHED
 62
     2
100
AcDbLine
 10
259.4864154112
 20
217.5505638145
 30
0.0
 11
259.4864154112
 21
219.5505638145
 31
0.0
  0
LINE
  5
A5
330
1F
100
AcDbEntity
  8
A_FASEN
  6
DASHED
 62
     2
100
AcDbLine
 10
259.4864154112
 20
126.0505638145
 30
0.0
 11
259.4864154112
 21
128.0505638145
 31
0.0
  0
LINE
  5
A6
330
1F
100
AcDbEntity
  8
0
  6
Continuous
 62
     7
100
AcDbLine
 10
258.8151630119
 20
190.5505638145
 30
0.0
 11
258.8151630119
 21
190.6005638145
 31
0.0
  0
LINE
  5
A7
330
1F
100
AcDbEntity
  8
0
  6
Continuous
 62
     7
100
AcDbLine
 10
258.8151630119
 20
181.2005638145
 30
0.0
 11
258.8151630119
 21
181.3005638145
 31
0.0
  0
LINE
  5
A8
330
1F
100
AcDbEntity
  8
0
  6
Continuous
 62
     7
100
AcDbLine
 10
258.8151630119
 20
164.3005638145
 30
0.0
 11
258.8151630119
 21
164.4005638145
 31
0.0
  0
LINE
  5
A9
330
1F
100
AcDbEntity
  8
0
  6
Continuous
 62
     7
100
AcDbLine
 10
258.8151630119
 20
155.0005638145
 30
0.0
 11
258.8151630119
 21
155.0505638145
 31
0.0
  0
LINE
  5
AA
330
1F
100
AcDbEntity
  8
0
  6
Continuous
 62
     7
100
AcDbLine
 10
256.7901630119
 20
190.6005638145
 30
0.0
 11
256.8338354285
 21
195.6049270823
 31
0.0
  0
LINE
  5
AB
330
1F
100
AcDbEntity
  8
0
  6
Continuous
 62
     7
100
AcDbLine
 10
257.7901630119
 20
165.5505638145
 30
0.0
 11
257.7901630119
 21
164.4005638145
 31
0.0
  0
LINE
  5
AC
330
1F
100
AcDbEntity
  8
0
  6
Continuous
 62
     7
100
AcDbLine
 10
257.7901630119
 20
181.2005638145
 30
0.0
 11
257.7901630119
 21
180.0505638145
 31
0.0
  0
LINE
  5
AD
330
1F
100
AcDbEntity
  8
0
  6
Continuous
 62
     7
100
AcDbLine
 10
257.137558702
 20
155.0505638145
 30
0.0
 11
257.137558702
 21
155.0005638145
 31
0.0
  0
LINE
  5
AE
330
1F
100
AcDbEntity
  8
0
  6
Continuous
 62
     7
100
AcDbLine
 10
257.137558702
 20
165.5505638145
 30
0.0
 11
257.137558702
 21
164.3005638145
 31
0.0
  0
LINE
  5
AF
330
1F
100
AcDbEntity
  8
0
  6
Continuous
 62
     7
100
AcDbLine
 10
257.137558702
 20
181.3005638145
 30
0.0
 11
257.137558702
 21
180.0505638145
 31
0.0
  0
LINE
  5
B0
330
1F
100
AcDbEntity
  8
0
  6
Continuous
 62
     7
100
AcDbLine
 10
257.137558702
 20
190.6005638145
 30
0.0
 11
257.137558702
 21
190.5505638145
 31
0.0
  0
LINE
  5
B1
330
1F
100
AcDbEntity
  8
0
  6
Continuous
 62
     7
100
AcDbLine
 10
257.036482653
 20
155.0505638145
 30
0.0
 11
257.036482653
 21
155.0005638145
 31
0.0
  0
LINE
  5
B2
330
1F
100
AcDbEntity
  8
0
  6
Continuous
 62
     7
100
AcDbLine
 10
257.036482653
 20
165.5505638145
 30
0.0
 11
257.036482653
 21
164.3005638145
 31
0.0
  0
LINE
  5
B3
330
1F
100
AcDbEntity
  8
0
  6
Continuous
 62
     7
100
AcDbLine
 10
257.036482653
 20
181.3005638145
 30
0.0
 11
257.036482653
 21
180.0505638145
 31
0.0
  0
LINE
  5
B4
330
1F
100
AcDbEntity
  8
0
  6
Continuous
 62
     7
100
AcDbLine
 10
257.036482653
 20
190.6005638145
 30
0.0
 11
257.036482653
 21
190.5505638145
 31
0.0
  0
LINE
  5
B5
330
1F
100
AcDbEntity
  8
A_ACHSEN
  6
Continuous
 62
     7
100
AcDbLine
 10
256.7901630119
 20
190.5505638145
 30
0.0
 11
256.7901630119
 21
189.3005638145
 31
0.0
  0
LINE
  5
B6
330
1F
100
AcDbEntity
  8
A_ACHSEN
  6
Continuous
 62
     7
100
AcDbLine
 10
256.7901630119
 20
155.0505638145
 30
0.0
 11
256.7901630119
 21
156.3005638145
 31
0.0
  0
LINE
  5
B7
330
1F
100
AcDbEntity
  8
0
  6
Continuous
 62
     7
100
AcDbLine
 10
255.770886539
 20
156.3005638145
 30
0.0
 11
255.770886539
 21
153.3005638145
 31
0.0
  0
LINE
  5
B8
330
1F
100
AcDbEntity
  8
0
  6
Continuous
 62
     7
100
AcDbLine
 10
255.770886539
 20
165.5505638145
 30
0.0
 11
255.770886539
 21
164.3005638145
 31
0.0
  0
LINE
  5
B9
330
1F
100
AcDbEntity
  8
0
  6
Continuous
 62
     7
100
AcDbLine
 10
255.770886539
 20
181.3005638145
 30
0.0
 11
255.770886539
 21
180.0505638145
 31
0.0
  0
LINE
  5
BA
330
1F
100
AcDbEntity
  8
0
  6
Continuous
 62
     7
100
AcDbLine
 10
255.770886539
 20
192.3005638145
 30
0.0
 11
255.770886539
 21
189.3005638145
 31
0.0
  0
LINE
  5
BB
330
1F
100
AcDbEntity
  8
A_ACHSEN
  6
Continuous
 62
     7
100
AcDbLine
 10
250.2629084707
 20
181.3005638145
 30
0.0
 11
250.2629084707
 21
180.0505638145
 31
0.0
  0
LINE
  5
BC
330
1F
100
AcDbEntity
  8
A_ACHSEN
  6
Continuous
 62
     7
100
AcDbLine
 10
250.2629084707
 20
164.3005638145
 30
0.0
 11
250.2629084707
 21
165.5505638145
 31
0.0
  0
LINE
  5
BD
330
1F
100
AcDbEntity
  8
0
  6
Continuous
 62
     7
100
AcDbLine
 10
256.8338354285
 20
149.9962005468
 30
0.0
 11
256.7901630119
 21
155.0005638145
 31
0.0
  0
LINE
  5
BE
330
1F
100
AcDbEntity
  8
0
  6
Continuous
 62
     7
100
AcDbLine
 10
248.2629084707
 20
156.3005638145
 30
0.0
 11
247.9629084707
 21
156.0005638145
 31
0.0
  0
LINE
  5
BF
330
1F
100
AcDbEntity
  8
A_ACHSEN
  6
DOT_CENTER
 62
     2
100
AcDbLine
 10
246.2629084707
 20
154.3005638145
 30
0.0
 11
246.2629084707
 21
191.3005638145
 31
0.0
  0
LINE
  5
C0
330
1F
100
AcDbEntity
  8
A_ACHSEN
  6
Continuous
 62
     7
100
AcDbLine
 10
242.2629084707
 20
181.3005638145
 30
0.0
 11
242.2629084707
 21
180.0505638145
 31
0.0
  0
LINE
  5
C1
330
1F
100
AcDbEntity
  8
A_ACHSEN
  6
Continuous
 62
     7
100
AcDbLine
 10
242.2629084707
 20
164.3005638145
 30
0.0
 11
242.2629084707
 21
165.5505638145
 31
0.0
  0
LINE
  5
C2
330
1F
100
AcDbEntity
  8
0
  6
Continuous
 62
     7
100
AcDbLine
 10
238.310750997
 20
155.0005638145
 30
0.0
 11
238.2670785803
 21
149.9962005468
 31
0.0
  0
LINE
  5
C3
330
1F
100
AcDbEntity
  8
0
  6
Continuous
 62
     7
100
AcDbLine
 10
239.2857319578
 20
131.5505638145
 30
0.0
 11
239.2857319578
 21
149.2005638145
 31
0.0
  0
LINE
  5
C4
330
1F
100
AcDbEntity
  8
0
  6
Continuous
 62
     7
100
AcDbLine
 10
239.1810285835
 20
189.3005638145
 30
0.0
 11
239.1810285835
 21
193.3005638145
 31
0.0
  0
LINE
  5
C5
330
1F
100
AcDbEntity
  8
0
  6
Continuous
 62
     7
100
AcDbLine
 10
239.1810285835
 20
180.0505638145
 30
0.0
 11
239.1810285835
 21
181.3005638145
 31
0.0
  0
LINE
  5
C6
330
1F
100
AcDbEntity
  8
0
  6
Continuous
 62
     7
100
AcDbLine
 10
239.1810285835
 20
164.3005638145
 30
0.0
 11
239.1810285835
 21
165.5505638145
 31
0.0
  0
LINE
  5
C7
330
1F
100
AcDbEntity
  8
0
  6
Continuous
 62
     7
100
AcDbLine
 10
239.1810285835
 20
152.3005638145
 30
0.0
 11
239.1810285835
 21
156.3005638145
 31
0.0
  0
LINE
  5
C8
330
1F
100
AcDbEntity
  8
0
  6
Continuous
 62
     7
100
AcDbLine
 10
238.335750997
 20
165.5505638145
 30
0.0
 11
238.335750997
 21
164.3005638145
 31
0.0
  0
LINE
  5
C9
330
1F
100
AcDbEntity
  8
0
  6
Continuous
 62
     7
100
AcDbLine
 10
238.335750997
 20
181.3005638145
 30
0.0
 11
238.335750997
 21
180.0505638145
 31
0.0
  0
LINE
  5
CA
330
1F
100
AcDbEntity
  8
A_ACHSEN
  6
Continuous
 62
     7
100
AcDbLine
 10
238.335750997
 20
190.5505638145
 30
0.0
 11
238.335750997
 21
189.3005638145
 31
0.0
  0
LINE
  5
CB
330
1F
100
AcDbEntity
  8
A_ACHSEN
  6
Continuous
 62
     7
100
AcDbLine
 10
238.335750997
 20
155.0505638145
 30
0.0
 11
238.335750997
 21
156.3005638145
 31
0.0
  0
LINE
  5
CC
330
1F
100
AcDbEntity
  8
A_RUNDUNGEN
  6
Continuous
 62
     7
100
AcDbLine
 10
237.8800709295
 20
164.5505638145
 30
0.0
 11
237.8800709295
 21
164.3005638145
 31
0.0
  0
LINE
  5
CD
330
1F
100
AcDbEntity
  8
A_RUNDUNGEN
  6
Continuous
 62
     7
100
AcDbLine
 10
231.1762388849
 20
180.3005638145
 30
0.0
 11
231.1762388849
 21
165.3005638145
 31
0.0
  0
LINE
  5
CE
330
1F
100
AcDbEntity
  8
0
  6
Continuous
 62
     7
100
AcDbLine
 10
238.2670785803
 20
195.5549270823
 30
0.0
 11
238.310750997
 21
190.5505638145
 31
0.0
  0
LINE
  5
CF
330
1F
100
AcDbEntity
  8
A_ACHSEN
  6
DOT_CENTER
 62
     2
100
AcDbLine
 10
278.2402630119
 20
126.0505638145
 30
0.0
 11
280.8535908759
 21
126.0505638145
 31
0.0
  0
LINE
  5
D0
330
1F
100
AcDbEntity
  8
A_ACHSEN
  6
DOT_CENTER
 62
     2
100
AcDbLine
 10
275.2401630119
 20
126.0505638145
 30
0.0
 11
278.2402630119
 21
126.0505638145
 31
0.0
  0
LINE
  5
D1
330
1F
100
AcDbEntity
  8
A_ACHSEN
  6
DOT_CENTER
 62
     2
100
AcDbLine
 10
268.0402630119
 20
126.0505638145
 30
0.0
 11
269.6267351479
 21
126.0505638145
 31
0.0
  0
LINE
  5
D2
330
1F
100
AcDbEntity
  8
A_ACHSEN
  6
DOT_CENTER
 62
     2
100
AcDbLine
 10
265.0401630119
 20
126.0505638145
 30
0.0
 11
268.0402630119
 21
126.0505638145
 31
0.0
  0
LINE
  5
D3
330
1F
100
AcDbEntity
  8
A_ACHSEN
  6
DOT_CENTER
 62
     2
100
AcDbLine
 10
265.0401630119
 20
126.0505638145
 30
0.0
 11
259.5591286582
 21
126.0505638145
 31
0.0
  0
LINE
  5
D4
330
1F
100
AcDbEntity
  8
A_ACHSEN
  6
DOT_CENTER
 62
     2
100
AcDbLine
 10
275.2401630119
 20
126.0505638145
 30
0.0
 11
269.6267351479
 21
126.0505638145
 31
0.0
  0
LINE
  5
D5
330
1F
100
AcDbEntity
  8
A_ACHSEN
  6
DOT_CENTER
 62
     2
100
AcDbLine
 10
227.835850997
 20
127.0505638145
 30
0.0
 11
232.935750997
 21
127.0505638145
 31
0.0
  0
LINE
  5
D6
330
1F
100
AcDbEntity
  8
A_ACHSEN
  6
DOT_CENTER
 62
     2
100
AcDbLine
 10
224.835750997
 20
127.0505638145
 30
0.0
 11
227.835850997
 21
127.0505638145
 31
0.0
  0
LINE
  5
D7
330
1F
100
AcDbEntity
  8
A_ACHSEN
  6
DOT_CENTER
 62
     2
100
AcDbLine
 10
224.835750997
 20
127.0505638145
 30
0.0
 11
216.735750997
 21
127.0505638145
 31
0.0
  0
LINE
  5
D8
330
1F
100
AcDbEntity
  8
A_ACHSEN
  6
DOT_CENTER
 62
     2
100
AcDbLine
 10
278.2402630119
 20
128.0505638145
 30
0.0
 11
280.7808275413
 21
128.0505638145
 31
0.0
  0
LINE
  5
D9
330
1F
100
AcDbEntity
  8
A_ACHSEN
  6
DOT_CENTER
 62
     2
100
AcDbLine
 10
275.2401630119
 20
128.0505638145
 30
0.0
 11
278.2402630119
 21
128.0505638145
 31
0.0
  0
LINE
  5
DA
330
1F
100
AcDbEntity
  8
A_ACHSEN
  6
DOT_CENTER
 62
     2
100
AcDbLine
 10
268.0402630119
 20
128.0505638145
 30
0.0
 11
269.6994984825
 21
128.0505638145
 31
0.0
  0
LINE
  5
DB
330
1F
100
AcDbEntity
  8
A_ACHSEN
  6
DOT_CENTER
 62
     2
100
AcDbLine
 10
265.0401630119
 20
128.0505638145
 30
0.0
 11
268.0402630119
 21
128.0505638145
 31
0.0
  0
LINE
  5
DC
330
1F
100
AcDbEntity
  8
A_ACHSEN
  6
DOT_CENTER
 62
     2
100
AcDbLine
 10
265.0401630119
 20
128.0505638145
 30
0.0
 11
259.4864154112
 21
128.0505638145
 31
0.0
  0
LINE
  5
DD
330
1F
100
AcDbEntity
  8
A_ACHSEN
  6
DOT_CENTER
 62
     2
100
AcDbLine
 10
275.2401630119
 20
128.0505638145
 30
0.0
 11
269.6994984825
 21
128.0505638145
 31
0.0
  0
LINE
  5
DE
330
1F
100
AcDbEntity
  8
A_ACHSEN
  6
DOT_CENTER
 62
     2
100
AcDbLine
 10
270.1401630119
 20
134.0505638145
 30
0.0
 11
273.1401630119
 21
134.0505638145
 31
0.0
  0
LINE
  5
DF
330
1F
100
AcDbEntity
  8
A_ACHSEN
  6
DOT_CENTER
 62
     2
100
AcDbLine
 10
227.835850997
 20
135.0505638145
 30
0.0
 11
230.935750997
 21
135.0505638145
 31
0.0
  0
LINE
  5
E0
330
1F
100
AcDbEntity
  8
A_ACHSEN
  6
DOT_CENTER
 62
     2
100
AcDbLine
 10
224.835750997
 20
135.0505638145
 30
0.0
 11
227.835850997
 21
135.0505638145
 31
0.0
  0
LINE
  5
E1
330
1F
100
AcDbEntity
  8
A_ACHSEN
  6
DOT_CENTER
 62
     2
100
AcDbLine
 10
221.835650997
 20
135.0505638145
 30
0.0
 11
218.735750997
 21
135.0505638145
 31
0.0
  0
LINE
  5
E2
330
1F
100
AcDbEntity
  8
A_ACHSEN
  6
DOT_CENTER
 62
     2
100
AcDbLine
 10
224.835750997
 20
135.0505638145
 30
0.0
 11
221.835650997
 21
135.0505638145
 31
0.0
  0
LINE
  5
E3
330
1F
100
AcDbEntity
  8
A_ACHSEN
  6
Continuous
 62
     7
100
AcDbLine
 10
230.335750997
 20
190.5505638145
 30
0.0
 11
230.335750997
 21
189.3005638145
 31
0.0
  0
LINE
  5
E4
330
1F
100
AcDbEntity
  8
A_ACHSEN
  6
Continuous
 62
     7
100
AcDbLine
 10
230.335750997
 20
155.0505638145
 30
0.0
 11
230.335750997
 21
156.3005638145
 31
0.0
  0
LINE
  5
E5
330
1F
100
AcDbEntity
  8
A_ACHSEN
  6
Continuous
 62
     7
100
AcDbLine
 10
229.2097334504
 20
155.0005638145
 30
0.0
 11
229.2097334504
 21
156.3005638145
 31
0.0
  0
LINE
  5
E6
330
1F
100
AcDbEntity
  8
A_ACHSEN
  6
Continuous
 62
     7
100
AcDbLine
 10
229.2000277362
 20
190.5505638145
 30
0.0
 11
229.2000277362
 21
189.3005638145
 31
0.0
  0
LINE
  5
E7
330
1F
100
AcDbEntity
  8
A_ACHSEN
  6
DOT_CENTER
 62
     2
100
AcDbLine
 10
224.835750997
 20
127.0505638145
 30
0.0
 11
224.835750997
 21
118.9505638145
 31
0.0
  0
LINE
  5
E8
330
1F
100
AcDbEntity
  8
A_ACHSEN
  6
DOT_CENTER
 62
     2
100
AcDbLine
 10
224.835750997
 20
207.5504638145
 30
0.0
 11
224.835750997
 21
205.5504638145
 31
0.0
  0
LINE
  5
E9
330
1F
100
AcDbEntity
  8
A_ACHSEN
  6
DOT_CENTER
 62
     2
100
AcDbLine
 10
224.835750997
 20
210.4505638145
 30
0.0
 11
224.835750997
 21
207.5504638145
 31
0.0
  0
LINE
  5
EA
330
1F
100
AcDbEntity
  8
A_ACHSEN
  6
CENTER
 62
     2
100
AcDbLine
 10
224.835750997
 20
210.5505638145
 30
0.0
 11
224.835750997
 21
210.4505638145
 31
0.0
  0
LINE
  5
EB
330
1F
100
AcDbEntity
  8
A_ACHSEN
  6
DOT_CENTER
 62
     2
100
AcDbLine
 10
224.835750997
 20
218.5505638145
 30
0.0
 11
224.835750997
 21
216.6505638145
 31
0.0
  0
LINE
  5
EC
330
1F
100
AcDbEntity
  8
A_ACHSEN
  6
DOT_CENTER
 62
     2
100
AcDbLine
 10
224.835750997
 20
221.5506638145
 30
0.0
 11
224.835750997
 21
226.6505638145
 31
0.0
  0
LINE
  5
ED
330
1F
100
AcDbEntity
  8
A_ACHSEN
  6
DOT_CENTER
 62
     2
100
AcDbLine
 10
224.835750997
 20
218.5505638145
 30
0.0
 11
224.835750997
 21
221.5506638145
 31
0.0
  0
LINE
  5
EE
330
1F
100
AcDbEntity
  8
A_ACHSEN
  6
DOT_CENTER
 62
     2
100
AcDbLine
 10
224.835750997
 20
213.5506638145
 30
0.0
 11
224.835750997
 21
216.6505638145
 31
0.0
  0
LINE
  5
EF
330
1F
100
AcDbEntity
  8
A_ACHSEN
  6
DOT_CENTER
 62
     2
100
AcDbLine
 10
224.835750997
 20
210.5505638145
 30
0.0
 11
224.835750997
 21
213.5506638145
 31
0.0
  0
LINE
  5
F0
330
1F
100
AcDbEntity
  8
A_ACHSEN
  6
DOT_CENTER
 62
     2
100
AcDbLine
 10
224.835750997
 20
138.0506638145
 30
0.0
 11
224.835750997
 21
141.1505638145
 31
0.0
  0
LINE
  5
F1
330
1F
100
AcDbEntity
  8
A_ACHSEN
  6
DOT_CENTER
 62
     2
100
AcDbLine
 10
224.835750997
 20
135.1505638145
 30
0.0
 11
224.835750997
 21
138.0506638145
 31
0.0
  0
LINE
  5
F2
330
1F
100
AcDbEntity
  8
A_ACHSEN
  6
DOT_CENTER
 62
     2
100
AcDbLine
 10
224.835750997
 20
130.0506638145
 30
0.0
 11
224.835750997
 21
135.1505638145
 31
0.0
  0
LINE
  5
F3
330
1F
100
AcDbEntity
  8
A_ACHSEN
  6
DOT_CENTER
 62
     2
100
AcDbLine
 10
224.835750997
 20
127.0505638145
 30
0.0
 11
224.835750997
 21
130.0506638145
 31
0.0
  0
LINE
  5
F4
330
1F
100
AcDbEntity
  8
0
  6
Continuous
 62
     7
100
AcDbLine
 10
244.5629084707
 20
189.6005638145
 30
0.0
 11
244.2629084707
 21
189.3005638145
 31
0.0
  0
LINE
  5
F5
330
1F
100
AcDbEntity
  8
0
  6
Continuous
 62
     7
100
AcDbLine
 10
221.3772405097
 20
156.3005638145
 30
0.0
 11
221.3772405097
 21
189.3005638145
 31
0.0
  0
LINE
  5
F6
330
1F
100
AcDbEntity
  8
A_ACHSEN
  6
Continuous
 62
     7
100
AcDbLine
 10
220.9843636441
 20
155.0005638145
 30
0.0
 11
220.9843636441
 21
156.3005638145
 31
0.0
  0
LINE
  5
F7
330
1F
100
AcDbEntity
  8
A_ACHSEN
  6
Continuous
 62
     7
100
AcDbLine
 10
220.9746579299
 20
190.5505638145
 30
0.0
 11
220.9746579299
 21
189.3005638145
 31
0.0
  0
LINE
  5
F8
330
1F
100
AcDbEntity
  8
0
  6
Continuous
 62
     7
100
AcDbLine
 10
237.7670976188
 20
149.5005638145
 30
0.0
 11
212.6044043751
 21
149.5005638145
 31
0.0
  0
LINE
  5
F9
330
1F
100
AcDbEntity
  8
0
  6
Continuous
 62
     7
100
AcDbLine
 10
281.4465096338
 20
149.5005638145
 30
0.0
 11
257.3338163901
 21
149.5005638145
 31
0.0
  0
LINE
  5
FA
330
1F
100
AcDbEntity
  8
0
  6
Continuous
 62
     7
100
AcDbLine
 10
281.4569818751
 20
150.7005638145
 30
0.0
 11
257.3233441487
 21
150.7005638145
 31
0.0
  0
LINE
  5
FB
330
1F
100
AcDbEntity
  8
0
  6
Continuous
 62
     7
100
AcDbLine
 10
212.060750997
 20
190.5505638145
 30
0.0
 11
212.1044234136
 21
195.5549270823
 31
0.0
  0
LINE
  5
FC
330
1F
100
AcDbEntity
  8
0
  6
Continuous
 62
     7
100
AcDbLine
 10
211.833146687
 20
195.6531749784
 30
0.0
 11
211.833146687
 21
149.9479526507
 31
0.0
  0
LINE
  5
FD
330
1F
100
AcDbEntity
  8
0
  6
Continuous
 62
     7
100
AcDbLine
 10
210.3857700362
 20
214.0505638145
 30
0.0
 11
210.3857700362
 21
196.4005638145
 31
0.0
  0
LINE
  5
FE
330
1F
100
AcDbEntity
  8
0
  6
Continuous
 62
     7
100
AcDbLine
 10
212.1044234136
 20
149.9962005468
 30
0.0
 11
212.060750997
 21
155.0005638145
 31
0.0
  0
LINE
  5
FF
330
1F
100
AcDbEntity
  8
0
  6
Continuous
 62
     7
100
AcDbLine
 10
256.7901630119
 20
155.0005638145
 30
0.0
 11
281.9901630119
 21
155.0005638145
 31
0.0
  0
LINE
  5
100
330
1F
100
AcDbEntity
  8
0
  6
Continuous
 62
     7
100
AcDbLine
 10
212.060750997
 20
155.0005638145
 30
0.0
 11
238.310750997
 21
155.0005638145
 31
0.0
  0
LINE
  5
101
330
1F
100
AcDbEntity
  8
A_ACHSEN
  6
Continuous
 62
     7
100
AcDbLine
 10
256.7901831555
 20
155.0505638145
 30
0.0
 11
264.7901428683
 21
155.0505638145
 31
0.0
  0
LINE
  5
102
330
1F
100
AcDbEntity
  8
A_ACHSEN
  6
Continuous
 62
     7
100
AcDbLine
 10
230.3357558588
 20
155.0505638145
 30
0.0
 11
238.3357461351
 21
155.0505638145
 31
0.0
  0
LINE
  5
103
330
1F
100
AcDbEntity
  8
0
  6
Continuous
 62
     7
100
AcDbLine
 10
244.5629603532
 20
156.0005638145
 30
0.0
 11
247.9628565882
 21
156.0005638145
 31
0.0
  0
LINE
  5
104
330
1F
100
AcDbEntity
  8
0
  6
Continuous
 62
     7
100
AcDbLine
 10
223.5033192938
 20
156.3005638145
 30
0.0
 11
274.5888649317
 21
156.3005638145
 31
0.0
  0
LINE
  5
105
330
1F
100
AcDbEntity
  8
A_ACHSEN
  6
Continuous
 62
     7
100
AcDbLine
 10
220.98440703
 20
156.3005638145
 30
0.0
 11
223.5033192938
 21
156.3005638145
 31
0.0
  0
LINE
  5
106
330
1F
100
AcDbEntity
  8
0
  6
Continuous
 62
     7
100
AcDbLine
 10
243.5422124538
 20
164.3005638145
 30
0.0
 11
262.216080334
 21
164.3005638145
 31
0.0
  0
LINE
  5
107
330
1F
100
AcDbEntity
  8
A_RUNDUNGEN
  6
Continuous
 62
     7
100
AcDbLine
 10
232.3027022978
 20
164.3005638145
 30
0.0
 11
243.5422124538
 21
164.3005638145
 31
0.0
  0
LINE
  5
108
330
1F
100
AcDbEntity
  8
0
  6
Continuous
 62
     7
100
AcDbLine
 10
257.7902168968
 20
164.4005638145
 30
0.0
 11
262.216080334
 21
164.4005638145
 31
0.0
  0
LINE
  5
109
330
1F
100
AcDbEntity
  8
A_RUNDUNGEN
  6
Continuous
 62
     7
100
AcDbLine
 10
232.8233425793
 20
165.5505638145
 30
0.0
 11
231.3525180916
 21
165.5505638145
 31
0.0
  0
LINE
  5
10A
330
1F
100
AcDbEntity
  8
0
  6
Continuous
 62
     7
100
AcDbLine
 10
248.1290280627
 20
165.5505638145
 30
0.0
 11
232.8233425793
 21
165.5505638145
 31
0.0
  0
LINE
  5
10B
330
1F
100
AcDbEntity
  8
A_RUNDUNGEN
  6
Continuous
 62
     7
100
AcDbLine
 10
260.9292007635
 20
165.5505638145
 30
0.0
 11
248.1290280627
 21
165.5505638145
 31
0.0
  0
LINE
  5
10C
330
1F
100
AcDbEntity
  8
0
  6
Continuous
 62
     7
100
AcDbLine
 10
232.8233425793
 20
180.0505638145
 30
0.0
 11
248.1290280627
 21
180.0505638145
 31
0.0
  0
LINE
  5
10D
330
1F
100
AcDbEntity
  8
A_RUNDUNGEN
  6
Continuous
 62
     7
100
AcDbLine
 10
232.8233425793
 20
180.0505638145
 30
0.0
 11
231.3525180916
 21
180.0505638145
 31
0.0
  0
LINE
  5
10E
330
1F
100
AcDbEntity
  8
A_RUNDUNGEN
  6
Continuous
 62
     7
100
AcDbLine
 10
260.9292007635
 20
180.0505638145
 30
0.0
 11
248.1290280627
 21
180.0505638145
 31
0.0
  0
LINE
  5
10F
330
1F
100
AcDbEntity
  8
0
  6
Continuous
 62
     7
100
AcDbLine
 10
257.7902168968
 20
181.2005638145
 30
0.0
 11
262.216080334
 21
181.2005638145
 31
0.0
  0
LINE
  5
110
330
1F
100
AcDbEntity
  8
0
  6
Continuous
 62
     7
100
AcDbLine
 10
243.5422124538
 20
181.3005638145
 30
0.0
 11
262.216080334
 21
181.3005638145
 31
0.0
  0
LINE
  5
111
330
1F
100
AcDbEntity
  8
A_RUNDUNGEN
  6
Continuous
 62
     7
100
AcDbLine
 10
232.3027022978
 20
181.3005638145
 30
0.0
 11
243.5422124538
 21
181.3005638145
 31
0.0
  0
LINE
  5
112
330
1F
100
AcDbEntity
  8
0
  6
Continuous
 62
     7
100
AcDbLine
 10
220.9746579299
 20
189.3005638145
 30
0.0
 11
221.3772405097
 21
189.3005638145
 31
0.0
  0
LINE
  5
113
330
1F
100
AcDbEntity
  8
0
  6
Continuous
 62
     7
100
AcDbLine
 10
244.5629603532
 20
189.6005638145
 30
0.0
 11
247.9628565882
 21
189.6005638145
 31
0.0
  0
LINE
  5
114
330
1F
100
AcDbEntity
  8
0
  6
Continuous
 62
     7
100
AcDbLine
 10
244.2629084707
 20
156.3005638145
 30
0.0
 11
244.5629084707
 21
156.0005638145
 31
0.0
  0
LINE
  5
115
330
1F
100
AcDbEntity
  8
A_ACHSEN
  6
Continuous
 62
     7
100
AcDbLine
 10
256.7901831555
 20
190.5505638145
 30
0.0
 11
264.7901428683
 21
190.5505638145
 31
0.0
  0
LINE
  5
116
330
1F
100
AcDbEntity
  8
A_ACHSEN
  6
Continuous
 62
     7
100
AcDbLine
 10
238.3061202761
 20
190.5505638145
 30
0.0
 11
238.3357461351
 21
190.5505638145
 31
0.0
  0
LINE
  5
117
330
1F
100
AcDbEntity
  8
0
  6
Continuous
 62
     7
100
AcDbLine
 10
212.060750997
 20
190.5505638145
 30
0.0
 11
238.310750997
 21
190.5505638145
 31
0.0
  0
LINE
  5
118
330
1F
100
AcDbEntity
  8
0
  6
Continuous
 62
     7
100
AcDbLine
 10
281.9901630119
 20
190.6005638145
 30
0.0
 11
256.7901630119
 21
190.6005638145
 31
0.0
  0
LINE
  5
119
330
1F
100
AcDbEntity
  8
0
  6
Continuous
 62
     7
100
AcDbLine
 10
257.3233441487
 20
194.9005638145
 30
0.0
 11
281.4569818751
 21
194.9005638145
 31
0.0
  0
LINE
  5
11A
330
1F
100
AcDbEntity
  8
0
  6
Continuous
 62
     7
100
AcDbLine
 10
212.6044043751
 20
196.0505638145
 30
0.0
 11
237.7670976188
 21
196.0505638145
 31
0.0
  0
LINE
  5
11B
330
1F
100
AcDbEntity
  8
0
  6
Continuous
 62
     7
100
AcDbLine
 10
281.4465096338
 20
196.1005638145
 30
0.0
 11
257.3338163901
 21
196.1005638145
 31
0.0
  0
LINE
  5
11C
330
1F
100
AcDbEntity
  8
0
  6
Continuous
 62
     7
100
AcDbLine
 10
214.1632371626262
 20
196.1531681245
 30
0.0
 11
212.3331398331
 21
196.1531681245
 31
0.0
  0
LINE
  5
11D
330
1F
100
AcDbEntity
  8
0
  6
Continuous
 62
     7
100
AcDbLine
 10
282.6427741757
 20
196.1531681245
 30
0.0
 11
278.3760365371
 21
196.1531681245
 31
0.0
  0
LINE
  5
11E
330
1F
100
AcDbEntity
  8
0
  6
Continuous
 62
     7
100
AcDbLine
 10
262.0941547439614
 20
196.3000800468
 30
0.0
 11
255.7401630119
 21
196.3000800468
 31
0.0
  0
LINE
  5
11F
330
1F
100
AcDbEntity
  8
A_ACHSEN
  6
DOT_CENTER
 62
     2
100
AcDbLine
 10
227.835850997
 20
210.5505638145
 30
0.0
 11
230.935750997
 21
210.5505638145
 31
0.0
  0
LINE
  5
120
330
1F
100
AcDbEntity
  8
A_ACHSEN
  6
CENTER
 62
     2
100
AcDbLine
 10
224.835750997
 20
210.5505638145
 30
0.0
 11
227.835850997
 21
210.5505638145
 31
0.0
  0
LINE
  5
121
330
1F
100
AcDbEntity
  8
A_ACHSEN
  6
DOT_CENTER
 62
     2
100
AcDbLine
 10
221.835650997
 20
210.5505638145
 30
0.0
 11
218.735750997
 21
210.5505638145
 31
0.0
  0
LINE
  5
122
330
1F
100
AcDbEntity
  8
A_ACHSEN
  6
DOT_CENTER
 62
     2
100
AcDbLine
 10
224.835750997
 20
210.5505638145
 30
0.0
 11
221.835650997
 21
210.5505638145
 31
0.0
  0
LINE
  5
123
330
1F
100
AcDbEntity
  8
A_ACHSEN
  6
DOT_CENTER
 62
     2
100
AcDbLine
 10
275.2401630119
 20
217.5505638145
 30
0.0
 11
280.7262550404
 21
217.5505638145
 31
0.0
  0
LINE
  5
124
330
1F
100
AcDbEntity
  8
A_ACHSEN
  6
DOT_CENTER
 62
     2
100
AcDbLine
 10
268.0402630119
 20
217.5505638145
 30
0.0
 11
269.7540709834
 21
217.5505638145
 31
0.0
  0
LINE
  5
125
330
1F
100
AcDbEntity
  8
A_ACHSEN
  6
DOT_CENTER
 62
     2
100
AcDbLine
 10
265.0401630119
 20
217.5505638145
 30
0.0
 11
268.0402630119
 21
217.5505638145
 31
0.0
  0
LINE
  5
126
330
1F
100
AcDbEntity
  8
A_ACHSEN
  6
DOT_CENTER
 62
     2
100
AcDbLine
 10
265.0401630119
 20
217.5505638145
 30
0.0
 11
259.5409378246
 21
217.5505638145
 31
0.0
  0
LINE
  5
127
330
1F
100
AcDbEntity
  8
A_ACHSEN
  6
DOT_CENTER
 62
     2
100
AcDbLine
 10
275.2401630119
 20
217.5505638145
 30
0.0
 11
269.7540709834
 21
217.5505638145
 31
0.0
  0
LINE
  5
128
330
1F
100
AcDbEntity
  8
0
  6
Continuous
 62
     7
100
AcDbLine
 10
247.9629084707
 20
189.6005638145
 30
0.0
 11
248.2629084707
 21
189.3005638145
 31
0.0
  0
LINE
  5
129
330
1F
100
AcDbEntity
  8
A_ACHSEN
  6
DOT_CENTER
 62
     2
100
AcDbLine
 10
227.835850997
 20
218.5505638145
 30
0.0
 11
232.935750997
 21
218.5505638145
 31
0.0
  0
LINE
  5
12A
330
1F
100
AcDbEntity
  8
A_ACHSEN
  6
CENTER
 62
     2
100
AcDbLine
 10
224.835750997
 20
218.5505638145
 30
0.0
 11
227.835850997
 21
218.5505638145
 31
0.0
  0
LINE
  5
12B
330
1F
100
AcDbEntity
  8
A_ACHSEN
  6
DOT_CENTER
 62
     2
100
AcDbLine
 10
224.835750997
 20
218.5505638145
 30
0.0
 11
216.735750997
 21
218.5505638145
 31
0.0
  0
LINE
  5
12C
330
1F
100
AcDbEntity
  8
A_ACHSEN
  6
DOT_CENTER
 62
     2
100
AcDbLine
 10
278.2402630119
 20
219.5505638145
 30
0.0
 11
280.5443467039
 21
219.5505638145
 31
0.0
  0
LINE
  5
12D
330
1F
100
AcDbEntity
  8
A_ACHSEN
  6
DOT_CENTER
 62
     2
100
AcDbLine
 10
275.2401630119
 20
219.5505638145
 30
0.0
 11
278.2402630119
 21
219.5505638145
 31
0.0
  0
LINE
  5
12E
330
1F
100
AcDbEntity
  8
A_ACHSEN
  6
DOT_CENTER
 62
     2
100
AcDbLine
 10
268.0402630119
 20
219.5505638145
 30
0.0
 11
269.9359793199
 21
219.5505638145
 31
0.0
  0
LINE
  5
12F
330
1F
100
AcDbEntity
  8
A_ACHSEN
  6
DOT_CENTER
 62
     2
100
AcDbLine
 10
265.0401630119
 20
219.5505638145
 30
0.0
 11
268.0402630119
 21
219.5505638145
 31
0.0
  0
LINE
  5
130
330
1F
100
AcDbEntity
  8
A_ACHSEN
  6
DOT_CENTER
 62
     2
100
AcDbLine
 10
265.0401630119
 20
219.5505638145
 30
0.0
 11
259.722846161
 21
219.5505638145
 31
0.0
  0
LINE
  5
131
330
1F
100
AcDbEntity
  8
A_ACHSEN
  6
DOT_CENTER
 62
     2
100
AcDbLine
 10
275.2401630119
 20
219.5505638145
 30
0.0
 11
269.9359793199
 21
219.5505638145
 31
0.0
  0
LINE
  5
132
330
1F
100
AcDbEntity
  8
1
  6
DOT_CENTER
 62
     2
100
AcDbLine
 10
270.1401630119
 20
206.5504638145
 30
0.0
 11
270.1401630119
 21
205.5504638145
 31
0.0
  0
LINE
  5
133
330
1F
100
AcDbEntity
  8
1
  6
DOT_CENTER
 62
     2
100
AcDbLine
 10
270.1401630119
 20
214.5506638145
 30
0.0
 11
270.1401630119
 21
215.5506638145
 31
0.0
  0
LINE
  5
134
330
1F
100
AcDbEntity
  8
1
  6
DOT_CENTER
 62
     2
100
AcDbLine
 10
275.2401630119
 20
212.0644717861
 30
0.0
 11
275.2401630119
 21
211.0644717861
 31
0.0
  0
LINE
  5
135
330
1F
100
AcDbEntity
  8
1
  6
DOT_CENTER
 62
     2
100
AcDbLine
 10
265.0401630119
 20
212.0513386272
 30
0.0
 11
265.0401630119
 21
211.0513386272
 31
0.0
  0
LINE
  5
136
330
1F
100
AcDbEntity
  8
1
  6
DOT_CENTER
 62
     2
100
AcDbLine
 10
265.0401630119
 20
224.8678806654
 30
0.0
 11
265.0401630119
 21
225.8678806654
 31
0.0
  0
LINE
  5
137
330
1F
100
AcDbEntity
  8
1
  6
DOT_CENTER
 62
     2
100
AcDbLine
 10
275.2401630119
 20
224.8547475066
 30
0.0
 11
275.2401630119
 21
225.8547475066
 31
0.0
  0
LINE
  5
138
330
1F
100
AcDbEntity
  8
1
  6
DOT_CENTER
 62
     2
100
AcDbLine
 10
270.1401630119
 20
139.0506638145
 30
0.0
 11
270.1401630119
 21
141.1505638145
 31
0.0
  0
LINE
  5
139
330
1F
100
AcDbEntity
  8
1
  6
DOT_CENTER
 62
     2
100
AcDbLine
 10
270.1401630119
 20
131.0504638145
 30
0.0
 11
270.1401630119
 21
130.2492253193
 31
0.0
  0
LINE
  5
13A
330
1F
100
AcDbEntity
  8
1
  6
DOT_CENTER
 62
     2
100
AcDbLine
 10
275.2401630119
 20
133.5912283439
 30
0.0
 11
275.2401630119
 21
134.5912283439
 31
0.0
  0
LINE
  5
13B
330
1F
100
AcDbEntity
  8
1
  6
DOT_CENTER
 62
     2
100
AcDbLine
 10
265.0401630119
 20
133.6043615028
 30
0.0
 11
265.0401630119
 21
134.6043615028
 31
0.0
  0
LINE
  5
13C
330
1F
100
AcDbEntity
  8
1
  6
DOT_CENTER
 62
     2
100
AcDbLine
 10
265.0401630119
 20
120.5695294608
 30
0.0
 11
265.0401630119
 21
119.5695294608
 31
0.0
  0
LINE
  5
13D
330
1F
100
AcDbEntity
  8
1
  6
DOT_CENTER
 62
     2
100
AcDbLine
 10
275.2401630119
 20
120.4371359506
 30
0.0
 11
275.2401630119
 21
119.4371359506
 31
0.0
  0
LINE
  5
13E
330
1F
100
AcDbEntity
  8
1
  6
DOT_CENTER
 62
     2
100
AcDbLine
 10
273.1401630119
 20
134.0505638145
 30
0.0
 11
273.735391273463
 21
134.0505638145
 31
0.0
  0
LINE
  5
13F
330
1F
100
AcDbEntity
  8
A_ACHSEN
  6
DOT_CENTER
 62
     2
100
AcDbLine
 10
273.1401630119
 20
134.0505638145
 30
0.0
 11
273.1402630119
 21
134.0505638145
 31
0.0
  0
LINE
  5
140
330
1F
100
AcDbEntity
  8
1
  6
DOT_CENTER
 62
     2
100
AcDbLine
 10
280.7939106126
 20
128.0505638145
 30
0.0
 11
281.7939106126
 21
128.0505638145
 31
0.0
  0
LINE
  5
141
330
1F
100
AcDbEntity
  8
1
  6
DOT_CENTER
 62
     2
100
AcDbLine
 10
280.8535908759
 20
126.0505638145
 30
0.0
 11
281.8535908759
 21
126.0505638145
 31
0.0
  0
LINE
  5
142
330
1F
100
AcDbEntity
  8
1
  6
DOT_CENTER
 62
     2
100
AcDbLine
 10
259.4864154112
 20
128.0505638145
 30
0.0
 11
258.4864154112
 21
128.0505638145
 31
0.0
  0
LINE
  5
143
330
1F
100
AcDbEntity
  8
A_ACHSEN
  6
DOT_CENTER
 62
     2
100
AcDbLine
 10
259.4864154112
 20
128.0505638145
 30
0.0
 11
259.4863653236
 21
128.0505638145
 31
0.0
  0
LINE
  5
144
330
1F
100
AcDbEntity
  8
1
  6
DOT_CENTER
 62
     2
100
AcDbLine
 10
259.5591286582
 20
126.0505638145
 30
0.0
 11
258.5591286582
 21
126.0505638145
 31
0.0
  0
LINE
  5
145
330
1F
100
AcDbEntity
  8
0
  6
Continuous
 62
     7
100
AcDbLine
 10
284.5401630119
 20
196.4005638145
 30
0.0
 11
284.5401630119
 21
214.1005638145
 31
0.0
  0
LINE
  5
146
330
1F
100
AcDbEntity
  8
0
  6
Continuous
 62
     7
100
AcDbLine
 10
255.7401630119
 20
196.4005638145
 30
0.0
 11
262.1527778664961
 21
196.4005638145
 31
0.0
  0
LINE
  5
147
330
1F
100
AcDbEntity
  8
0
  6
Continuous
 62
     7
100
AcDbLine
 10
255.7401630119
 20
214.1005638145
 30
0.0
 11
255.7401630119
 21
196.4005638145
 31
0.0
  0
LINE
  5
148
330
1F
100
AcDbEntity
  8
1
  6
Continuous
 62
     7
100
AcDbLine
 10
255.7401630119
 20
196.4005638145
 30
0.0
 11
255.7401630119
 21
196.3000800468
 31
0.0
  0
LINE
  5
149
330
1F
100
AcDbEntity
  8
0
  6
Continuous
 62
     7
100
AcDbLine
 10
262.1527778664961
 20
196.4005638145
 30
0.0
 11
278.1275481618395
 21
196.4005638145
 31
0.0
  0
LINE
  5
14A
330
1F
100
AcDbEntity
  8
0
  6
Continuous
 62
     7
100
AcDbLine
 10
278.1275481618395
 20
196.4005638145
 30
0.0
 11
284.5401630119
 21
196.4005638145
 31
0.0
  0
LINE
  5
14B
330
1F
100
AcDbEntity
  8
0
  6
Continuous
 62
     7
100
AcDbLine
 10
221.3772405097
 20
189.3005638145
 30
0.0
 11
274.5888649317
 21
189.3005638145
 31
0.0
  0
LINE
  5
14C
330
1F
100
AcDbEntity
  8
0
  6
Continuous
 62
     7
100
AcDbLine
 10
210.3857700362
 20
196.4005638145
 30
0.0
 11
231.3044235173734
 21
196.4005638145
 31
0.0
  0
LINE
  5
14D
330
1F
100
AcDbEntity
  8
0
  6
Continuous
 62
     7
100
AcDbLine
 10
231.3044235173734
 20
196.4005638145
 30
0.0
 11
239.235750997
 21
196.4005638145
 31
0.0
  0
LINE
  5
14E
330
1F
100
AcDbEntity
  8
0
  6
Continuous
 62
     7
100
AcDbLine
 10
239.235750997
 20
196.4005638145
 30
0.0
 11
239.235750997
 21
214.1005638145
 31
0.0
  0
LINE
  5
14F
330
1F
100
AcDbEntity
  8
1
  6
Continuous
 62
     7
100
AcDbLine
 10
239.235750997
 20
196.4005638145
 30
0.0
 11
239.235750997
 21
196.313156428
 31
0.0
  0
LINE
  5
150
330
1F
100
AcDbEntity
  8
0
  6
Continuous
 62
     7
100
AcDbLine
 10
239.235750997
 20
196.313156428
 30
0.0
 11
231.341351488256
 21
196.313156428
 31
0.0
  0
LINE
  5
151
330
1F
100
AcDbEntity
  8
0
  6
Continuous
 62
     7
100
AcDbLine
 10
210.3857700362
 20
196.4005638145
 30
0.0
 11
210.3857700362
 21
149.2005638145
 31
0.0
  0
LINE
  5
152
330
1F
100
AcDbEntity
  8
1
  6
DOT_CENTER
 62
     2
100
AcDbLine
 10
280.5443467039
 20
219.5505638145
 30
0.0
 11
281.5443467039
 21
219.5505638145
 31
0.0
  0
LINE
  5
153
330
1F
100
AcDbEntity
  8
1
  6
DOT_CENTER
 62
     2
100
AcDbLine
 10
280.7262550404
 20
217.5505638145
 30
0.0
 11
281.7262550404
 21
217.5505638145
 31
0.0
  0
LINE
  5
154
330
1F
100
AcDbEntity
  8
1
  6
DOT_CENTER
 62
     2
100
AcDbLine
 10
259.5409378246
 20
217.5505638145
 30
0.0
 11
258.5409378246
 21
217.5505638145
 31
0.0
  0
LINE
  5
155
330
1F
100
AcDbEntity
  8
1
  6
DOT_CENTER
 62
     2
100
AcDbLine
 10
259.722846161
 20
219.5505638145
 30
0.0
 11
258.722846161
 21
219.5505638145
 31
0.0
  0
LINE
  5
156
330
1F
100
AcDbEntity
  8
0
  6
Continuous
 62
     7
100
AcDbLine
 10
284.5401630119
 20
131.5005638145
 30
0.0
 11
284.5401630119
 21
149.2005638145
 31
0.0
  0
LINE
  5
157
330
1F
100
AcDbEntity
  8
0
  6
Continuous
 62
     7
100
AcDbLine
 10
255.6401630119
 20
149.2005638145
 30
0.0
 11
255.6401630119
 21
131.5005638145
 31
0.0
  0
LINE
  5
158
330
1F
100
AcDbEntity
  8
1
  6
Continuous
 62
     7
100
AcDbLine
 10
212.333139832867
 20
149.5005638145
 30
0.0
 11
212.6044043751
 21
149.5005638145
 31
0.0
  0
LINE
  5
159
330
1F
100
AcDbEntity
  8
0
  6
Continuous
 62
     7
100
AcDbLine
 10
284.5401630119
 20
149.2005638145
 30
0.0
 11
255.6401630119
 21
149.2005638145
 31
0.0
  0
LINE
  5
15A
330
1F
100
AcDbEntity
  8
1
  6
Continuous
 62
     7
100
AcDbLine
 10
282.6427741757
 20
149.5005638145
 30
0.0
 11
281.4465096338
 21
149.5005638145
 31
0.0
  0
LINE
  5
15B
330
1F
100
AcDbEntity
  8
A_ACHSEN
  6
DOT_CENTER
 62
     2
100
AcDbLine
 10
225.3772405097001
 20
149.1505638145
 30
0.0
 11
225.3772405097001
 21
196.4505638145001
 31
0.0
  0
LINE
  5
15C
330
1F
100
AcDbEntity
  8
A_ACHSEN
  6
DOT_CENTER
 62
     2
100
AcDbLine
 10
234.335750997
 20
197.7183008081001
 30
0.0
 11
234.335750997
 21
148.4005638145
 31
0.0
  0
LINE
  5
15D
330
1F
100
AcDbEntity
  8
A_ACHSEN
  6
DOT_CENTER
 62
     2
100
AcDbLine
 10
260.7901630119001
 20
148.4005638145
 30
0.0
 11
260.7901630119001
 21
197.2005638145001
 31
0.0
  0
LINE
  5
15E
330
1F
100
AcDbEntity
  8
A_ACHSEN
  6
DOT_CENTER
 62
     2
100
AcDbLine
 10
270.5889569162999
 20
149.1505638145
 30
0.0
 11
270.5889569162999
 21
196.4505638145001
 31
0.0
  0
LINE
  5
15F
330
1F
100
AcDbEntity
  8
1
  6
DOT_CENTER
 62
     2
100
AcDbLine
 10
225.3772405097001
 20
196.4505638145001
 30
0.0
 11
225.3772405097001
 21
197.7183008081001
 31
0.0
  0
LINE
  5
160
330
1F
100
AcDbEntity
  8
1
  6
DOT_CENTER
 62
     2
100
AcDbLine
 10
260.7901630119001
 20
197.2005638145001
 30
0.0
 11
260.7901630119001
 21
197.7183008081001
 31
0.0
  0
LINE
  5
161
330
1F
100
AcDbEntity
  8
1
  6
DOT_CENTER
 62
     2
100
AcDbLine
 10
270.5889569162999
 20
196.4505638145001
 30
0.0
 11
270.5889569162999
 21
197.7183008081001
 31
0.0
  0
LINE
  5
162
330
1F
100
AcDbEntity
  8
1
  6
DOT_CENTER
 62
     2
100
AcDbLine
 10
270.5889569162999
 20
149.1505638145
 30
0.0
 11
270.5889569162999
 21
148.4005638145
 31
0.0
  0
LINE
  5
163
330
1F
100
AcDbEntity
  8
1
  6
DOT_CENTER
 62
     2
100
AcDbLine
 10
225.3772405097001
 20
149.1505638145
 30
0.0
 11
225.3772405097001
 21
148.4005638145
 31
0.0
  0
LINE
  5
164
330
1F
100
AcDbEntity
  8
1
  6
DOT_CENTER
 62
     7
100
AcDbLine
 10
199.0763655173268
 20
172.8005638145
 30
0.0
 11
287.0763655173269
 21
172.8005638145
 31
0.0
  0
LINE
  5
165
330
1F
100
AcDbEntity
  8
1
  6
Continuous
 62
     7
100
AcDbLine
 10
224.335750997
 20
212.8005638145
 30
0.0
 11
225.335750997
 21
212.8005638145
 31
0.0
  0
LINE
  5
166
330
1F
100
AcDbEntity
  8
1
  6
Continuous
 62
     7
100
AcDbLine
 10
225.335750997
 20
212.8005638145
 30
0.0
 11
225.335750997
 21
211.5505638145
 31
0.0
  0
LINE
  5
167
330
1F
100
AcDbEntity
  8
1
  6
Continuous
 62
     7
100
AcDbLine
 10
225.835750997
 20
211.0505638145
 30
0.0
 11
227.085750997
 21
211.0505638145
 31
0.0
  0
LINE
  5
168
330
1F
100
AcDbEntity
  8
1
  6
Continuous
 62
     7
100
AcDbLine
 10
227.085750997
 20
211.0505638145
 30
0.0
 11
227.085750997
 21
210.0505638145
 31
0.0
  0
LINE
  5
169
330
1F
100
AcDbEntity
  8
1
  6
Continuous
 62
     7
100
AcDbLine
 10
227.085750997
 20
210.0505638145
 30
0.0
 11
225.835750997
 21
210.0505638145
 31
0.0
  0
LINE
  5
16A
330
1F
100
AcDbEntity
  8
1
  6
Continuous
 62
     7
100
AcDbLine
 10
225.335750997
 20
209.5505638145
 30
0.0
 11
225.335750997
 21
208.3005638145
 31
0.0
  0
LINE
  5
16B
330
1F
100
AcDbEntity
  8
1
  6
Continuous
 62
     7
100
AcDbLine
 10
225.335750997
 20
208.3005638145
 30
0.0
 11
224.335750997
 21
208.3005638145
 31
0.0
  0
LINE
  5
16C
330
1F
100
AcDbEntity
  8
1
  6
Continuous
 62
     7
100
AcDbLine
 10
224.335750997
 20
208.3005638145
 30
0.0
 11
224.335750997
 21
209.5505638145
 31
0.0
  0
LINE
  5
16D
330
1F
100
AcDbEntity
  8
1
  6
Continuous
 62
     7
100
AcDbLine
 10
223.835750997
 20
210.0505638145
 30
0.0
 11
222.585750997
 21
210.0505638145
 31
0.0
  0
LINE
  5
16E
330
1F
100
AcDbEntity
  8
1
  6
Continuous
 62
     7
100
AcDbLine
 10
222.585750997
 20
210.0505638145
 30
0.0
 11
222.585750997
 21
211.0505638145
 31
0.0
  0
LINE
  5
16F
330
1F
100
AcDbEntity
  8
1
  6
Continuous
 62
     7
100
AcDbLine
 10
222.585750997
 20
211.0505638145
 30
0.0
 11
223.835750997
 21
211.0505638145
 31
0.0
  0
LINE
  5
170
330
1F
100
AcDbEntity
  8
1
  6
Continuous
 62
     7
100
AcDbLine
 10
224.335750997
 20
211.5505638145
 30
0.0
 11
224.335750997
 21
212.8005638145
 31
0.0
  0
LINE
  5
171
330
1F
100
AcDbEntity
  8
1
  6
Continuous
 62
     7
100
AcDbLine
 10
224.335750997
 20
211.5505638145
 30
0.0
 11
224.085750997
 21
211.3005638145
 31
0.0
  0
LINE
  5
172
330
1F
100
AcDbEntity
  8
1
  6
Continuous
 62
     7
100
AcDbLine
 10
225.335750997
 20
211.5505638145
 30
0.0
 11
225.585750997
 21
211.3005638145
 31
0.0
  0
LINE
  5
173
330
1F
100
AcDbEntity
  8
1
  6
Continuous
 62
     7
100
AcDbLine
 10
225.835750997
 20
210.0505638145
 30
0.0
 11
225.585750997
 21
209.8005638145
 31
0.0
  0
LINE
  5
174
330
1F
100
AcDbEntity
  8
1
  6
Continuous
 62
     7
100
AcDbLine
 10
224.335750997
 20
209.5505638145
 30
0.0
 11
224.085750997
 21
209.8005638145
 31
0.0
  0
LINE
  5
175
330
1F
100
AcDbEntity
  8
1
  6
Continuous
 62
     2
100
AcDbLine
 10
225.585750997
 20
211.3005638145
 30
0.0
 11
226.4267412546697
 21
212.1415540721697
 31
0.0
  0
LINE
  5
176
330
1F
100
AcDbEntity
  8
1
  6
Continuous
 62
     7
100
AcDbLine
 10
225.585750997
 20
211.3005638145
 30
0.0
 11
225.835750997
 21
211.0505638145
 31
0.0
  0
LINE
  5
177
330
1F
100
AcDbEntity
  8
1
  6
Continuous
 62
     2
100
AcDbLine
 10
224.085750997
 20
211.3005638145
 30
0.0
 11
223.2447607393303
 21
212.1415540721697
 31
0.0
  0
LINE
  5
178
330
1F
100
AcDbEntity
  8
1
  6
Continuous
 62
     7
100
AcDbLine
 10
224.085750997
 20
211.3005638145
 30
0.0
 11
223.835750997
 21
211.0505638145
 31
0.0
  0
LINE
  5
179
330
1F
100
AcDbEntity
  8
1
  6
Continuous
 62
     2
100
AcDbLine
 10
224.085750997
 20
209.8005638145
 30
0.0
 11
223.2447607393303
 21
208.9595735568302
 31
0.0
  0
LINE
  5
17A
330
1F
100
AcDbEntity
  8
1
  6
Continuous
 62
     7
100
AcDbLine
 10
224.085750997
 20
209.8005638145
 30
0.0
 11
223.835750997
 21
210.0505638145
 31
0.0
  0
LINE
  5
17B
330
1F
100
AcDbEntity
  8
1
  6
Continuous
 62
     2
100
AcDbLine
 10
225.585750997
 20
209.8005638145
 30
0.0
 11
226.4267412546697
 21
208.9595735568302
 31
0.0
  0
LINE
  5
17C
330
1F
100
AcDbEntity
  8
1
  6
Continuous
 62
     7
100
AcDbLine
 10
225.585750997
 20
209.8005638145
 30
0.0
 11
225.335750997
 21
209.5505638145
 31
0.0
  0
LINE
  5
17D
330
1F
100
AcDbEntity
  8
1
  6
Continuous
 62
     7
100
AcDbLine
 10
269.6401630119
 20
212.8005638145
 30
0.0
 11
270.6401630119
 21
212.8005638145
 31
0.0
  0
LINE
  5
17E
330
1F
100
AcDbEntity
  8
1
  6
Continuous
 62
     7
100
AcDbLine
 10
270.6401630119
 20
212.8005638145
 30
0.0
 11
270.6401630119
 21
211.5505638145
 31
0.0
  0
LINE
  5
17F
330
1F
100
AcDbEntity
  8
1
  6
Continuous
 62
     7
100
AcDbLine
 10
271.1401630119
 20
211.0505638145
 30
0.0
 11
272.3901630119
 21
211.0505638145
 31
0.0
  0
LINE
  5
180
330
1F
100
AcDbEntity
  8
1
  6
Continuous
 62
     7
100
AcDbLine
 10
272.3901630119
 20
211.0505638145
 30
0.0
 11
272.3901630119
 21
210.0505638145
 31
0.0
  0
LINE
  5
181
330
1F
100
AcDbEntity
  8
1
  6
Continuous
 62
     7
100
AcDbLine
 10
272.3901630119
 20
210.0505638145
 30
0.0
 11
271.1401630119
 21
210.0505638145
 31
0.0
  0
LINE
  5
182
330
1F
100
AcDbEntity
  8
1
  6
Continuous
 62
     7
100
AcDbLine
 10
270.6401630119
 20
209.5505638145
 30
0.0
 11
270.6401630119
 21
208.3005638145
 31
0.0
  0
LINE
  5
183
330
1F
100
AcDbEntity
  8
1
  6
Continuous
 62
     7
100
AcDbLine
 10
270.6401630119
 20
208.3005638145
 30
0.0
 11
269.6401630119
 21
208.3005638145
 31
0.0
  0
LINE
  5
184
330
1F
100
AcDbEntity
  8
1
  6
Continuous
 62
     7
100
AcDbLine
 10
269.6401630119
 20
208.3005638145
 30
0.0
 11
269.6401630119
 21
209.5505638145
 31
0.0
  0
LINE
  5
185
330
1F
100
AcDbEntity
  8
1
  6
Continuous
 62
     7
100
AcDbLine
 10
269.1401630119
 20
210.0505638145
 30
0.0
 11
267.8901630119
 21
210.0505638145
 31
0.0
  0
LINE
  5
186
330
1F
100
AcDbEntity
  8
1
  6
Continuous
 62
     7
100
AcDbLine
 10
267.8901630119
 20
210.0505638145
 30
0.0
 11
267.8901630119
 21
211.0505638145
 31
0.0
  0
LINE
  5
187
330
1F
100
AcDbEntity
  8
1
  6
Continuous
 62
     7
100
AcDbLine
 10
267.8901630119
 20
211.0505638145
 30
0.0
 11
269.1401630119
 21
211.0505638145
 31
0.0
  0
LINE
  5
188
330
1F
100
AcDbEntity
  8
1
  6
Continuous
 62
     7
100
AcDbLine
 10
269.6401630119
 20
211.5505638145
 30
0.0
 11
269.6401630119
 21
212.8005638145
 31
0.0
  0
LINE
  5
189
330
1F
100
AcDbEntity
  8
1
  6
Continuous
 62
     7
100
AcDbLine
 10
269.6401630119
 20
211.5505638145
 30
0.0
 11
269.3901630119
 21
211.3005638145
 31
0.0
  0
LINE
  5
18A
330
1F
100
AcDbEntity
  8
1
  6
Continuous
 62
     7
100
AcDbLine
 10
270.6401630119
 20
211.5505638145
 30
0.0
 11
270.8901630119
 21
211.3005638145
 31
0.0
  0
LINE
  5
18B
330
1F
100
AcDbEntity
  8
1
  6
Continuous
 62
     7
100
AcDbLine
 10
271.1401630119
 20
210.0505638145
 30
0.0
 11
270.8901630119
 21
209.8005638145
 31
0.0
  0
LINE
  5
18C
330
1F
100
AcDbEntity
  8
1
  6
Continuous
 62
     7
100
AcDbLine
 10
269.6401630119
 20
209.5505638145
 30
0.0
 11
269.3901630119
 21
209.8005638145
 31
0.0
  0
LINE
  5
18D
330
1F
100
AcDbEntity
  8
1
  6
Continuous
 62
     2
100
AcDbLine
 10
270.8901630119
 20
211.3005638145
 30
0.0
 11
271.7311532695697
 21
212.1415540721697
 31
0.0
  0
LINE
  5
18E
330
1F
100
AcDbEntity
  8
1
  6
Continuous
 62
     7
100
AcDbLine
 10
270.8901630119
 20
211.3005638145
 30
0.0
 11
271.1401630119
 21
211.0505638145
 31
0.0
  0
LINE
  5
18F
330
1F
100
AcDbEntity
  8
1
  6
Continuous
 62
     2
100
AcDbLine
 10
269.3901630119
 20
211.3005638145
 30
0.0
 11
268.5491727542303
 21
212.1415540721697
 31
0.0
  0
LINE
  5
190
330
1F
100
AcDbEntity
  8
1
  6
Continuous
 62
     7
100
AcDbLine
 10
269.3901630119
 20
211.3005638145
 30
0.0
 11
269.1401630119
 21
211.0505638145
 31
0.0
  0
LINE
  5
191
330
1F
100
AcDbEntity
  8
1
  6
Continuous
 62
     2
100
AcDbLine
 10
269.3901630119
 20
209.8005638145
 30
0.0
 11
268.5491727542303
 21
208.9595735568302
 31
0.0
  0
LINE
  5
192
330
1F
100
AcDbEntity
  8
1
  6
Continuous
 62
     7
100
AcDbLine
 10
269.3901630119
 20
209.8005638145
 30
0.0
 11
269.1401630119
 21
210.0505638145
 31
0.0
  0
LINE
  5
193
330
1F
100
AcDbEntity
  8
1
  6
Continuous
 62
     2
100
AcDbLine
 10
270.8901630119
 20
209.8005638145
 30
0.0
 11
271.7311532695697
 21
208.9595735568302
 31
0.0
  0
LINE
  5
194
330
1F
100
AcDbEntity
  8
1
  6
Continuous
 62
     7
100
AcDbLine
 10
270.8901630119
 20
209.8005638145
 30
0.0
 11
270.6401630119
 21
209.5505638145
 31
0.0
  0
LINE
  5
195
330
1F
100
AcDbEntity
  8
DEFAULT_1
  6
DOT_CENTER
 62
     2
100
AcDbLine
 10
270.1401630119
 20
210.5505638145
 30
0.0
 11
274.1577265551
 21
210.5505638145
 31
0.0
  0
LINE
  5
196
330
1F
100
AcDbEntity
  8
DEFAULT_1
  6
DOT_CENTER
 62
     2
100
AcDbLine
 10
270.1401630119
 20
210.5505638145
 30
0.0
 11
266.1401630119
 21
210.5505638145
 31
0.0
  0
LINE
  5
197
330
1F
100
AcDbEntity
  8
DEFAULT_1
  6
DOT_CENTER
 62
     2
100
AcDbLine
 10
270.1401630119
 20
135.0505638145
 30
0.0
 11
274.1401630119
 21
135.0505638145
 31
0.0
  0
LINE
  5
198
330
1F
100
AcDbEntity
  8
DEFAULT_1
  6
DOT_CENTER
 62
     2
100
AcDbLine
 10
270.1401630119
 20
135.0505638145
 30
0.0
 11
265.9950275411509
 21
135.0505638145
 31
0.0
  0
LINE
  5
199
330
1F
100
AcDbEntity
  8
1
  6
Continuous
 62
     7
100
AcDbLine
 10
269.6401630119
 20
137.3005638145
 30
0.0
 11
270.6401630119
 21
137.3005638145
 31
0.0
  0
LINE
  5
19A
330
1F
100
AcDbEntity
  8
1
  6
Continuous
 62
     7
100
AcDbLine
 10
270.6401630119
 20
137.3005638145
 30
0.0
 11
270.6401630119
 21
136.0505638145
 31
0.0
  0
LINE
  5
19B
330
1F
100
AcDbEntity
  8
1
  6
Continuous
 62
     7
100
AcDbLine
 10
271.1401630119
 20
135.5505638145
 30
0.0
 11
272.3901630119
 21
135.5505638145
 31
0.0
  0
LINE
  5
19C
330
1F
100
AcDbEntity
  8
1
  6
Continuous
 62
     7
100
AcDbLine
 10
272.3901630119
 20
135.5505638145
 30
0.0
 11
272.3901630119
 21
134.5505638145
 31
0.0
  0
LINE
  5
19D
330
1F
100
AcDbEntity
  8
1
  6
Continuous
 62
     7
100
AcDbLine
 10
272.3901630119
 20
134.5505638145
 30
0.0
 11
271.1401630119
 21
134.5505638145
 31
0.0
  0
LINE
  5
19E
330
1F
100
AcDbEntity
  8
1
  6
Continuous
 62
     7
100
AcDbLine
 10
270.6401630119
 20
134.0505638145
 30
0.0
 11
270.6401630119
 21
132.8005638145
 31
0.0
  0
LINE
  5
19F
330
1F
100
AcDbEntity
  8
1
  6
Continuous
 62
     7
100
AcDbLine
 10
270.6401630119
 20
132.8005638145
 30
0.0
 11
269.6401630119
 21
132.8005638145
 31
0.0
  0
LINE
  5
1A0
330
1F
100
AcDbEntity
  8
1
  6
Continuous
 62
     7
100
AcDbLine
 10
269.6401630119
 20
132.8005638145
 30
0.0
 11
269.6401630119
 21
134.0505638145
 31
0.0
  0
LINE
  5
1A1
330
1F
100
AcDbEntity
  8
1
  6
Continuous
 62
     7
100
AcDbLine
 10
269.1401630119
 20
134.5505638145
 30
0.0
 11
267.8901630119
 21
134.5505638145
 31
0.0
  0
LINE
  5
1A2
330
1F
100
AcDbEntity
  8
1
  6
Continuous
 62
     7
100
AcDbLine
 10
267.8901630119
 20
134.5505638145
 30
0.0
 11
267.8901630119
 21
135.5505638145
 31
0.0
  0
LINE
  5
1A3
330
1F
100
AcDbEntity
  8
1
  6
Continuous
 62
     7
100
AcDbLine
 10
267.8901630119
 20
135.5505638145
 30
0.0
 11
269.1401630119
 21
135.5505638145
 31
0.0
  0
LINE
  5
1A4
330
1F
100
AcDbEntity
  8
1
  6
Continuous
 62
     7
100
AcDbLine
 10
269.6401630119
 20
136.0505638145
 30
0.0
 11
269.6401630119
 21
137.3005638145
 31
0.0
  0
LINE
  5
1A5
330
1F
100
AcDbEntity
  8
1
  6
Continuous
 62
     7
100
AcDbLine
 10
269.6401630119
 20
136.0505638145
 30
0.0
 11
269.3901630119
 21
135.8005638145
 31
0.0
  0
LINE
  5
1A6
330
1F
100
AcDbEntity
  8
1
  6
Continuous
 62
     7
100
AcDbLine
 10
270.6401630119
 20
136.0505638145
 30
0.0
 11
270.8901630119
 21
135.8005638145
 31
0.0
  0
LINE
  5
1A7
330
1F
100
AcDbEntity
  8
1
  6
Continuous
 62
     7
100
AcDbLine
 10
271.1401630119
 20
134.5505638145
 30
0.0
 11
270.8901630119
 21
134.3005638145
 31
0.0
  0
LINE
  5
1A8
330
1F
100
AcDbEntity
  8
1
  6
Continuous
 62
     7
100
AcDbLine
 10
269.6401630119
 20
134.0505638145
 30
0.0
 11
269.3901630119
 21
134.3005638145
 31
0.0
  0
LINE
  5
1A9
330
1F
100
AcDbEntity
  8
1
  6
Continuous
 62
     2
100
AcDbLine
 10
270.8901630119
 20
135.8005638145
 30
0.0
 11
271.7311532695697
 21
136.6415540721697
 31
0.0
  0
LINE
  5
1AA
330
1F
100
AcDbEntity
  8
1
  6
Continuous
 62
     7
100
AcDbLine
 10
270.8901630119
 20
135.8005638145
 30
0.0
 11
271.1401630119
 21
135.5505638145
 31
0.0
  0
LINE
  5
1AB
330
1F
100
AcDbEntity
  8
1
  6
Continuous
 62
     2
100
AcDbLine
 10
269.3901630119
 20
135.8005638145
 30
0.0
 11
268.5491727542303
 21
136.6415540721697
 31
0.0
  0
LINE
  5
1AC
330
1F
100
AcDbEntity
  8
1
  6
Continuous
 62
     7
100
AcDbLine
 10
269.3901630119
 20
135.8005638145
 30
0.0
 11
269.1401630119
 21
135.5505638145
 31
0.0
  0
LINE
  5
1AD
330
1F
100
AcDbEntity
  8
1
  6
Continuous
 62
     2
100
AcDbLine
 10
269.3901630119
 20
134.3005638145
 30
0.0
 11
268.5491727542303
 21
133.4595735568302
 31
0.0
  0
LINE
  5
1AE
330
1F
100
AcDbEntity
  8
1
  6
Continuous
 62
     7
100
AcDbLine
 10
269.3901630119
 20
134.3005638145
 30
0.0
 11
269.1401630119
 21
134.5505638145
 31
0.0
  0
LINE
  5
1AF
330
1F
100
AcDbEntity
  8
1
  6
Continuous
 62
     2
100
AcDbLine
 10
270.8901630119
 20
134.3005638145
 30
0.0
 11
271.7311532695697
 21
133.4595735568302
 31
0.0
  0
LINE
  5
1B0
330
1F
100
AcDbEntity
  8
1
  6
Continuous
 62
     7
100
AcDbLine
 10
270.8901630119
 20
134.3005638145
 30
0.0
 11
270.6401630119
 21
134.0505638145
 31
0.0
  0
LINE
  5
1B1
330
1F
100
AcDbEntity
  8
1
  6
Continuous
 62
     7
100
AcDbLine
 10
224.335750997
 20
137.3005638145
 30
0.0
 11
225.335750997
 21
137.3005638145
 31
0.0
  0
LINE
  5
1B2
330
1F
100
AcDbEntity
  8
1
  6
Continuous
 62
     7
100
AcDbLine
 10
225.335750997
 20
137.3005638145
 30
0.0
 11
225.335750997
 21
136.0505638145
 31
0.0
  0
LINE
  5
1B3
330
1F
100
AcDbEntity
  8
1
  6
Continuous
 62
     7
100
AcDbLine
 10
225.835750997
 20
135.5505638145
 30
0.0
 11
227.085750997
 21
135.5505638145
 31
0.0
  0
LINE
  5
1B4
330
1F
100
AcDbEntity
  8
1
  6
Continuous
 62
     7
100
AcDbLine
 10
227.085750997
 20
135.5505638145
 30
0.0
 11
227.085750997
 21
134.5505638145
 31
0.0
  0
LINE
  5
1B5
330
1F
100
AcDbEntity
  8
1
  6
Continuous
 62
     7
100
AcDbLine
 10
227.085750997
 20
134.5505638145
 30
0.0
 11
225.835750997
 21
134.5505638145
 31
0.0
  0
LINE
  5
1B6
330
1F
100
AcDbEntity
  8
1
  6
Continuous
 62
     7
100
AcDbLine
 10
225.335750997
 20
134.0505638145
 30
0.0
 11
225.335750997
 21
132.8005638145
 31
0.0
  0
LINE
  5
1B7
330
1F
100
AcDbEntity
  8
1
  6
Continuous
 62
     7
100
AcDbLine
 10
225.335750997
 20
132.8005638145
 30
0.0
 11
224.335750997
 21
132.8005638145
 31
0.0
  0
LINE
  5
1B8
330
1F
100
AcDbEntity
  8
1
  6
Continuous
 62
     7
100
AcDbLine
 10
224.335750997
 20
132.8005638145
 30
0.0
 11
224.335750997
 21
134.0505638145
 31
0.0
  0
LINE
  5
1B9
330
1F
100
AcDbEntity
  8
1
  6
Continuous
 62
     7
100
AcDbLine
 10
223.835750997
 20
134.5505638145
 30
0.0
 11
222.585750997
 21
134.5505638145
 31
0.0
  0
LINE
  5
1BA
330
1F
100
AcDbEntity
  8
1
  6
Continuous
 62
     7
100
AcDbLine
 10
222.585750997
 20
134.5505638145
 30
0.0
 11
222.585750997
 21
135.5505638145
 31
0.0
  0
LINE
  5
1BB
330
1F
100
AcDbEntity
  8
1
  6
Continuous
 62
     7
100
AcDbLine
 10
222.585750997
 20
135.5505638145
 30
0.0
 11
223.835750997
 21
135.5505638145
 31
0.0
  0
LINE
  5
1BC
330
1F
100
AcDbEntity
  8
1
  6
Continuous
 62
     7
100
AcDbLine
 10
224.335750997
 20
136.0505638145
 30
0.0
 11
224.335750997
 21
137.3005638145
 31
0.0
  0
LINE
  5
1BD
330
1F
100
AcDbEntity
  8
1
  6
Continuous
 62
     7
100
AcDbLine
 10
224.335750997
 20
136.0505638145
 30
0.0
 11
224.085750997
 21
135.8005638145
 31
0.0
  0
LINE
  5
1BE
330
1F
100
AcDbEntity
  8
1
  6
Continuous
 62
     7
100
AcDbLine
 10
225.335750997
 20
136.0505638145
 30
0.0
 11
225.585750997
 21
135.8005638145
 31
0.0
  0
LINE
  5
1BF
330
1F
100
AcDbEntity
  8
1
  6
Continuous
 62
     7
100
AcDbLine
 10
225.835750997
 20
134.5505638145
 30
0.0
 11
225.585750997
 21
134.3005638145
 31
0.0
  0
LINE
  5
1C0
330
1F
100
AcDbEntity
  8
1
  6
Continuous
 62
     7
100
AcDbLine
 10
224.335750997
 20
134.0505638145
 30
0.0
 11
224.085750997
 21
134.3005638145
 31
0.0
  0
LINE
  5
1C1
330
1F
100
AcDbEntity
  8
1
  6
Continuous
 62
     2
100
AcDbLine
 10
225.585750997
 20
135.8005638145
 30
0.0
 11
226.4267412546697
 21
136.6415540721697
 31
0.0
  0
LINE
  5
1C2
330
1F
100
AcDbEntity
  8
1
  6
Continuous
 62
     7
100
AcDbLine
 10
225.585750997
 20
135.8005638145
 30
0.0
 11
225.835750997
 21
135.5505638145
 31
0.0
  0
LINE
  5
1C3
330
1F
100
AcDbEntity
  8
1
  6
Continuous
 62
     2
100
AcDbLine
 10
224.085750997
 20
135.8005638145
 30
0.0
 11
223.2447607393303
 21
136.6415540721697
 31
0.0
  0
LINE
  5
1C4
330
1F
100
AcDbEntity
  8
1
  6
Continuous
 62
     7
100
AcDbLine
 10
224.085750997
 20
135.8005638145
 30
0.0
 11
223.835750997
 21
135.5505638145
 31
0.0
  0
LINE
  5
1C5
330
1F
100
AcDbEntity
  8
1
  6
Continuous
 62
     2
100
AcDbLine
 10
224.085750997
 20
134.3005638145
 30
0.0
 11
223.2447607393303
 21
133.4595735568302
 31
0.0
  0
LINE
  5
1C6
330
1F
100
AcDbEntity
  8
1
  6
Continuous
 62
     7
100
AcDbLine
 10
224.085750997
 20
134.3005638145
 30
0.0
 11
223.835750997
 21
134.5505638145
 31
0.0
  0
LINE
  5
1C7
330
1F
100
AcDbEntity
  8
1
  6
Continuous
 62
     2
100
AcDbLine
 10
225.585750997
 20
134.3005638145
 30
0.0
 11
226.4267412546697
 21
133.4595735568302
 31
0.0
  0
LINE
  5
1C8
330
1F
100
AcDbEntity
  8
1
  6
Continuous
 62
     7
100
AcDbLine
 10
225.585750997
 20
134.3005638145
 30
0.0
 11
225.335750997
 21
134.0505638145
 31
0.0
  0
ARC
  5
1C9
330
1F
100
AcDbEntity
  8
0
  6
Continuous
 62
     7
100
AcDbCircle
 10
281.4465096338
 20
150.0005638145
 30
0.0
 40
0.5
100
AcDbArc
 50
-90.0
 51
-0.49999999439595
  0
ARC
  5
1CA
330
1F
100
AcDbEntity
  8
0
  6
Continuous
 62
     7
100
AcDbCircle
 10
281.4569818751
 20
151.2005638145
 30
0.0
 40
0.5
100
AcDbArc
 50
-90.0
 51
-0.5000000028413
  0
ARC
  5
1CB
330
1F
100
AcDbEntity
  8
0
  6
Continuous
 62
     7
100
AcDbCircle
 10
282.6690615248294
 20
149.9742713523553
 30
0.0
 40
0.4744363562641141
100
AcDbArc
 50
-93.17624451417616
 51
-3.18003666496399
  0
ARC
  5
1CC
330
1F
100
AcDbEntity
  8
A_FASEN
  6
DASHED
 62
     2
100
AcDbCircle
 10
275.2401630119
 20
126.0505638145
 30
0.0
 40
2.579927207200001
100
AcDbArc
 50
180.0
 51
0.0
  0
ARC
  5
1CD
330
1F
100
AcDbEntity
  8
A_FASEN
  6
DASHED
 62
     2
100
AcDbCircle
 10
275.2401630119
 20
128.0505638145
 30
0.0
 40
2.579927207200001
100
AcDbArc
 50
0.0
 51
180.0
  0
LINE
  5
1CE
330
1F
100
AcDbEntity
  8
A_FASEN
  6
Continuous
 62
     7
100
AcDbLine
 10
270.1401630119
 20
130.2492253193
 30
0.0
 11
270.140124598479
 21
130.24913621356
 31
0.0
  0
ARC
  5
1CF
330
1F
100
AcDbEntity
  8
A_FASEN
  6
DASHED
 62
     2
100
AcDbCircle
 10
275.2401630119
 20
128.0505638145
 30
0.0
 40
5.553747600699978
100
AcDbArc
 50
0.0
 51
113.8398347622026
  0
ARC
  5
1D0
330
1F
100
AcDbEntity
  8
A_FASEN
  6
DASHED
 62
     2
100
AcDbCircle
 10
275.2401630119
 20
126.0505638145
 30
0.0
 40
5.553747600699757
100
AcDbArc
 50
-156.6789027380971
 51
0.0
  0
ARC
  5
1D1
330
1F
100
AcDbEntity
  8
A_RUNDUNGEN
  6
Continuous
 62
     7
100
AcDbCircle
 10
269.6901630119
 20
153.3005638145
 30
0.0
 40
13.91927647289998
100
AcDbArc
 50
180.0
 51
-169.808680241299
  0
ARC
  5
1D2
330
1F
100
AcDbEntity
  8
0
  6
DASHED
 62
     2
100
AcDbCircle
 10
270.0901630119
 20
132.80265170955
 30
0.0
 40
14.49999063072103
100
AcDbArc
 50
-175.2259255963501
 51
-0.00825018290634
  0
ARC
  5
1D3
330
1F
100
AcDbEntity
  8
0
  6
Continuous
 62
     7
100
AcDbCircle
 10
257.3338163901
 20
150.0005638145
 30
0.0
 40
0.5000000000675273
100
AcDbArc
 50
-179.5000000057041
 51
-90.0
  0
ARC
  5
1D4
330
1F
100
AcDbEntity
  8
0
  6
Continuous
 62
     7
100
AcDbCircle
 10
257.3233441487
 20
151.2005638145
 30
0.0
 40
0.4999999999999159
100
AcDbArc
 50
-179.5000000000214
 51
-90.0
  0
ARC
  5
1D5
330
1F
100
AcDbEntity
  8
A_FASEN
  6
DASHED
 62
     2
100
AcDbCircle
 10
265.0401630119
 20
126.0505638145
 30
0.0
 40
2.579927207200001
100
AcDbArc
 50
180.0
 51
0.0
  0
ARC
  5
1D6
330
1F
100
AcDbEntity
  8
A_FASEN
  6
DASHED
 62
     2
100
AcDbCircle
 10
265.0401630119
 20
128.0505638145
 30
0.0
 40
2.579927207200001
100
AcDbArc
 50
0.0
 51
180.0
  0
ARC
  5
1D7
330
1F
100
AcDbEntity
  8
A_FASEN
  6
DASHED
 62
     2
100
AcDbCircle
 10
265.0401630119
 20
128.0505638145
 30
0.0
 40
5.553747600700423
100
AcDbArc
 50
66.16012580709865
 51
180.0
  0
ARC
  5
1D8
330
1F
100
AcDbEntity
  8
A_FASEN
  6
DASHED
 62
     2
100
AcDbCircle
 10
265.0401630119
 20
128.0505638145
 30
0.0
 40
5.553747600736731
100
AcDbArc
 50
23.32136195832571
 51
33.11032920240014
  0
ARC
  5
1D9
330
1F
100
AcDbEntity
  8
A_FASEN
  6
DASHED
 62
     2
100
AcDbCircle
 10
265.0401630119
 20
126.0505638145
 30
0.0
 40
5.553747600699978
100
AcDbArc
 50
180.0
 51
-23.32109524090383
  0
ARC
  5
1DA
330
1F
100
AcDbEntity
  8
0
  6
Continuous
 62
     7
100
AcDbCircle
 10
237.7670976188
 20
150.0005638145
 30
0.0
 40
0.5
100
AcDbArc
 50
-90.0
 51
-0.49999999439595
  0
ARC
  5
1DB
330
1F
100
AcDbEntity
  8
0
  6
Continuous
 62
     7
100
AcDbCircle
 10
212.6044043751
 20
150.0005638145
 30
0.0
 40
0.4999999999674867
100
AcDbArc
 50
-179.5000000056041
 51
-90.0
  0
ARC
  5
1DC
330
1F
100
AcDbEntity
  8
0
  6
Continuous
 62
     7
100
AcDbCircle
 10
212.3068757448976
 20
149.974300023034
 30
0.0
 40
0.4744636947048693
100
AcDbArc
 50
-176.816679138889
 51
-86.82675200040111
  0
ARC
  5
1DD
330
1F
100
AcDbEntity
  8
0
  6
DASHED
 62
     2
100
AcDbCircle
 10
224.835750997
 20
127.0505638145
 30
0.0
 40
5.10872686782464
100
AcDbArc
 50
100.0351827388581
 51
79.96481726178394
  0
ARC
  5
1DE
330
1F
100
AcDbEntity
  8
0
  6
DASHED
 62
     2
100
AcDbCircle
 10
224.8362162922
 20
126.9351870096
 30
0.0
 40
5.22229792039952
100
AcDbArc
 50
80.1904212713995
 51
90.00510492734374
  0
ARC
  5
1DF
330
1F
100
AcDbEntity
  8
0
  6
DASHED
 62
     2
100
AcDbCircle
 10
224.8357394019
 20
126.9298972529001
 30
0.0
 40
5.227587656399761
100
AcDbArc
 50
89.99987291460089
 51
99.8046008861046
  0
ARC
  5
1E0
330
1F
100
AcDbEntity
  8
0
  6
Continuous
 62
     7
100
AcDbCircle
 10
225.285750997
 20
152.3005638145
 30
0.0
 40
13.89527758649958
100
AcDbArc
 50
-10.16529520879964
 51
0.0
  0
ARC
  5
1E1
330
1F
100
AcDbEntity
  8
0
  6
Continuous
 62
     7
100
AcDbCircle
 10
224.835750997
 20
131.5505638145
 30
0.0
 40
14.44998096079999
100
AcDbArc
 50
179.9999999996035
 51
0.0
  0
ARC
  5
1E2
330
1F
100
AcDbEntity
  8
0
  6
Continuous
 62
     7
100
AcDbCircle
 10
278.5857902639
 20
196.6005638145
 30
0.0
 40
0.4999858238998291
100
AcDbArc
 50
-156.4211125266961
 51
-89.9967509471455
  0
ARC
  5
1E3
330
1F
100
AcDbEntity
  8
0
  6
Continuous
 62
     7
100
AcDbCircle
 10
281.4465096338
 20
195.6005638145
 30
0.0
 40
0.4999999999683595
100
AcDbArc
 50
0.5000000058565
 51
90.0
  0
ARC
  5
1E4
330
1F
100
AcDbEntity
  8
0
  6
Continuous
 62
     7
100
AcDbCircle
 10
281.4569818751
 20
194.4005638145
 30
0.0
 40
0.4999999999999159
100
AcDbArc
 50
0.4999999999786
 51
90.0
  0
ARC
  5
1E5
330
1F
100
AcDbEntity
  8
0
  6
Continuous
 62
     7
100
AcDbCircle
 10
282.642757629
 20
195.6531584317
 30
0.0
 40
0.5000096931737817
100
AcDbArc
 50
0.00189607539002
 51
89.99810392460634
  0
ARC
  5
1E6
330
1F
100
AcDbEntity
  8
A_FASEN
  6
DASHED
 62
     2
100
AcDbCircle
 10
275.2401630119
 20
219.5505638145
 30
0.0
 40
2.579927207200001
100
AcDbArc
 50
0.0
 51
180.0
  0
ARC
  5
1E7
330
1F
100
AcDbEntity
  8
A_FASEN
  6
DASHED
 62
     2
100
AcDbCircle
 10
275.2401630119
 20
217.5505638145
 30
0.0
 40
2.579927207200001
100
AcDbArc
 50
180.0
 51
0.0
  0
ARC
  5
1E8
330
1F
100
AcDbEntity
  8
A_FASEN
  6
DASHED
 62
     2
100
AcDbCircle
 10
275.2401630119
 20
219.5505638145
 30
0.0
 40
5.553747600699978
100
AcDbArc
 50
0.0
 51
156.6789027380973
  0
ARC
  5
1E9
330
1F
100
AcDbEntity
  8
A_FASEN
  6
DASHED
 62
     2
100
AcDbCircle
 10
275.2401630119
 20
217.5505638145
 30
0.0
 40
5.553747600699807
100
AcDbArc
 50
-113.8398347652043
 51
0.0
  0
ARC
  5
1EA
330
1F
100
AcDbEntity
  8
A_FASEN
  6
DASHED
 62
     2
100
AcDbCircle
 10
275.2401630119
 20
217.5505638145
 30
0.0
 40
5.553747600700535
100
AcDbArc
 50
-156.6796390899986
 51
-146.8895990221978
  0
ARC
  5
1EB
330
1F
100
AcDbEntity
  8
A_RUNDUNGEN
  6
Continuous
 62
     7
100
AcDbCircle
 10
269.6901630119
 20
192.3005638145
 30
0.0
 40
13.91927647289996
100
AcDbArc
 50
169.8086802412991
 51
180.0
  0
ARC
  5
1EC
330
1F
100
AcDbEntity
  8
0
  6
DASHED
 62
     2
100
AcDbCircle
 10
270.1401630119
 20
212.8005638145
 30
0.0
 40
14.44999048040001
100
AcDbArc
 50
4.78232458655787
 51
180.0
  0
ARC
  5
1ED
330
1F
100
AcDbEntity
  8
0
  6
Continuous
 62
     7
100
AcDbCircle
 10
261.69453577
 20
196.6005638145
 30
0.0
 40
0.4999858188000175
100
AcDbArc
 50
-36.94044564121775
 51
-23.57888772837178
  0
ARC
  5
1EE
330
1F
100
AcDbEntity
  8
0
  6
Continuous
 62
     7
100
AcDbCircle
 10
257.3338163901
 20
195.6005638145
 30
0.0
 40
0.5
100
AcDbArc
 50
90.0
 51
179.4999999942436
  0
ARC
  5
1EF
330
1F
100
AcDbEntity
  8
0
  6
Continuous
 62
     7
100
AcDbCircle
 10
257.3233441487
 20
194.4005638145
 30
0.0
 40
0.5
100
AcDbArc
 50
90.0
 51
179.4999999971554
  0
ARC
  5
1F0
330
1F
100
AcDbEntity
  8
A_FASEN
  6
DASHED
 62
     2
100
AcDbCircle
 10
265.0401630119
 20
219.5505638145
 30
0.0
 40
2.579927207200001
100
AcDbArc
 50
0.0
 51
180.0
  0
ARC
  5
1F1
330
1F
100
AcDbEntity
  8
A_FASEN
  6
DASHED
 62
     2
100
AcDbCircle
 10
265.0401630119
 20
217.5505638145
 30
0.0
 40
2.579927207200001
100
AcDbArc
 50
180.0
 51
0.0
  0
ARC
  5
1F2
330
1F
100
AcDbEntity
  8
A_FASEN
  6
DASHED
 62
     2
100
AcDbCircle
 10
265.0401630119
 20
217.5505638145
 30
0.0
 40
5.553747600699978
100
AcDbArc
 50
180.0
 51
-66.1601258100969
  0
ARC
  5
1F3
330
1F
100
AcDbEntity
  8
A_FASEN
  6
DASHED
 62
     2
100
AcDbCircle
 10
265.0401630119
 20
219.5505638145
 30
0.0
 40
5.55374760070004
100
AcDbArc
 50
23.32109524090369
 51
180.0
  0
ARC
  5
1F4
330
1F
100
AcDbEntity
  8
A_FASEN
  6
DASHED
 62
     2
100
AcDbCircle
 10
265.0401630119
 20
217.5505638145
 30
0.0
 40
5.55374760070023
100
AcDbArc
 50
-33.11032920299847
 51
-23.32034288610263
  0
ARC
  5
1F5
330
1F
100
AcDbEntity
  8
0
  6
Continuous
 62
     7
100
AcDbCircle
 10
231.7813782668
 20
196.5505638145
 30
0.0
 40
0.4999858327998549
100
AcDbArc
 50
-151.6518335058867
 51
-89.99675299467468
  0
ARC
  5
1F6
330
1F
100
AcDbEntity
  8
0
  6
Continuous
 62
     7
100
AcDbCircle
 10
237.7670976188
 20
195.5505638145
 30
0.0
 40
0.4999999999683593
100
AcDbArc
 50
0.50000000585324
 51
90.0
  0
ARC
  5
1F7
330
1F
100
AcDbEntity
  8
0
  6
Continuous
 62
     7
100
AcDbCircle
 10
225.285750997
 20
193.3005638145
 30
0.0
 40
13.89527758649999
100
AcDbArc
 50
0.0
 51
10.16529520879952
  0
ARC
  5
1F8
330
1F
100
AcDbEntity
  8
0
  6
Continuous
 62
     7
100
AcDbCircle
 10
212.6044156251
 20
195.5505638145
 30
0.0
 40
0.5000000001265624
100
AcDbArc
 50
90.00128915503883
 51
179.5000112495621
  0
ARC
  5
1F9
330
1F
100
AcDbEntity
  8
0
  6
Continuous
 62
     7
100
AcDbCircle
 10
212.3331837876
 20
195.6531310239
 30
0.0
 40
0.5000396283998687
100
AcDbArc
 50
90.00503643453958
 51
179.9949635654604
  0
ARC
  5
1FA
330
1F
100
AcDbEntity
  8
0
  6
DASHED
 62
     2
100
AcDbCircle
 10
224.835750997
 20
218.5505638145
 30
0.0
 40
5.108726867725582
100
AcDbArc
 50
-79.96481726104764
 51
-100.0351827395154
  0
ARC
  5
1FB
330
1F
100
AcDbEntity
  8
0
  6
DASHED
 62
     2
100
AcDbCircle
 10
224.8352857017
 20
218.6659406195
 30
0.0
 40
5.222297920399502
100
AcDbArc
 50
-99.80957872860021
 51
-89.99489507155896
  0
ARC
  5
1FC
330
1F
100
AcDbEntity
  8
0
  6
DASHED
 62
     2
100
AcDbCircle
 10
224.8357625921
 20
218.6712303762
 30
0.0
 40
5.227587656399846
100
AcDbArc
 50
-90.00012708539911
 51
-80.19539911399472
  0
ARC
  5
1FD
330
1F
100
AcDbEntity
  8
0
  6
Continuous
 62
     7
100
AcDbCircle
 10
224.835750997
 20
214.0505638145
 30
0.0
 40
14.44998096080002
100
AcDbArc
 50
0.0
 51
180.0
  0
ARC
  5
1FE
330
1F
100
AcDbEntity
  8
A_FASEN
  6
DASHED
 62
     2
100
AcDbCircle
 10
275.2401630119
 20
128.0505638145
 30
0.0
 40
5.55374760070005
100
AcDbArc
 50
146.8895990215941
 51
156.6786380416745
  0
LINE
  5
1FF
330
1F
100
AcDbEntity
  8
A_FASEN
  6
Continuous
 62
     7
100
AcDbLine
 10
270.140202116702
 20
130.24913460976
 30
0.0
 11
270.1401630119
 21
130.2492253193
 31
0.0
  0
ARC
  5
200
330
1F
100
AcDbEntity
  8
0
  6
Continuous
 62
     7
100
AcDbCircle
 10
270.1401630119
 20
214.1005638145
 30
0.0
 40
14.40000000000001
100
AcDbArc
 50
90.0
 51
180.0
  0
ARC
  5
201
330
1F
100
AcDbEntity
  8
0
  6
Continuous
 62
     7
100
AcDbCircle
 10
261.69453577
 20
196.6005638145
 30
0.0
 40
0.4999858187999848
100
AcDbArc
 50
-90.0
 51
-36.94044564121775
  0
ARC
  5
202
330
1F
100
AcDbEntity
  8
0
  6
Continuous
 62
     7
100
AcDbCircle
 10
231.7813782668
 20
196.5505638145
 30
0.0
 40
0.4999858327998796
100
AcDbArc
 50
-162.5418863123476
 51
-151.6518335058867
  0
ARC
  5
203
330
1F
100
AcDbEntity
  8
0
  6
Continuous
 62
     7
100
AcDbCircle
 10
213.9400266775
 20
196.6005638145
 30
0.0
 40
0.4999858238998702
100
AcDbArc
 50
-63.4849016140006
 51
-23.5788874733013
  0
ARC
  5
204
330
1F
100
AcDbEntity
  8
0
  6
Continuous
 62
     7
100
AcDbCircle
 10
270.0901630119
 20
131.5005638145
 30
0.0
 40
14.44999999999995
100
AcDbArc
 50
-89.8017443119456
 51
0.0
  0
ARC
  5
205
330
1F
100
AcDbEntity
  8
0
  6
Continuous
 62
     7
100
AcDbCircle
 10
270.1401630119
 20
214.1005638145
 30
0.0
 40
14.40000000000003
100
AcDbArc
 50
0.0
 51
90.0
  0
ARC
  5
206
330
1F
100
AcDbEntity
  8
0
  6
Continuous
 62
     7
100
AcDbCircle
 10
270.0901630119
 20
131.5005638145
 30
0.0
 40
14.45000000000002
100
AcDbArc
 50
180.0
 51
-89.8017443119456
  0
CIRCLE
  5
207
330
1F
100
AcDbEntity
  8
0
  6
DASHED
 62
     2
100
AcDbCircle
 10
224.835750997
 20
127.0505638145
 30
0.0
 40
2.735725242099889
  0
CIRCLE
  5
208
330
1F
100
AcDbEntity
  8
0
  6
DASHED
 62
     2
100
AcDbCircle
 10
224.835750997
 20
218.5505638145
 30
0.0
 40
2.735725242100017
  0
CIRCLE
  5
209
330
1F
100
AcDbEntity
  8
1
  6
Continuous
 62
     7
100
AcDbCircle
 10
224.835750997
 20
210.5505638145
 30
0.0
 40
3.499899999999997
  0
CIRCLE
  5
20A
330
1F
100
AcDbEntity
  8
1
  6
Continuous
 62
     7
100
AcDbCircle
 10
270.1401630119
 20
210.5505638145
 30
0.0
 40
3.499899999999997
  0
CIRCLE
  5
20B
330
1F
100
AcDbEntity
  8
1
  6
Continuous
 62
     7
100
AcDbCircle
 10
270.1401630119
 20
135.0505638145
 30
0.0
 40
3.499899999999997
  0
CIRCLE
  5
20C
330
1F
100
AcDbEntity
  8
1
  6
Continuous
 62
     7
100
AcDbCircle
 10
224.835750997
 20
135.0505638145
 30
0.0
 40
3.499899999999997
  0
SPLINE
  5
20D
330
1F
100
AcDbEntity
  8
A_RUNDUNGEN
  6
Continuous
 62
     7
100
AcDbSpline
210
0.0
220
0.0
230
1.0
 70
     8
 71
     3
 72
    19
 73
    15
 74
    13
 42
0.0000000001
 43
0.0000000001
 44
0.00000001
 40
0.0
 40
0.0
 40
0.0
 40
0.0
 40
0.0582106704606606
 40
0.0974764320959135
 40
0.1215824640964936
 40
0.1343144758440714
 40
0.1394603299728626
 40
0.1408195951331609
 40
0.1461432358665189
 40
0.1507419329798479
 40
0.1586500762949903
 40
0.1669479181950461
 40
0.1782237449617958
 40
0.1893766560668232
 40
0.1893766560668232
 40
0.1893766560668232
 40
0.1893766560668232
 10
256.3333225786
 20
149.2005638145
 30
0.0
 10
256.3334633493757
 20
149.2199683263865
 30
0.0
 10
256.333699076483
 20
149.2524620697207
 30
0.0
 10
256.3337820245291
 20
149.2929775952571
 30
0.0
 10
256.3339248114258
 20
149.3183678708748
 30
0.0
 10
256.3335712001163
 20
149.332327813252
 30
0.0
 10
256.3336522338478
 20
149.3387786168715
 30
0.0
 10
256.332883333849
 20
149.3426520516216
 30
0.0
 10
256.3316138297902
 20
149.3462199102124
 30
0.0
 10
256.3311121190551
 20
149.3521711747764
 30
0.0
 10
256.3295005223159
 20
149.358929831783
 30
0.0
 10
256.3270443990304
 20
149.3677517343357
 30
0.0
 10
256.3245419762893
 20
149.3776855122734
 30
0.0
 10
256.3227185039863
 20
149.3849356859407
 30
0.0
 10
256.3218117644
 20
149.3885409063
 30
0.0
 11
256.3333225786
 21
149.2005638145
 31
0.0
 11
256.333684541841
 21
149.2587733595772
 31
0.0
 11
256.333821415805
 21
149.2980388826517
 31
0.0
 11
256.3337836940037
 21
149.3221448851382
 31
0.0
 11
256.3336218699486
 21
149.3348758684511
 31
0.0
 11
256.3333864371514
 21
149.3400163340052
 31
0.0
 11
256.3331278891237
 21
149.341350783215
 31
0.0
 11
256.3317732983125
 21
149.3464992037875
 31
0.0
 11
256.3311218345934
 21
149.3510515229946
 31
0.0
 11
256.3294847509325
 21
149.3587883626452
 31
0.0
 11
256.3273384485503
 21
149.3668038206036
 31
0.0
 11
256.3245327646889
 21
149.3777250113511
 31
0.0
 11
256.3218117644
 21
149.3885409063
 31
0.0
  0
SPLINE
  5
20E
330
1F
100
AcDbEntity
  8
A_RUNDUNGEN
  6
Continuous
 62
     7
100
AcDbSpline
210
0.0
220
0.0
230
1.0
 70
     8
 71
     3
 72
    23
 73
    19
 74
    17
 42
0.0000000001
 43
0.0000000001
 44
0.00000001
 40
0.0
 40
0.0
 40
0.0
 40
0.0
 40
0.2226526712674952
 40
0.4453014473625254
 40
0.5534923103797948
 40
0.6616819149759695
 40
0.7663586512035075
 40
0.8710311643493734
 40
0.9715624869518995
 40
1.072087452716873
 40
1.168292712708249
 40
1.264498030395636
 40
1.356756978363258
 40
1.448968031355395
 40
1.538060873658263
 40
1.627337481807184
 40
1.715255206689106
 40
1.802320078684061
 40
1.802320078684061
 40
1.802320078684061
 40
1.802320078684061
 10
260.9292007635
 20
180.0505638145
 30
0.0
 10
261.0034701271899
 20
180.0534327178621
 30
0.0
 10
261.1520075552726
 20
180.0591704743964
 30
0.0
 10
261.3333419857161
 20
180.0981494537376
 30
0.0
 10
261.4727781013721
 20
180.1427248918246
 30
0.0
 10
261.5721166552989
 20
180.1828517727657
 30
0.0
 10
261.6671152633861
 20
180.22974341487
 30
0.0
 10
261.7559895651046
 20
180.2826050431651
 30
0.0
 10
261.8391709567063
 20
180.3416749197243
 30
0.0
 10
261.9149317001407
 20
180.4057354896528
 30
0.0
 10
261.9837448835375
 20
180.4751929143881
 30
0.0
 10
262.04411326645
 20
180.5485940195653
 30
0.0
 10
262.0963248772891
 20
180.6264074990053
 30
0.0
 10
262.1394326907687
 20
180.7069370348731
 30
0.0
 10
262.1736929211893
 20
180.79056221005
 30
0.0
 10
262.198007308404
 20
180.8761013035986
 30
0.0
 10
262.2127269317494
 20
180.9632086356867
 30
0.0
 10
262.2149661712152
 20
181.0215401895278
 30
0.0
 10
262.216080334
 20
181.0505638145
 30
0.0
 11
260.9292007635
 21
180.0505638145
 31
0.0
 11
261.1513467561399
 21
180.0655761419869
 31
0.0
 11
261.3693394986391
 21
180.1108711937509
 31
0.0
 11
261.4723354453625
 21
180.1439936604308
 31
0.0
 11
261.5726405487439
 21
180.1845384107484
 31
0.0
 11
261.6664690977338
 21
180.2309433943354
 31
0.0
 11
261.7563910065708
 21
180.284519371409
 31
0.0
 11
261.8383074105428
 21
180.3427967219365
 31
0.0
 11
261.9150077074406
 21
180.4077762048357
 31
0.0
 11
261.9826460056879
 21
180.4761904771786
 31
0.0
 11
262.0436711631609
 21
180.5505638145162
 31
0.0
 11
262.0950214231219
 21
180.6272114777684
 31
0.0
 11
262.1384719997367
 21
180.7085436711838
 31
0.0
 11
262.1720984010176
 21
180.7910470025499
 31
0.0
 11
262.1965297417204
 21
180.8769156368353
 31
0.0
 11
262.2108792100549
 21
180.9636544349993
 31
0.0
 11
262.216080334
 21
181.0505638145
 31
0.0
  0
SPLINE
  5
20F
330
1F
100
AcDbEntity
  8
A_RUNDUNGEN
  6
Continuous
 62
     7
100
AcDbSpline
210
0.0
220
0.0
230
1.0
 70
     8
 71
     3
 72
    23
 73
    19
 74
    17
 42
0.0000000001
 43
0.0000000001
 44
0.00000001
 40
0.0
 40
0.0
 40
0.0
 40
0.0
 40
0.1764149137654088
 40
0.3528449342301946
 40
0.4450786108325118
 40
0.5373194618386217
 40
0.6335210643539274
 40
0.7297287658691971
 40
0.8302534710717644
 40
0.9307853844826444
 40
1.035460456002441
 40
1.140134619508026
 40
1.248315050479151
 40
1.356514732560408
 40
1.467271197794899
 40
1.57797272020649
 40
1.689932107718537
 40
1.80207424479557
 40
1.80207424479557
 40
1.80207424479557
 40
1.80207424479557
 10
262.216080334
 20
164.5505638145
 30
0.0
 10
262.2121875725283
 20
164.6094851799767
 30
0.0
 10
262.2044017162413
 20
164.7273329564636
 30
0.0
 10
262.1529637459547
 20
164.8685276975502
 30
0.0
 10
262.0964229531518
 20
164.9747528504806
 30
0.0
 10
262.0440861678132
 20
165.0525327513346
 30
0.0
 10
261.9837358998637
 20
165.1259205919106
 30
0.0
 10
261.91493397234
 20
165.1953942448274
 30
0.0
 10
261.8391744829533
 20
165.2594566979333
 30
0.0
 10
261.7559881467153
 20
165.3185224394504
 30
0.0
 10
261.6671146496666
 20
165.37138229677
 30
0.0
 10
261.5721184122536
 20
165.4182838096478
 30
0.0
 10
261.4727817343037
 20
165.4583668081451
 30
0.0
 10
261.3688689056948
 20
165.4917206564209
 30
0.0
 10
261.2620494247883
 20
165.5179111246347
 30
0.0
 10
261.1524237551534
 20
165.536635480119
 30
0.0
 10
261.0412944975018
 20
165.548178837887
 30
0.0
 10
260.9665856492748
 20
165.5497683902147
 30
0.0
 10
260.9292007635
 20
165.5505638145
 30
0.0
 11
262.216080334
 21
164.5505638145
 31
0.0
 11
262.1961546010307
 21
164.725849829243
 31
0.0
 11
262.1384719997392
 21
164.8925839578114
 31
0.0
 11
262.0950497242145
 21
164.9739569084021
 31
0.0
 11
262.0436711631645
 21
165.0505638144796
 31
0.0
 11
261.9826378270643
 21
165.1249256340579
 31
0.0
 11
261.9150077074449
 21
165.1933514241601
 31
0.0
 11
261.8383101444921
 21
165.2583337309302
 31
0.0
 11
261.7563910065762
 21
165.3166082575878
 31
0.0
 11
261.6664667545671
 21
165.37018530023
 31
0.0
 11
261.5726405487496
 21
165.4165892182487
 31
0.0
 11
261.4723422528605
 21
165.4571263307118
 31
0.0
 11
261.3693394986451
 21
165.4902564352471
 31
0.0
 11
261.2617678131033
 21
165.5166254902346
 31
0.0
 11
261.1526650557942
 21
165.5353715674719
 31
0.0
 11
261.0412742604136
 21
165.5466407802467
 31
0.0
 11
260.9292007635
 21
165.5505638145
 31
0.0
  0
SPLINE
  5
210
330
1F
100
AcDbEntity
  8
A_RUNDUNGEN
  6
Continuous
 62
     7
100
AcDbSpline
210
0.0
220
0.0
230
1.0
 70
     8
 71
     3
 72
    23
 73
    19
 74
    17
 42
0.0000000001
 43
0.0000000001
 44
0.00000001
 40
0.0
 40
0.0
 40
0.0
 40
0.0
 40
0.1751795975873648
 40
0.3503637991418689
 40
0.439684563463998
 40
0.5290087685842507
 40
0.620029787680581
 40
0.7110528762459286
 40
0.8039682536618817
 40
0.8968880889059873
 40
0.991665168429848
 40
1.086439010920392
 40
1.182807979340546
 40
1.279198358759652
 40
1.376787226474346
 40
1.474307224915305
 40
1.572357302955883
 40
1.670645314055142
 40
1.670645314055142
 40
1.670645314055142
 40
1.670645314055142
 10
231.1762388849
 20
165.3005638145
 30
0.0
 10
231.1795803266985
 20
165.2420822839972
 30
0.0
 10
231.1862632981134
 20
165.1251176860145
 30
0.0
 10
231.2309183236049
 20
164.9839381373471
 30
0.0
 10
231.280681067168
 20
164.876960965981
 30
0.0
 10
231.3263123283431
 20
164.7993302277474
 30
0.0
 10
231.3791699025749
 20
164.7257797555358
 30
0.0
 10
231.4392277081496
 20
164.6563828157214
 30
0.0
 10
231.5056431365725
 20
164.5921355557015
 30
0.0
 10
231.5783285317333
 20
164.5330826958959
 30
0.0
 10
231.656273426652
 20
164.4800608127756
 30
0.0
 10
231.73934944057
 20
164.4331350494236
 30
0.0
 10
231.8264714401601
 20
164.3929295651073
 30
0.0
 10
231.9174162295336
 20
164.3595367236271
 30
0.0
 10
232.0110846414962
 20
164.3332940961176
 30
0.0
 10
232.1070702980688
 20
164.3145344775268
 30
0.0
 10
232.20447678093
 20
164.3029071715731
 30
0.0
 10
232.2699340173099
 20
164.3013455643376
 30
0.0
 10
232.3027022978
 20
164.3005638145
 30
0.0
 11
231.1762388849
 21
165.3005638145
 31
0.0
 11
231.1934881461443
 21
165.1262355196153
 31
0.0
 11
231.2441729411089
 21
164.958543671174
 31
0.0
 11
231.2819566581572
 21
164.8776079580116
 31
0.0
 11
231.3271563657895
 21
164.8005638144942
 31
0.0
 11
231.3802454706565
 21
164.7266288913405
 31
0.0
 11
231.4397812599638
 21
164.6577762048022
 31
0.0
 11
231.5065309983579
 21
164.5931407672725
 31
0.0
 11
231.5786255732137
 21
164.5345193713648
 31
0.0
 11
231.6569670224567
 21
164.4811779040662
 31
0.0
 11
231.7394705913401
 21
164.434538410695
 31
0.0
 11
231.8269577555548
 21
164.3941283355647
 31
0.0
 11
231.917429119858
 21
164.3608711936898
 31
0.0
 11
232.0114037997475
 21
164.3345587129724
 31
0.0
 11
232.1070939789303
 21
164.3157560614604
 31
0.0
 11
232.204491722626
 21
164.3044645900443
 31
0.0
 11
232.3027022978
 21
164.3005638145
 31
0.0
  0
SPLINE
  5
211
330
1F
100
AcDbEntity
  8
A_RUNDUNGEN
  6
Continuous
 62
     7
100
AcDbSpline
210
0.0
220
0.0
230
1.0
 70
     8
 71
     3
 72
    23
 73
    19
 74
    17
 42
0.0000000001
 43
0.0000000001
 44
0.00000001
 40
0.0
 40
0.0
 40
0.0
 40
0.0
 40
0.195578271017553
 40
0.39115411431444
 40
0.4875341903654281
 40
0.5839137544753958
 40
0.6786903136139342
 40
0.7734646615308063
 40
0.8663843710533152
 40
0.9592997779834896
 40
1.050320098831798
 40
1.141344208879687
 40
1.230681358200066
 40
1.319988185935258
 40
1.407975928768469
 40
1.496068539288519
 40
1.583620258451162
 40
1.670766751947899
 40
1.670766751947899
 40
1.670766751947899
 40
1.670766751947899
 10
232.3027022978
 20
181.3005638145
 30
0.0
 10
232.2374494138075
 20
181.2976684433727
 30
0.0
 10
232.1069444558092
 20
181.2918777370584
 30
0.0
 10
231.9480915311063
 20
181.2527018100001
 30
0.0
 10
231.8264763537682
 20
181.208234194496
 30
0.0
 10
231.7393512272919
 20
181.1679848935813
 30
0.0
 10
231.6562730087116
 20
181.1210684149529
 30
0.0
 10
231.5783274649423
 20
181.068044139139
 30
0.0
 10
231.5056443860246
 20
181.0089910812327
 30
0.0
 10
231.4392282759807
 20
180.9447447627429
 30
0.0
 10
231.3791696019946
 20
180.875352183403
 30
0.0
 10
231.3262972813769
 20
180.8017946311882
 30
0.0
 10
231.2807312320616
 20
180.7241604426827
 30
0.0
 10
231.2430409322333
 20
180.6435277935132
 30
0.0
 10
231.2133047123791
 20
180.5600567701252
 30
0.0
 10
231.1920829302359
 20
180.4746686144442
 30
0.0
 10
231.1787385234263
 20
180.3878789949379
 30
0.0
 10
231.1770708082785
 20
180.329623832233
 30
0.0
 10
231.1762388849
 20
180.3005638145
 30
0.0
 11
232.3027022978
 21
181.3005638145
 31
0.0
 11
232.107707526843
 21
181.2854674774066
 31
0.0
 11
231.9174291198846
 21
181.2402564353189
 31
0.0
 11
231.8269660286498
 21
181.2070066506002
 31
0.0
 11
231.7394705913646
 21
181.1665892183177
 31
0.0
 11
231.6569648017613
 21
181.1199481329523
 31
0.0
 11
231.578625573236
 21
181.0666082576512
 31
0.0
 11
231.5065317941899
 21
181.0079860823197
 31
0.0
 11
231.4397812599824
 21
180.9433514242173
 31
0.0
 11
231.3802444738729
 21
180.874503258613
 31
0.0
 11
231.3271563658034
 21
180.8005638145279
 31
0.0
 11
231.2819597831747
 21
180.7235028310967
 31
0.0
 11
231.2441729411186
 21
180.6425839578498
 31
0.0
 11
231.2147036740932
 21
180.5596779557156
 31
0.0
 11
231.1933523952947
 21
180.4742119921868
 31
0.0
 11
231.1805271568695
 21
180.387604736211
 31
0.0
 11
231.1762388849
 21
180.3005638145
 31
0.0
  0
SPLINE
  5
212
330
1F
100
AcDbEntity
  8
A_FASEN
  6
DASHED
 62
     2
100
AcDbSpline
210
0.0
220
0.0
230
1.0
 70
     8
 71
     3
 72
    11
 73
     7
 74
     5
 42
0.0000000001
 43
0.0000000001
 44
0.00000001
 40
0.0
 40
0.0
 40
0.0
 40
0.0
 40
0.7921268853501073
 40
1.584392632448701
 40
2.376658265735424
 40
3.168785160464441
 40
3.168785160464441
 40
3.168785160464441
 40
3.168785160464441
 10
267.2847227382
 20
212.4705968808
 30
0.0
 10
267.4650231000268
 20
212.6636210267938
 30
0.0
 10
267.8256554307674
 20
213.0497031563784
 30
0.0
 10
268.4123747460375
 20
213.5832558504868
 30
0.0
 10
269.0334830632798
 20
214.0763503000645
 30
0.0
 10
269.4726191223896
 20
214.3700755333806
 30
0.0
 10
269.6921679253
 20
214.5169252899
 30
0.0
 11
267.2847227382
 21
212.4705968808
 31
0.0
 11
267.8332481049068
 21
213.0420729735402
 31
0.0
 11
268.4181066096164
 21
213.5765124401728
 31
0.0
 11
269.0397894070378
 21
214.0676288551678
 31
0.0
 11
269.6921679253
 21
214.5169252899
 31
0.0
  0
SPLINE
  5
213
330
1F
100
AcDbEntity
  8
A_FASEN
  6
DASHED
 62
     2
100
AcDbSpline
210
0.0
220
0.0
230
1.0
 70
     8
 71
     3
 72
    11
 73
     7
 74
     5
 42
0.0000000001
 43
0.0000000001
 44
0.00000001
 40
0.0
 40
0.0
 40
0.0
 40
0.0
 40
0.7921268990327384
 40
1.584392561403682
 40
2.37665830518459
 40
3.16878517192099
 40
3.16878517192099
 40
3.16878517192099
 40
3.16878517192099
 10
270.5881580985
 20
214.5169252899
 30
0.0
 10
270.8077069651372
 20
214.3700756211855
 30
0.0
 10
271.2468431585796
 20
214.0763505589007
 30
0.0
 10
271.8679512491587
 20
213.5832557955471
 30
0.0
 10
272.4546705686315
 20
213.0497031171065
 30
0.0
 10
272.8153029168675
 20
212.6636210124613
 30
0.0
 10
272.9956032857
 20
212.4705968808
 30
0.0
 11
270.5881580985
 21
214.5169252899
 31
0.0
 11
271.2405367376633
 21
214.0676290231286
 31
0.0
 11
271.8622194332154
 21
213.5765124322633
 31
0.0
 11
272.4470779034431
 21
213.0420729328141
 31
0.0
 11
272.9956032857
 21
212.4705968808
 31
0.0
  0
SPLINE
  5
214
330
1F
100
AcDbEntity
  8
A_FASEN
  6
DASHED
 62
     2
100
AcDbSpline
210
0.0
220
0.0
230
1.0
 70
     8
 71
     3
 72
    11
 73
     7
 74
     5
 42
0.0000000001
 43
0.0000000001
 44
0.00000001
 40
0.0
 40
0.0
 40
0.0
 40
0.0
 40
0.7921268643518988
 40
1.584392606761614
 40
2.376658271550437
 40
3.168785172230659
 40
3.168785172230659
 40
3.168785172230659
 40
3.168785172230659
 10
272.9956032857
 20
133.1305307483
 30
0.0
 10
272.8153029198381
 20
132.9375066148165
 30
0.0
 10
272.4546705773133
 20
132.5514245062794
 30
0.0
 10
271.8679512486807
 20
132.0178718383426
 30
0.0
 10
271.2468431604285
 20
131.5247770710835
 30
0.0
 10
270.8077069656823
 20
131.2310520081616
 30
0.0
 10
270.5881580985
 20
131.0842023392
 30
0.0
 11
272.9956032857
 21
133.1305307483
 31
0.0
 11
272.4470779095878
 21
132.5590546936932
 31
0.0
 11
271.8622194357834
 21
132.0246152001907
 31
0.0
 11
271.2405367387393
 21
131.5334986073136
 31
0.0
 11
270.5881580985
 21
131.0842023392
 31
0.0
  0
SPLINE
  5
215
330
1F
100
AcDbEntity
  8
A_FASEN
  6
DASHED
 62
     2
100
AcDbSpline
210
0.0
220
0.0
230
1.0
 70
     8
 71
     3
 72
    11
 73
     7
 74
     5
 42
0.0000000001
 43
0.0000000001
 44
0.00000001
 40
0.0
 40
0.0
 40
0.0
 40
0.0
 40
0.7921268919736231
 40
1.584392521711656
 40
2.376658271281835
 40
3.168785160157026
 40
3.168785160157026
 40
3.168785160157026
 40
3.168785160157026
 10
269.6921679253
 20
131.0842023392
 30
0.0
 10
269.4726191232363
 20
131.2310520952584
 30
0.0
 10
269.0334830660398
 20
131.5247773275055
 30
0.0
 10
268.4123747466998
 20
132.0178717728496
 30
0.0
 10
267.8256554402163
 20
132.5514244776075
 30
0.0
 10
267.4650231032561
 20
132.9375066038491
 30
0.0
 10
267.2847227382
 20
133.1305307483
 30
0.0
 11
269.6921679253
 21
131.0842023392
 31
0.0
 11
269.0397894090013
 21
131.5334987719253
 31
0.0
 11
268.4181066138864
 21
132.0246151841152
 31
0.0
 11
267.8332481118559
 21
132.5590546573436
 31
0.0
 11
267.2847227382
 21
133.1305307483
 31
0.0
  0
SPLINE
  5
216
330
1F
100
AcDbEntity
  8
A_RUNDUNGEN
  6
Continuous
 62
     7
100
AcDbSpline
210
0.0
220
0.0
230
1.0
 70
     8
 71
     3
 72
    13
 73
     9
 74
     7
 42
0.0000000001
 43
0.0000000001
 44
0.00000001
 40
0.0
 40
0.0
 40
0.0
 40
0.0
 40
0.1077583663609846
 40
0.2155168002218762
 40
0.3879147008471013
 40
0.5603201081798334
 40
1.019627986292013
 40
1.478909510713067
 40
1.478909510713067
 40
1.478909510713067
 40
1.478909510713067
 10
256.3197676658
 20
149.3964163946
 30
0.0
 10
256.3106257221475
 20
149.4311530388651
 30
0.0
 10
256.2923418291162
 20
149.5006263491544
 30
0.0
 10
256.2589850540836
 20
149.6255547746559
 30
0.0
 10
256.2212948583901
 20
149.7716286396511
 30
0.0
 10
256.1569964616795
 20
150.0318376162719
 30
0.0
 10
256.0758186313353
 20
150.3864176634986
 30
0.0
 10
256.0189383133603
 20
150.6873073046858
 30
0.0
 10
255.990498970301
 20
150.837747809122
 30
0.0
 11
256.3197676658
 21
149.3964163946
 31
0.0
 11
256.2922797371285
 21
149.5006098651159
 31
0.0
 11
256.264655644568
 21
149.604767388024
 31
0.0
 11
256.2215816418561
 21
149.7716975124185
 31
0.0
 11
256.180199149481
 21
149.9390627232671
 31
0.0
 11
256.0786841636715
 21
150.3870118660858
 31
0.0
 11
255.990498970301
 21
150.837747809122
 31
0.0
  0
SPLINE
  5
217
330
1F
100
AcDbEntity
  8
A_RUNDUNGEN
  6
Continuous
 62
     7
100
AcDbSpline
210
0.0
220
0.0
230
1.0
 70
     8
 71
     3
 72
    16
 73
    12
 74
    10
 42
0.0000000001
 43
0.0000000001
 44
0.00000001
 40
0.0
 40
0.0
 40
0.0
 40
0.0
 40
0.0128949552664468
 40
0.025934266951856
 40
0.0355332456414497
 40
0.0446742281595318
 40
0.0499826548070974
 40
0.0561432447762127
 40
0.0592736640060506
 40
0.0707177506439568
 40
0.0986662258758711
 40
0.0986662258758711
 40
0.0986662258758711
 40
0.0986662258758711
 10
256.3197730236
 20
196.2047318457
 30
0.0
 10
256.320828714637
 20
196.208898313498
 30
0.0
 10
256.3229519149589
 20
196.2172778918592
 30
0.0
 10
256.3258692435361
 20
196.2287600834063
 30
0.0
 10
256.3287693520338
 20
196.2389445174172
 30
0.0
 10
256.3306183050773
 20
196.2467627526836
 30
0.0
 10
256.3312881234746
 20
196.2536174360371
 30
0.0
 10
256.3326778548154
 20
196.2583067739115
 30
0.0
 10
256.3350146070616
 20
196.2648086539852
 30
0.0
 10
256.3387555487727
 20
196.2784966271894
 30
0.0
 10
256.3423469421062
 20
196.2911223043242
 30
0.0
 10
256.344894985769
 20
196.3000800468
 30
0.0
 11
256.3197730236
 21
196.2047318457
 31
0.0
 11
256.3229415896606
 21
196.2172314481114
 31
0.0
 11
256.3262204688739
 21
196.2298517730016
 31
0.0
 11
256.3287404780052
 21
196.239114059213
 31
0.0
 11
256.3306563017815
 21
196.2480520221047
 31
0.0
 11
256.3314144605181
 21
196.253306029033
 31
0.0
 11
256.3330378042847
 21
196.2592488922977
 31
0.0
 11
256.3340610723377
 21
196.2622073457867
 31
0.0
 11
256.3373142034397
 21
196.2731793217714
 31
0.0
 11
256.344894985769
 21
196.3000800468
 31
0.0
  0
SPLINE
  5
218
330
1F
100
AcDbEntity
  8
A_RUNDUNGEN
  6
Continuous
 62
     7
100
AcDbSpline
210
0.0
220
0.0
230
1.0
 70
     8
 71
     3
 72
    13
 73
     9
 74
     7
 42
0.0000000001
 43
0.0000000001
 44
0.00000001
 40
0.0
 40
0.0
 40
0.0
 40
0.0
 40
0.4592947520556074
 40
0.918615859591788
 40
1.091023248887106
 40
1.263423131933206
 40
1.371177001382499
 40
1.478930802420943
 40
1.478930802420943
 40
1.478930802420943
 40
1.478930802420943
 10
255.990498970301
 20
194.763379819878
 30
0.0
 10
256.0189391767292
 20
194.9138246493987
 30
0.0
 10
256.0758212215559
 20
195.2147229413403
 30
0.0
 10
256.1570016610402
 20
195.569312123586
 30
0.0
 10
256.2213018671647
 20
195.829526556359
 30
0.0
 10
256.2589922181967
 20
195.9756001745503
 30
0.0
 10
256.2923485176519
 20
196.1005262612291
 30
0.0
 10
256.3106315235519
 20
196.1699966582273
 30
0.0
 10
256.3197730236
 20
196.2047318457
 30
0.0
 11
255.990498970301
 21
194.763379819878
 31
0.0
 11
256.0786869179877
 21
195.2141287024597
 31
0.0
 11
256.1802054071427
 21
195.6620906162291
 31
0.0
 11
256.2215886464092
 21
195.8294576840514
 31
0.0
 11
256.2646633823882
 21
195.9963896665911
 31
0.0
 11
256.292286380917
 21
196.100542757441
 31
0.0
 11
256.3197730236
 21
196.2047318457
 31
0.0
  0
SPLINE
  5
219
330
1F
100
AcDbEntity
  8
0
  6
Continuous
 62
     7
100
AcDbSpline
210
0.0
220
0.0
230
1.0
 70
     8
 71
     3
 72
    34
 73
    30
 74
    28
 42
0.0000000001
 43
0.0000000001
 44
0.00000001
 40
0.0
 40
0.0
 40
0.0
 40
0.0
 40
0.0490169282508324
 40
0.0980337899332047
 40
0.145358370632527
 40
0.1926834478602291
 40
0.2364245269027251
 40
0.2801638504337784
 40
0.3187279738773027
 40
0.3572976002120448
 40
0.3892046630992242
 40
0.4210960240181745
 40
0.4341018277858437
 40
0.4471259448232174
 40
0.4580261609203325
 40
0.4688777925410617
 40
0.4774245152979811
 40
0.4860995419227877
 40
0.4924921850572256
 40
0.4985849313473978
 40
0.5021363870170686
 40
0.5062381378913874
 40
0.5072121587194826
 40
0.511135113684157
 40
0.5209411511289128
 40
0.5395629297802121
 40
0.5699329156386606
 40
0.6149835354553497
 40
0.6776472047066417
 40
0.6776472047066417
 40
0.6776472047066417
 40
0.6776472047066417
 10
238.962910102641
 20
149.848206172381
 30
0.0
 10
238.9600135940586
 20
149.8321259762839
 30
0.0
 10
238.9542205808273
 20
149.7999656059277
 30
0.0
 10
238.9454676582083
 20
149.7523098849523
 30
0.0
 10
238.936705828093
 20
149.7052293714692
 30
0.0
 10
238.9281501463251
 20
149.659899415825
 30
0.0
 10
238.9197111022641
 20
149.6157637818917
 30
0.0
 10
238.9117361769219
 20
149.5745127247789
 30
0.0
 10
238.9040221580102
 20
149.5349670335903
 30
0.0
 10
238.8970080675103
 20
149.4993032736907
 30
0.0
 10
238.8903767092505
 20
149.4658311604245
 30
0.0
 10
238.8854102618252
 20
149.4407160765045
 30
0.0
 10
238.8816911803619
 20
149.4217705828859
 30
0.0
 10
238.8793087543204
 20
149.4096932314805
 30
0.0
 10
238.8770380021214
 20
149.3983259434636
 30
0.0
 10
238.8751210064719
 20
149.3884094806088
 30
0.0
 10
238.873469052561
 20
149.379199334027
 30
0.0
 10
238.8719735389657
 20
149.3714682735911
 30
0.0
 10
238.870416281775
 20
149.3645933958429
 30
0.0
 10
238.8695289347422
 20
149.3593021077057
 30
0.0
 10
238.8693528421751
 20
149.3547316753036
 30
0.0
 10
238.8688150210679
 20
149.351854174645
 30
0.0
 10
238.8675284906312
 20
149.3491404956106
 30
0.0
 10
238.8651587230183
 20
149.3448501360891
 30
0.0
 10
238.8600481216556
 20
149.3353545706678
 30
0.0
 10
238.8506110022824
 20
149.3181766247043
 30
0.0
 10
238.8355530590708
 20
149.2906827380494
 30
0.0
 10
238.8133938080727
 20
149.2503397210134
 30
0.0
 10
238.7961059302922
 20
149.2188710003191
 30
0.0
 10
238.7860485659011
 20
149.2005638145
 30
0.0
 11
238.962910102641
 21
149.848206172381
 31
0.0
 11
238.9541930256169
 21
149.7999705856913
 31
0.0
 11
238.9453465246155
 21
149.7517586354173
 31
0.0
 11
238.9366860917435
 21
149.7052332354637
 31
0.0
 11
238.9279094156951
 21
149.6587291185261
 31
0.0
 11
238.9196963593691
 21
149.6157660215522
 31
0.0
 11
238.9113959893568
 21
149.5728214959335
 31
0.0
 11
238.9040127492898
 21
149.5349707445133
 31
0.0
 11
238.8965699084218
 21
149.4971260593459
 31
0.0
 11
238.8903775406791
 21
149.4658256560925
 31
0.0
 11
238.8841993468396
 21
149.4345384570785
 31
0.0
 11
238.8816903907347
 21
149.4217769496868
 31
0.0
 11
238.8791661728144
 21
149.4089997845672
 31
0.0
 11
238.8770458986514
 21
149.3983077712658
 31
0.0
 11
238.8750020427609
 21
149.3876503531014
 31
0.0
 11
238.8734575730636
 21
149.3792443383954
 31
0.0
 11
238.8717777385801
 21
149.3707335074695
 31
0.0
 11
238.8704539820517
 21
149.3644794244114
 31
0.0
 11
238.8695519895072
 21
149.3584538151637
 31
0.0
 11
238.8692782648848
 21
149.3549129237216
 31
0.0
 11
238.8683527853312
 21
149.3509169447638
 31
0.0
 11
238.8679465665541
 21
149.350031674817
 31
0.0
 11
238.8661105208004
 21
149.3465649023057
 31
0.0
 11
238.8614322388851
 21
149.3379467790361
 31
0.0
 11
238.8524993116228
 21
149.3216074568145
 31
0.0
 11
238.8378993298282
 21
149.2949770874471
 31
0.0
 11
238.816219884316
 21
149.2554858227402
 31
0.0
 11
238.7860485659011
 21
149.2005638145
 31
0.0
  0
SPLINE
  5
21A
330
1F
100
AcDbEntity
  8
0
  6
Continuous
 62
     7
100
AcDbSpline
210
0.0
220
0.0
230
1.0
 70
     8
 71
     3
 72
    11
 73
     7
 74
     5
 42
0.0000000001
 43
0.0000000001
 44
0.00000001
 40
0.0
 40
0.0
 40
0.0
 40
0.0
 40
0.093150144585212
 40
0.1863024075606175
 40
0.335037008499707
 40
0.4837712691307136
 40
0.4837712691307136
 40
0.4837712691307136
 40
0.4837712691307136
 10
238.8722067004
 20
196.228106191
 30
0.0
 10
238.8780807446812
 20
196.1976166900226
 30
0.0
 10
238.8898289668293
 20
196.1366369946856
 30
0.0
 10
238.911847720519
 20
196.0271495190783
 30
0.0
 10
238.9363685261395
 20
195.8992690529676
 30
0.0
 10
238.9540629172214
 20
195.80170395153
 30
0.0
 10
238.962910102641
 20
195.752921456619
 30
0.0
 11
238.8722067004
 21
196.228106191
 31
0.0
 11
238.8899527403343
 21
196.1366620687018
 31
0.0
 11
238.9080891284632
 21
196.0452924045726
 31
0.0
 11
238.9361238256725
 21
195.8992237999072
 31
0.0
 11
238.962910102641
 21
195.752921456619
 31
0.0
  0
SPLINE
  5
21B
330
1F
100
AcDbEntity
  8
0
  6
Continuous
 62
     7
100
AcDbSpline
210
0.0
220
0.0
230
1.0
 70
     8
 71
     3
 72
    19
 73
    15
 74
    13
 42
0.0000000001
 43
0.0000000001
 44
0.00000001
 40
0.0
 40
0.0
 40
0.0
 40
0.0
 40
0.0279806879349127
 40
0.0468643964483631
 40
0.0584675686135604
 40
0.0646066612485119
 40
0.067098203591421
 40
0.0677592910105345
 40
0.0703239200448104
 40
0.0725574725876546
 40
0.0763815677256624
 40
0.0803833376446519
 40
0.0858186248458247
 40
0.091197977416279
 40
0.091197977416279
 40
0.091197977416279
 40
0.091197977416279
 10
238.8408224167984
 20
196.313156428
 30
0.0
 10
238.844609401287
 20
196.3046329465709
 30
0.0
 10
238.8509521596505
 20
196.2903571069724
 30
0.0
 10
238.8588519236008
 20
196.2725407539447
 30
0.0
 10
238.8638099073709
 20
196.2613841603194
 30
0.0
 10
238.8665141126276
 20
196.2552053136855
 30
0.0
 10
238.8677742796852
 20
196.2523760831413
 30
0.0
 10
238.8684745169361
 20
196.2506022023261
 30
0.0
 10
238.8687943208469
 20
196.2487891127606
 30
0.0
 10
238.8689044475756
 20
196.2459190223783
 30
0.0
 10
238.8694383651442
 20
196.2425987696179
 30
0.0
 10
238.8703630470208
 20
196.2382783348608
 30
0.0
 10
238.8712449151249
 20
196.2334175128832
 30
0.0
 10
238.8718872126552
 20
196.2298705164623
 30
0.0
 10
238.8722067004
 20
196.228106191
 30
0.0
 11
238.8408224167984
 21
196.313156428
 31
0.0
 11
238.8521795414123
 21
196.2875842826498
 31
0.0
 11
238.8598385983699
 21
196.2703235383512
 31
0.0
 11
238.864536516097
 21
196.2597139590322
 31
0.0
 11
238.8670102230195
 21
196.2540953086211
 31
0.0
 11
238.8679966475633
 21
196.2518073510459
 31
0.0
 11
238.8682327181543
 21
196.2511898502348
 31
0.0
 11
238.8687509224335
 21
196.2486781204706
 31
0.0
 11
238.8689173248778
 21
196.2464507751475
 31
0.0
 11
238.8694600517918
 21
196.2426653886255
 31
0.0
 11
238.8702457658431
 21
196.2387415109625
 31
0.0
 11
238.8712478941243
 21
196.2333994059591
 31
0.0
 11
238.8722067004
 21
196.228106191
 31
0.0
  0
SPLINE
  5
21C
330
1F
100
AcDbEntity
  8
A_RUNDUNGEN
  6
Continuous
 62
     7
100
AcDbSpline
210
0.0
220
0.0
230
1.0
 70
     8
 71
     3
 72
    11
 73
     7
 74
     5
 42
0.0000000001
 43
0.0000000001
 44
0.00000001
 40
0.0
 40
0.0
 40
0.0
 40
0.0
 40
0.0254177997663846
 40
0.0509110766654107
 40
0.1204582171805158
 40
0.1893788776162
 40
0.1893788776162
 40
0.1893788776162
 40
0.1893788776162
 10
231.1759996321
 20
165.4887056435
 30
0.0
 10
231.1831188191445
 20
165.4933080396901
 30
0.0
 10
231.1973783333727
 20
165.5025264987003
 30
0.0
 10
231.2325088586091
 20
165.5219077894379
 30
0.0
 10
231.2832964210336
 20
165.5440975805788
 30
0.0
 10
231.3295139031317
 20
165.54841491427
 30
0.0
 10
231.3525180916
 20
165.5505638145
 30
0.0
 11
231.1759996321
 21
165.4887056435
 31
0.0
 11
231.1975038151567
 21
165.5022568300174
 31
0.0
 11
231.2197848174116
 21
165.5146448930447
 31
0.0
 11
231.2843296575141
 21
165.5405440893635
 31
0.0
 11
231.3525180916
 21
165.5505638145
 31
0.0
  0
SPLINE
  5
21D
330
1F
100
AcDbEntity
  8
A_RUNDUNGEN
  6
Continuous
 62
     7
100
AcDbSpline
210
0.0
220
0.0
230
1.0
 70
     8
 71
     3
 72
    11
 73
     7
 74
     5
 42
0.0000000001
 43
0.0000000001
 44
0.00000001
 40
0.0
 40
0.0
 40
0.0
 40
0.0
 40
0.0222930848114163
 40
0.0446160983893779
 40
0.1169354771912444
 40
0.1895343108566561
 40
0.1895343108566561
 40
0.1895343108566561
 40
0.1895343108566561
 10
231.3525180916
 20
180.0505638145
 30
0.0
 10
231.3450835953279
 20
180.0507794477467
 30
0.0
 10
231.3302046218725
 20
180.0512110037307
 30
0.0
 10
231.2915964605328
 20
180.0569813526901
 30
0.0
 10
231.237933170884
 20
180.0745165244723
 30
0.0
 10
231.1966467322363
 20
180.0997835413671
 30
0.0
 10
231.1759637053
 20
180.1124414118
 30
0.0
 11
231.3525180916
 21
180.0505638145
 31
0.0
 11
231.3302516126982
 21
180.0516526431027
 31
0.0
 11
231.3081525076351
 21
180.054806448837
 31
0.0
 11
231.2393213146559
 21
180.0769956223986
 31
0.0
 11
231.1759637053
 21
180.1124414118
 31
0.0
  0
SPLINE
  5
21E
330
1F
100
AcDbEntity
  8
A_RUNDUNGEN
  6
Continuous
 62
     7
100
AcDbSpline
210
0.0
220
0.0
230
1.0
 70
     8
 71
     3
 72
    11
 73
     7
 74
     5
 42
0.0000000001
 43
0.0000000001
 44
0.00000001
 40
0.0
 40
0.0
 40
0.0
 40
0.0
 40
0.0516145712079583
 40
0.1032294016002015
 40
0.2683583483567482
 40
0.4334857904170631
 40
0.4334857904170631
 40
0.4334857904170631
 40
0.4334857904170631
 10
237.8780118758
 20
164.9840441457
 30
0.0
 10
237.8780377271592
 20
164.9668392874952
 30
0.0
 10
237.8780894300075
 20
164.9324294846907
 30
0.0
 10
237.8786055245417
 20
164.8429780465234
 30
0.0
 10
237.8796336493995
 20
164.7156915119967
 30
0.0
 10
237.8799251699093
 20
164.605606213144
 30
0.0
 10
237.8800709295
 20
164.5505638145
 30
0.0
 11
237.8780118758
 21
164.9840441457
 31
0.0
 11
237.8781261355003
 21
164.9324297009611
 31
0.0
 11
237.8783966736873
 21
164.8808155795842
 31
0.0
 11
237.8794842420925
 21
164.7156902143253
 31
0.0
 11
237.8800709295
 21
164.5505638145
 31
0.0
  0
SPLINE
  5
21F
330
1F
100
AcDbEntity
  8
A_RUNDUNGEN
  6
Continuous
 62
     7
100
AcDbSpline
210
0.0
220
0.0
230
1.0
 70
     8
 71
     3
 72
    19
 73
    15
 74
    13
 42
0.0000000001
 43
0.0000000001
 44
0.00000001
 40
0.0
 40
0.0
 40
0.0
 40
0.0
 40
0.0277008846119517
 40
0.0554258323714519
 40
0.081486928379731
 40
0.1074484502436363
 40
0.1686240262113408
 40
0.2313668080490046
 40
0.2734867546706308
 40
0.3151635897470168
 40
0.3654522326521367
 40
0.4158998589475703
 40
0.5393922605603307
 40
0.6628132631830511
 40
0.6628132631830511
 40
0.6628132631830511
 40
0.6628132631830511
 10
238.0755062714
 20
165.5505638145
 30
0.0
 10
238.0662643653935
 20
165.5502579105443
 30
0.0
 10
238.0477725251407
 20
165.5496458369009
 30
0.0
 10
238.0210643060429
 20
165.5437436547799
 30
0.0
 10
237.9964679906274
 20
165.5333191145097
 30
0.0
 10
237.9647999856098
 20
165.5123465120185
 30
0.0
 10
237.9336445716022
 20
165.4715288605257
 30
0.0
 10
237.9135643949879
 20
165.4196622075915
 30
0.0
 10
237.9014601513725
 20
165.3722895611641
 30
0.0
 10
237.8937955753782
 20
165.3282254819625
 30
0.0
 10
237.8880039065281
 20
165.2810940403283
 30
0.0
 10
237.8818711617193
 20
165.2065900149479
 30
0.0
 10
237.8781754292083
 20
165.1074900597679
 30
0.0
 10
237.8780663830919
 20
165.0251848504301
 30
0.0
 10
237.8780118758
 20
164.9840441457
 30
0.0
 11
238.0755062714
 21
165.5505638145
 31
0.0
 11
238.0478618393229
 21
165.5487962219505
 31
0.0
 11
238.0207952632872
 21
165.5427901258834
 31
0.0
 11
237.9968115801934
 21
165.5325938682166
 31
0.0
 11
237.9752074185098
 21
165.5181973125368
 31
0.0
 11
237.9365957800394
 21
165.4707463644998
 31
0.0
 11
237.912509523143
 21
165.4128109789272
 31
0.0
 11
237.9019621199081
 21
165.3720330168838
 31
0.0
 11
237.8945993621253
 21
165.3310117007199
 31
0.0
 11
237.8883447077449
 21
165.2811135353847
 31
0.0
 11
237.8840872931631
 21
165.2308458775924
 31
0.0
 11
237.8789148951412
 21
165.107461844773
 31
0.0
 11
237.8780118758
 21
164.9840441457
 31
0.0
  0
XLINE
  5
220
330
1F
100
AcDbEntity
  8
1
  6
DOT_CENTER
 62
     3
 60
     1
100
AcDbXline
 10
246.2629084707
 20
154.3005638145
 30
0.0
 11
0.0
 21
1.0
 31
0.0
  0
XLINE
  5
221
330
1F
100
AcDbEntity
  8
1
  6
DOT_CENTER
 62
     3
 60
     1
100
AcDbXline
 10
246.2629084707
 20
154.3005638145
 30
0.0
 11
0.0
 21
1.0
 31
0.0
  0
XLINE
  5
222
330
1F
100
AcDbEntity
  8
1
  6
DOT_CENTER
 62
     3
 60
     1
100
AcDbXline
 10
225.3772405097001
 20
197.7183008081001
 30
0.0
 11
-1.0
 21
0.0
 31
0.0
  0
XLINE
  5
223
330
1F
100
AcDbEntity
  8
1
  6
DOT_CENTER
 62
     3
 60
     1
100
AcDbXline
 10
260.7901630119001
 20
197.7183008081001
 30
0.0
 11
-1.0
 21
0.0
 31
0.0
  0
XLINE
  5
224
330
1F
100
AcDbEntity
  8
1
  6
DOT_CENTER
 62
     3
 60
     1
100
AcDbXline
 10
270.5889569162999
 20
197.7183008081001
 30
0.0
 11
-1.0
 21
0.0
 31
0.0
  0
XLINE
  5
225
330
1F
100
AcDbEntity
  8
1
  6
DOT_CENTER
 62
     3
 60
     1
100
AcDbXline
 10
270.5889569162999
 20
148.4005638145
 30
0.0
 11
-1.0
 21
0.0
 31
0.0
  0
XLINE
  5
226
330
1F
100
AcDbEntity
  8
1
  6
DOT_CENTER
 62
     3
 60
     1
100
AcDbXline
 10
225.3772405097001
 20
148.4005638145
 30
0.0
 11
-1.0
 21
0.0
 31
0.0
  0
MTEXT
  5
228
330
1F
100
AcDbEntity
  8
1
 62
     2
100
AcDbMText
 10
205.2317411885757
 20
175.993397885052
 30
0.0
 40
2.5
 41
0.0
 71
     5
 72
     1
  1
BBL
  7
CONVERTER_11
 73
     1
 44
1.32052821128451
  0
DIMENSION
  5
233
330
1F
100
AcDbEntity
  8
1
100
AcDbDimension
  2
*D1
 10
210.3857700362
 20
106.880560840865
 30
0.0
 11
224.835750997
 21
110.630560840865
 31
0.0
 70
    32
  1
29
 71
     5
 42
-1.0
 53
0.00013888888889
  3
ME10_DIM_10
100
AcDbAlignedDimension
 13
239.2857319578
 23
131.5505638145
 33
0.0
 14
210.3857700362
 24
131.5505638146
 34
0.0
100
AcDbRotatedDimension
  0
DIMENSION
  5
23E
330
1F
100
AcDbEntity
  8
1
100
AcDbDimension
  2
*D2
 10
239.2857319578
 20
106.880560840865
 30
0.0
 11
247.0473718019136
 21
110.630560840865
 31
0.0
 70
    32
  1
<>
 71
     5
 42
-1.0
 53
0.00013888888889
  3
ME10_DIM_11
100
AcDbAlignedDimension
 13
255.6401630119
 23
131.5005638145
 33
0.0
 14
239.2857319578
 24
131.5505638145
 34
0.0
100
AcDbRotatedDimension
  0
DIMENSION
  5
249
330
1F
100
AcDbEntity
  8
1
100
AcDbDimension
  2
*D3
 10
255.6401630119
 20
106.880560840865
 30
0.0
 11
271.6951013280591
 21
110.630560840865
 31
0.0
 70
    32
  1
29
 71
     5
 42
-1.0
 53
0.00013888888889
  3
ME10_DIM_12
100
AcDbAlignedDimension
 13
284.5401630119
 23
131.5005638145
 33
0.0
 14
255.6401630119
 24
131.5005638145
 34
0.0
100
AcDbRotatedDimension
  0
DIMENSION
  5
254
330
1F
100
AcDbEntity
  8
1
100
AcDbDimension
  2
*D4
 10
295.209420596627
 20
228.5005638145
 30
0.0
 11
291.459420596627
 21
171.57763231054
 31
0.0
 70
    32
  1
111.5
 71
     5
 42
-1.0
 53
90.0
  3
ME10_DIM_13
100
AcDbAlignedDimension
 13
270.1401630119
 23
117.0506503199493
 33
0.0
 14
270.1401630119
 24
228.5005638145
 34
0.0
 50
90.0
100
AcDbRotatedDimension
  0
ENDSEC
  0
SECTION
  2
OBJECTS
  0
DICTIONARY
  5
C
330
0
100
AcDbDictionary
281
     1
  3
ACAD_GROUP
350
D
  3
ACAD_LAYOUT
350
1A
  3
ACAD_MLINESTYLE
350
17
  3
ACAD_PLOTSETTINGS
350
19
  3
ACAD_PLOTSTYLENAME
350
E
  0
DICTIONARY
  5
D
102
{ACAD_REACTORS
330
C
102
}
330
C
100
AcDbDictionary
281
     1
  0
DICTIONARY
  5
1A
102
{ACAD_REACTORS
330
C
102
}
330
C
100
AcDbDictionary
281
     1
  3
Layout1
350
1E
  3
Layout2
350
26
  3
Model
350
22
  0
DICTIONARY
  5
17
102
{ACAD_REACTORS
330
C
102
}
330
C
100
AcDbDictionary
281
     1
  3
Standard
350
18
  0
DICTIONARY
  5
19
102
{ACAD_REACTORS
330
C
102
}
330
C
100
AcDbDictionary
281
     1
  0
ACDBDICTIONARYWDFLT
  5
E
102
{ACAD_REACTORS
330
C
102
}
330
C
100
AcDbDictionary
281
     1
  3
Normal
350
F
100
AcDbDictionaryWithDefault
340
F
  0
LAYOUT
  5
1E
102
{ACAD_REACTORS
330
1A
102
}
330
1A
100
AcDbPlotSettings
  1

  2

  4

  6

 40
0.0
 41
0.0
 42
0.0
 43
0.0
 44
0.0
 45
0.0
 46
0.0
 47
0.0
 48
0.0
 49
0.0
140
0.0
141
0.0
142
1.0
143
1.0
 70
   688
 72
     0
 73
     0
 74
     5
  7

 75
    16
 76
     0
 77
     2
 78
   300
147
1.0
148
0.0
149
0.0
100
AcDbLayout
  1
Layout1
 70
     1
 71
     1
 10
0.0
 20
0.0
 11
0.0
 21
0.0
 12
0.0
 22
0.0
 32
0.0
 14
0.0
 24
0.0
 34
0.0
 15
0.0
 25
0.0
 35
0.0
146
0.0
 13
0.0
 23
0.0
 33
0.0
 16
1.0
 26
0.0
 36
0.0
 17
0.0
 27
1.0
 37
0.0
 76
     0
330
1B
  0
LAYOUT
  5
26
102
{ACAD_REACTORS
330
1A
102
}
330
1A
100
AcDbPlotSettings
  1

  2

  4

  6

 40
0.0
 41
0.0
 42
0.0
 43
0.0
 44
0.0
 45
0.0
 46
0.0
 47
0.0
 48
0.0
 49
0.0
140
0.0
141
0.0
142
1.0
143
1.0
 70
   688
 72
     0
 73
     0
 74
     5
  7

 75
    16
 76
     0
 77
     2
 78
   300
147
1.0
148
0.0
149
0.0
100
AcDbLayout
  1
Layout2
 70
     1
 71
     2
 10
0.0
 20
0.0
 11
0.0
 21
0.0
 12
0.0
 22
0.0
 32
0.0
 14
0.0
 24
0.0
 34
0.0
 15
0.0
 25
0.0
 35
0.0
146
0.0
 13
0.0
 23
0.0
 33
0.0
 16
1.0
 26
0.0
 36
0.0
 17
0.0
 27
1.0
 37
0.0
 76
     0
330
23
  0
LAYOUT
  5
22
102
{ACAD_REACTORS
330
1A
102
}
330
1A
100
AcDbPlotSettings
  1

  2

  4

  6

 40
0.0
 41
0.0
 42
0.0
 43
0.0
 44
0.0
 45
0.0
 46
0.0
 47
0.0
 48
0.0
 49
0.0
140
0.0
141
0.0
142
1.0
143
1.0
 70
  1712
 72
     0
 73
     0
 74
     0
  7

 75
     0
 76
     0
 77
     2
 78
   300
147
1.0
148
0.0
149
0.0
100
AcDbLayout
  1
Model
 70
     1
 71
     0
 10
0.0
 20
0.0
 11
0.0
 21
0.0
 12
0.0
 22
0.0
 32
0.0
 14
199.0763655173268
 24
104.880560840865
 34
0.0
 15
297.209420596627
 25
228.5005638145
 35
0.0
146
0.0
 13
0.0
 23
0.0
 33
0.0
 16
1.0
 26
0.0
 36
0.0
 17
0.0
 27
1.0
 37
0.0
 76
     0
330
1F
  0
MLINESTYLE
  5
18
102
{ACAD_REACTORS
330
17
102
}
330
17
100
AcDbMlineStyle
  2
Standard
 70
     0
  3

 62
   256
 51
90.0
 52
90.0
 71
     2
 49
0.5
 62
   256
  6
BYLAYER
 49
-0.5
 62
   256
  6
BYLAYER
  0
ACDBPLACEHOLDER
  5
F
102
{ACAD_REACTORS
330
E
102
}
330
E
  0
ENDSEC
  0
EOF
