  0
SECTION
  2
HEADER
  9
$ACADVER
  1
AC1024
  9
$ACADMAINTVER
 70
     6
  9
$DWGCODEPAGE
  3
ANSI_1252
  9
$INSBASE
 10
0.0
 20
0.0
 30
0.0
  9
$EXTMIN
 10
196.838180476455
 20
245.2389187029579
 30
0.0
  9
$EXTMAX
 10
336.765797393127
 20
332.3004263152918
 30
0.0
  9
$LIMMIN
 10
0.0
 20
0.0
  9
$LIMMAX
 10
12.0
 20
9.0
  9
$ORTHOMODE
 70
     0
  9
$REGENMODE
 70
     1
  9
$FILLMODE
 70
     1
  9
$QTEXTMODE
 70
     0
  9
$MIRRTEXT
 70
     1
  9
$LTSCALE
 40
1.0
  9
$ATTMODE
 70
     1
  9
$TEXTSIZE
 40
0.2
  9
$TRACEWID
 40
0.05
  9
$TEXTSTYLE
  7
Standard
  9
$CLAYER
  8
0
  9
$CELTYPE
  6
ByLayer
  9
$CECOLOR
 62
   256
  9
$CELTSCALE
 40
1.0
  9
$DISPSILH
 70
     0
  9
$DIMSCALE
 40
1.0
  9
$DIMASZ
 40
0.18
  9
$DIMEXO
 40
0.0625
  9
$DIMDLI
 40
0.38
  9
$DIMRND
 40
0.0
  9
$DIMDLE
 40
0.0
  9
$DIMEXE
 40
0.18
  9
$DIMTP
 40
0.0
  9
$DIMTM
 40
0.0
  9
$DIMTXT
 40
0.18
  9
$DIMCEN
 40
0.09
  9
$DIMTSZ
 40
0.0
  9
$DIMTOL
 70
     0
  9
$DIMLIM
 70
     0
  9
$DIMTIH
 70
     1
  9
$DIMTOH
 70
     1
  9
$DIMSE1
 70
     0
  9
$DIMSE2
 70
     0
  9
$DIMTAD
 70
     0
  9
$DIMZIN
 70
     0
  9
$DIMBLK
  1

  9
$DIMASO
 70
     1
  9
$DIMSHO
 70
     1
  9
$DIMPOST
  1

  9
$DIMAPOST
  1

  9
$DIMALT
 70
     0
  9
$DIMALTD
 70
     2
  9
$DIMALTF
 40
25.4
  9
$DIMLFAC
 40
1.0
  9
$DIMTOFL
 70
     0
  9
$DIMTVP
 40
0.0
  9
$DIMTIX
 70
     0
  9
$DIMSOXD
 70
     0
  9
$DIMSAH
 70
     0
  9
$DIMBLK1
  1

  9
$DIMBLK2
  1

  9
$DIMSTYLE
  2
Standard
  9
$DIMCLRD
 70
     0
  9
$DIMCLRE
 70
     0
  9
$DIMCLRT
 70
     0
  9
$DIMTFAC
 40
1.0
  9
$DIMGAP
 40
0.09
  9
$DIMJUST
 70
     0
  9
$DIMSD1
 70
     0
  9
$DIMSD2
 70
     0
  9
$DIMTOLJ
 70
     1
  9
$DIMTZIN
 70
     0
  9
$DIMALTZ
 70
     0
  9
$DIMALTTZ
 70
     0
  9
$DIMUPT
 70
     0
  9
$DIMDEC
 70
     4
  9
$DIMTDEC
 70
     4
  9
$DIMALTU
 70
     2
  9
$DIMALTTD
 70
     2
  9
$DIMTXSTY
  7
Standard
  9
$DIMAUNIT
 70
     0
  9
$DIMADEC
 70
     0
  9
$DIMALTRND
 40
0.0
  9
$DIMAZIN
 70
     0
  9
$DIMDSEP
 70
    46
  9
$DIMATFIT
 70
     3
  9
$DIMFRAC
 70
     0
  9
$DIMLDRBLK
  1

  9
$DIMLUNIT
 70
     2
  9
$DIMLWD
 70
    -2
  9
$DIMLWE
 70
    -2
  9
$DIMTMOVE
 70
     0
  9
$DIMFXL
 40
1.0
  9
$DIMFXLON
 70
     0
  9
$DIMJOGANG
 40
0.78539816339745
  9
$DIMTFILL
 70
     0
  9
$DIMTFILLCLR
 70
     0
  9
$DIMARCSYM
 70
     0
  9
$DIMLTYPE
  6

  9
$DIMLTEX1
  6

  9
$DIMLTEX2
  6

  9
$DIMTXTDIRECTION
 70
     0
  9
$LUNITS
 70
     2
  9
$LUPREC
 70
     4
  9
$SKETCHINC
 40
0.1
  9
$FILLETRAD
 40
0.5
  9
$AUNITS
 70
     0
  9
$AUPREC
 70
     0
  9
$MENU
  1
.
  9
$ELEVATION
 40
0.0
  9
$PELEVATION
 40
0.0
  9
$THICKNESS
 40
0.0
  9
$LIMCHECK
 70
     0
  9
$CHAMFERA
 40
0.5
  9
$CHAMFERB
 40
0.5
  9
$CHAMFERC
 40
1.0
  9
$CHAMFERD
 40
0.0
  9
$SKPOLY
 70
     0
  9
$TDCREATE
 40
2457329.365945208
  9
$TDUCREATE
 40
2457329.324278542
  9
$TDUPDATE
 40
2457329.365946238
  9
$TDUUPDATE
 40
2457329.324279572
  9
$TDINDWG
 40
0.0000000116
  9
$TDUSRTIMER
 40
0.0000000116
  9
$USRTIMER
 70
     1
  9
$ANGBASE
 50
0.0
  9
$ANGDIR
 70
     0
  9
$PDMODE
 70
     0
  9
$PDSIZE
 40
0.0
  9
$PLINEWID
 40
0.0
  9
$SPLFRAME
 70
     0
  9
$SPLINETYPE
 70
     6
  9
$SPLINESEGS
 70
     8
  9
$HANDSEED
  5
1D4
  9
$SURFTAB1
 70
     6
  9
$SURFTAB2
 70
     6
  9
$SURFTYPE
 70
     6
  9
$SURFU
 70
     6
  9
$SURFV
 70
     6
  9
$UCSBASE
  2

  9
$UCSNAME
  2

  9
$UCSORG
 10
0.0
 20
0.0
 30
0.0
  9
$UCSXDIR
 10
1.0
 20
0.0
 30
0.0
  9
$UCSYDIR
 10
0.0
 20
1.0
 30
0.0
  9
$UCSORTHOREF
  2

  9
$UCSORTHOVIEW
 70
     0
  9
$UCSORGTOP
 10
0.0
 20
0.0
 30
0.0
  9
$UCSORGBOTTOM
 10
0.0
 20
0.0
 30
0.0
  9
$UCSORGLEFT
 10
0.0
 20
0.0
 30
0.0
  9
$UCSORGRIGHT
 10
0.0
 20
0.0
 30
0.0
  9
$UCSORGFRONT
 10
0.0
 20
0.0
 30
0.0
  9
$UCSORGBACK
 10
0.0
 20
0.0
 30
0.0
  9
$PUCSBASE
  2

  9
$PUCSNAME
  2

  9
$PUCSORG
 10
0.0
 20
0.0
 30
0.0
  9
$PUCSXDIR
 10
1.0
 20
0.0
 30
0.0
  9
$PUCSYDIR
 10
0.0
 20
1.0
 30
0.0
  9
$PUCSORTHOREF
  2

  9
$PUCSORTHOVIEW
 70
     0
  9
$PUCSORGTOP
 10
0.0
 20
0.0
 30
0.0
  9
$PUCSORGBOTTOM
 10
0.0
 20
0.0
 30
0.0
  9
$PUCSORGLEFT
 10
0.0
 20
0.0
 30
0.0
  9
$PUCSORGRIGHT
 10
0.0
 20
0.0
 30
0.0
  9
$PUCSORGFRONT
 10
0.0
 20
0.0
 30
0.0
  9
$PUCSORGBACK
 10
0.0
 20
0.0
 30
0.0
  9
$USERI1
 70
     0
  9
$USERI2
 70
     0
  9
$USERI3
 70
     0
  9
$USERI4
 70
     0
  9
$USERI5
 70
     0
  9
$USERR1
 40
18.1
  9
$USERR2
 40
0.0
  9
$USERR3
 40
0.0
  9
$USERR4
 40
0.0
  9
$USERR5
 40
0.0
  9
$WORLDVIEW
 70
     1
  9
$SHADEDGE
 70
     3
  9
$SHADEDIF
 70
    70
  9
$TILEMODE
 70
     1
  9
$MAXACTVP
 70
    64
  9
$PINSBASE
 10
0.0
 20
0.0
 30
0.0
  9
$PLIMCHECK
 70
     0
  9
$PEXTMIN
 10
1.00000000000000E+20
 20
1.00000000000000E+20
 30
1.00000000000000E+20
  9
$PEXTMAX
 10
-1.00000000000000E+20
 20
-1.00000000000000E+20
 30
-1.00000000000000E+20
  9
$PLIMMIN
 10
0.0
 20
0.0
  9
$PLIMMAX
 10
12.0
 20
9.0
  9
$UNITMODE
 70
     0
  9
$VISRETAIN
 70
     1
  9
$PLINEGEN
 70
     0
  9
$PSLTSCALE
 70
     1
  9
$TREEDEPTH
 70
  3020
  9
$CMLSTYLE
  2
Standard
  9
$CMLJUST
 70
     0
  9
$CMLSCALE
 40
1.0
  9
$PROXYGRAPHICS
 70
     1
  9
$MEASUREMENT
 70
     1
  9
$CELWEIGHT
370
    -1
  9
$ENDCAPS
280
     0
  9
$JOINSTYLE
280
     0
  9
$LWDISPLAY
290
     0
  9
$INSUNITS
 70
     4
  9
$HYPERLINKBASE
  1

  9
$STYLESHEET
  1

  9
$XEDIT
290
     1
  9
$CEPSNTYPE
380
     0
  9
$PSTYLEMODE
290
     1
  9
$FINGERPRINTGUID
  2
{E2611A3E-3799-4506-AD8B-E886E46008D8}
  9
$VERSIONGUID
  2
{FAEB1C32-E019-11D5-929B-00C0DF256EC4}
  9
$EXTNAMES
290
     1
  9
$PSVPSCALE
 40
0.0
  9
$OLESTARTUP
290
     0
  9
$SORTENTS
280
   127
  9
$INDEXCTL
280
     0
  9
$HIDETEXT
280
     1
  9
$XCLIPFRAME
280
     2
  9
$HALOGAP
280
     0
  9
$OBSCOLOR
 70
   257
  9
$OBSLTYPE
280
     0
  9
$INTERSECTIONDISPLAY
280
     0
  9
$INTERSECTIONCOLOR
 70
   257
  9
$DIMASSOC
280
     2
  9
$PROJECTNAME
  1

  9
$CAMERADISPLAY
290
     0
  9
$LENSLENGTH
 40
50.0
  9
$CAMERAHEIGHT
 40
0.0
  9
$STEPSPERSEC
 40
2.0
  9
$STEPSIZE
 40
6.0
  9
$3DDWFPREC
 40
2.0
  9
$PSOLWIDTH
 40
0.25
  9
$PSOLHEIGHT
 40
4.0
  9
$LOFTANG1
 40
1.5707963267949
  9
$LOFTANG2
 40
1.5707963267949
  9
$LOFTMAG1
 40
0.0
  9
$LOFTMAG2
 40
0.0
  9
$LOFTPARAM
 70
     7
  9
$LOFTNORMALS
280
     1
  9
$LATITUDE
 40
37.795
  9
$LONGITUDE
 40
-122.394
  9
$NORTHDIRECTION
 40
0.0
  9
$TIMEZONE
 70
 -8000
  9
$LIGHTGLYPHDISPLAY
280
     1
  9
$TILEMODELIGHTSYNCH
280
     1
  9
$SOLIDHIST
280
     1
  9
$SHOWHIST
280
     1
  9
$DWFFRAME
280
     2
  9
$DGNFRAME
280
     2
  9
$REALWORLDSCALE
290
     1
  9
$INTERFERECOLOR
 62
   256
  9
$CSHADOW
280
     0
  9
$SHADOWPLANELOCATION
 40
0.0
  0
ENDSEC
  0
SECTION
  2
CLASSES
  0
CLASS
  1
ACDBDICTIONARYWDFLT
  2
AcDbDictionaryWithDefault
  3
ObjectDBX Classes
 90
        0
 91
        4
280
     0
281
     0
  0
CLASS
  1
VISUALSTYLE
  2
AcDbVisualStyle
  3
ObjectDBX Classes
 90
     4095
 91
        4
280
     0
281
     0
  0
CLASS
  1
MATERIAL
  2
AcDbMaterial
  3
ObjectDBX Classes
 90
     1153
 91
        4
280
     0
281
     0
  0
ENDSEC
  0
SECTION
  2
TABLES
  0
TABLE
  2
VPORT
  5
8
330
0
100
AcDbSymbolTable
 70
     1
  0
VPORT
  5
29
330
8
100
AcDbSymbolTableRecord
100
AcDbViewportTableRecord
  2
*Active
 70
     0
 10
0.0
 20
0.0
 11
1.0
 21
1.0
 12
266.801988934791
 22
288.7696725091249
 13
0.0
 23
0.0
 14
0.5
 24
0.5
 15
0.5
 25
0.5
 16
0.0
 26
0.0
 36
1.0
 17
0.0
 27
0.0
 37
0.0
 40
96.03945629044011
 41
1.60267857142857
 42
50.0
 43
0.0
 44
0.0
 50
0.0
 51
0.0
 71
     0
 72
   100
 73
     1
 74
     3
 75
     0
 76
     0
 77
     0
 78
     0
281
     0
 65
     1
110
0.0
120
0.0
130
0.0
111
1.0
121
0.0
131
0.0
112
0.0
122
1.0
132
0.0
 79
     0
146
0.0
 60
     3
 61
     5
292
     1
282
     1
141
0.0
142
0.0
 63
   250
  0
ENDTAB
  0
TABLE
  2
LTYPE
  5
5
330
0
100
AcDbSymbolTable
 70
    10
  0
LTYPE
  5
14
330
5
100
AcDbSymbolTableRecord
100
AcDbLinetypeTableRecord
  2
ByBlock
 70
     0
  3

 72
    65
 73
     0
 40
0.0
  0
LTYPE
  5
15
330
5
100
AcDbSymbolTableRecord
100
AcDbLinetypeTableRecord
  2
ByLayer
 70
     0
  3

 72
    65
 73
     0
 40
0.0
  0
LTYPE
  5
16
330
5
100
AcDbSymbolTableRecord
100
AcDbLinetypeTableRecord
  2
Continuous
 70
     0
  3
Solid line
 72
    65
 73
     0
 40
0.0
  0
LTYPE
  5
3F
330
5
100
AcDbSymbolTableRecord
100
AcDbLinetypeTableRecord
  2
DASHED
 70
     0
  3
Dashed
 72
    65
 73
     2
 40
15.0
 49
7.0
 74
     0
 49
-8.0
 74
     0
  0
LTYPE
  5
40
330
5
100
AcDbSymbolTableRecord
100
AcDbLinetypeTableRecord
  2
DOTTED
 70
     0
  3
Dotted
 72
    65
 73
     2
 40
1.0
 49
0.0
 74
     0
 49
-1.0
 74
     0
  0
LTYPE
  5
41
330
5
100
AcDbSymbolTableRecord
100
AcDbLinetypeTableRecord
  2
DOT_CENTER
 70
     0
  3
Dot_Center
 72
    65
 73
     4
 40
14.0
 49
12.0
 74
     0
 49
-1.0
 74
     0
 49
0.0
 74
     0
 49
-1.0
 74
     0
  0
LTYPE
  5
42
330
5
100
AcDbSymbolTableRecord
100
AcDbLinetypeTableRecord
  2
LONG_DASHED
 70
     0
  3
Long_Dashed
 72
    65
 73
     2
 40
15.0
 49
10.0
 74
     0
 49
-5.0
 74
     0
  0
LTYPE
  5
43
330
5
100
AcDbSymbolTableRecord
100
AcDbLinetypeTableRecord
  2
DASH_CENTER
 70
     0
  3
Dash_Center
 72
    65
 73
     4
 40
14.0
 49
11.0
 74
     0
 49
-1.0
 74
     0
 49
1.0
 74
     0
 49
-1.0
 74
     0
  0
LTYPE
  5
44
330
5
100
AcDbSymbolTableRecord
100
AcDbLinetypeTableRecord
  2
PHANTOM
 70
     0
  3
Phantom
 72
    65
 73
     6
 40
13.0
 49
10.0
 74
     0
 49
-1.0
 74
     0
 49
0.0
 74
     0
 49
-1.0
 74
     0
 49
0.0
 74
     0
 49
-1.0
 74
     0
  0
LTYPE
  5
45
330
5
100
AcDbSymbolTableRecord
100
AcDbLinetypeTableRecord
  2
CENTER_DASH_DASH
 70
     0
  3
Center_Dash_Dash
 72
    65
 73
     6
 40
14.0
 49
9.0
 74
     0
 49
-1.0
 74
     0
 49
1.0
 74
     0
 49
-1.0
 74
     0
 49
1.0
 74
     0
 49
-1.0
 74
     0
  0
LTYPE
  5
46
330
5
100
AcDbSymbolTableRecord
100
AcDbLinetypeTableRecord
  2
CENTER_5
 70
     0
  3
CENTER_5
 72
    65
 73
     4
 40
14.0
 49
8.0
 74
     0
 49
-2.0
 74
     0
 49
2.0
 74
     0
 49
-2.0
 74
     0
  0
LTYPE
  5
47
330
5
100
AcDbSymbolTableRecord
100
AcDbLinetypeTableRecord
  2
CENTER_6
 70
     0
  3
CENTER_6
 72
    65
 73
     4
 40
14.0
 49
8.0
 74
     0
 49
-2.0
 74
     0
 49
2.0
 74
     0
 49
-2.0
 74
     0
  0
ENDTAB
  0
TABLE
  2
LAYER
  5
2
330
0
100
AcDbSymbolTable
 70
     7
  0
LAYER
  5
10
330
2
100
AcDbSymbolTableRecord
100
AcDbLayerTableRecord
  2
0
 70
     0
 62
     7
  6
Continuous
370
    -3
390
F
347
3E
  0
LAYER
  5
48
330
2
100
AcDbSymbolTableRecord
100
AcDbLayerTableRecord
  2
1
 70
     0
 62
     7
  6
Continuous
370
    -3
390
F
347
3E
  0
LAYER
  5
49
330
2
100
AcDbSymbolTableRecord
100
AcDbLayerTableRecord
  2
A_ACHSEN
 70
     0
 62
     7
  6
Continuous
370
    -3
390
F
347
3E
  0
LAYER
  5
4A
330
2
100
AcDbSymbolTableRecord
100
AcDbLayerTableRecord
  2
A_BEMASSUNGEN
 70
     0
 62
     7
  6
Continuous
370
    -3
390
F
347
3E
  0
LAYER
  5
4B
330
2
100
AcDbSymbolTableRecord
100
AcDbLayerTableRecord
  2
A_NOTIZEN_SYMB
 70
     0
 62
     7
  6
Continuous
370
    -3
390
F
347
3E
  0
LAYER
  5
4C
330
2
100
AcDbSymbolTableRecord
100
AcDbLayerTableRecord
  2
A_RUNDUNGEN
 70
     0
 62
     7
  6
Continuous
370
    -3
390
F
347
3E
  0
LAYER
  5
4D
330
2
100
AcDbSymbolTableRecord
100
AcDbLayerTableRecord
  2
DEFAULT_1
 70
     0
 62
     7
  6
Continuous
370
    -3
390
F
347
3E
  0
ENDTAB
  0
TABLE
  2
STYLE
  5
3
330
0
100
AcDbSymbolTable
 70
     2
  0
STYLE
  5
11
330
3
100
AcDbSymbolTableRecord
100
AcDbTextStyleTableRecord
  2
Standard
 70
     0
 40
0.0
 41
1.0
 50
0.0
 71
     0
 42
0.2
  3
txt
  4

  0
STYLE
  5
179
330
3
100
AcDbSymbolTableRecord
100
AcDbTextStyleTableRecord
  2
CONVERTER_11
 70
     0
 40
0.0
 41
0.9
 50
0.0
 71
     0
 42
0.2
  3
txt.shx
  4

  0
ENDTAB
  0
TABLE
  2
VIEW
  5
6
330
0
100
AcDbSymbolTable
 70
     0
  0
ENDTAB
  0
TABLE
  2
UCS
  5
7
330
0
100
AcDbSymbolTable
 70
     0
  0
ENDTAB
  0
TABLE
  2
APPID
  5
9
330
0
100
AcDbSymbolTable
 70
     1
  0
APPID
  5
12
330
9
100
AcDbSymbolTableRecord
100
AcDbRegAppTableRecord
  2
ACAD
 70
     0
  0
ENDTAB
  0
TABLE
  2
DIMSTYLE
  5
A
330
0
100
AcDbSymbolTable
 70
     9
100
AcDbDimStyleTable
  0
DIMSTYLE
105
27
330
A
100
AcDbSymbolTableRecord
100
AcDbDimStyleTableRecord
  2
Standard
 70
     0
178
     0
340
11
  0
DIMSTYLE
105
17D
102
{ACAD_REACTORS
330
17E
102
}
330
A
100
AcDbSymbolTableRecord
100
AcDbDimStyleTableRecord
  2
ME10_DIM_10
 70
     0
 41
3.5
 42
0.0
 44
2.0
 73
     0
 74
     0
 77
     1
 78
     8
140
3.5
147
2.0
172
     1
173
     1
174
     1
175
     1
176
     2
177
     2
271
     3
178
     2
271
     3
340
179
  0
DIMSTYLE
105
18A
102
{ACAD_REACTORS
330
18B
102
}
330
A
100
AcDbSymbolTableRecord
100
AcDbDimStyleTableRecord
  2
ME10_DIM_11
 70
     0
 41
3.5
 42
0.0
 44
2.0
 73
     0
 74
     0
 77
     1
 78
     8
140
3.5
147
2.0
172
     1
173
     1
174
     1
175
     1
176
     2
177
     2
271
     1
178
     2
271
     1
340
179
  0
DIMSTYLE
105
195
102
{ACAD_REACTORS
330
196
102
}
330
A
100
AcDbSymbolTableRecord
100
AcDbDimStyleTableRecord
  2
ME10_DIM_12
 70
     0
 41
3.5
 42
0.0
 44
2.0
 73
     0
 74
     0
 77
     1
 78
     8
140
3.5
147
2.0
172
     1
173
     1
174
     1
175
     1
176
     2
177
     2
271
     3
178
     2
271
     3
340
179
  0
DIMSTYLE
105
1A0
102
{ACAD_REACTORS
330
1A1
102
}
330
A
100
AcDbSymbolTableRecord
100
AcDbDimStyleTableRecord
  2
ME10_DIM_13
 70
     0
 41
3.5
 42
0.0
 44
2.0
 73
     0
 74
     0
 77
     1
 78
     8
140
3.5
147
2.0
172
     1
173
     1
174
     1
175
     1
176
     2
177
     2
271
     1
178
     2
271
     1
340
179
  0
DIMSTYLE
105
1AD
102
{ACAD_REACTORS
330
1AE
102
}
330
A
100
AcDbSymbolTableRecord
100
AcDbDimStyleTableRecord
  2
ME10_DIM_14
 70
     0
 41
3.5
 42
0.0
 44
2.0
 73
     0
 74
     0
 77
     1
 78
     8
140
3.5
147
2.0
172
     1
173
     1
174
     1
175
     1
176
     2
177
     2
271
     3
178
     2
271
     3
340
179
  0
DIMSTYLE
105
1B8
102
{ACAD_REACTORS
330
1B9
102
}
330
A
100
AcDbSymbolTableRecord
100
AcDbDimStyleTableRecord
  2
ME10_DIM_15
 70
     0
 41
3.5
 42
0.0
 44
2.0
 73
     0
 74
     0
 77
     1
 78
     8
140
3.5
147
2.0
172
     1
173
     1
174
     1
175
     1
176
     2
177
     2
271
     1
178
     2
271
     1
340
179
  0
DIMSTYLE
105
1C5
102
{ACAD_REACTORS
330
1C6
102
}
330
A
100
AcDbSymbolTableRecord
100
AcDbDimStyleTableRecord
  2
ME10_DIM_16
 70
     0
 41
3.5
 42
0.0
 44
2.0
 73
     0
 74
     0
 77
     1
 78
     8
140
3.5
147
2.0
172
     1
173
     1
174
     1
175
     1
176
     2
177
     2
271
     1
178
     2
271
     1
340
179
  0
DIMSTYLE
105
1D0
102
{ACAD_REACTORS
330
1D1
102
}
330
A
100
AcDbSymbolTableRecord
100
AcDbDimStyleTableRecord
  2
ME10_DIM_17
 70
     0
 41
3.5
 42
0.0
 44
2.0
 73
     0
 74
     0
 77
     1
 78
     8
140
3.5
147
2.0
172
     1
173
     1
174
     1
175
     1
176
     2
177
     2
271
     3
178
     2
271
     3
340
179
  0
ENDTAB
  0
TABLE
  2
BLOCK_RECORD
  5
1
330
0
100
AcDbSymbolTable
 70
     9
  0
BLOCK_RECORD
  5
1F
330
1
100
AcDbSymbolTableRecord
100
AcDbBlockTableRecord
  2
*Model_Space
340
22
 70
     0
280
     1
281
     0
  0
BLOCK_RECORD
  5
1B
330
1
100
AcDbSymbolTableRecord
100
AcDbBlockTableRecord
  2
*Paper_Space
340
1E
 70
     0
280
     1
281
     0
  0
BLOCK_RECORD
  5
23
330
1
100
AcDbSymbolTableRecord
100
AcDbBlockTableRecord
  2
*Paper_Space0
340
26
 70
     0
280
     1
281
     0
  0
BLOCK_RECORD
  5
173
330
1
100
AcDbSymbolTableRecord
100
AcDbBlockTableRecord
  2
*D1
340
0
 70
     0
280
     1
281
     0
  0
BLOCK_RECORD
  5
17F
330
1
100
AcDbSymbolTableRecord
100
AcDbBlockTableRecord
  2
*D2
340
0
 70
     0
280
     1
281
     0
  0
BLOCK_RECORD
  5
18C
330
1
100
AcDbSymbolTableRecord
100
AcDbBlockTableRecord
  2
*D3
340
0
 70
     0
280
     1
281
     0
  0
BLOCK_RECORD
  5
197
330
1
100
AcDbSymbolTableRecord
100
AcDbBlockTableRecord
  2
*D4
340
0
 70
     0
280
     1
281
     0
  0
BLOCK_RECORD
  5
1A2
330
1
100
AcDbSymbolTableRecord
100
AcDbBlockTableRecord
  2
*D5
340
0
 70
     0
280
     1
281
     0
  0
BLOCK_RECORD
  5
1AF
330
1
100
AcDbSymbolTableRecord
100
AcDbBlockTableRecord
  2
*D6
340
0
 70
     0
280
     1
281
     0
  0
BLOCK_RECORD
  5
1BA
330
1
100
AcDbSymbolTableRecord
100
AcDbBlockTableRecord
  2
*D7
340
0
 70
     0
280
     1
281
     0
  0
BLOCK_RECORD
  5
1C7
330
1
100
AcDbSymbolTableRecord
100
AcDbBlockTableRecord
  2
*D8
340
0
 70
     0
280
     1
281
     0
  0
ENDTAB
  0
ENDSEC
  0
SECTION
  2
BLOCKS
  0
BLOCK
  5
20
330
1F
100
AcDbEntity
  8
0
100
AcDbBlockBegin
  2
*Model_Space
 70
     0
 10
0.0
 20
0.0
 30
0.0
  3
*Model_Space
  1

  0
ENDBLK
  5
21
330
1F
100
AcDbEntity
  8
0
100
AcDbBlockEnd
  0
BLOCK
  5
1C
330
1B
100
AcDbEntity
 67
     1
  8
0
100
AcDbBlockBegin
  2
*Paper_Space
 70
     0
 10
0.0
 20
0.0
 30
0.0
  3
*Paper_Space
  1

  0
ENDBLK
  5
1D
330
1B
100
AcDbEntity
 67
     1
  8
0
100
AcDbBlockEnd
  0
BLOCK
  5
24
330
23
100
AcDbEntity
  8
0
100
AcDbBlockBegin
  2
*Paper_Space0
 70
     0
 10
0.0
 20
0.0
 30
0.0
  3
*Paper_Space0
  1

  0
ENDBLK
  5
25
330
23
100
AcDbEntity
  8
0
100
AcDbBlockEnd
  0
BLOCK
  5
17B
330
173
100
AcDbEntity
  8
0
100
AcDbBlockBegin
  2
*D1
 70
     1
 10
0.0
 20
0.0
 30
0.0
  3
*D1
  1

  0
LINE
  5
174
330
173
100
AcDbEntity
  8
1
  6
Continuous
 62
     2
100
AcDbLine
 10
334.765797393127
 20
307.3486127149959
 30
0.0
 11
334.765797393127
 21
267.3486157207959
 31
0.0
  0
LINE
  5
175
330
173
100
AcDbEntity
  8
1
  6
Continuous
 62
     2
100
AcDbLine
 10
314.7859434855993
 20
267.3486157207959
 30
0.0
 11
336.765797393127
 21
267.3486157207959
 31
0.0
  0
LINE
  5
176
330
173
100
AcDbEntity
  8
1
  6
Continuous
 62
     2
100
AcDbLine
 10
314.8014503982994
 20
307.3486127149959
 30
0.0
 11
336.765797393127
 21
307.3486127149959
 31
0.0
  0
SOLID
  5
177
330
173
100
AcDbEntity
  8
1
 62
     2
100
AcDbTrace
 10
335.2265811346829
 20
303.8486127149959
 30
0.0
 11
334.3050136515711
 21
303.8486127149959
 31
0.0
 12
334.765797393127
 22
307.3486127149959
 32
0.0
 13
334.765797393127
 23
307.3486127149959
 33
0.0
  0
SOLID
  5
178
330
173
100
AcDbEntity
  8
1
 62
     2
100
AcDbTrace
 10
334.3050136515711
 20
270.8486157207959
 30
0.0
 11
335.2265811346829
 21
270.8486157207959
 31
0.0
 12
334.765797393127
 22
267.3486157207959
 32
0.0
 13
334.765797393127
 23
267.3486157207959
 33
0.0
  0
MTEXT
  5
17A
330
173
100
AcDbEntity
  8
1
 62
     2
100
AcDbMText
 10
332.765797393127
 20
284.295082540537
 30
0.0
 40
3.5
 41
0.0
 46
0.0
 71
     7
 72
     1
  1
40
  7
CONVERTER_11
 11
0.0
 21
1.0
 31
0.0
 73
     1
 44
0.60024009603842
  0
ENDBLK
  5
17C
330
173
100
AcDbEntity
  8
0
100
AcDbBlockEnd
  0
BLOCK
  5
188
330
17F
100
AcDbEntity
  8
0
100
AcDbBlockBegin
  2
*D2
 70
     1
 10
0.0
 20
0.0
 30
0.0
  3
*D2
  1

  0
LINE
  5
180
330
17F
100
AcDbEntity
  8
1
  6
Continuous
 62
     2
100
AcDbLine
 10
324.8851866587033
 20
258.2427492197409
 30
0.0
 11
324.8851866587033
 21
267.3486157207959
 31
0.0
  0
LINE
  5
181
330
17F
100
AcDbEntity
  8
1
  6
Continuous
 62
     2
100
AcDbLine
 10
324.8851866587033
 20
267.3486157207959
 30
0.0
 11
324.8851866587033
 21
272.8548180725959
 31
0.0
  0
LINE
  5
182
330
17F
100
AcDbEntity
  8
1
  6
Continuous
 62
     2
100
AcDbLine
 10
324.8851866587033
 20
272.8548180725959
 30
0.0
 11
324.8851866587033
 21
279.8548180725959
 31
0.0
  0
LINE
  5
183
330
17F
100
AcDbEntity
  8
1
  6
Continuous
 62
     2
100
AcDbLine
 10
314.7859434855993
 20
267.3486157207959
 30
0.0
 11
326.8851866587033
 21
267.3486157207959
 31
0.0
  0
LINE
  5
184
330
17F
100
AcDbEntity
  8
1
  6
Continuous
 62
     2
100
AcDbLine
 10
298.7880768883993
 20
272.8548180725959
 30
0.0
 11
326.8851866587033
 21
272.8548180725959
 31
0.0
  0
SOLID
  5
185
330
17F
100
AcDbEntity
  8
1
 62
     2
100
AcDbTrace
 10
325.3459704002591
 20
263.8486157207959
 30
0.0
 11
324.4244029171474
 21
263.8486157207959
 31
0.0
 12
324.8851866587033
 22
267.3486157207959
 32
0.0
 13
324.8851866587033
 23
267.3486157207959
 33
0.0
  0
SOLID
  5
186
330
17F
100
AcDbEntity
  8
1
 62
     2
100
AcDbTrace
 10
324.4244029171474
 20
276.3548180725959
 30
0.0
 11
325.3459704002591
 21
276.3548180725959
 31
0.0
 12
324.8851866587033
 22
272.8548180725959
 32
0.0
 13
324.8851866587033
 23
272.8548180725959
 33
0.0
  0
MTEXT
  5
187
330
17F
100
AcDbEntity
  8
1
 62
     2
100
AcDbMText
 10
322.8851866587033
 20
258.2427492197409
 30
0.0
 40
3.5
 41
0.0
 46
0.0
 71
     7
 72
     1
  1
5.5
  7
CONVERTER_11
 11
0.0
 21
1.0
 31
0.0
 73
     1
 44
0.60024009603842
  0
ENDBLK
  5
189
330
17F
100
AcDbEntity
  8
0
100
AcDbBlockEnd
  0
BLOCK
  5
193
330
18C
100
AcDbEntity
  8
0
100
AcDbBlockBegin
  2
*D3
 70
     1
 10
0.0
 20
0.0
 30
0.0
  3
*D3
  1

  0
LINE
  5
18D
330
18C
100
AcDbEntity
  8
1
  6
Continuous
 62
     2
100
AcDbLine
 10
324.8851866587033
 20
301.8548158933959
 30
0.0
 11
324.8851866587033
 21
272.8548180725959
 31
0.0
  0
LINE
  5
18E
330
18C
100
AcDbEntity
  8
1
  6
Continuous
 62
     2
100
AcDbLine
 10
298.7993194000993
 20
301.8548158933959
 30
0.0
 11
326.8851866587033
 21
301.8548158933959
 31
0.0
  0
LINE
  5
18F
330
18C
100
AcDbEntity
  8
1
  6
Continuous
 62
     2
100
AcDbLine
 10
298.7880768883992
 20
272.8548180725959
 30
0.0
 11
326.8851866587033
 21
272.8548180725959
 31
0.0
  0
SOLID
  5
190
330
18C
100
AcDbEntity
  8
1
 62
     2
100
AcDbTrace
 10
325.3459704002591
 20
298.3548158933959
 30
0.0
 11
324.4244029171474
 21
298.3548158933959
 31
0.0
 12
324.8851866587033
 22
301.8548158933959
 32
0.0
 13
324.8851866587033
 23
301.8548158933959
 33
0.0
  0
SOLID
  5
191
330
18C
100
AcDbEntity
  8
1
 62
     2
100
AcDbTrace
 10
324.4244029171474
 20
276.3548180725959
 30
0.0
 11
325.3459704002591
 21
276.3548180725959
 31
0.0
 12
324.8851866587033
 22
272.8548180725959
 32
0.0
 13
324.8851866587033
 23
272.8548180725959
 33
0.0
  0
MTEXT
  5
192
330
18C
100
AcDbEntity
  8
1
 62
     2
100
AcDbMText
 10
322.8851866587033
 20
287.7123020731989
 30
0.0
 40
3.5
 41
0.0
 46
0.0
 71
     7
 72
     1
  1
29
  7
CONVERTER_11
 11
0.0
 21
1.0
 31
0.0
 73
     1
 44
0.60024009603842
  0
ENDBLK
  5
194
330
18C
100
AcDbEntity
  8
0
100
AcDbBlockEnd
  0
BLOCK
  5
19E
330
197
100
AcDbEntity
  8
0
100
AcDbBlockBegin
  2
*D4
 70
     1
 10
0.0
 20
0.0
 30
0.0
  3
*D4
  1

  0
LINE
  5
198
330
197
100
AcDbEntity
  8
1
  6
Continuous
 62
     2
100
AcDbLine
 10
264.7876992480986
 20
247.2389187029579
 30
0.0
 11
298.7880768883994
 21
247.2389187029579
 31
0.0
  0
LINE
  5
199
330
197
100
AcDbEntity
  8
1
  6
Continuous
 62
     2
100
AcDbLine
 10
264.7876992480986
 20
267.348615720796
 30
0.0
 11
264.7876992480986
 21
245.2389187029579
 31
0.0
  0
LINE
  5
19A
330
197
100
AcDbEntity
  8
1
  6
Continuous
 62
     2
100
AcDbLine
 10
298.7880768883994
 20
272.8548180725959
 30
0.0
 11
298.7880768883994
 21
245.2389187029579
 31
0.0
  0
SOLID
  5
19B
330
197
100
AcDbEntity
  8
1
 62
     2
100
AcDbTrace
 10
268.2876992480986
 20
247.6997024445138
 30
0.0
 11
268.2876992480986
 21
246.778134961402
 31
0.0
 12
264.7876992480986
 22
247.2389187029579
 32
0.0
 13
264.7876992480986
 23
247.2389187029579
 33
0.0
  0
SOLID
  5
19C
330
197
100
AcDbEntity
  8
1
 62
     2
100
AcDbTrace
 10
295.2880768883994
 20
246.778134961402
 30
0.0
 11
295.2880768883994
 21
247.6997024445138
 31
0.0
 12
298.7880768883994
 22
247.2389187029579
 32
0.0
 13
298.7880768883994
 23
247.2389187029579
 33
0.0
  0
MTEXT
  5
19D
330
197
100
AcDbEntity
  8
1
 62
     2
100
AcDbMText
 10
278.241912902152
 20
249.2389187029579
 30
0.0
 40
3.5
 41
0.0
 46
0.0
 71
     7
 72
     1
  1
34
  7
CONVERTER_11
 11
0.9999999999970619
 21
2.424068405545306E-6
 31
0.0
 73
     1
 44
0.60024009603842
  0
ENDBLK
  5
19F
330
197
100
AcDbEntity
  8
0
100
AcDbBlockEnd
  0
BLOCK
  5
1AB
330
1A2
100
AcDbEntity
  8
0
100
AcDbBlockBegin
  2
*D5
 70
     1
 10
0.0
 20
0.0
 30
0.0
  3
*D5
  1

  0
LINE
  5
1A3
330
1A2
100
AcDbEntity
  8
1
  6
Continuous
 62
     2
100
AcDbLine
 10
254.7876985053202
 20
257.2874219040929
 30
0.0
 11
261.7876985053202
 21
257.2874219040929
 31
0.0
  0
LINE
  5
1A4
330
1A2
100
AcDbEntity
  8
1
  6
Continuous
 62
     2
100
AcDbLine
 10
261.7876985053202
 20
257.2874219040929
 30
0.0
 11
264.7876992480986
 21
257.2874219040929
 31
0.0
  0
LINE
  5
1A5
330
1A2
100
AcDbEntity
  8
1
  6
Continuous
 62
     2
100
AcDbLine
 10
264.7876992480986
 20
257.2874219040929
 30
0.0
 11
271.7876992480986
 21
257.2874219040929
 31
0.0
  0
LINE
  5
1A6
330
1A2
100
AcDbEntity
  8
1
  6
Continuous
 62
     2
100
AcDbLine
 10
261.7876985053202
 20
267.3619114906811
 30
0.0
 11
261.7876985053202
 21
255.2874219040929
 31
0.0
  0
LINE
  5
1A7
330
1A2
100
AcDbEntity
  8
1
  6
Continuous
 62
     2
100
AcDbLine
 10
264.7876992480986
 20
267.348615720796
 30
0.0
 11
264.7876992480986
 21
255.2874219040929
 31
0.0
  0
SOLID
  5
1A8
330
1A2
100
AcDbEntity
  8
1
 62
     2
100
AcDbTrace
 10
258.2876985053202
 20
256.8266381625371
 30
0.0
 11
258.2876985053202
 21
257.7482056456488
 31
0.0
 12
261.7876985053202
 22
257.2874219040929
 32
0.0
 13
261.7876985053202
 23
257.2874219040929
 33
0.0
  0
SOLID
  5
1A9
330
1A2
100
AcDbEntity
  8
1
 62
     2
100
AcDbTrace
 10
268.2876992480986
 20
257.7482056456488
 30
0.0
 11
268.2876992480986
 21
256.8266381625371
 31
0.0
 12
264.7876992480986
 22
257.2874219040929
 32
0.0
 13
264.7876992480986
 23
257.2874219040929
 33
0.0
  0
MTEXT
  5
1AA
330
1A2
100
AcDbEntity
  8
1
 62
     2
100
AcDbMText
 10
257.3440568503293
 20
259.2874219040929
 30
0.0
 40
3.5
 41
0.0
 46
0.0
 71
     7
 72
     1
  1
3
  7
CONVERTER_11
 11
0.9999999999970619
 21
2.424068405545306E-6
 31
0.0
 73
     1
 44
0.60024009603842
  0
ENDBLK
  5
1AC
330
1A2
100
AcDbEntity
  8
0
100
AcDbBlockEnd
  0
BLOCK
  5
1B6
330
1AF
100
AcDbEntity
  8
0
100
AcDbBlockBegin
  2
*D6
 70
     1
 10
0.0
 20
0.0
 30
0.0
  3
*D6
  1

  0
LINE
  5
1B0
330
1AF
100
AcDbEntity
  8
1
  6
Continuous
 62
     2
100
AcDbLine
 10
261.7876985053202
 20
247.2389187029579
 30
0.0
 11
229.7493162618993
 21
247.2389187029579
 31
0.0
  0
LINE
  5
1B1
330
1AF
100
AcDbEntity
  8
1
  6
Continuous
 62
     2
100
AcDbLine
 10
261.7876985053202
 20
267.3619114906811
 30
0.0
 11
261.7876985053202
 21
245.2389187029579
 31
0.0
  0
LINE
  5
1B2
330
1AF
100
AcDbEntity
  8
1
  6
Continuous
 62
     2
100
AcDbLine
 10
229.7493162618993
 20
272.7691604639959
 30
0.0
 11
229.7493162618993
 21
245.2389187029579
 31
0.0
  0
SOLID
  5
1B3
330
1AF
100
AcDbEntity
  8
1
 62
     2
100
AcDbTrace
 10
258.2876985053202
 20
246.778134961402
 30
0.0
 11
258.2876985053202
 21
247.6997024445138
 31
0.0
 12
261.7876985053202
 22
247.2389187029579
 32
0.0
 13
261.7876985053202
 23
247.2389187029579
 33
0.0
  0
SOLID
  5
1B4
330
1AF
100
AcDbEntity
  8
1
 62
     2
100
AcDbTrace
 10
233.2493162618993
 20
247.6997024445138
 30
0.0
 11
233.2493162618993
 21
246.778134961402
 31
0.0
 12
229.7493162618993
 22
247.2389187029579
 32
0.0
 13
229.7493162618993
 23
247.2389187029579
 33
0.0
  0
MTEXT
  5
1B5
330
1AF
100
AcDbEntity
  8
1
 62
     2
100
AcDbMText
 10
244.6220181585763
 20
249.2389187029579
 30
0.0
 40
3.5
 41
0.0
 46
0.0
 71
     7
 72
     1
  1
32
  7
CONVERTER_11
 11
0.9999999999970619
 21
2.424068405545306E-6
 31
0.0
 73
     1
 44
0.60024009603842
  0
ENDBLK
  5
1B7
330
1AF
100
AcDbEntity
  8
0
100
AcDbBlockEnd
  0
BLOCK
  5
1C3
330
1BA
100
AcDbEntity
  8
0
100
AcDbBlockBegin
  2
*D7
 70
     1
 10
0.0
 20
0.0
 30
0.0
  3
*D7
  1

  0
LINE
  5
1BB
330
1BA
100
AcDbEntity
  8
1
  6
Continuous
 62
     2
100
AcDbLine
 10
212.076205560725
 20
284.6337933600528
 30
0.0
 11
212.076205560725
 21
272.8663683640237
 31
0.0
  0
LINE
  5
1BC
330
1BA
100
AcDbEntity
  8
1
  6
Continuous
 62
     2
100
AcDbLine
 10
212.076205560725
 20
272.8663683640237
 30
0.0
 11
212.076205560725
 21
267.348615720796
 31
0.0
  0
LINE
  5
1BD
330
1BA
100
AcDbEntity
  8
1
  6
Continuous
 62
     2
100
AcDbLine
 10
212.076205560725
 20
267.348615720796
 30
0.0
 11
212.076205560725
 21
260.348615720796
 31
0.0
  0
LINE
  5
1BE
330
1BA
100
AcDbEntity
  8
1
  6
Continuous
 62
     2
100
AcDbLine
 10
230.7493162618994
 20
272.8663683640237
 30
0.0
 11
210.076205560725
 21
272.8663683640237
 31
0.0
  0
LINE
  5
1BF
330
1BA
100
AcDbEntity
  8
1
  6
Continuous
 62
     2
100
AcDbLine
 10
224.734978898479
 20
267.348615720796
 30
0.0
 11
210.076205560725
 21
267.348615720796
 31
0.0
  0
SOLID
  5
1C0
330
1BA
100
AcDbEntity
  8
1
 62
     2
100
AcDbTrace
 10
211.6154218191691
 20
276.3663683640237
 30
0.0
 11
212.5369893022809
 21
276.3663683640237
 31
0.0
 12
212.076205560725
 22
272.8663683640237
 32
0.0
 13
212.076205560725
 23
272.8663683640237
 33
0.0
  0
SOLID
  5
1C1
330
1BA
100
AcDbEntity
  8
1
 62
     2
100
AcDbTrace
 10
212.5369893022809
 20
263.848615720796
 30
0.0
 11
211.6154218191691
 21
263.848615720796
 31
0.0
 12
212.076205560725
 22
267.348615720796
 32
0.0
 13
212.076205560725
 23
267.348615720796
 33
0.0
  0
MTEXT
  5
1C2
330
1BA
100
AcDbEntity
  8
1
 62
     2
100
AcDbMText
 10
210.076205560725
 20
278.2462933600528
 30
0.0
 40
3.5
 41
0.0
 46
0.0
 71
     7
 72
     1
  1
5.5
  7
CONVERTER_11
 11
0.0
 21
1.0
 31
0.0
 73
     1
 44
0.60024009603842
  0
ENDBLK
  5
1C4
330
1BA
100
AcDbEntity
  8
0
100
AcDbBlockEnd
  0
BLOCK
  5
1CE
330
1C7
100
AcDbEntity
  8
0
100
AcDbBlockBegin
  2
*D8
 70
     1
 10
0.0
 20
0.0
 30
0.0
  3
*D8
  1

  0
LINE
  5
1C8
330
1C7
100
AcDbEntity
  8
1
  6
Continuous
 62
     2
100
AcDbLine
 10
202.338180476455
 20
301.8663683640237
 30
0.0
 11
202.338180476455
 21
272.8663683640237
 31
0.0
  0
LINE
  5
1C9
330
1C7
100
AcDbEntity
  8
1
  6
Continuous
 62
     2
100
AcDbLine
 10
230.7493162618994
 20
301.8663683640237
 30
0.0
 11
200.338180476455
 21
301.8663683640237
 31
0.0
  0
LINE
  5
1CA
330
1C7
100
AcDbEntity
  8
1
  6
Continuous
 62
     2
100
AcDbLine
 10
230.7493162618994
 20
272.8663683640237
 30
0.0
 11
200.338180476455
 21
272.8663683640237
 31
0.0
  0
SOLID
  5
1CB
330
1C7
100
AcDbEntity
  8
1
 62
     2
100
AcDbTrace
 10
202.7989642180109
 20
298.3663683640237
 30
0.0
 11
201.8773967348991
 21
298.3663683640237
 31
0.0
 12
202.338180476455
 22
301.8663683640237
 32
0.0
 13
202.338180476455
 23
301.8663683640237
 33
0.0
  0
SOLID
  5
1CC
330
1C7
100
AcDbEntity
  8
1
 62
     2
100
AcDbTrace
 10
201.8773967348991
 20
276.3663683640237
 30
0.0
 11
202.7989642180109
 21
276.3663683640237
 31
0.0
 12
202.338180476455
 22
272.8663683640237
 32
0.0
 13
202.338180476455
 23
272.8663683640237
 33
0.0
  0
MTEXT
  5
1CD
330
1C7
100
AcDbEntity
  8
1
 62
     2
100
AcDbMText
 10
200.338180476455
 20
283.9140454775412
 30
0.0
 40
3.5
 41
0.0
 46
0.0
 71
     7
 72
     1
  1
29
  7
CONVERTER_11
 11
0.0
 21
1.0
 31
0.0
 73
     1
 44
0.60024009603842
  0
ENDBLK
  5
1CF
330
1C7
100
AcDbEntity
  8
0
100
AcDbBlockEnd
  0
ENDSEC
  0
SECTION
  2
ENTITIES
  0
POINT
  5
4E
330
1F
100
AcDbEntity
  8
A_BEMASSUNGEN
 62
     7
100
AcDbPoint
 10
227.234978898479
 20
301.238937000487
 30
0.0
  0
POINT
  5
4F
330
1F
100
AcDbEntity
  8
A_BEMASSUNGEN
 62
     7
100
AcDbPoint
 10
260.2883243746809
 20
322.3670109682918
 30
0.0
  0
POINT
  5
50
330
1F
100
AcDbEntity
  8
A_BEMASSUNGEN
 62
     7
100
AcDbPoint
 10
224.734978898479
 20
267.348615720796
 30
0.0
  0
POINT
  5
51
330
1F
100
AcDbEntity
  8
A_BEMASSUNGEN
 62
     7
100
AcDbPoint
 10
230.524580735079
 20
304.238937000487
 30
0.0
  0
POINT
  5
52
330
1F
100
AcDbEntity
  8
A_BEMASSUNGEN
 62
     7
100
AcDbPoint
 10
260.2883243746809
 20
322.3670109682918
 30
0.0
  0
POINT
  5
53
330
1F
100
AcDbEntity
  8
A_BEMASSUNGEN
 62
     7
100
AcDbPoint
 10
275.244985437379
 20
332.3004263152918
 30
0.0
  0
POINT
  5
54
330
1F
100
AcDbEntity
  8
A_BEMASSUNGEN
 62
     7
100
AcDbPoint
 10
224.734978898479
 20
267.348615720796
 30
0.0
  0
POINT
  5
55
330
1F
100
AcDbEntity
  8
A_BEMASSUNGEN
 62
     7
100
AcDbPoint
 10
273.744985437379
 20
332.3004263152918
 30
0.0
  0
POINT
  5
56
330
1F
100
AcDbEntity
  8
A_BEMASSUNGEN
 62
     7
100
AcDbPoint
 10
275.244985437379
 20
332.3004263152918
 30
0.0
  0
POINT
  5
57
330
1F
100
AcDbEntity
  8
A_BEMASSUNGEN
 62
     7
100
AcDbPoint
 10
229.7493162618994
 20
272.7691604639959
 30
0.0
  0
POINT
  5
58
330
1F
100
AcDbEntity
  8
A_BEMASSUNGEN
 62
     7
100
AcDbPoint
 10
229.7493162618994
 20
273.8663683640236
 30
0.0
  0
POINT
  5
59
330
1F
100
AcDbEntity
  8
A_BEMASSUNGEN
 62
     7
100
AcDbPoint
 10
264.7876992480987
 20
267.3486157207959
 30
0.0
  0
POINT
  5
5A
330
1F
100
AcDbEntity
  8
A_BEMASSUNGEN
 62
     7
100
AcDbPoint
 10
298.7884839447993
 20
273.9048179936959
 30
0.0
  0
POINT
  5
5B
330
1F
100
AcDbEntity
  8
A_BEMASSUNGEN
 62
     7
100
AcDbPoint
 10
264.7876992480987
 20
267.3486157207959
 30
0.0
  0
POINT
  5
5C
330
1F
100
AcDbEntity
  8
A_BEMASSUNGEN
 62
     7
100
AcDbPoint
 10
298.7880768883994
 20
272.8548180725959
 30
0.0
  0
POINT
  5
5D
330
1F
100
AcDbEntity
  8
A_BEMASSUNGEN
 62
     7
100
AcDbPoint
 10
314.7859434855993
 20
267.3486157207959
 30
0.0
  0
POINT
  5
5E
330
1F
100
AcDbEntity
  8
A_BEMASSUNGEN
 62
     7
100
AcDbPoint
 10
298.7880768883994
 20
272.8548180725959
 30
0.0
  0
POINT
  5
5F
330
1F
100
AcDbEntity
  8
A_BEMASSUNGEN
 62
     7
100
AcDbPoint
 10
298.7993194000993
 20
301.8548158933959
 30
0.0
  0
LINE
  5
60
330
1F
100
AcDbEntity
  8
0
  6
Continuous
 62
     7
100
AcDbLine
 10
221.734978898479
 20
270.0906544636811
 30
0.0
 11
221.734978898479
 21
281.0906544636811
 31
0.0
  0
LINE
  5
61
330
1F
100
AcDbEntity
  8
0
  6
Continuous
 62
     7
100
AcDbLine
 10
223.234978898479
 20
270.0906544636811
 30
0.0
 11
223.234978898479
 21
281.0906544636811
 31
0.0
  0
LINE
  5
62
330
1F
100
AcDbEntity
  8
0
  6
Continuous
 62
     7
100
AcDbLine
 10
227.234978898479
 20
301.238937000487
 30
0.0
 11
227.234978898479
 21
268.8619114906811
 31
0.0
  0
LINE
  5
63
330
1F
100
AcDbEntity
  8
0
  6
Continuous
 62
     7
100
AcDbLine
 10
229.734978898479
 20
301.5101940274869
 30
0.0
 11
229.734978898479
 21
268.8619114906811
 31
0.0
  0
LINE
  5
64
330
1F
100
AcDbEntity
  8
0
  6
Continuous
 62
     7
100
AcDbLine
 10
224.734978898479
 20
267.348615720796
 30
0.0
 11
258.734978898479
 21
267.3486157207959
 31
0.0
  0
LINE
  5
65
330
1F
100
AcDbEntity
  8
0
  6
Continuous
 62
     7
100
AcDbLine
 10
240.734978898479
 20
268.861911490681
 30
0.0
 11
251.020377061879
 21
268.861911490681
 31
0.0
  0
LINE
  5
66
330
1F
100
AcDbEntity
  8
0
  6
Continuous
 62
     7
100
AcDbLine
 10
224.734978898479
 20
268.8619114906811
 30
0.0
 11
227.234978898479
 21
268.8619114906811
 31
0.0
  0
LINE
  5
67
330
1F
100
AcDbEntity
  8
A_ACHSEN
  6
Continuous
 62
     7
100
AcDbLine
 10
240.634978898479
 20
268.8619114906811
 30
0.0
 11
240.634978898479
 21
272.038937000487
 31
0.0
  0
LINE
  5
68
330
1F
100
AcDbEntity
  8
0
  6
Continuous
 62
     7
100
AcDbLine
 10
240.734978898479
 20
271.724335163887
 30
0.0
 11
240.734978898479
 21
268.861911490681
 31
0.0
  0
LINE
  5
69
330
1F
100
AcDbEntity
  8
0
  6
Continuous
 62
     7
100
AcDbLine
 10
223.234978898479
 20
281.0906544636811
 30
0.0
 11
221.734978898479
 21
281.0906544636811
 31
0.0
  0
LINE
  5
6A
330
1F
100
AcDbEntity
  8
0
  6
Continuous
 62
     7
100
AcDbLine
 10
251.020377061879
 20
271.724335163887
 30
0.0
 11
251.020377061879
 21
268.861911490681
 31
0.0
  0
LINE
  5
6B
330
1F
100
AcDbEntity
  8
0
  6
Continuous
 62
     7
100
AcDbLine
 10
252.734978898479
 20
304.238937000487
 30
0.0
 11
252.734978898479
 21
308.438937000487
 31
0.0
  0
LINE
  5
6C
330
1F
100
AcDbEntity
  8
0
  6
Continuous
 62
     7
100
AcDbLine
 10
255.734978898479
 20
304.238937000487
 30
0.0
 11
255.734978898479
 21
308.438937000487
 31
0.0
  0
LINE
  5
6D
330
1F
100
AcDbEntity
  8
A_ACHSEN
  6
Continuous
 62
     7
100
AcDbLine
 10
257.234978898479
 20
271.238937000487
 30
0.0
 11
257.234978898479
 21
268.8619114906811
 31
0.0
  0
LINE
  5
6E
330
1F
100
AcDbEntity
  8
0
  6
Continuous
 62
     7
100
AcDbLine
 10
259.734978898479
 20
302.010194027487
 30
0.0
 11
259.734978898479
 21
304.238937000487
 31
0.0
  0
LINE
  5
6F
330
1F
100
AcDbEntity
  8
0
  6
Continuous
 62
     7
100
AcDbLine
 10
260.234978898479
 20
270.238937000487
 30
0.0
 11
260.234978898479
 21
272.8737247808148
 31
0.0
  0
LINE
  5
70
330
1F
100
AcDbEntity
  8
0
  6
Continuous
 62
     7
100
AcDbLine
 10
260.2883243746809
 20
301.8693613469147
 30
0.0
 11
260.2883243746809
 21
322.3670109682918
 31
0.0
  0
LINE
  5
71
330
1F
100
AcDbEntity
  8
0
  6
Continuous
 62
     7
100
AcDbLine
 10
263.234978898479
 20
321.3670109682918
 30
0.0
 11
263.234978898479
 21
309.8670109682918
 31
0.0
  0
LINE
  5
72
330
1F
100
AcDbEntity
  8
0
  6
Continuous
 62
     7
100
AcDbLine
 10
268.370695791079
 20
313.2062929730918
 30
0.0
 11
270.488003233379
 21
321.1081919231918
 31
0.0
  0
LINE
  5
73
330
1F
100
AcDbEntity
  8
0
  6
Continuous
 62
     7
100
AcDbLine
 10
272.274191519379
 20
321.9787824005917
 30
0.0
 11
269.819584530479
 21
312.8180644054918
 31
0.0
  0
LINE
  5
74
330
1F
100
AcDbEntity
  8
0
  6
Continuous
 62
     7
100
AcDbLine
 10
273.723080258879
 20
321.5905538329918
 30
0.0
 11
271.268473269979
 21
312.4298358377918
 31
0.0
  0
LINE
  5
75
330
1F
100
AcDbEntity
  8
0
  6
Continuous
 62
     7
100
AcDbLine
 10
230.234978898479
 20
302.0101940274871
 30
0.0
 11
259.734978898479
 21
302.010194027487
 31
0.0
  0
LINE
  5
76
330
1F
100
AcDbEntity
  8
0
  6
Continuous
 62
     7
100
AcDbLine
 10
230.234978898479
 20
304.238937000487
 30
0.0
 11
259.734978898479
 21
304.238937000487
 31
0.0
  0
LINE
  5
77
330
1F
100
AcDbEntity
  8
0
  6
Continuous
 62
     7
100
AcDbLine
 10
255.734978898479
 20
304.438937000487
 30
0.0
 11
252.734978898479
 21
304.438937000487
 31
0.0
  0
LINE
  5
78
330
1F
100
AcDbEntity
  8
0
  6
Continuous
 62
     7
100
AcDbLine
 10
273.744985437379
 20
312.3004263152918
 30
0.0
 11
273.744985437379
 21
332.3004263152918
 31
0.0
  0
LINE
  5
79
330
1F
100
AcDbEntity
  8
0
  6
Continuous
 62
     7
100
AcDbLine
 10
275.244985437379
 20
312.3004263152918
 30
0.0
 11
275.244985437379
 21
332.3004263152918
 31
0.0
  0
LINE
  5
7A
330
1F
100
AcDbEntity
  8
0
  6
Continuous
 62
     7
100
AcDbLine
 10
264.2883243746809
 20
307.3670109682918
 30
0.0
 11
270.398187863779
 21
307.3670109682918
 31
0.0
  0
LINE
  5
7B
330
1F
100
AcDbEntity
  8
0
  6
Continuous
 62
     7
100
AcDbLine
 10
255.734978898479
 20
308.438937000487
 30
0.0
 11
252.734978898479
 21
308.438937000487
 31
0.0
  0
LINE
  5
7C
330
1F
100
AcDbEntity
  8
0
  6
Continuous
 62
     7
100
AcDbLine
 10
264.234978898479
 20
308.8670109682918
 30
0.0
 11
270.398187863779
 21
308.8670109682918
 31
0.0
  0
LINE
  5
7D
330
1F
100
AcDbEntity
  8
0
  6
Continuous
 62
     7
100
AcDbLine
 10
271.751436183079
 20
310.3004263152918
 30
0.0
 11
273.244985437379
 21
310.3004263152918
 31
0.0
  0
LINE
  5
7E
330
1F
100
AcDbEntity
  8
0
  6
Continuous
 62
     7
100
AcDbLine
 10
270.398187863779
 20
308.8670109682918
 30
0.0
 11
269.501679549179
 21
309.6192707643918
 31
0.0
  0
LINE
  5
7F
330
1F
100
AcDbEntity
  8
0
  6
Continuous
 62
     7
100
AcDbLine
 10
271.362369278279
 20
310.0160776328918
 30
0.0
 11
270.465860963679
 21
310.7683374290918
 31
0.0
  0
LINE
  5
80
330
1F
100
AcDbEntity
  8
0
  6
Continuous
 62
     7
100
AcDbLine
 10
271.751436183079
 20
311.8004263152918
 30
0.0
 11
273.244985437379
 21
311.8004263152918
 31
0.0
  0
LINE
  5
81
330
1F
100
AcDbEntity
  8
0
  6
Continuous
 62
     7
100
AcDbLine
 10
269.522077407079
 20
322.3670109682918
 30
0.0
 11
264.234978898479
 21
322.3670109682918
 31
0.0
  0
LINE
  5
82
330
1F
100
AcDbEntity
  8
0
  6
Continuous
 62
     7
100
AcDbLine
 10
263.234978898479
 20
323.8670109682918
 30
0.0
 11
270.825302779979
 21
323.8670109682918
 31
0.0
  0
LINE
  5
83
330
1F
100
AcDbEntity
  8
0
  6
Continuous
 62
     7
100
AcDbLine
 10
263.234978898479
 20
325.3670109682918
 30
0.0
 11
270.825302779979
 21
325.3670109682918
 31
0.0
  0
LINE
  5
84
330
1F
100
AcDbEntity
  8
0
  6
Continuous
 62
     7
100
AcDbLine
 10
273.744985437379
 20
332.3004263152918
 30
0.0
 11
275.244985437379
 21
332.3004263152918
 31
0.0
  0
LINE
  5
85
330
1F
100
AcDbEntity
  8
0
  6
Continuous
 62
     7
100
AcDbLine
 10
252.734978898479
 20
302.0101940274869
 30
0.0
 11
252.734978898479
 21
301.8663683640236
 31
0.0
  0
LINE
  5
86
330
1F
100
AcDbEntity
  8
0
  6
Continuous
 62
     7
100
AcDbLine
 10
255.734978898479
 20
302.0101940274869
 30
0.0
 11
255.734978898479
 21
301.8663683640236
 31
0.0
  0
LINE
  5
87
330
1F
100
AcDbEntity
  8
0
  6
Continuous
 62
     7
100
AcDbLine
 10
260.234978898479
 20
271.238937000487
 30
0.0
 11
257.234978898479
 21
271.238937000487
 31
0.0
  0
LINE
  5
88
330
1F
100
AcDbEntity
  8
0
  6
Continuous
 62
     7
100
AcDbLine
 10
240.734978898479
 20
271.724335163887
 30
0.0
 11
252.234978898479
 21
271.724335163887
 31
0.0
  0
LINE
  5
89
330
1F
100
AcDbEntity
  8
A_ACHSEN
  6
Continuous
 62
     7
100
AcDbLine
 10
240.634978898479
 20
272.038937000487
 30
0.0
 11
250.834978898479
 21
272.038937000487
 31
0.0
  0
LINE
  5
8A
330
1F
100
AcDbEntity
  8
A_ACHSEN
  6
Continuous
 62
     7
100
AcDbLine
 10
250.834978898479
 20
271.724335163887
 30
0.0
 11
250.834978898479
 21
272.038937000487
 31
0.0
  0
LINE
  5
8B
330
1F
100
AcDbEntity
  8
0
  6
Continuous
 62
     7
100
AcDbLine
 10
252.734978898479
 20
272.224335163887
 30
0.0
 11
252.734978898479
 21
273.3089412978959
 31
0.0
  0
LINE
  5
8C
330
1F
100
AcDbEntity
  8
0
  6
Continuous
 62
     7
100
AcDbLine
 10
255.734978898479
 20
272.224335163887
 30
0.0
 11
255.734978898479
 21
273.3089412978959
 31
0.0
  0
LINE
  5
8D
330
1F
100
AcDbEntity
  8
1
  6
Continuous
 62
     7
100
AcDbLine
 10
261.7883243746809
 20
309.8670109682918
 30
0.0
 11
261.7883243746809
 21
321.3670109682918
 31
0.0
  0
LINE
  5
8E
330
1F
100
AcDbEntity
  8
1
  6
Continuous
 62
     7
100
AcDbLine
 10
261.7883243746809
 20
321.3670109682918
 30
0.0
 11
261.7883243746809
 21
322.3670109682918
 31
0.0
  0
LINE
  5
8F
330
1F
100
AcDbEntity
  8
0
  6
Continuous
 62
     7
100
AcDbLine
 10
229.734978898479
 20
268.8619114906811
 30
0.0
 11
240.634978898479
 21
268.8619114906811
 31
0.0
  0
LINE
  5
90
330
1F
100
AcDbEntity
  8
0
  6
Continuous
 62
     7
100
AcDbLine
 10
227.234978898479
 20
268.8619114906811
 30
0.0
 11
229.734978898479
 21
268.8619114906811
 31
0.0
  0
LINE
  5
91
330
1F
100
AcDbEntity
  8
0
  6
Continuous
 62
     7
100
AcDbLine
 10
240.634978898479
 20
268.8619114906811
 30
0.0
 11
257.234978898479
 21
268.8619114906811
 31
0.0
  0
LINE
  5
92
330
1F
100
AcDbEntity
  8
0
  6
Continuous
 62
     7
100
AcDbLine
 10
257.234978898479
 20
268.8619114906811
 30
0.0
 11
258.734978898479
 21
268.8619114906811
 31
0.0
  0
LINE
  5
93
330
1F
100
AcDbEntity
  8
A_RUNDUNGEN
  6
Continuous
 62
     7
100
AcDbLine
 10
293.8202919063244
 20
295.974221524016
 30
0.0
 11
293.8211798414993
 21
298.1159478451959
 31
0.0
  0
LINE
  5
94
330
1F
100
AcDbEntity
  8
0
  6
Continuous
 62
     7
100
AcDbLine
 10
261.7874754045449
 20
272.9163683640236
 30
0.0
 11
261.7883563832202
 21
272.9163683640236
 31
0.0
  0
LINE
  5
95
330
1F
100
AcDbEntity
  8
1
  6
Continuous
 62
     7
100
AcDbLine
 10
261.7874754045449
 20
272.9163683640236
 30
0.0
 11
261.7874774486222
 21
272.8663683640236
 31
0.0
  0
LINE
  5
96
330
1F
100
AcDbEntity
  8
0
  6
Continuous
 62
     7
100
AcDbLine
 10
314.7859434855993
 20
267.3486157207959
 30
0.0
 11
314.8014503982994
 21
307.3486127149959
 31
0.0
  0
LINE
  5
97
330
1F
100
AcDbEntity
  8
0
  6
Continuous
 62
     7
100
AcDbLine
 10
298.7993194000993
 20
301.8548158933959
 30
0.0
 11
298.7880768883994
 21
272.8548180725959
 31
0.0
  0
LINE
  5
98
330
1F
100
AcDbEntity
  8
A_RUNDUNGEN
  6
Continuous
 62
     7
100
AcDbLine
 10
293.8202485616994
 20
295.8696729858959
 30
0.0
 11
293.8202919063244
 21
295.974221524016
 31
0.0
  0
LINE
  5
99
330
1F
100
AcDbEntity
  8
0
  6
Continuous
 62
     7
100
AcDbLine
 10
293.8202485616994
 20
295.8696729858959
 30
0.0
 11
293.8196431878267
 21
294.4094928941088
 31
0.0
  0
LINE
  5
9A
330
1F
100
AcDbEntity
  8
0
  6
Continuous
 62
     7
100
AcDbLine
 10
297.3388717265993
 20
274.9053800441959
 30
0.0
 11
297.3487379997994
 21
300.3553781316959
 31
0.0
  0
LINE
  5
9B
330
1F
100
AcDbEntity
  8
0
  6
Continuous
 62
     7
100
AcDbLine
 10
291.8136137734994
 20
279.8667785905959
 30
0.0
 11
291.8151726575993
 21
283.6268538442959
 31
0.0
  0
LINE
  5
9C
330
1F
100
AcDbEntity
  8
A_ACHSEN
  6
DOT_CENTER
 62
     2
100
AcDbLine
 10
290.6925444182994
 20
287.5152488631959
 30
0.0
 11
290.6925444182994
 21
296.9902488631959
 31
0.0
  0
LINE
  5
9D
330
1F
100
AcDbEntity
  8
A_ACHSEN
  6
DOT_CENTER
 62
     2
100
AcDbLine
 10
290.6925444182994
 20
287.5152488631959
 30
0.0
 11
290.6925444182994
 21
286.8402488631959
 31
0.0
  0
LINE
  5
9E
330
1F
100
AcDbEntity
  8
0
  6
Continuous
 62
     7
100
AcDbLine
 10
265.7747409769993
 20
279.7921463697959
 30
0.0
 11
267.8570371611993
 21
283.7402480929959
 31
0.0
  0
LINE
  5
9F
330
1F
100
AcDbEntity
  8
A_RUNDUNGEN
  6
Continuous
 62
     7
100
AcDbLine
 10
278.2884854852994
 20
273.9127652864959
 30
0.0
 11
278.2895709691993
 21
276.7127650760867
 31
0.0
  0
LINE
  5
A0
330
1F
100
AcDbEntity
  8
0
  6
Continuous
 62
     7
100
AcDbLine
 10
278.2884854852994
 20
273.9127652864959
 30
0.0
 11
278.2880978124994
 21
272.9127653615959
 31
0.0
  0
LINE
  5
A1
330
1F
100
AcDbEntity
  8
0
  6
Continuous
 62
     7
100
AcDbLine
 10
258.9689290542993
 20
286.4813639115959
 30
0.0
 11
261.6805668327993
 21
289.8149379513959
 31
0.0
  0
LINE
  5
A2
330
1F
100
AcDbEntity
  8
0
  6
Continuous
 62
     7
100
AcDbLine
 10
265.4663305770994
 20
279.0236627191958
 30
0.0
 11
265.7747409769993
 21
279.7921463697959
 31
0.0
  0
LINE
  5
A3
330
1F
100
AcDbEntity
  8
0
  6
Continuous
 62
     7
100
AcDbLine
 10
274.1199066247993
 20
285.6580304447959
 30
0.0
 11
273.2922735390994
 21
277.5213342848959
 31
0.0
  0
LINE
  5
A4
330
1F
100
AcDbEntity
  8
A_RUNDUNGEN
  6
Continuous
 62
     7
100
AcDbLine
 10
274.8111277035994
 20
273.8738271104959
 30
0.0
 11
274.8121641747994
 21
276.3738268956959
 31
0.0
  0
LINE
  5
A5
330
1F
100
AcDbEntity
  8
0
  6
Continuous
 62
     7
100
AcDbLine
 10
270.7882120257121
 20
273.2088315282036
 30
0.0
 11
270.7880789923993
 21
272.8656729114959
 31
0.0
  0
LINE
  5
A6
330
1F
100
AcDbEntity
  8
0
  6
Continuous
 62
     7
100
AcDbLine
 10
270.7993215040993
 20
301.8656707322959
 30
0.0
 11
270.7993021204993
 21
301.8156707360959
 31
0.0
  0
LINE
  5
A7
330
1F
100
AcDbEntity
  8
DEFAULT_1
  6
DOT_CENTER
 62
     2
100
AcDbLine
 10
269.3128068124993
 20
273.3791604639959
 30
0.0
 11
269.3128068124993
 21
280.4661100483959
 31
0.0
  0
LINE
  5
A8
330
1F
100
AcDbEntity
  8
0
  6
Continuous
 62
     7
100
AcDbLine
 10
284.5897626703994
 20
293.1121535422959
 30
0.0
 11
287.5784309814993
 21
289.4048111518958
 31
0.0
  0
LINE
  5
A9
330
1F
100
AcDbEntity
  8
0
  6
Continuous
 62
     7
100
AcDbLine
 10
282.6264692920993
 20
294.5868728921959
 30
0.0
 11
278.9524973120994
 21
298.5441414412959
 31
0.0
  0
LINE
  5
AA
330
1F
100
AcDbEntity
  8
0
  6
Continuous
 62
     7
100
AcDbLine
 10
293.3172221998993
 20
294.9337031932959
 30
0.0
 11
292.6394735991993
 21
295.4094536031959
 31
0.0
  0
LINE
  5
AB
330
1F
100
AcDbEntity
  8
0
  6
Continuous
 62
     7
100
AcDbLine
 10
256.2053622282994
 20
293.0676547014959
 30
0.0
 11
253.7472451141994
 21
290.0457483601959
 31
0.0
  0
LINE
  5
AC
330
1F
100
AcDbEntity
  8
0
  6
Continuous
 62
     7
100
AcDbLine
 10
264.8215723606994
 20
299.0687275215959
 30
0.0
 11
264.8220115107994
 21
300.1279707393959
 31
0.0
  0
LINE
  5
AD
330
1F
100
AcDbEntity
  8
0
  6
Continuous
 62
     7
100
AcDbLine
 10
265.7986473122994
 20
300.1275658373959
 30
0.0
 11
265.7993024961994
 21
301.8176091001959
 31
0.0
  0
LINE
  5
AE
330
1F
100
AcDbEntity
  8
0
  6
Continuous
 62
     7
100
AcDbLine
 10
265.7880987517993
 20
272.9176112717959
 30
0.0
 11
265.7884709008994
 21
273.8775678004959
 31
0.0
  0
LINE
  5
AF
330
1F
100
AcDbEntity
  8
A_RUNDUNGEN
  6
Continuous
 62
     7
100
AcDbLine
 10
265.7880987517993
 20
272.9176112717959
 30
0.0
 11
265.7881181353994
 21
272.9676112680959
 31
0.0
  0
LINE
  5
B0
330
1F
100
AcDbEntity
  8
0
  6
Continuous
 62
     7
100
AcDbLine
 10
264.7982370901993
 20
299.0695938030959
 30
0.0
 11
264.8014541554994
 21
307.3679963558959
 31
0.0
  0
LINE
  5
B1
330
1F
100
AcDbEntity
  8
0
  6
Continuous
 62
     7
100
AcDbLine
 10
264.7876992480987
 20
267.3486157207959
 30
0.0
 11
264.7884709864429
 21
273.8779823889671
 31
0.0
  0
LINE
  5
B2
330
1F
100
AcDbEntity
  8
A_ACHSEN
  6
DOT_CENTER
 62
     2
100
AcDbLine
 10
263.2714366529993
 20
290.2231710912959
 30
0.0
 11
263.2714368160994
 21
291.6230738748959
 31
0.0
  0
LINE
  5
B3
330
1F
100
AcDbEntity
  8
A_ACHSEN
  6
DOT_CENTER
 62
     2
100
AcDbLine
 10
263.2714366529993
 20
299.0231710912959
 30
0.0
 11
263.2714368160993
 21
291.623273874896
 31
0.0
  0
LINE
  5
B4
330
1F
100
AcDbEntity
  8
0
  6
Continuous
 62
     7
100
AcDbLine
 10
261.7874754045449
 20
289.9273059224497
 30
0.0
 11
261.7874754045449
 21
272.9163683640236
 31
0.0
  0
LINE
  5
B5
330
1F
100
AcDbEntity
  8
0
  6
Continuous
 62
     7
100
AcDbLine
 10
292.6394735991993
 20
295.4094536031959
 30
0.0
 11
289.6861934656994
 21
297.0549860487959
 31
0.0
  0
LINE
  5
B6
330
1F
100
AcDbEntity
  8
A_RUNDUNGEN
  6
Continuous
 62
     7
100
AcDbLine
 10
260.7493162618994
 20
272.8663683640236
 30
0.0
 11
260.7493162618994
 21
272.9163683640236
 31
0.0
  0
LINE
  5
B7
330
1F
100
AcDbEntity
  8
0
  6
Continuous
 62
     7
100
AcDbLine
 10
260.7493162618994
 20
273.9191604639959
 30
0.0
 11
260.7493162618994
 21
272.9163683640236
 31
0.0
  0
LINE
  5
B8
330
1F
100
AcDbEntity
  8
0
  6
Continuous
 62
     7
100
AcDbLine
 10
260.7493162618994
 20
301.8663683640236
 30
0.0
 11
260.7493162618994
 21
299.2191604639959
 31
0.0
  0
LINE
  5
B9
330
1F
100
AcDbEntity
  8
DEFAULT_1
  6
DOT_CENTER
 62
     2
100
AcDbLine
 10
257.2493162618994
 20
281.3191604639959
 30
0.0
 11
257.2493162618994
 21
281.4591604639959
 31
0.0
  0
LINE
  5
BA
330
1F
100
AcDbEntity
  8
DEFAULT_1
  6
DOT_CENTER
 62
     2
100
AcDbLine
 10
257.2493162618994
 20
281.3191604639959
 30
0.0
 11
257.2493162618994
 21
272.3791604639959
 31
0.0
  0
LINE
  5
BB
330
1F
100
AcDbEntity
  8
0
  6
Continuous
 62
     7
100
AcDbLine
 10
266.7590802914993
 20
297.4668204514959
 30
0.0
 11
272.8008980045993
 21
290.0567266168958
 31
0.0
  0
LINE
  5
BC
330
1F
100
AcDbEntity
  8
0
  6
Continuous
 62
     7
100
AcDbLine
 10
233.2253131896994
 20
294.8990685679959
 30
0.0
 11
233.9025129748993
 21
295.3755998567959
 31
0.0
  0
LINE
  5
BD
330
1F
100
AcDbEntity
  8
0
  6
Continuous
 62
     7
100
AcDbLine
 10
241.9548664987993
 20
293.0875796790959
 30
0.0
 11
238.9704733756993
 21
289.3767949155959
 31
0.0
  0
LINE
  5
BE
330
1F
100
AcDbEntity
  8
A_RUNDUNGEN
  6
Continuous
 62
     7
100
AcDbLine
 10
251.7493162618994
 20
273.9191604639959
 30
0.0
 11
251.7493162618994
 21
274.9191604639959
 31
0.0
  0
LINE
  5
BF
330
1F
100
AcDbEntity
  8
0
  6
Continuous
 62
     7
100
AcDbLine
 10
261.0945243212993
 20
279.0211472970959
 30
0.0
 11
260.7852287614994
 21
279.7892735073959
 31
0.0
  0
LINE
  5
C0
330
1F
100
AcDbEntity
  8
0
  6
Continuous
 62
     7
100
AcDbLine
 10
267.5833259579994
 20
286.4863258542958
 30
0.0
 11
264.8678475954994
 21
289.8167721581959
 31
0.0
  0
LINE
  5
C1
330
1F
100
AcDbEntity
  8
0
  6
Continuous
 62
     7
100
AcDbLine
 10
314.8014503982994
 20
307.3486127149959
 30
0.0
 11
264.8014541554994
 21
307.3679963558959
 31
0.0
  0
LINE
  5
C2
330
1F
100
AcDbEntity
  8
0
  6
Continuous
 62
     7
100
AcDbLine
 10
251.2493162618994
 20
273.2191604639959
 30
0.0
 11
251.2493162618994
 21
272.8663683640236
 31
0.0
  0
LINE
  5
C3
330
1F
100
AcDbEntity
  8
0
  6
Continuous
 62
     7
100
AcDbLine
 10
253.2703186046994
 20
277.5097979799959
 30
0.0
 11
252.4333074495993
 21
285.6455347780959
 31
0.0
  0
LINE
  5
C4
330
1F
100
AcDbEntity
  8
0
  6
Continuous
 62
     7
100
AcDbLine
 10
260.7852287614994
 20
279.7892735073959
 30
0.0
 11
258.6983832508993
 21
283.7349724860959
 31
0.0
  0
LINE
  5
C5
330
1F
100
AcDbEntity
  8
0
  6
Continuous
 62
     7
100
AcDbLine
 10
274.3987397243993
 20
300.3642752228959
 30
0.0
 11
265.7990320565993
 21
301.1200116588959
 31
0.0
  0
LINE
  5
C6
330
1F
100
AcDbEntity
  8
0
  6
Continuous
 62
     7
100
AcDbLine
 10
298.7993194000993
 20
301.8548158933959
 30
0.0
 11
264.7993219549994
 21
301.8679967691959
 31
0.0
  0
LINE
  5
C7
330
1F
100
AcDbEntity
  8
0
  6
Continuous
 62
     7
100
AcDbLine
 10
297.7993000915993
 20
301.8052035699959
 30
0.0
 11
265.7993024961994
 21
301.8176091001959
 31
0.0
  0
LINE
  5
C8
330
1F
100
AcDbEntity
  8
0
  6
Continuous
 62
     7
100
AcDbLine
 10
265.7992831125994
 20
301.7676091038959
 30
0.0
 11
264.7992831876994
 21
301.7679967766959
 31
0.0
  0
LINE
  5
C9
330
1F
100
AcDbEntity
  8
0
  6
Continuous
 62
     7
100
AcDbLine
 10
230.7493162618994
 20
301.8663683640236
 30
0.0
 11
252.734978898479
 21
301.8663683640236
 31
0.0
  0
LINE
  5
CA
330
1F
100
AcDbEntity
  8
0
  6
Continuous
 62
     7
100
AcDbLine
 10
260.7493162618994
 20
301.8163683640236
 30
0.0
 11
261.7917773782214
 21
301.8163683640236
 31
0.0
  0
LINE
  5
CB
330
1F
100
AcDbEntity
  8
A_RUNDUNGEN
  6
Continuous
 62
     7
100
AcDbLine
 10
263.4383765180994
 20
299.1200762682959
 30
0.0
 11
278.9524973120994
 21
298.5441414412959
 31
0.0
  0
LINE
  5
CC
330
1F
100
AcDbEntity
  8
0
  6
Continuous
 62
     7
100
AcDbLine
 10
285.1898476289994
 20
298.3125906286959
 30
0.0
 11
278.9524973120994
 21
298.5441414412959
 31
0.0
  0
LINE
  5
CD
330
1F
100
AcDbEntity
  8
A_RUNDUNGEN
  6
Continuous
 62
     7
100
AcDbLine
 10
291.8220091903993
 20
300.1167768502959
 30
0.0
 11
264.8220115107994
 21
300.1279707393959
 31
0.0
  0
LINE
  5
CE
330
1F
100
AcDbEntity
  8
0
  6
Continuous
 62
     7
100
AcDbLine
 10
297.3487379997994
 20
300.3553781316959
 30
0.0
 11
274.3987397243993
 21
300.3642752228959
 31
0.0
  0
LINE
  5
CF
330
1F
100
AcDbEntity
  8
0
  6
Continuous
 62
     7
100
AcDbLine
 10
231.1993162618994
 20
300.2191604639959
 30
0.0
 11
252.1767770348994
 21
300.2191604639959
 31
0.0
  0
LINE
  5
D0
330
1F
100
AcDbEntity
  8
A_RUNDUNGEN
  6
Continuous
 62
     7
100
AcDbLine
 10
261.7917773782214
 20
299.2191604639959
 30
0.0
 11
234.7493162618994
 21
299.2191604639959
 31
0.0
  0
LINE
  5
D1
330
1F
100
AcDbEntity
  8
0
  6
Continuous
 62
     7
100
AcDbLine
 10
241.3487877467994
 20
298.2873216335959
 30
0.0
 11
263.0993136745993
 21
299.1198781855959
 31
0.0
  0
LINE
  5
D2
330
1F
100
AcDbEntity
  8
0
  6
Continuous
 62
     7
100
AcDbLine
 10
252.1767770348994
 20
300.2191604639959
 30
0.0
 11
260.7493162618994
 21
300.9691604639959
 31
0.0
  0
LINE
  5
D3
330
1F
100
AcDbEntity
  8
0
  6
Continuous
 62
     7
100
AcDbLine
 10
245.8514377830994
 20
294.9504765094958
 30
0.0
 11
255.6099574959993
 21
292.3356890330959
 31
0.0
  0
LINE
  5
D4
330
1F
100
AcDbEntity
  8
0
  6
Continuous
 62
     7
100
AcDbLine
 10
258.8811777063993
 20
292.5568318223959
 30
0.0
 11
246.7887089561993
 21
294.8653279620959
 31
0.0
  0
LINE
  5
D5
330
1F
100
AcDbEntity
  8
A_ACHSEN
  6
DOT_CENTER
 62
     2
100
AcDbLine
 10
258.8714366529994
 20
294.6231710912959
 30
0.0
 11
266.2715368160993
 21
294.6231738748959
 31
0.0
  0
LINE
  5
D6
330
1F
100
AcDbEntity
  8
A_ACHSEN
  6
CENTER_5
 62
     2
100
AcDbLine
 10
267.6714366529993
 20
294.6231710912959
 30
0.0
 11
266.2715368160993
 21
294.6231738748959
 31
0.0
  0
LINE
  5
D7
330
1F
100
AcDbEntity
  8
A_ACHSEN
  6
DOT_CENTER
 62
     2
100
AcDbLine
 10
295.0925444182993
 20
291.9152488631959
 30
0.0
 11
295.7675444182993
 21
291.9152488631959
 31
0.0
  0
LINE
  5
D8
330
1F
100
AcDbEntity
  8
A_ACHSEN
  6
DOT_CENTER
 62
     2
100
AcDbLine
 10
295.0925444182993
 20
291.9152488631959
 30
0.0
 11
285.6175444182993
 21
291.9152488631959
 31
0.0
  0
LINE
  5
D9
330
1F
100
AcDbEntity
  8
A_ACHSEN
  6
DOT_CENTER
 62
     2
100
AcDbLine
 10
231.4534687601994
 20
291.8836414320959
 30
0.0
 11
240.9284687601993
 21
291.8836414320959
 31
0.0
  0
LINE
  5
DA
330
1F
100
AcDbEntity
  8
A_ACHSEN
  6
CENTER_5
 62
     2
100
AcDbLine
 10
231.4534687601994
 20
291.8836414320959
 30
0.0
 11
230.7784687601994
 21
291.8836414320959
 31
0.0
  0
LINE
  5
DB
330
1F
100
AcDbEntity
  8
A_ACHSEN
  6
CENTER_5
 62
     2
100
AcDbLine
 10
235.8534687601994
 20
296.2836414320959
 30
0.0
 11
235.8534687601994
 21
296.9586414320959
 31
0.0
  0
LINE
  5
DC
330
1F
100
AcDbEntity
  8
A_ACHSEN
  6
DOT_CENTER
 62
     2
100
AcDbLine
 10
235.8534687601994
 20
296.2836414320959
 30
0.0
 11
235.8534687601994
 21
286.8086414320959
 31
0.0
  0
LINE
  5
DD
330
1F
100
AcDbEntity
  8
0
  6
Continuous
 62
     7
100
AcDbLine
 10
234.7493162618994
 20
282.5940633879959
 30
0.0
 11
234.7493162618994
 21
278.4191604639959
 31
0.0
  0
LINE
  5
DE
330
1F
100
AcDbEntity
  8
A_RUNDUNGEN
  6
Continuous
 62
     7
100
AcDbLine
 10
232.7493162618994
 20
289.360897087448
 30
0.0
 11
232.7493162618994
 21
277.4191604639959
 31
0.0
  0
LINE
  5
DF
330
1F
100
AcDbEntity
  8
0
  6
Continuous
 62
     7
100
AcDbLine
 10
232.7493162618994
 20
295.8729889391959
 30
0.0
 11
232.7493162618994
 21
295.8052488273183
 31
0.0
  0
LINE
  5
E0
330
1F
100
AcDbEntity
  8
A_RUNDUNGEN
  6
Continuous
 62
     7
100
AcDbLine
 10
232.7493162618994
 20
297.2191604639959
 30
0.0
 11
232.7493162618994
 21
295.8729889391959
 31
0.0
  0
LINE
  5
E1
330
1F
100
AcDbEntity
  8
0
  6
Continuous
 62
     7
100
AcDbLine
 10
231.1993162618994
 20
274.2191604639959
 30
0.0
 11
231.1993162618994
 21
300.2191604639959
 31
0.0
  0
LINE
  5
E2
330
1F
100
AcDbEntity
  8
0
  6
Continuous
 62
     7
100
AcDbLine
 10
270.3392956043994
 20
293.0758022717959
 30
0.0
 11
279.7538743338994
 21
294.8843290012959
 31
0.0
  0
LINE
  5
E3
330
1F
100
AcDbEntity
  8
A_ACHSEN
  6
Continuous
 62
     7
100
AcDbLine
 10
229.7493162618994
 20
296.2219861360959
 30
0.0
 11
229.7493162618994
 21
296.3523957785959
 31
0.0
  0
LINE
  5
E4
330
1F
100
AcDbEntity
  8
0
  6
Continuous
 62
     7
100
AcDbLine
 10
229.7493162618994
 20
294.4149455405959
 30
0.0
 11
229.7493162618994
 21
296.2285293471959
 31
0.0
  0
LINE
  5
E5
330
1F
100
AcDbEntity
  8
0
  6
Continuous
 62
     7
100
AcDbLine
 10
229.7493162618994
 20
272.7691604639959
 30
0.0
 11
229.7493162618994
 21
294.4145233165959
 31
0.0
  0
LINE
  5
E6
330
1F
100
AcDbEntity
  8
0
  6
Continuous
 62
     7
100
AcDbLine
 10
229.7493162618994
 20
300.6691604639959
 30
0.0
 11
229.7493162618994
 21
296.3523957785959
 31
0.0
  0
LINE
  5
E7
330
1F
100
AcDbEntity
  8
0
  6
Continuous
 62
     7
100
AcDbLine
 10
251.5890851361993
 20
279.3850862902959
 30
0.0
 11
236.0081353069994
 21
283.5599892142959
 31
0.0
  0
LINE
  5
E8
330
1F
100
AcDbEntity
  8
0
  6
Continuous
 62
     7
100
AcDbLine
 10
276.7804073839993
 20
278.8730110994959
 30
0.0
 11
290.8131992709994
 21
278.8671932649959
 31
0.0
  0
LINE
  5
E9
330
1F
100
AcDbEntity
  8
A_RUNDUNGEN
  6
Continuous
 62
     7
100
AcDbLine
 10
291.8123700080994
 20
276.8667788483959
 30
0.0
 11
275.3123714260993
 21
276.8736195584959
 31
0.0
  0
LINE
  5
EA
330
1F
100
AcDbEntity
  8
A_RUNDUNGEN
  6
Continuous
 62
     7
100
AcDbLine
 10
278.2895709691993
 20
276.7127650760867
 30
0.0
 11
297.3395695376993
 21
276.7053799088959
 31
0.0
  0
LINE
  5
EB
330
1F
100
AcDbEntity
  8
0
  6
Continuous
 62
     7
100
AcDbLine
 10
278.2895709691993
 20
276.7127650760959
 30
0.0
 11
297.3395695376993
 21
276.7053799088959
 31
0.0
  0
LINE
  5
EC
330
1F
100
AcDbEntity
  8
0
  6
Continuous
 62
     7
100
AcDbLine
 10
297.3388717265993
 20
274.9053800441959
 30
0.0
 11
279.2888730829993
 21
274.9123775384959
 31
0.0
  0
LINE
  5
ED
330
1F
100
AcDbEntity
  8
DEFAULT_1
  6
DOT_CENTER
 62
     2
100
AcDbLine
 10
264.7128068124994
 20
277.9261100483959
 30
0.0
 11
273.8528068124994
 21
277.9261100483959
 31
0.0
  0
LINE
  5
EE
330
1F
100
AcDbEntity
  8
DEFAULT_1
  6
DOT_CENTER
 62
     2
100
AcDbLine
 10
261.6493162618993
 20
277.9191604639959
 30
0.0
 11
252.7893162618994
 21
277.9191604639959
 31
0.0
  0
LINE
  5
EF
330
1F
100
AcDbEntity
  8
0
  6
Continuous
 62
     7
100
AcDbLine
 10
235.7493162618994
 20
277.4191604639959
 30
0.0
 11
251.3302660909993
 21
277.4191604639959
 31
0.0
  0
LINE
  5
F0
330
1F
100
AcDbEntity
  8
A_RUNDUNGEN
  6
Continuous
 62
     7
100
AcDbLine
 10
251.2493162618994
 20
275.4191604639959
 30
0.0
 11
234.7493162618994
 21
275.4191604639959
 31
0.0
  0
LINE
  5
F1
330
1F
100
AcDbEntity
  8
0
  6
Continuous
 62
     7
100
AcDbLine
 10
290.5567541823994
 20
284.5933014793959
 30
0.0
 11
276.5224034113994
 21
280.8390440601959
 31
0.0
  0
LINE
  5
F2
330
1F
100
AcDbEntity
  8
0
  6
Continuous
 62
     7
100
AcDbLine
 10
274.8111277035994
 20
273.8738271104959
 30
0.0
 11
264.7884709864429
 21
273.8779823889671
 31
0.0
  0
LINE
  5
F3
330
1F
100
AcDbEntity
  8
A_RUNDUNGEN
  6
Continuous
 62
     7
100
AcDbLine
 10
270.7882120257121
 20
273.2088315282036
 30
0.0
 11
277.7882114996993
 21
273.2061178184958
 31
0.0
  0
LINE
  5
F4
330
1F
100
AcDbEntity
  8
0
  6
Continuous
 62
     7
100
AcDbLine
 10
265.7881181353994
 20
272.9676112680959
 30
0.0
 11
264.7881182105994
 21
272.9679989408959
 31
0.0
  0
LINE
  5
F5
330
1F
100
AcDbEntity
  8
A_RUNDUNGEN
  6
Continuous
 62
     7
100
AcDbLine
 10
270.7880983760994
 20
272.9156729077959
 30
0.0
 11
265.7880987517993
 21
272.9176112717959
 31
0.0
  0
LINE
  5
F6
330
1F
100
AcDbEntity
  8
0
  6
Continuous
 62
     7
100
AcDbLine
 10
297.7880963471994
 20
272.9052057416959
 30
0.0
 11
278.2880978124994
 21
272.9127653615959
 31
0.0
  0
LINE
  5
F7
330
1F
100
AcDbEntity
  8
0
  6
Continuous
 62
     7
100
AcDbLine
 10
298.7880768883994
 20
272.8548180725959
 30
0.0
 11
264.7880794432994
 21
272.8679989483959
 31
0.0
  0
LINE
  5
F8
330
1F
100
AcDbEntity
  8
0
  6
Continuous
 62
     7
100
AcDbLine
 10
250.2493162618994
 20
274.2191604639959
 30
0.0
 11
231.1993162618994
 21
274.2191604639959
 31
0.0
  0
LINE
  5
F9
330
1F
100
AcDbEntity
  8
0
  6
Continuous
 62
     7
100
AcDbLine
 10
261.7883563832202
 20
273.9191604639959
 30
0.0
 11
251.7493162618994
 21
273.9191604639959
 31
0.0
  0
LINE
  5
FA
330
1F
100
AcDbEntity
  8
A_RUNDUNGEN
  6
Continuous
 62
     7
100
AcDbLine
 10
251.2452778082993
 20
273.3089412978959
 30
0.0
 11
252.734978898479
 21
273.3089412978959
 31
0.0
  0
LINE
  5
FB
330
1F
100
AcDbEntity
  8
0
  6
Continuous
 62
     7
100
AcDbLine
 10
260.7493162618994
 20
272.9163683640236
 30
0.0
 11
261.7874754045449
 21
272.9163683640236
 31
0.0
  0
LINE
  5
FC
330
1F
100
AcDbEntity
  8
0
  6
Continuous
 62
     7
100
AcDbLine
 10
230.7493162618994
 20
272.8663683640237
 30
0.0
 11
251.2493162618994
 21
272.8663683640236
 31
0.0
  0
LINE
  5
FD
330
1F
100
AcDbEntity
  8
0
  6
Continuous
 62
     7
100
AcDbLine
 10
264.7876992480987
 20
267.3486157207959
 30
0.0
 11
314.7859434855993
 21
267.3486157207959
 31
0.0
  0
LINE
  5
FE
330
1F
100
AcDbEntity
  8
0
  6
Continuous
 62
     7
100
AcDbLine
 10
264.7884709864429
 20
273.8779823889671
 30
0.0
 11
264.7946768314994
 21
289.8859260204958
 31
0.0
  0
LINE
  5
FF
330
1F
100
AcDbEntity
  8
1
  6
DASHED
 62
     2
100
AcDbLine
 10
242.138387319937
 20
293.2894548196664
 30
0.0
 11
234.0692790328017
 21
295.4515658688197
 31
0.0
  0
LINE
  5
100
330
1F
100
AcDbEntity
  8
1
  6
Continuous
 62
     7
100
AcDbLine
 10
234.0692790328017
 20
295.4515658688197
 30
0.0
 11
232.7493162618994
 21
295.8052488273183
 31
0.0
  0
LINE
  5
101
330
1F
100
AcDbEntity
  8
1
  6
Continuous
 62
     7
100
AcDbLine
 10
253.8789671186293
 20
290.1435759439685
 30
0.0
 11
242.138387319937
 21
293.2894548196664
 31
0.0
  0
LINE
  5
102
330
1F
100
AcDbEntity
  8
1
  6
DASHED
 62
     2
100
AcDbLine
 10
237.6342564801632
 20
288.2846759583188
 30
0.0
 11
232.7493162618994
 21
289.5935917448623
 31
0.0
  0
LINE
  5
103
330
1F
100
AcDbEntity
  8
1
  6
Continuous
 62
     7
100
AcDbLine
 10
252.6145042450146
 20
284.2707306673532
 30
0.0
 11
237.6342564801632
 21
288.2846759583188
 31
0.0
  0
LINE
  5
104
330
1F
100
AcDbEntity
  8
A_RUNDUNGEN
  6
DASHED
 62
     2
100
AcDbLine
 10
243.9164975423113
 20
294.5529717953656
 30
0.0
 11
247.583532795563
 21
298.5166691766661
 31
0.0
  0
LINE
  5
105
330
1F
100
AcDbEntity
  8
0
  6
DASHED
 62
     2
100
AcDbLine
 10
259.7683200607895
 20
297.4477388125388
 30
0.0
 11
256.2296593293613
 21
293.0589792029842
 31
0.0
  0
LINE
  5
106
330
1F
100
AcDbEntity
  8
1
  6
DASHED
 62
     2
100
AcDbLine
 10
256.3318456329303
 20
289.4863291269372
 30
0.0
 11
253.8789671186293
 21
290.1435759439685
 31
0.0
  0
LINE
  5
107
330
1F
100
AcDbEntity
  8
0
  6
DASHED
 62
     2
100
AcDbLine
 10
256.0036762336565
 20
284.3978809503895
 30
0.0
 11
257.0389524141161
 21
288.2615842555324
 31
0.0
  0
LINE
  5
108
330
1F
100
AcDbEntity
  8
A_NOTIZEN_SYMB
  6
CENTER_6
 62
     2
100
AcDbLine
 10
256.5213143238904
 20
286.3297326029761
 30
0.0
 11
258.0573812473621
 21
285.9181447113162
 31
0.0
  0
LINE
  5
109
330
1F
100
AcDbEntity
  8
A_NOTIZEN_SYMB
  6
DOT_CENTER
 62
     2
100
AcDbLine
 10
229.987969569562
 20
293.4393209023162
 30
0.0
 11
256.5213143238904
 21
286.3297326029761
 31
0.0
  0
LINE
  5
10A
330
1F
100
AcDbEntity
  8
1
  6
DASHED
 62
     2
100
AcDbLine
 10
254.778931362271
 20
283.6907741692146
 30
0.0
 11
252.6145042450146
 21
284.2707306673532
 31
0.0
  0
LINE
  5
10B
330
1F
100
AcDbEntity
  8
1
  6
DASHED
 62
     2
100
AcDbLine
 10
270.3144960866019
 20
289.6758625166894
 30
0.0
 11
272.615818756061
 21
290.2925000674925
 31
0.0
  0
LINE
  5
10C
330
1F
100
AcDbEntity
  8
1
  6
DASHED
 62
     2
100
AcDbLine
 10
270.6426654858315
 20
284.5874143401415
 30
0.0
 11
269.607389305415
 21
288.451117645296
 31
0.0
  0
LINE
  5
10D
330
1F
100
AcDbEntity
  8
DEFAULT_1
  6
DOT_CENTER
 62
     2
100
AcDbLine
 10
295.472083955714
 20
293.3109893284832
 30
0.0
 11
268.9756011587141
 21
286.2112781607831
 31
0.0
  0
LINE
  5
10E
330
1F
100
AcDbEntity
  8
1
  6
DASHED
 62
     2
100
AcDbLine
 10
274.0027201391816
 20
284.4524620906209
 30
0.0
 11
271.8674103572218
 21
283.8803075589563
 31
0.0
  0
LINE
  5
10F
330
1F
100
AcDbEntity
  8
1
  6
Continuous
 62
     7
100
AcDbLine
 10
288.9248103676233
 20
288.4508241167043
 30
0.0
 11
274.0027201391816
 21
284.4524620906209
 31
0.0
  0
LINE
  5
110
330
1F
100
AcDbEntity
  8
1
  6
Continuous
 62
     7
100
AcDbLine
 10
272.615818756061
 20
290.2925000674925
 30
0.0
 11
284.3857750356137
 21
293.4462503475387
 31
0.0
  0
LINE
  5
111
330
1F
100
AcDbEntity
  8
1
  6
DASHED
 62
     2
100
AcDbLine
 10
284.3857750356137
 20
293.4462503475387
 30
0.0
 11
292.4882724869034
 21
295.6173079962805
 31
0.0
  0
LINE
  5
112
330
1F
100
AcDbEntity
  8
1
  6
Continuous
 62
     7
100
AcDbLine
 10
292.4882724869034
 20
295.6173079962805
 30
0.0
 11
293.8202919063244
 21
295.974221524016
 31
0.0
  0
LINE
  5
113
330
1F
100
AcDbEntity
  8
1
  6
DASHED
 62
     2
100
AcDbLine
 10
293.7835339694904
 20
289.7527151820666
 30
0.0
 11
288.9248103676233
 21
288.4508241167043
 31
0.0
  0
LINE
  5
114
330
1F
100
AcDbEntity
  8
0
  6
Continuous
 62
     7
100
AcDbLine
 10
293.8199458747631
 20
278.8797305885761
 30
0.0
 11
293.8199458747631
 21
289.4213843660283
 31
0.0
  0
LINE
  5
115
330
1F
100
AcDbEntity
  8
0
  6
DASHED
 62
     2
100
AcDbLine
 10
293.7835339694904
 20
289.3763940830731
 30
0.0
 11
293.7835339694904
 21
289.7632377893474
 31
0.0
  0
LINE
  5
116
330
1F
100
AcDbEntity
  8
0
  6
DASHED
 62
     2
100
AcDbLine
 10
293.7835339694904
 20
294.4541036433187
 30
0.0
 11
293.7835339694904
 21
289.7527151820666
 31
0.0
  0
LINE
  5
117
330
1F
100
AcDbEntity
  8
0
  6
DASHED
 62
     2
100
AcDbLine
 10
232.7493162618994
 20
294.4063859755438
 30
0.0
 11
232.7493162618994
 21
289.360897087448
 31
0.0
  0
LINE
  5
118
330
1F
100
AcDbEntity
  8
1
  6
DASHED
 62
     2
100
AcDbLine
 10
232.8605852289904
 20
289.5637773149879
 30
0.0
 11
232.8213143238904
 21
289.5742999222954
 31
0.0
  0
LINE
  5
119
330
1F
100
AcDbEntity
  8
0
  6
Continuous
 62
     7
100
AcDbLine
 10
233.9025129748993
 20
295.3755998567959
 30
0.0
 11
236.8538944526994
 21
297.0245352554959
 31
0.0
  0
LINE
  5
11A
330
1F
100
AcDbEntity
  8
0
  6
Continuous
 62
     7
100
AcDbLine
 10
232.7493162618994
 20
295.8052488273183
 30
0.0
 11
232.7493162618994
 21
294.4063859755438
 31
0.0
  0
LINE
  5
11B
330
1F
100
AcDbEntity
  8
0
  6
DASHED
 62
     2
100
AcDbLine
 10
232.7493162618994
 20
289.5935917448623
 30
0.0
 11
232.7493162618994
 21
289.5637773149879
 31
0.0
  0
LINE
  5
11C
330
1F
100
AcDbEntity
  8
1
  6
Continuous
 62
     7
100
AcDbLine
 10
261.7874774486222
 20
272.8663683640236
 30
0.0
 11
261.7876985053202
 21
267.361911490681
 31
0.0
  0
LINE
  5
11D
330
1F
100
AcDbEntity
  8
1
  6
Continuous
 62
     7
100
AcDbLine
 10
261.7883243746809
 20
311.4899854584859
 30
0.0
 11
261.7883243746809
 21
299.2214919550526
 31
0.0
  0
LINE
  5
11E
330
1F
100
AcDbEntity
  8
A_RUNDUNGEN
  6
Continuous
 62
     7
100
AcDbLine
 10
255.734978898479
 20
273.3089412978959
 30
0.0
 11
255.7493162618994
 21
273.3089412978959
 31
0.0
  0
LINE
  5
11F
330
1F
100
AcDbEntity
  8
0
  6
Continuous
 62
     7
100
AcDbLine
 10
256.2437725606193
 20
272.8663683640236
 30
0.0
 11
261.7874774486222
 21
272.8663683640236
 31
0.0
  0
LINE
  5
120
330
1F
100
AcDbEntity
  8
A_RUNDUNGEN
  6
Continuous
 62
     7
100
AcDbLine
 10
252.734978898479
 20
273.3089412978959
 30
0.0
 11
255.734978898479
 21
273.3089412978959
 31
0.0
  0
LINE
  5
121
330
1F
100
AcDbEntity
  8
0
  6
Continuous
 62
     7
100
AcDbLine
 10
251.2493162618994
 20
272.8663683640236
 30
0.0
 11
256.2437725606193
 21
272.8663683640236
 31
0.0
  0
LINE
  5
122
330
1F
100
AcDbEntity
  8
0
  6
Continuous
 62
     7
100
AcDbLine
 10
255.734978898479
 20
301.8663683640236
 30
0.0
 11
260.7493162618994
 21
301.8663683640236
 31
0.0
  0
LINE
  5
123
330
1F
100
AcDbEntity
  8
0
  6
Continuous
 62
     7
100
AcDbLine
 10
252.734978898479
 20
301.8663683640236
 30
0.0
 11
255.734978898479
 21
301.8663683640236
 31
0.0
  0
ARC
  5
124
330
1F
100
AcDbEntity
  8
0
  6
Continuous
 62
     7
100
AcDbCircle
 10
252.3060501805961
 20
272.2931233272841
 30
0.0
 40
3.429618632406253
100
AcDbArc
 50
270.7212064353339
 51
358.8507364325334
  0
ARC
  5
125
330
1F
100
AcDbEntity
  8
0
  6
Continuous
 62
     7
100
AcDbCircle
 10
224.6059982699215
 20
270.2196350922386
 30
0.0
 40
2.873915140316647
100
AcDbArc
 50
182.5722849755251
 51
272.572284975525
  0
ARC
  5
126
330
1F
100
AcDbEntity
  8
0
  6
Continuous
 62
     7
100
AcDbCircle
 10
258.8639595270364
 20
270.2196350922386
 30
0.0
 40
2.873915140316813
100
AcDbArc
 50
267.4277150244773
 51
357.427715024475
  0
ARC
  5
127
330
1F
100
AcDbEntity
  8
0
  6
Continuous
 62
     7
100
AcDbCircle
 10
224.599350384979
 20
270.2262829771811
 30
0.0
 40
1.371096147922692
100
AcDbArc
 50
185.6769693466763
 51
275.6769693466776
  0
ARC
  5
128
330
1F
100
AcDbEntity
  8
0
  6
Continuous
 62
     7
100
AcDbCircle
 10
258.7964661435759
 20
270.3004242455841
 30
0.0
 40
1.439826249006535
100
AcDbArc
 50
267.5524607118183
 51
357.5524607118094
  0
ARC
  5
129
330
1F
100
AcDbEntity
  8
0
  6
Continuous
 62
     7
100
AcDbCircle
 10
230.234978898479
 20
301.238937000487
 30
0.0
 40
3.0
100
AcDbArc
 50
90.0
 51
180.0
  0
ARC
  5
12A
330
1F
100
AcDbEntity
  8
0
  6
Continuous
 62
     7
100
AcDbCircle
 10
230.234978898479
 20
301.510194027487
 30
0.0
 40
0.5000000000001137
100
AcDbArc
 50
90.0
 51
180.000000000013
  0
ARC
  5
12B
330
1F
100
AcDbEntity
  8
0
  6
Continuous
 62
     7
100
AcDbCircle
 10
271.751436183079
 20
312.3004263152918
 30
0.0
 40
3.499999999973444
100
AcDbArc
 50
165.0000000008804
 51
229.9999999998637
  0
ARC
  5
12C
330
1F
100
AcDbEntity
  8
0
  6
Continuous
 62
     7
100
AcDbCircle
 10
263.26165163658
 20
322.3936837063927
 30
0.0
 40
2.97344689566002
100
AcDbArc
 50
90.51396775220475
 51
180.5139677522037
  0
ARC
  5
12D
330
1F
100
AcDbEntity
  8
0
  6
Continuous
 62
     7
100
AcDbCircle
 10
270.825302779979
 20
322.3670109682918
 30
0.0
 40
3.000000000029746
100
AcDbArc
 50
345.0000000003017
 51
90.0
  0
ARC
  5
12E
330
1F
100
AcDbEntity
  8
0
  6
Continuous
 62
     7
100
AcDbCircle
 10
264.2883243746809
 20
309.8670109682918
 30
0.0
 40
2.5
100
AcDbArc
 50
180.0
 51
270.0
  0
ARC
  5
12F
330
1F
100
AcDbEntity
  8
0
  6
Continuous
 62
     7
100
AcDbCircle
 10
269.522077407079
 20
321.3670109682918
 30
0.0
 40
2.500000000000262
100
AcDbArc
 50
345.0000000000085
 51
90.0
  0
ARC
  5
130
330
1F
100
AcDbEntity
  8
0
  6
Continuous
 62
     7
100
AcDbCircle
 10
264.2883243746809
 20
321.3670109682918
 30
0.0
 40
2.5
100
AcDbArc
 50
90.0
 51
180.0
  0
ARC
  5
131
330
1F
100
AcDbEntity
  8
0
  6
Continuous
 62
     7
100
AcDbCircle
 10
273.244985437379
 20
312.3004263152918
 30
0.0
 40
2.0
100
AcDbArc
 50
270.0
 51
0.0
  0
ARC
  5
132
330
1F
100
AcDbEntity
  8
0
  6
Continuous
 62
     7
100
AcDbCircle
 10
271.751436183079
 20
312.3004263152918
 30
0.0
 40
2.000000000019821
100
AcDbArc
 50
165.0000000003027
 51
270.0
  0
ARC
  5
133
330
1F
100
AcDbEntity
  8
0
  6
Continuous
 62
     7
100
AcDbCircle
 10
270.398187863779
 20
308.8670109682918
 30
0.0
 40
1.5
100
AcDbArc
 50
270.0
 51
49.99999999894489
  0
ARC
  5
134
330
1F
100
AcDbEntity
  8
0
  6
Continuous
 62
     7
100
AcDbCircle
 10
270.825302779979
 20
322.3670109682918
 30
0.0
 40
1.499999999979532
100
AcDbArc
 50
344.9999999979573
 51
90.0
  0
ARC
  5
135
330
1F
100
AcDbEntity
  8
0
  6
Continuous
 62
     7
100
AcDbCircle
 10
263.26165163658
 20
322.3936837063927
 30
0.0
 40
1.473568680317583
100
AcDbArc
 50
91.03715476945365
 51
181.0371547694515
  0
ARC
  5
136
330
1F
100
AcDbEntity
  8
0
  6
Continuous
 62
     7
100
AcDbCircle
 10
264.234978898479
 20
309.8670109682918
 30
0.0
 40
1.0
100
AcDbArc
 50
180.0
 51
270.0
  0
ARC
  5
137
330
1F
100
AcDbEntity
  8
0
  6
Continuous
 62
     7
100
AcDbCircle
 10
269.522077407079
 20
321.3670109682918
 30
0.0
 40
1.000000000009925
100
AcDbArc
 50
345.0000000002995
 51
90.0
  0
ARC
  5
138
330
1F
100
AcDbEntity
  8
0
  6
Continuous
 62
     7
100
AcDbCircle
 10
264.234978898479
 20
321.3670109682918
 30
0.0
 40
1.0
100
AcDbArc
 50
90.0
 51
180.0
  0
ARC
  5
139
330
1F
100
AcDbEntity
  8
0
  6
Continuous
 62
     7
100
AcDbCircle
 10
273.244985437379
 20
312.3004263152918
 30
0.0
 40
0.5
100
AcDbArc
 50
270.0
 51
0.0
  0
ARC
  5
13A
330
1F
100
AcDbEntity
  8
0
  6
Continuous
 62
     7
100
AcDbCircle
 10
271.751436183079
 20
312.3004263152918
 30
0.0
 40
0.499999999943753
100
AcDbArc
 50
165.0000000043545
 51
270.0
  0
ARC
  5
13B
330
1F
100
AcDbEntity
  8
0
  6
Continuous
 62
     7
100
AcDbCircle
 10
252.234978898479
 20
272.224335163887
 30
0.0
 40
0.5
100
AcDbArc
 50
270.0
 51
0.0
  0
ARC
  5
13C
330
1F
100
AcDbEntity
  8
0
  6
Continuous
 62
     7
100
AcDbCircle
 10
290.6925444182994
 20
291.9152488631959
 30
0.0
 40
3.9999999999471
100
AcDbArc
 50
218.873969852971
 51
320.6012470038971
  0
ARC
  5
13D
330
1F
100
AcDbEntity
  8
0
  6
Continuous
 62
     7
100
AcDbCircle
 10
290.6925444182994
 20
291.9152488631959
 30
0.0
 40
4.000000000015572
100
AcDbArc
 50
320.6012470038971
 51
321.4960385444773
  0
ARC
  5
13E
330
1F
100
AcDbEntity
  8
0
  6
Continuous
 62
     7
100
AcDbCircle
 10
290.6925444182994
 20
291.9152488631959
 30
0.0
 40
4.000000000015461
100
AcDbArc
 50
38.57664701546194
 51
39.39875299610227
  0
ARC
  5
13F
330
1F
100
AcDbEntity
  8
0
  6
Continuous
 62
     7
100
AcDbCircle
 10
290.6925444182994
 20
291.9152488631959
 30
0.0
 40
4.00000000001546
100
AcDbArc
 50
321.4960385444773
 51
38.57664701546194
  0
ARC
  5
140
330
1F
100
AcDbEntity
  8
0
  6
Continuous
 62
     7
100
AcDbCircle
 10
262.4563266363994
 20
289.1839096419959
 30
0.0
 40
0.9999999999995566
100
AcDbArc
 50
81.47726446162794
 51
131.9784641238027
  0
ARC
  5
141
330
1F
100
AcDbEntity
  8
0
  6
Continuous
 62
     7
100
AcDbCircle
 10
297.7989124187993
 20
300.8052036450958
 30
0.0
 40
1.000000000000213
100
AcDbArc
 50
359.9777879832042
 51
89.97778798417248
  0
ARC
  5
142
330
1F
100
AcDbEntity
  8
A_RUNDUNGEN
  6
Continuous
 62
     7
100
AcDbCircle
 10
291.8211800133993
 20
298.1167770221959
 30
0.0
 40
1.999999999983619
100
AcDbArc
 50
359.9762458280343
 51
89.97624582803587
  0
ARC
  5
143
330
1F
100
AcDbEntity
  8
0
  6
Continuous
 62
     7
100
AcDbCircle
 10
290.6925444182994
 20
291.9152488631959
 30
0.0
 40
4.000000000015535
100
AcDbArc
 50
39.39875299610227
 51
48.99161691246645
  0
ARC
  5
144
330
1F
100
AcDbEntity
  8
0
  6
Continuous
 62
     7
100
AcDbCircle
 10
280.6971208743993
 20
289.9741064030959
 30
0.0
 40
4.999999999980853
100
AcDbArc
 50
38.87396985363857
 51
67.30225810475892
  0
ARC
  5
145
330
1F
100
AcDbEntity
  8
A_RUNDUNGEN
  6
Continuous
 62
     7
100
AcDbCircle
 10
280.6971208743993
 20
289.9741064030959
 30
0.0
 40
4.999999999984553
100
AcDbArc
 50
67.30225810475892
 51
100.8739698535793
  0
ARC
  5
146
330
1F
100
AcDbEntity
  8
0
  6
Continuous
 62
     7
100
AcDbCircle
 10
284.8188705134994
 20
288.3194741988959
 30
0.0
 40
10.00000000003783
100
AcDbArc
 50
60.87396985347411
 51
87.87396985360746
  0
ARC
  5
147
330
1F
100
AcDbEntity
  8
A_RUNDUNGEN
  6
Continuous
 62
     7
100
AcDbCircle
 10
275.3121641318994
 20
276.3736196013959
 30
0.0
 40
0.5000000000708746
100
AcDbArc
 50
89.97624583378295
 51
179.9762458223057
  0
ARC
  5
148
330
1F
100
AcDbEntity
  8
0
  6
Continuous
 62
     7
100
AcDbCircle
 10
279.2884854101993
 20
273.9123776136959
 30
0.0
 40
0.999999999945068
100
AcDbArc
 50
89.97778798417026
 51
179.9777879841725
  0
ARC
  5
149
330
1F
100
AcDbEntity
  8
0
  6
Continuous
 62
     7
100
AcDbCircle
 10
297.7884840199994
 20
273.9052056664959
 30
0.0
 40
0.999999999945068
100
AcDbArc
 50
269.9777879841735
 51
359.9777879841702
  0
ARC
  5
14A
330
1F
100
AcDbEntity
  8
0
  6
Continuous
 62
     7
100
AcDbCircle
 10
290.8151727434994
 20
283.6272684327959
 30
0.0
 40
1.000000000041747
100
AcDbArc
 50
359.9762458280354
 51
104.9762458280579
  0
ARC
  5
14B
330
1F
100
AcDbEntity
  8
0
  6
Continuous
 62
     7
100
AcDbCircle
 10
276.7808219724993
 20
279.8730110134959
 30
0.0
 40
1.000000000018695
100
AcDbArc
 50
104.9762458265743
 51
269.9762458280331
  0
ARC
  5
14C
330
1F
100
AcDbEntity
  8
0
  6
Continuous
 62
     7
100
AcDbCircle
 10
290.8136138594994
 20
279.8671931790959
 30
0.0
 40
1.00000000004186
100
AcDbArc
 50
269.9762458280354
 51
359.9762458280331
  0
ARC
  5
14D
330
1F
100
AcDbEntity
  8
A_RUNDUNGEN
  6
Continuous
 62
     7
100
AcDbCircle
 10
291.8096820712908
 20
278.877042651868
 30
0.0
 40
2.010265600500221
100
AcDbArc
 50
270.0766105138451
 51
0.07661051098066
  0
ARC
  5
14E
330
1F
100
AcDbEntity
  8
0
  6
Continuous
 62
     7
100
AcDbCircle
 10
262.4563266363994
 20
289.1839096419959
 30
0.0
 40
1.000000000072902
100
AcDbArc
 50
131.9784641238027
 51
140.8739698527384
  0
ARC
  5
14F
330
1F
100
AcDbEntity
  8
0
  6
Continuous
 62
     7
100
AcDbCircle
 10
258.6936604598993
 20
291.5745705117959
 30
0.0
 40
0.999999999991517
100
AcDbArc
 50
33.66189684904283
 51
79.19207113030268
  0
ARC
  5
150
330
1F
100
AcDbEntity
  8
0
  6
Continuous
 62
     7
100
AcDbCircle
 10
264.0928156508994
 20
289.1848501021959
 30
0.0
 40
1.000000000004844
100
AcDbArc
 50
39.19207112921309
 51
98.58877651932623
  0
ARC
  5
151
330
1F
100
AcDbEntity
  8
0
  6
Continuous
 62
     7
100
AcDbCircle
 10
263.2714365407994
 20
294.6231711994959
 30
0.0
 40
4.500000000021768
100
AcDbArc
 50
39.19207112921665
 51
92.19207112932236
  0
ARC
  5
152
330
1F
100
AcDbEntity
  8
0
  6
Continuous
 62
     7
100
AcDbCircle
 10
263.2714365407994
 20
294.6231711994959
 30
0.0
 40
4.499999999999932
100
AcDbArc
 50
213.6618968479962
 51
278.5887765208969
  0
ARC
  5
153
330
1F
100
AcDbEntity
  8
0
  6
Continuous
 62
     7
100
AcDbCircle
 10
245.8511227235994
 20
289.9540214091959
 30
0.0
 40
5.000000000011922
100
AcDbArc
 50
79.19207112896142
 51
141.1920711287314
  0
ARC
  5
154
330
1F
100
AcDbEntity
  8
0
  6
Continuous
 62
     7
100
AcDbCircle
 10
258.4018039354993
 20
286.2595785041959
 30
0.0
 40
5.999999999951991
100
AcDbArc
 50
140.8739698538884
 51
185.8739698541376
  0
ARC
  5
155
330
1F
100
AcDbEntity
  8
0
  6
Continuous
 62
     7
100
AcDbCircle
 10
268.1507063369994
 20
286.2651942808959
 30
0.0
 40
5.999999999978155
100
AcDbArc
 50
354.1920711291993
 51
39.19207112921572
  0
ARC
  5
156
330
1F
100
AcDbEntity
  8
A_RUNDUNGEN
  6
Continuous
 62
     7
100
AcDbCircle
 10
251.2493162618994
 20
274.9191604639959
 30
0.0
 40
0.5
100
AcDbArc
 50
0.0
 51
90.0
  0
ARC
  5
157
330
1F
100
AcDbEntity
  8
0
  6
Continuous
 62
     7
100
AcDbCircle
 10
250.2493162618994
 20
273.2191604639959
 30
0.0
 40
1.0
100
AcDbArc
 50
0.0
 51
90.0
  0
ARC
  5
158
330
1F
100
AcDbEntity
  8
0
  6
Continuous
 62
     7
100
AcDbCircle
 10
251.3302660909993
 20
278.4191604639959
 30
0.0
 40
1.0
100
AcDbArc
 50
270.0
 51
74.99999999476658
  0
ARC
  5
159
330
1F
100
AcDbEntity
  8
0
  6
Continuous
 62
     7
100
AcDbCircle
 10
260.9083285631994
 20
284.9037931382959
 30
0.0
 40
2.499999999978487
100
AcDbArc
 50
140.8739698548449
 51
207.8739698536278
  0
ARC
  5
15A
330
1F
100
AcDbEntity
  8
0
  6
Continuous
 62
     7
100
AcDbCircle
 10
265.6457460964994
 20
284.9065207142959
 30
0.0
 40
2.50000000000309
100
AcDbArc
 50
332.1920711295498
 51
39.19207112921401
  0
ARC
  5
15B
330
1F
100
AcDbEntity
  8
0
  6
Continuous
 62
     7
100
AcDbCircle
 10
257.2493162618994
 20
277.9191604639959
 30
0.0
 40
3.999999999913733
100
AcDbArc
 50
185.8739698532862
 51
15.99161691163431
  0
ARC
  5
15C
330
1F
100
AcDbEntity
  8
0
  6
Continuous
 62
     7
100
AcDbCircle
 10
269.3128066804993
 20
277.9261101756959
 30
0.0
 40
3.999999999971174
100
AcDbArc
 50
164.0744456162752
 51
354.1920711283464
  0
ARC
  5
15D
330
1F
100
AcDbEntity
  8
0
  6
Continuous
 62
     7
100
AcDbCircle
 10
230.7493162618994
 20
273.8663683640237
 30
0.0
 40
1.0
100
AcDbArc
 50
180.0000000000065
 51
270.0
  0
ARC
  5
15E
330
1F
100
AcDbEntity
  8
0
  6
Continuous
 62
     7
100
AcDbCircle
 10
230.8479202119132
 20
300.7677644140098
 30
0.0
 40
1.103020116745039
100
AcDbArc
 50
95.12877503519763
 51
185.1287750352006
  0
ARC
  5
15F
330
1F
100
AcDbEntity
  8
0
  6
Continuous
 62
     7
100
AcDbCircle
 10
235.7493162618994
 20
278.4191604639959
 30
0.0
 40
1.0
100
AcDbArc
 50
180.0
 51
270.0
  0
ARC
  5
160
330
1F
100
AcDbEntity
  8
0
  6
Continuous
 62
     7
100
AcDbCircle
 10
235.7493162618994
 20
282.5940633879959
 30
0.0
 40
1.000000000009918
100
AcDbArc
 50
75.0000000003011
 51
180.0
  0
ARC
  5
161
330
1F
100
AcDbEntity
  8
A_RUNDUNGEN
  6
Continuous
 62
     7
100
AcDbCircle
 10
234.7493162618994
 20
277.4191604639959
 30
0.0
 40
2.0
100
AcDbArc
 50
180.0
 51
270.0
  0
ARC
  5
162
330
1F
100
AcDbEntity
  8
A_RUNDUNGEN
  6
Continuous
 62
     7
100
AcDbCircle
 10
234.7493162618994
 20
297.2191604639959
 30
0.0
 40
2.0
100
AcDbArc
 50
90.0
 51
180.0
  0
ARC
  5
163
330
1F
100
AcDbEntity
  8
0
  6
Continuous
 62
     7
100
AcDbCircle
 10
235.8534683957993
 20
291.8836415314959
 30
0.0
 40
4.000000000046252
100
AcDbArc
 50
219.1007607205568
 51
321.1920711294922
  0
ARC
  5
164
330
1F
100
AcDbEntity
  8
0
  6
Continuous
 62
     7
100
AcDbCircle
 10
241.7312830049993
 20
288.2946394422959
 30
0.0
 40
9.999999999943528
100
AcDbArc
 50
92.19207112920019
 51
119.1920711291488
  0
ARC
  5
165
330
1F
100
AcDbEntity
  8
0
  6
DASHED
 62
     2
100
AcDbCircle
 10
263.2714367499791
 20
294.6231727463871
 30
0.0
 40
4.500000000009972
100
AcDbArc
 50
88.12073698459768
 51
141.1207369843191
  0
ARC
  5
166
330
1F
100
AcDbEntity
  8
0
  6
Continuous
 62
     7
100
AcDbCircle
 10
235.8534683957993
 20
291.8836415314959
 30
0.0
 40
3.999999999975651
100
AcDbArc
 50
131.074424070032
 51
140.8992392794438
  0
ARC
  5
167
330
1F
100
AcDbEntity
  8
0
  6
Continuous
 62
     7
100
AcDbCircle
 10
235.8534683957993
 20
291.8836415314959
 30
0.0
 40
4.000000000046216
100
AcDbArc
 50
140.8992392794438
 51
219.1007607205568
  0
CIRCLE
  5
168
330
1F
100
AcDbEntity
  8
0
  6
Continuous
 62
     7
100
AcDbCircle
 10
290.6925444182994
 20
291.9152488631959
 30
0.0
 40
2.02499999999992
  0
CIRCLE
  5
169
330
1F
100
AcDbEntity
  8
0
  6
Continuous
 62
     7
100
AcDbCircle
 10
263.2714368160994
 20
294.6231738748959
 30
0.0
 40
2.0
  0
CIRCLE
  5
16A
330
1F
100
AcDbEntity
  8
0
  6
Continuous
 62
     7
100
AcDbCircle
 10
269.3128071585994
 20
277.9261080339959
 30
0.0
 40
1.683810409800003
  0
CIRCLE
  5
16B
330
1F
100
AcDbEntity
  8
0
  6
Continuous
 62
     7
100
AcDbCircle
 10
257.2493162618994
 20
277.9191604639959
 30
0.0
 40
1.683810409800003
  0
CIRCLE
  5
16C
330
1F
100
AcDbEntity
  8
0
  6
Continuous
 62
     7
100
AcDbCircle
 10
235.8534687601994
 20
291.8836414320959
 30
0.0
 40
1.949999999999903
  0
SPLINE
  5
16D
330
1F
100
AcDbEntity
  8
A_RUNDUNGEN
  6
Continuous
 62
     7
100
AcDbSpline
210
0.0
220
0.0
230
1.0
 70
     8
 71
     3
 72
    17
 73
    13
 74
    11
 42
0.000000001
 43
0.0000000001
 44
0.00000001
 40
0.0
 40
0.0
 40
0.0
 40
0.0
 40
0.009542747147994
 40
0.0197323702441235
 40
0.0364016261503304
 40
0.0526522003440697
 40
0.1083675447486687
 40
0.1646270362131643
 40
0.2466144151357125
 40
0.3283323721977693
 40
0.4247897187865362
 40
0.521294259340658
 40
0.521294259340658
 40
0.521294259340658
 40
0.521294259340658
 10
278.2881748202993
 20
273.1114067178959
 30
0.0
 10
278.2874731843795
 20
273.1145727844224
 30
0.0
 10
278.28602236462
 20
273.1211195405733
 30
0.0
 10
278.2772194473921
 20
273.1300343406935
 30
0.0
 10
278.2656204717964
 20
273.1384675418237
 30
0.0
 10
278.2385982734883
 20
273.1507598570285
 30
0.0
 10
278.1980108261671
 20
273.16435534087
 30
0.0
 10
278.1348168553687
 20
273.1783635776461
 30
0.0
 10
278.0623971182837
 20
273.1900566017973
 30
0.0
 10
277.9761165131994
 20
273.1990648879379
 30
0.0
 10
277.884707671799
 20
273.2049841782595
 30
0.0
 10
277.8203821345107
 20
273.2057398737754
 30
0.0
 10
277.7882114996993
 20
273.2061178184958
 30
0.0
 11
278.2881748202993
 21
273.1114067178959
 31
0.0
 11
278.2852932067775
 21
273.120503988525
 31
0.0
 11
278.2786811245301
 21
273.1282569726997
 31
0.0
 11
278.2652055441637
 21
273.1380688431422
 31
0.0
 11
278.2505870917155
 21
273.1451668706184
 31
0.0
 11
278.197925973556
 21
273.1633604457184
 31
0.0
 11
278.1431206604454
 21
273.1760690258461
 31
0.0
 11
278.0622095442626
 21
273.1893099305527
 31
0.0
 11
277.9809618808052
 21
273.1980644540332
 31
0.0
 11
277.8846956177064
 21
273.2041329235387
 31
0.0
 11
277.7882114996993
 21
273.2061178184958
 31
0.0
  0
SPLINE
  5
16E
330
1F
100
AcDbEntity
  8
A_RUNDUNGEN
  6
Continuous
 62
     7
100
AcDbSpline
210
0.0
220
0.0
230
1.0
 70
     8
 71
     3
 72
    15
 73
    11
 74
     9
 42
0.000000001
 43
0.0000000001
 44
0.00000001
 40
0.0
 40
0.0
 40
0.0
 40
0.0
 40
0.099699345638005
 40
0.199827490453824
 40
0.2997667001889229
 40
0.3996149151545815
 40
0.4994579358640988
 40
0.5994007043601787
 40
0.6609421236616594
 40
0.7224426067950891
 40
0.7224426067950891
 40
0.7224426067950891
 40
0.7224426067950891
 10
255.7493162618994
 20
273.3089412978959
 30
0.0
 10
255.7826007683348
 20
273.3068854153107
 30
0.0
 10
255.8493129337695
 20
273.3027647935079
 30
0.0
 10
255.9451688029447
 20
273.2709447662624
 30
0.0
 10
256.032684659619
 20
273.2215067501866
 30
0.0
 10
256.10851894886
 20
273.155446396762
 30
0.0
 10
256.1700974027208
 20
273.0760203883166
 30
0.0
 10
256.2094846125891
 20
272.9977557136483
 30
0.0
 10
256.2329611124596
 20
272.9269950286977
 30
0.0
 10
256.2401695487043
 20
272.886572770374
 30
0.0
 10
256.2437725606177
 20
272.8663683640347
 30
0.0
 11
255.7493162618994
 21
273.3089412978959
 31
0.0
 11
255.8484693775039
 21
273.2985192310829
 31
0.0
 11
255.9438277789948
 21
273.2679836611208
 31
0.0
 11
256.0307760678412
 21
273.2187105342475
 31
0.0
 11
256.106144794485
 21
273.1532183868395
 31
0.0
 11
256.1673429605863
 21
273.0743297719878
 31
0.0
 11
256.2124619842727
 21
272.9851511251904
 31
0.0
 11
256.2315280290501
 21
272.926637601981
 31
0.0
 11
256.2437725606177
 21
272.8663683640347
 31
0.0
  0
ARC
  5
16F
330
1F
100
AcDbEntity
  8
1
  6
DASHED
 62
     2
100
AcDbCircle
 10
256.0730265878303
 20
288.5204033006474
 30
0.0
 40
1.000000000000068
100
AcDbArc
 50
344.9999999992614
 51
75.00000000015179
  0
ARC
  5
170
330
1F
100
AcDbEntity
  8
1
  6
DASHED
 62
     2
100
AcDbCircle
 10
255.0377504073707
 20
284.6566999955044
 30
0.0
 40
1.000000000000009
100
AcDbArc
 50
255.0000000001675
 51
344.9999999992646
  0
ARC
  5
171
330
1F
100
AcDbEntity
  8
1
  6
DASHED
 62
     2
100
AcDbCircle
 10
270.5733151317039
 20
288.7099366904001
 30
0.0
 40
1.000000000000063
100
AcDbArc
 50
104.9999999999699
 51
195.0000000000913
  0
ARC
  5
172
330
1F
100
AcDbEntity
  8
1
  6
DASHED
 62
     2
100
AcDbCircle
 10
271.60859131212
 20
284.8462333852455
 30
0.0
 40
0.999999999999809
100
AcDbArc
 50
195.0000000000918
 51
284.9999999999582
  0
DIMENSION
  5
17E
330
1F
100
AcDbEntity
  8
1
100
AcDbDimension
280
     0
  2
*D1
 10
334.765797393127
 20
307.3486127149959
 30
0.0
 11
331.015797393127
 21
286.920082540537
 31
0.0
 70
    32
  1
<>
 71
     5
 42
-1.0
 73
     0
 74
     0
 75
     0
 53
90.0
  3
ME10_DIM_10
100
AcDbAlignedDimension
 13
314.7859434855993
 23
267.3486157207959
 33
0.0
 14
314.8014503982994
 24
307.3486127149959
 34
0.0
 50
90.0
100
AcDbRotatedDimension
  0
DIMENSION
  5
18B
330
1F
100
AcDbEntity
  8
1
100
AcDbDimension
280
     0
  2
*D2
 10
324.8851866587033
 20
267.3486157207959
 30
0.0
 11
321.1351866587033
 21
261.4364992197409
 31
0.0
 70
    32
  1
<>
 71
     5
 42
-1.0
 73
     0
 74
     0
 75
     0
 53
90.0
  3
ME10_DIM_11
100
AcDbAlignedDimension
 13
298.7880768883994
 23
272.8548180725959
 33
0.0
 14
314.7859434855993
 24
267.3486157207959
 34
0.0
 50
90.0
100
AcDbRotatedDimension
  0
DIMENSION
  5
196
330
1F
100
AcDbEntity
  8
1
100
AcDbDimension
280
     0
  2
*D3
 10
324.8851866587033
 20
301.8548158933959
 30
0.0
 11
321.1351866587033
 21
290.3373020731989
 31
0.0
 70
    32
  1
<>
 71
     5
 42
-1.0
 73
     0
 74
     0
 75
     0
 53
90.0
  3
ME10_DIM_12
100
AcDbAlignedDimension
 13
298.7880768883994
 23
272.8548180725959
 33
0.0
 14
298.7993194000993
 24
301.8548158933959
 34
0.0
 50
90.0
100
AcDbRotatedDimension
  0
DIMENSION
  5
1A1
330
1F
100
AcDbEntity
  8
1
100
AcDbDimension
280
     0
  2
*D4
 10
264.7876992480986
 20
247.2389187029579
 30
0.0
 11
280.866912902152
 21
250.9889187029579
 31
0.0
 70
    32
  1
<>
 71
     5
 42
-1.0
 73
     0
 74
     0
 75
     0
 53
0.00013888888889
  3
ME10_DIM_13
100
AcDbAlignedDimension
 13
298.7880768883994
 23
272.8548180725959
 33
0.0
 14
264.7876992480987
 24
267.3486157207959
 34
0.0
100
AcDbRotatedDimension
  0
DIMENSION
  5
1AE
330
1F
100
AcDbEntity
  8
1
100
AcDbDimension
280
     0
  2
*D5
 10
261.7876985053202
 20
257.2874219040929
 30
0.0
 11
258.3940568503293
 21
261.0374219040929
 31
0.0
 70
    32
  1
<>
 71
     5
 42
-1.0
 73
     0
 74
     0
 75
     0
 53
0.00013888888889
  3
ME10_DIM_14
100
AcDbAlignedDimension
 13
264.7876992480987
 23
267.3486157207959
 33
0.0
 14
261.7876985053202
 24
267.361911490681
 34
0.0
100
AcDbRotatedDimension
  0
DIMENSION
  5
1B9
330
1F
100
AcDbEntity
  8
1
100
AcDbDimension
280
     0
  2
*D6
 10
261.7876985053202
 20
247.2389187029579
 30
0.0
 11
247.2470181585763
 21
250.9889187029579
 31
0.0
 70
    32
  1
<>
 71
     5
 42
-1.0
 73
     0
 74
     0
 75
     0
 53
0.00013888888889
  3
ME10_DIM_15
100
AcDbAlignedDimension
 13
229.7493162618994
 23
272.7691604639959
 33
0.0
 14
261.7876985053202
 24
267.361911490681
 34
0.0
100
AcDbRotatedDimension
  0
DIMENSION
  5
1C6
330
1F
100
AcDbEntity
  8
1
100
AcDbDimension
280
     0
  2
*D7
 10
212.076205560725
 20
272.8663683640237
 30
0.0
 11
208.326205560725
 21
281.4400433600528
 31
0.0
 70
    32
  1
<>
 71
     5
 42
-1.0
 73
     0
 74
     0
 75
     0
 53
90.0
  3
ME10_DIM_16
100
AcDbAlignedDimension
 13
224.734978898479
 23
267.348615720796
 33
0.0
 14
230.7493162618994
 24
272.8663683640237
 34
0.0
 50
90.0
100
AcDbRotatedDimension
  0
DIMENSION
  5
1D1
330
1F
100
AcDbEntity
  8
1
100
AcDbDimension
280
     0
  2
*D8
 10
202.338180476455
 20
301.8663683640237
 30
0.0
 11
198.588180476455
 21
286.5390454775412
 31
0.0
 70
    32
  1
<>
 71
     5
 42
-1.0
 73
     0
 74
     0
 75
     0
 53
90.0
  3
ME10_DIM_17
100
AcDbAlignedDimension
 13
230.7493162618994
 23
272.8663683640237
 33
0.0
 14
230.7493162618994
 24
301.8663683640236
 34
0.0
 50
90.0
100
AcDbRotatedDimension
  0
ENDSEC
  0
SECTION
  2
OBJECTS
  0
DICTIONARY
  5
C
330
0
100
AcDbDictionary
281
     1
  3
ACAD_GROUP
350
D
  3
ACAD_LAYOUT
350
1A
  3
ACAD_MATERIAL
350
3B
  3
ACAD_MLEADERSTYLE
350
1D3
  3
ACAD_MLINESTYLE
350
17
  3
ACAD_PLOTSETTINGS
350
19
  3
ACAD_PLOTSTYLENAME
350
E
  3
ACAD_TABLESTYLE
350
1D2
  3
ACAD_VISUALSTYLE
350
2A
  0
DICTIONARY
  5
D
102
{ACAD_REACTORS
330
C
102
}
330
C
100
AcDbDictionary
281
     1
  0
DICTIONARY
  5
1A
102
{ACAD_REACTORS
330
C
102
}
330
C
100
AcDbDictionary
281
     1
  3
Layout1
350
1E
  3
Layout2
350
26
  3
Model
350
22
  0
DICTIONARY
  5
3B
102
{ACAD_REACTORS
330
C
102
}
330
C
100
AcDbDictionary
281
     1
  3
ByBlock
350
3D
  3
ByLayer
350
3C
  3
Global
350
3E
  0
DICTIONARY
  5
1D3
102
{ACAD_REACTORS
330
C
102
}
330
C
100
AcDbDictionary
281
     1
  0
DICTIONARY
  5
17
102
{ACAD_REACTORS
330
C
102
}
330
C
100
AcDbDictionary
281
     1
  3
Standard
350
18
  0
DICTIONARY
  5
19
102
{ACAD_REACTORS
330
C
102
}
330
C
100
AcDbDictionary
281
     1
  0
ACDBDICTIONARYWDFLT
  5
E
102
{ACAD_REACTORS
330
C
102
}
330
C
100
AcDbDictionary
281
     1
  3
Normal
350
F
100
AcDbDictionaryWithDefault
340
F
  0
DICTIONARY
  5
1D2
102
{ACAD_REACTORS
330
C
102
}
330
C
100
AcDbDictionary
281
     1
  0
DICTIONARY
  5
2A
102
{ACAD_REACTORS
330
C
102
}
330
C
100
AcDbDictionary
281
     1
  3
2dWireframe
350
2F
  3
3D Hidden
350
31
  3
3dWireframe
350
30
  3
Basic
350
32
  3
Brighten
350
36
  3
ColorChange
350
3A
  3
Conceptual
350
34
  3
Dim
350
35
  3
Facepattern
350
39
  3
Flat
350
2B
  3
FlatWithEdges
350
2C
  3
Gouraud
350
2D
  3
GouraudWithEdges
350
2E
  3
Linepattern
350
38
  3
Realistic
350
33
  3
Thicken
350
37
  0
LAYOUT
  5
1E
102
{ACAD_REACTORS
330
1A
102
}
330
1A
100
AcDbPlotSettings
  1

  2
none_device
  4

  6

 40
0.0
 41
0.0
 42
0.0
 43
0.0
 44
0.0
 45
0.0
 46
0.0
 47
0.0
 48
0.0
 49
0.0
140
0.0
141
0.0
142
1.0
143
1.0
 70
   688
 72
     0
 73
     0
 74
     5
  7

 75
    16
 76
     0
 77
     2
 78
   300
147
1.0
148
0.0
149
0.0
100
AcDbLayout
  1
Layout1
 70
     1
 71
     1
 10
0.0
 20
0.0
 11
12.0
 21
9.0
 12
0.0
 22
0.0
 32
0.0
 14
1.00000000000000E+20
 24
1.00000000000000E+20
 34
1.00000000000000E+20
 15
-1.00000000000000E+20
 25
-1.00000000000000E+20
 35
-1.00000000000000E+20
146
0.0
 13
0.0
 23
0.0
 33
0.0
 16
1.0
 26
0.0
 36
0.0
 17
0.0
 27
1.0
 37
0.0
 76
     0
330
1B
  0
LAYOUT
  5
26
102
{ACAD_REACTORS
330
1A
102
}
330
1A
100
AcDbPlotSettings
  1

  2
none_device
  4

  6

 40
0.0
 41
0.0
 42
0.0
 43
0.0
 44
0.0
 45
0.0
 46
0.0
 47
0.0
 48
0.0
 49
0.0
140
0.0
141
0.0
142
1.0
143
1.0
 70
   688
 72
     0
 73
     0
 74
     5
  7

 75
    16
 76
     0
 77
     2
 78
   300
147
1.0
148
0.0
149
0.0
100
AcDbLayout
  1
Layout2
 70
     1
 71
     2
 10
0.0
 20
0.0
 11
0.0
 21
0.0
 12
0.0
 22
0.0
 32
0.0
 14
0.0
 24
0.0
 34
0.0
 15
0.0
 25
0.0
 35
0.0
146
0.0
 13
0.0
 23
0.0
 33
0.0
 16
1.0
 26
0.0
 36
0.0
 17
0.0
 27
1.0
 37
0.0
 76
     0
330
23
  0
LAYOUT
  5
22
102
{ACAD_REACTORS
330
1A
102
}
330
1A
100
AcDbPlotSettings
  1

  2
none_device
  4

  6

 40
0.0
 41
0.0
 42
0.0
 43
0.0
 44
0.0
 45
0.0
 46
0.0
 47
0.0
 48
0.0
 49
0.0
140
0.0
141
0.0
142
1.0
143
1.0
 70
  1712
 72
     0
 73
     0
 74
     0
  7

 75
     0
 76
     0
 77
     2
 78
   300
147
1.0
148
0.0
149
0.0
100
AcDbLayout
  1
Model
 70
     1
 71
     0
 10
0.0
 20
0.0
 11
12.0
 21
9.0
 12
0.0
 22
0.0
 32
0.0
 14
196.838180476455
 24
245.2389187029579
 34
0.0
 15
336.765797393127
 25
332.3004263152918
 35
0.0
146
0.0
 13
0.0
 23
0.0
 33
0.0
 16
1.0
 26
0.0
 36
0.0
 17
0.0
 27
1.0
 37
0.0
 76
     0
330
1F
331
29
  0
MATERIAL
  5
3D
102
{ACAD_REACTORS
330
3B
102
}
330
3B
100
AcDbMaterial
  1
ByBlock
 72
     1
 94
      127
  0
MATERIAL
  5
3C
102
{ACAD_REACTORS
330
3B
102
}
330
3B
100
AcDbMaterial
  1
ByLayer
 72
     1
 94
      127
  0
MATERIAL
  5
3E
102
{ACAD_REACTORS
330
3B
102
}
330
3B
100
AcDbMaterial
  1
Global
 72
     1
 94
      127
  0
MLINESTYLE
  5
18
102
{ACAD_REACTORS
330
17
102
}
330
17
100
AcDbMlineStyle
  2
Standard
 70
     0
  3

 62
   256
 51
90.0
 52
90.0
 71
     2
 49
0.5
 62
   256
  6
BYLAYER
 49
-0.5
 62
   256
  6
BYLAYER
  0
ACDBPLACEHOLDER
  5
F
102
{ACAD_REACTORS
330
E
102
}
330
E
  0
VISUALSTYLE
  5
2F
102
{ACAD_REACTORS
330
2A
102
}
330
2A
100
AcDbVisualStyle
  2
2dWireframe
 70
     4
177
     2
291
     0
 71
     0
176
     1
 72
     2
176
     1
 73
     0
176
     1
 90
        0
176
     1
 40
-0.6
176
     1
 41
-30.0
176
     1
 62
     5
 63
     7
421
 16777215
176
     1
 74
     1
176
     1
 91
        4
176
     1
 64
     7
176
     1
 65
   257
176
     1
 75
     1
176
     1
175
     1
176
     1
 42
1.0
176
     1
 92
        0
176
     1
 66
   257
176
     1
 43
1.0
176
     1
 76
     1
176
     1
 77
     6
176
     1
 78
     2
176
     1
 67
     7
176
     1
 79
     5
176
     1
170
     0
176
     1
171
     0
176
     1
290
     0
176
     1
 93
        1
176
     1
 44
0.0
176
     1
173
     0
176
     1
  0
VISUALSTYLE
  5
31
102
{ACAD_REACTORS
330
2A
102
}
330
2A
100
AcDbVisualStyle
  2
3D Hidden
 70
     6
177
     2
291
     0
 71
     1
176
     1
 72
     2
176
     1
 73
     2
176
     1
 90
        0
176
     1
 40
-0.6
176
     1
 41
-30.0
176
     1
 62
     5
 63
     7
421
 16777215
176
     1
 74
     2
176
     1
 91
        2
176
     1
 64
     7
176
     1
 65
   257
176
     1
 75
     2
176
     1
175
     1
176
     1
 42
40.0
176
     1
 92
        0
176
     1
 66
   257
176
     1
 43
1.0
176
     1
 76
     1
176
     1
 77
     6
176
     1
 78
     2
176
     1
 67
     7
176
     1
 79
     3
176
     1
170
     0
176
     1
171
     0
176
     1
290
     0
176
     1
 93
        1
176
     1
 44
0.0
176
     1
173
     0
176
     1
  0
VISUALSTYLE
  5
30
102
{ACAD_REACTORS
330
2A
102
}
330
2A
100
AcDbVisualStyle
  2
3dWireframe
 70
     5
177
     2
291
     0
 71
     0
176
     1
 72
     2
176
     1
 73
     0
176
     1
 90
        0
176
     1
 40
-0.6
176
     1
 41
-30.0
176
     1
 62
     5
 63
     7
421
 16777215
176
     1
 74
     1
176
     1
 91
        4
176
     1
 64
     7
176
     1
 65
   257
176
     1
 75
     1
176
     1
175
     1
176
     1
 42
1.0
176
     1
 92
        0
176
     1
 66
   257
176
     1
 43
1.0
176
     1
 76
     1
176
     1
 77
     6
176
     1
 78
     2
176
     1
 67
     7
176
     1
 79
     5
176
     1
170
     0
176
     1
171
     0
176
     1
290
     0
176
     1
 93
        1
176
     1
 44
0.0
176
     1
173
     0
176
     1
  0
VISUALSTYLE
  5
32
102
{ACAD_REACTORS
330
2A
102
}
330
2A
100
AcDbVisualStyle
  2
Basic
 70
     7
177
     2
291
     1
 71
     1
176
     1
 72
     0
176
     1
 73
     1
176
     1
 90
        0
176
     1
 40
-0.6
176
     1
 41
-30.0
176
     1
 62
     5
 63
     7
421
 16777215
176
     1
 74
     0
176
     1
 91
        4
176
     1
 64
     7
176
     1
 65
   257
176
     1
 75
     1
176
     1
175
     1
176
     1
 42
1.0
176
     1
 92
        8
176
     1
 66
     7
176
     1
 43
1.0
176
     1
 76
     1
176
     1
 77
     6
176
     1
 78
     2
176
     1
 67
     7
176
     1
 79
     5
176
     1
170
     0
176
     1
171
     0
176
     1
290
     0
176
     1
 93
        1
176
     1
 44
0.0
176
     1
173
     0
176
     1
  0
VISUALSTYLE
  5
36
102
{ACAD_REACTORS
330
2A
102
}
330
2A
100
AcDbVisualStyle
  2
Brighten
 70
    12
177
     2
291
     1
 71
     2
176
     1
 72
     2
176
     1
 73
     0
176
     1
 90
        0
176
     1
 40
-0.6
176
     1
 41
-30.0
176
     1
 62
     5
 63
     7
421
 16777215
176
     1
 74
     1
176
     1
 91
        4
176
     1
 64
     7
176
     1
 65
   257
176
     1
 75
     1
176
     1
175
     1
176
     1
 42
1.0
176
     1
 92
        8
176
     1
 66
     7
176
     1
 43
1.0
176
     1
 76
     1
176
     1
 77
     6
176
     1
 78
     2
176
     1
 67
     7
176
     1
 79
     5
176
     1
170
     0
176
     1
171
     0
176
     1
290
     0
176
     1
 93
        1
176
     1
 44
50.0
176
     1
173
     0
176
     1
  0
VISUALSTYLE
  5
3A
102
{ACAD_REACTORS
330
2A
102
}
330
2A
100
AcDbVisualStyle
  2
ColorChange
 70
    16
177
     2
291
     1
 71
     2
176
     1
 72
     2
176
     1
 73
     3
176
     1
 90
        0
176
     1
 40
-0.6
176
     1
 41
-30.0
176
     1
 62
     5
 63
     8
421
  8421504
176
     1
 74
     1
176
     1
 91
        4
176
     1
 64
     7
176
     1
 65
   257
176
     1
 75
     1
176
     1
175
     1
176
     1
 42
1.0
176
     1
 92
        8
176
     1
 66
     8
424
  8421504
176
     1
 43
1.0
176
     1
 76
     1
176
     1
 77
     6
176
     1
 78
     2
176
     1
 67
     7
176
     1
 79
     5
176
     1
170
     0
176
     1
171
     0
176
     1
290
     0
176
     1
 93
        1
176
     1
 44
0.0
176
     1
173
     0
176
     1
  0
VISUALSTYLE
  5
34
102
{ACAD_REACTORS
330
2A
102
}
330
2A
100
AcDbVisualStyle
  2
Conceptual
 70
     9
177
     2
291
     0
 71
     3
176
     1
 72
     2
176
     1
 73
     0
176
     1
 90
        0
176
     1
 40
-0.6
176
     1
 41
-30.0
176
     1
 62
     5
 63
     7
421
 16777215
176
     1
 74
     2
176
     1
 91
        2
176
     1
 64
     7
176
     1
 65
   257
176
     1
 75
     1
176
     1
175
     1
176
     1
 42
40.0
176
     1
 92
        8
176
     1
 66
     7
176
     1
 43
1.0
176
     1
 76
     1
176
     1
 77
     6
176
     1
 78
     2
176
     1
 67
     7
176
     1
 79
     3
176
     1
170
     0
176
     1
171
     0
176
     1
290
     0
176
     1
 93
        1
176
     1
 44
0.0
176
     1
173
     0
176
     1
  0
VISUALSTYLE
  5
35
102
{ACAD_REACTORS
330
2A
102
}
330
2A
100
AcDbVisualStyle
  2
Dim
 70
    11
177
     2
291
     1
 71
     2
176
     1
 72
     2
176
     1
 73
     0
176
     1
 90
        0
176
     1
 40
-0.6
176
     1
 41
-30.0
176
     1
 62
     5
 63
     7
421
 16777215
176
     1
 74
     1
176
     1
 91
        4
176
     1
 64
     7
176
     1
 65
   257
176
     1
 75
     1
176
     1
175
     1
176
     1
 42
1.0
176
     1
 92
        8
176
     1
 66
     7
176
     1
 43
1.0
176
     1
 76
     1
176
     1
 77
     6
176
     1
 78
     2
176
     1
 67
     7
176
     1
 79
     5
176
     1
170
     0
176
     1
171
     0
176
     1
290
     0
176
     1
 93
        1
176
     1
 44
-50.0
176
     1
173
     0
176
     1
  0
VISUALSTYLE
  5
39
102
{ACAD_REACTORS
330
2A
102
}
330
2A
100
AcDbVisualStyle
  2
Facepattern
 70
    15
177
     2
291
     1
 71
     2
176
     1
 72
     2
176
     1
 73
     0
176
     1
 90
        0
176
     1
 40
-0.6
176
     1
 41
-30.0
176
     1
 62
     5
 63
     7
421
 16777215
176
     1
 74
     1
176
     1
 91
        4
176
     1
 64
     7
176
     1
 65
   257
176
     1
 75
     1
176
     1
175
     1
176
     1
 42
1.0
176
     1
 92
        8
176
     1
 66
     7
176
     1
 43
1.0
176
     1
 76
     1
176
     1
 77
     6
176
     1
 78
     2
176
     1
 67
     7
176
     1
 79
     5
176
     1
170
     0
176
     1
171
     0
176
     1
290
     0
176
     1
 93
        1
176
     1
 44
0.0
176
     1
173
     0
176
     1
  0
VISUALSTYLE
  5
2B
102
{ACAD_REACTORS
330
2A
102
}
330
2A
100
AcDbVisualStyle
  2
Flat
 70
     0
177
     2
291
     1
 71
     2
176
     1
 72
     1
176
     1
 73
     1
176
     1
 90
        2
176
     1
 40
-0.6
176
     1
 41
30.0
176
     1
 62
     5
 63
     7
421
 16777215
176
     1
 74
     0
176
     1
 91
        4
176
     1
 64
     7
176
     1
 65
   257
176
     1
 75
     1
176
     1
175
     1
176
     1
 42
1.0
176
     1
 92
        8
176
     1
 66
     7
176
     1
 43
1.0
176
     1
 76
     1
176
     1
 77
     6
176
     1
 78
     2
176
     1
 67
     7
176
     1
 79
     5
176
     1
170
     0
176
     1
171
     0
176
     1
290
     0
176
     1
 93
       13
176
     1
 44
0.0
176
     1
173
     0
176
     1
  0
VISUALSTYLE
  5
2C
102
{ACAD_REACTORS
330
2A
102
}
330
2A
100
AcDbVisualStyle
  2
FlatWithEdges
 70
     1
177
     2
291
     1
 71
     2
176
     1
 72
     1
176
     1
 73
     1
176
     1
 90
        2
176
     1
 40
-0.6
176
     1
 41
30.0
176
     1
 62
     5
 63
     7
421
 16777215
176
     1
 74
     1
176
     1
 91
        4
176
     1
 64
     7
176
     1
 65
   257
176
     1
 75
     1
176
     1
175
     1
176
     1
 42
1.0
176
     1
 92
        0
176
     1
 66
   257
176
     1
 43
1.0
176
     1
 76
     1
176
     1
 77
     6
176
     1
 78
     2
176
     1
 67
     7
176
     1
 79
     5
176
     1
170
     0
176
     1
171
     0
176
     1
290
     0
176
     1
 93
       13
176
     1
 44
0.0
176
     1
173
     0
176
     1
  0
VISUALSTYLE
  5
2D
102
{ACAD_REACTORS
330
2A
102
}
330
2A
100
AcDbVisualStyle
  2
Gouraud
 70
     2
177
     2
291
     1
 71
     2
176
     1
 72
     2
176
     1
 73
     1
176
     1
 90
        2
176
     1
 40
-0.6
176
     1
 41
30.0
176
     1
 62
     5
 63
     7
421
 16777215
176
     1
 74
     0
176
     1
 91
        4
176
     1
 64
     7
176
     1
 65
   257
176
     1
 75
     1
176
     1
175
     1
176
     1
 42
1.0
176
     1
 92
        0
176
     1
 66
     7
176
     1
 43
1.0
176
     1
 76
     1
176
     1
 77
     6
176
     1
 78
     2
176
     1
 67
     7
176
     1
 79
     5
176
     1
170
     0
176
     1
171
     0
176
     1
290
     0
176
     1
 93
       13
176
     1
 44
0.0
176
     1
173
     0
176
     1
  0
VISUALSTYLE
  5
2E
102
{ACAD_REACTORS
330
2A
102
}
330
2A
100
AcDbVisualStyle
  2
GouraudWithEdges
 70
     3
177
     2
291
     1
 71
     2
176
     1
 72
     2
176
     1
 73
     1
176
     1
 90
        2
176
     1
 40
-0.6
176
     1
 41
30.0
176
     1
 62
     5
 63
     7
421
 16777215
176
     1
 74
     1
176
     1
 91
        4
176
     1
 64
     7
176
     1
 65
   257
176
     1
 75
     1
176
     1
175
     1
176
     1
 42
1.0
176
     1
 92
        0
176
     1
 66
   257
176
     1
 43
1.0
176
     1
 76
     1
176
     1
 77
     6
176
     1
 78
     2
176
     1
 67
     7
176
     1
 79
     5
176
     1
170
     0
176
     1
171
     0
176
     1
290
     0
176
     1
 93
       13
176
     1
 44
0.0
176
     1
173
     0
176
     1
  0
VISUALSTYLE
  5
38
102
{ACAD_REACTORS
330
2A
102
}
330
2A
100
AcDbVisualStyle
  2
Linepattern
 70
    14
177
     2
291
     1
 71
     2
176
     1
 72
     2
176
     1
 73
     0
176
     1
 90
        0
176
     1
 40
-0.6
176
     1
 41
-30.0
176
     1
 62
     5
 63
     7
421
 16777215
176
     1
 74
     1
176
     1
 91
        4
176
     1
 64
     7
176
     1
 65
   257
176
     1
 75
     7
176
     1
175
     7
176
     1
 42
1.0
176
     1
 92
        8
176
     1
 66
     7
176
     1
 43
1.0
176
     1
 76
     1
176
     1
 77
     6
176
     1
 78
     2
176
     1
 67
     7
176
     1
 79
     5
176
     1
170
     0
176
     1
171
     0
176
     1
290
     0
176
     1
 93
        1
176
     1
 44
0.0
176
     1
173
     0
176
     1
  0
VISUALSTYLE
  5
33
102
{ACAD_REACTORS
330
2A
102
}
330
2A
100
AcDbVisualStyle
  2
Realistic
 70
     8
177
     2
291
     0
 71
     2
176
     1
 72
     2
176
     1
 73
     0
176
     1
 90
        0
176
     1
 40
-0.6
176
     1
 41
-30.0
176
     1
 62
     5
 63
     7
421
 16777215
176
     1
 74
     1
176
     1
 91
        0
176
     1
 64
     7
176
     1
 65
   257
176
     1
 75
     1
176
     1
175
     1
176
     1
 42
1.0
176
     1
 92
        8
176
     1
 66
     8
424
  7895160
176
     1
 43
1.0
176
     1
 76
     1
176
     1
 77
     6
176
     1
 78
     2
176
     1
 67
     7
176
     1
 79
     5
176
     1
170
     0
176
     1
171
     0
176
     1
290
     0
176
     1
 93
       13
176
     1
 44
0.0
176
     1
173
     0
176
     1
  0
VISUALSTYLE
  5
37
102
{ACAD_REACTORS
330
2A
102
}
330
2A
100
AcDbVisualStyle
  2
Thicken
 70
    13
177
     2
291
     1
 71
     2
176
     1
 72
     2
176
     1
 73
     0
176
     1
 90
        0
176
     1
 40
-0.6
176
     1
 41
-30.0
176
     1
 62
     5
 63
     7
421
 16777215
176
     1
 74
     1
176
     1
 91
        4
176
     1
 64
     7
176
     1
 65
   257
176
     1
 75
     1
176
     1
175
     1
176
     1
 42
1.0
176
     1
 92
       12
176
     1
 66
     7
176
     1
 43
1.0
176
     1
 76
     1
176
     1
 77
     6
176
     1
 78
     2
176
     1
 67
     7
176
     1
 79
     5
176
     1
170
     0
176
     1
171
     0
176
     1
290
     0
176
     1
 93
        1
176
     1
 44
0.0
176
     1
173
     0
176
     1
  0
ENDSEC
  0
EOF
