  0
SECTION
  2
HEADER
  9
$ACADVER
  1
AC1024
  9
$ACADMAINTVER
 70
     6
  9
$DWGCODEPAGE
  3
ANSI_1252
  9
$INSBASE
 10
0.0
 20
0.0
 30
0.0
  9
$EXTMIN
 10
201.891855508487
 20
124.7160068468624
 30
0.0
  9
$EXTMAX
 10
326.617827324044
 20
242.8048602732915
 30
0.0
  9
$LIMMIN
 10
0.0
 20
0.0
  9
$LIMMAX
 10
12.0
 20
9.0
  9
$ORTHOMODE
 70
     0
  9
$REGENMODE
 70
     1
  9
$FILLMODE
 70
     1
  9
$QTEXTMODE
 70
     0
  9
$MIRRTEXT
 70
     1
  9
$LTSCALE
 40
1.0
  9
$ATTMODE
 70
     1
  9
$TEXTSIZE
 40
0.2
  9
$TRACEWID
 40
0.05
  9
$TEXTSTYLE
  7
Standard
  9
$CLAYER
  8
0
  9
$CELTYPE
  6
ByLayer
  9
$CECOLOR
 62
   256
  9
$CELTSCALE
 40
1.0
  9
$DISPSILH
 70
     0
  9
$DIMSCALE
 40
1.0
  9
$DIMASZ
 40
0.18
  9
$DIMEXO
 40
0.0625
  9
$DIMDLI
 40
0.38
  9
$DIMRND
 40
0.0
  9
$DIMDLE
 40
0.0
  9
$DIMEXE
 40
0.18
  9
$DIMTP
 40
0.0
  9
$DIMTM
 40
0.0
  9
$DIMTXT
 40
0.18
  9
$DIMCEN
 40
0.09
  9
$DIMTSZ
 40
0.0
  9
$DIMTOL
 70
     0
  9
$DIMLIM
 70
     0
  9
$DIMTIH
 70
     1
  9
$DIMTOH
 70
     1
  9
$DIMSE1
 70
     0
  9
$DIMSE2
 70
     0
  9
$DIMTAD
 70
     0
  9
$DIMZIN
 70
     0
  9
$DIMBLK
  1

  9
$DIMASO
 70
     1
  9
$DIMSHO
 70
     1
  9
$DIMPOST
  1

  9
$DIMAPOST
  1

  9
$DIMALT
 70
     0
  9
$DIMALTD
 70
     2
  9
$DIMALTF
 40
25.4
  9
$DIMLFAC
 40
1.0
  9
$DIMTOFL
 70
     0
  9
$DIMTVP
 40
0.0
  9
$DIMTIX
 70
     0
  9
$DIMSOXD
 70
     0
  9
$DIMSAH
 70
     0
  9
$DIMBLK1
  1

  9
$DIMBLK2
  1

  9
$DIMSTYLE
  2
Standard
  9
$DIMCLRD
 70
     0
  9
$DIMCLRE
 70
     0
  9
$DIMCLRT
 70
     0
  9
$DIMTFAC
 40
1.0
  9
$DIMGAP
 40
0.09
  9
$DIMJUST
 70
     0
  9
$DIMSD1
 70
     0
  9
$DIMSD2
 70
     0
  9
$DIMTOLJ
 70
     1
  9
$DIMTZIN
 70
     0
  9
$DIMALTZ
 70
     0
  9
$DIMALTTZ
 70
     0
  9
$DIMUPT
 70
     0
  9
$DIMDEC
 70
     4
  9
$DIMTDEC
 70
     4
  9
$DIMALTU
 70
     2
  9
$DIMALTTD
 70
     2
  9
$DIMTXSTY
  7
Standard
  9
$DIMAUNIT
 70
     0
  9
$DIMADEC
 70
     0
  9
$DIMALTRND
 40
0.0
  9
$DIMAZIN
 70
     0
  9
$DIMDSEP
 70
    46
  9
$DIMATFIT
 70
     3
  9
$DIMFRAC
 70
     0
  9
$DIMLDRBLK
  1

  9
$DIMLUNIT
 70
     2
  9
$DIMLWD
 70
    -2
  9
$DIMLWE
 70
    -2
  9
$DIMTMOVE
 70
     0
  9
$DIMFXL
 40
1.0
  9
$DIMFXLON
 70
     0
  9
$DIMJOGANG
 40
0.78539816339745
  9
$DIMTFILL
 70
     0
  9
$DIMTFILLCLR
 70
     0
  9
$DIMARCSYM
 70
     0
  9
$DIMLTYPE
  6

  9
$DIMLTEX1
  6

  9
$DIMLTEX2
  6

  9
$DIMTXTDIRECTION
 70
     0
  9
$LUNITS
 70
     2
  9
$LUPREC
 70
     4
  9
$SKETCHINC
 40
0.1
  9
$FILLETRAD
 40
0.5
  9
$AUNITS
 70
     0
  9
$AUPREC
 70
     0
  9
$MENU
  1
.
  9
$ELEVATION
 40
0.0
  9
$PELEVATION
 40
0.0
  9
$THICKNESS
 40
0.0
  9
$LIMCHECK
 70
     0
  9
$CHAMFERA
 40
0.5
  9
$CHAMFERB
 40
0.5
  9
$CHAMFERC
 40
1.0
  9
$CHAMFERD
 40
0.0
  9
$SKPOLY
 70
     0
  9
$TDCREATE
 40
2457329.365044734
  9
$TDUCREATE
 40
2457329.323378067
  9
$TDUPDATE
 40
2457329.365045984
  9
$TDUUPDATE
 40
2457329.323379317
  9
$TDINDWG
 40
0.0000000116
  9
$TDUSRTIMER
 40
0.0000000116
  9
$USRTIMER
 70
     1
  9
$ANGBASE
 50
0.0
  9
$ANGDIR
 70
     0
  9
$PDMODE
 70
     0
  9
$PDSIZE
 40
0.0
  9
$PLINEWID
 40
0.0
  9
$SPLFRAME
 70
     0
  9
$SPLINETYPE
 70
     6
  9
$SPLINESEGS
 70
     8
  9
$HANDSEED
  5
1BB
  9
$SURFTAB1
 70
     6
  9
$SURFTAB2
 70
     6
  9
$SURFTYPE
 70
     6
  9
$SURFU
 70
     6
  9
$SURFV
 70
     6
  9
$UCSBASE
  2

  9
$UCSNAME
  2

  9
$UCSORG
 10
0.0
 20
0.0
 30
0.0
  9
$UCSXDIR
 10
1.0
 20
0.0
 30
0.0
  9
$UCSYDIR
 10
0.0
 20
1.0
 30
0.0
  9
$UCSORTHOREF
  2

  9
$UCSORTHOVIEW
 70
     0
  9
$UCSORGTOP
 10
0.0
 20
0.0
 30
0.0
  9
$UCSORGBOTTOM
 10
0.0
 20
0.0
 30
0.0
  9
$UCSORGLEFT
 10
0.0
 20
0.0
 30
0.0
  9
$UCSORGRIGHT
 10
0.0
 20
0.0
 30
0.0
  9
$UCSORGFRONT
 10
0.0
 20
0.0
 30
0.0
  9
$UCSORGBACK
 10
0.0
 20
0.0
 30
0.0
  9
$PUCSBASE
  2

  9
$PUCSNAME
  2

  9
$PUCSORG
 10
0.0
 20
0.0
 30
0.0
  9
$PUCSXDIR
 10
1.0
 20
0.0
 30
0.0
  9
$PUCSYDIR
 10
0.0
 20
1.0
 30
0.0
  9
$PUCSORTHOREF
  2

  9
$PUCSORTHOVIEW
 70
     0
  9
$PUCSORGTOP
 10
0.0
 20
0.0
 30
0.0
  9
$PUCSORGBOTTOM
 10
0.0
 20
0.0
 30
0.0
  9
$PUCSORGLEFT
 10
0.0
 20
0.0
 30
0.0
  9
$PUCSORGRIGHT
 10
0.0
 20
0.0
 30
0.0
  9
$PUCSORGFRONT
 10
0.0
 20
0.0
 30
0.0
  9
$PUCSORGBACK
 10
0.0
 20
0.0
 30
0.0
  9
$USERI1
 70
     0
  9
$USERI2
 70
     0
  9
$USERI3
 70
     0
  9
$USERI4
 70
     0
  9
$USERI5
 70
     0
  9
$USERR1
 40
18.1
  9
$USERR2
 40
0.0
  9
$USERR3
 40
0.0
  9
$USERR4
 40
0.0
  9
$USERR5
 40
0.0
  9
$WORLDVIEW
 70
     1
  9
$SHADEDGE
 70
     3
  9
$SHADEDIF
 70
    70
  9
$TILEMODE
 70
     1
  9
$MAXACTVP
 70
    64
  9
$PINSBASE
 10
0.0
 20
0.0
 30
0.0
  9
$PLIMCHECK
 70
     0
  9
$PEXTMIN
 10
1.00000000000000E+20
 20
1.00000000000000E+20
 30
1.00000000000000E+20
  9
$PEXTMAX
 10
-1.00000000000000E+20
 20
-1.00000000000000E+20
 30
-1.00000000000000E+20
  9
$PLIMMIN
 10
0.0
 20
0.0
  9
$PLIMMAX
 10
12.0
 20
9.0
  9
$UNITMODE
 70
     0
  9
$VISRETAIN
 70
     1
  9
$PLINEGEN
 70
     0
  9
$PSLTSCALE
 70
     1
  9
$TREEDEPTH
 70
  3020
  9
$CMLSTYLE
  2
Standard
  9
$CMLJUST
 70
     0
  9
$CMLSCALE
 40
1.0
  9
$PROXYGRAPHICS
 70
     1
  9
$MEASUREMENT
 70
     1
  9
$CELWEIGHT
370
    -1
  9
$ENDCAPS
280
     0
  9
$JOINSTYLE
280
     0
  9
$LWDISPLAY
290
     0
  9
$INSUNITS
 70
     4
  9
$HYPERLINKBASE
  1

  9
$STYLESHEET
  1

  9
$XEDIT
290
     1
  9
$CEPSNTYPE
380
     0
  9
$PSTYLEMODE
290
     1
  9
$FINGERPRINTGUID
  2
{14C62CFC-F8B5-45C7-98B8-AE17206F53BE}
  9
$VERSIONGUID
  2
{FAEB1C32-E019-11D5-929B-00C0DF256EC4}
  9
$EXTNAMES
290
     1
  9
$PSVPSCALE
 40
0.0
  9
$OLESTARTUP
290
     0
  9
$SORTENTS
280
   127
  9
$INDEXCTL
280
     0
  9
$HIDETEXT
280
     1
  9
$XCLIPFRAME
280
     2
  9
$HALOGAP
280
     0
  9
$OBSCOLOR
 70
   257
  9
$OBSLTYPE
280
     0
  9
$INTERSECTIONDISPLAY
280
     0
  9
$INTERSECTIONCOLOR
 70
   257
  9
$DIMASSOC
280
     2
  9
$PROJECTNAME
  1

  9
$CAMERADISPLAY
290
     0
  9
$LENSLENGTH
 40
50.0
  9
$CAMERAHEIGHT
 40
0.0
  9
$STEPSPERSEC
 40
2.0
  9
$STEPSIZE
 40
6.0
  9
$3DDWFPREC
 40
2.0
  9
$PSOLWIDTH
 40
0.25
  9
$PSOLHEIGHT
 40
4.0
  9
$LOFTANG1
 40
1.5707963267949
  9
$LOFTANG2
 40
1.5707963267949
  9
$LOFTMAG1
 40
0.0
  9
$LOFTMAG2
 40
0.0
  9
$LOFTPARAM
 70
     7
  9
$LOFTNORMALS
280
     1
  9
$LATITUDE
 40
37.795
  9
$LONGITUDE
 40
-122.394
  9
$NORTHDIRECTION
 40
0.0
  9
$TIMEZONE
 70
 -8000
  9
$LIGHTGLYPHDISPLAY
280
     1
  9
$TILEMODELIGHTSYNCH
280
     1
  9
$SOLIDHIST
280
     1
  9
$SHOWHIST
280
     1
  9
$DWFFRAME
280
     2
  9
$DGNFRAME
280
     2
  9
$REALWORLDSCALE
290
     1
  9
$INTERFERECOLOR
 62
   256
  9
$CSHADOW
280
     0
  9
$SHADOWPLANELOCATION
 40
0.0
  0
ENDSEC
  0
SECTION
  2
CLASSES
  0
CLASS
  1
ACDBDICTIONARYWDFLT
  2
AcDbDictionaryWithDefault
  3
ObjectDBX Classes
 90
        0
 91
        4
280
     0
281
     0
  0
CLASS
  1
VISUALSTYLE
  2
AcDbVisualStyle
  3
ObjectDBX Classes
 90
     4095
 91
        4
280
     0
281
     0
  0
CLASS
  1
MATERIAL
  2
AcDbMaterial
  3
ObjectDBX Classes
 90
     1153
 91
        4
280
     0
281
     0
  0
ENDSEC
  0
SECTION
  2
TABLES
  0
TABLE
  2
VPORT
  5
8
330
0
100
AcDbSymbolTable
 70
     1
  0
VPORT
  5
29
330
8
100
AcDbSymbolTableRecord
100
AcDbViewportTableRecord
  2
*Active
 70
     0
 10
0.0
 20
0.0
 11
1.0
 21
1.0
 12
264.2548414162655
 22
183.7604335600769
 13
0.0
 23
0.0
 14
0.5
 24
0.5
 15
0.5
 25
0.5
 16
0.0
 26
0.0
 36
1.0
 17
0.0
 27
0.0
 37
0.0
 40
129.897738769072
 41
1.60267857142857
 42
50.0
 43
0.0
 44
0.0
 50
0.0
 51
0.0
 71
     0
 72
   100
 73
     1
 74
     3
 75
     0
 76
     0
 77
     0
 78
     0
281
     0
 65
     1
110
0.0
120
0.0
130
0.0
111
1.0
121
0.0
131
0.0
112
0.0
122
1.0
132
0.0
 79
     0
146
0.0
 60
     3
 61
     5
292
     1
282
     1
141
0.0
142
0.0
 63
   250
  0
ENDTAB
  0
TABLE
  2
LTYPE
  5
5
330
0
100
AcDbSymbolTable
 70
    10
  0
LTYPE
  5
14
330
5
100
AcDbSymbolTableRecord
100
AcDbLinetypeTableRecord
  2
ByBlock
 70
     0
  3

 72
    65
 73
     0
 40
0.0
  0
LTYPE
  5
15
330
5
100
AcDbSymbolTableRecord
100
AcDbLinetypeTableRecord
  2
ByLayer
 70
     0
  3

 72
    65
 73
     0
 40
0.0
  0
LTYPE
  5
16
330
5
100
AcDbSymbolTableRecord
100
AcDbLinetypeTableRecord
  2
Continuous
 70
     0
  3
Solid line
 72
    65
 73
     0
 40
0.0
  0
LTYPE
  5
3F
330
5
100
AcDbSymbolTableRecord
100
AcDbLinetypeTableRecord
  2
DASHED
 70
     0
  3
Dashed
 72
    65
 73
     2
 40
15.0
 49
7.0
 74
     0
 49
-8.0
 74
     0
  0
LTYPE
  5
40
330
5
100
AcDbSymbolTableRecord
100
AcDbLinetypeTableRecord
  2
DOTTED
 70
     0
  3
Dotted
 72
    65
 73
     2
 40
1.0
 49
0.0
 74
     0
 49
-1.0
 74
     0
  0
LTYPE
  5
41
330
5
100
AcDbSymbolTableRecord
100
AcDbLinetypeTableRecord
  2
DOT_CENTER
 70
     0
  3
Dot_Center
 72
    65
 73
     4
 40
14.0
 49
12.0
 74
     0
 49
-1.0
 74
     0
 49
0.0
 74
     0
 49
-1.0
 74
     0
  0
LTYPE
  5
42
330
5
100
AcDbSymbolTableRecord
100
AcDbLinetypeTableRecord
  2
LONG_DASHED
 70
     0
  3
Long_Dashed
 72
    65
 73
     2
 40
15.0
 49
10.0
 74
     0
 49
-5.0
 74
     0
  0
LTYPE
  5
43
330
5
100
AcDbSymbolTableRecord
100
AcDbLinetypeTableRecord
  2
DASH_CENTER
 70
     0
  3
Dash_Center
 72
    65
 73
     4
 40
14.0
 49
11.0
 74
     0
 49
-1.0
 74
     0
 49
1.0
 74
     0
 49
-1.0
 74
     0
  0
LTYPE
  5
44
330
5
100
AcDbSymbolTableRecord
100
AcDbLinetypeTableRecord
  2
PHANTOM
 70
     0
  3
Phantom
 72
    65
 73
     6
 40
13.0
 49
10.0
 74
     0
 49
-1.0
 74
     0
 49
0.0
 74
     0
 49
-1.0
 74
     0
 49
0.0
 74
     0
 49
-1.0
 74
     0
  0
LTYPE
  5
45
330
5
100
AcDbSymbolTableRecord
100
AcDbLinetypeTableRecord
  2
CENTER_DASH_DASH
 70
     0
  3
Center_Dash_Dash
 72
    65
 73
     6
 40
14.0
 49
9.0
 74
     0
 49
-1.0
 74
     0
 49
1.0
 74
     0
 49
-1.0
 74
     0
 49
1.0
 74
     0
 49
-1.0
 74
     0
  0
LTYPE
  5
46
330
5
100
AcDbSymbolTableRecord
100
AcDbLinetypeTableRecord
  2
CENTER_5
 70
     0
  3
CENTER_5
 72
    65
 73
     4
 40
14.0
 49
8.0
 74
     0
 49
-2.0
 74
     0
 49
2.0
 74
     0
 49
-2.0
 74
     0
  0
LTYPE
  5
47
330
5
100
AcDbSymbolTableRecord
100
AcDbLinetypeTableRecord
  2
CENTER_6
 70
     0
  3
CENTER_6
 72
    65
 73
     4
 40
14.0
 49
8.0
 74
     0
 49
-2.0
 74
     0
 49
2.0
 74
     0
 49
-2.0
 74
     0
  0
ENDTAB
  0
TABLE
  2
LAYER
  5
2
330
0
100
AcDbSymbolTable
 70
     7
  0
LAYER
  5
10
330
2
100
AcDbSymbolTableRecord
100
AcDbLayerTableRecord
  2
0
 70
     0
 62
     7
  6
Continuous
370
    -3
390
F
347
3E
  0
LAYER
  5
48
330
2
100
AcDbSymbolTableRecord
100
AcDbLayerTableRecord
  2
1
 70
     0
 62
     7
  6
Continuous
370
    -3
390
F
347
3E
  0
LAYER
  5
49
330
2
100
AcDbSymbolTableRecord
100
AcDbLayerTableRecord
  2
A_ACHSEN
 70
     0
 62
     7
  6
Continuous
370
    -3
390
F
347
3E
  0
LAYER
  5
4A
330
2
100
AcDbSymbolTableRecord
100
AcDbLayerTableRecord
  2
A_BEMASSUNGEN
 70
     0
 62
     7
  6
Continuous
370
    -3
390
F
347
3E
  0
LAYER
  5
4B
330
2
100
AcDbSymbolTableRecord
100
AcDbLayerTableRecord
  2
A_NOTIZEN_SYMB
 70
     0
 62
     7
  6
Continuous
370
    -3
390
F
347
3E
  0
LAYER
  5
4C
330
2
100
AcDbSymbolTableRecord
100
AcDbLayerTableRecord
  2
A_RUNDUNGEN
 70
     0
 62
     7
  6
Continuous
370
    -3
390
F
347
3E
  0
LAYER
  5
4D
330
2
100
AcDbSymbolTableRecord
100
AcDbLayerTableRecord
  2
DEFAULT_1
 70
     0
 62
     7
  6
Continuous
370
    -3
390
F
347
3E
  0
ENDTAB
  0
TABLE
  2
STYLE
  5
3
330
0
100
AcDbSymbolTable
 70
     2
  0
STYLE
  5
11
330
3
100
AcDbSymbolTableRecord
100
AcDbTextStyleTableRecord
  2
Standard
 70
     0
 40
0.0
 41
1.0
 50
0.0
 71
     0
 42
0.2
  3
txt
  4

  0
STYLE
  5
178
330
3
100
AcDbSymbolTableRecord
100
AcDbTextStyleTableRecord
  2
CONVERTER_11
 70
     0
 40
0.0
 41
0.9
 50
0.0
 71
     0
 42
0.2
  3
txt.shx
  4

  0
ENDTAB
  0
TABLE
  2
VIEW
  5
6
330
0
100
AcDbSymbolTable
 70
     0
  0
ENDTAB
  0
TABLE
  2
UCS
  5
7
330
0
100
AcDbSymbolTable
 70
     0
  0
ENDTAB
  0
TABLE
  2
APPID
  5
9
330
0
100
AcDbSymbolTable
 70
     1
  0
APPID
  5
12
330
9
100
AcDbSymbolTableRecord
100
AcDbRegAppTableRecord
  2
ACAD
 70
     0
  0
ENDTAB
  0
TABLE
  2
DIMSTYLE
  5
A
330
0
100
AcDbSymbolTable
 70
     7
100
AcDbDimStyleTable
  0
DIMSTYLE
105
27
330
A
100
AcDbSymbolTableRecord
100
AcDbDimStyleTableRecord
  2
Standard
 70
     0
178
     0
340
11
  0
DIMSTYLE
105
17C
102
{ACAD_REACTORS
330
17D
102
}
330
A
100
AcDbSymbolTableRecord
100
AcDbDimStyleTableRecord
  2
ME10_DIM_10
 70
     0
 41
3.5
 42
0.0
 44
2.0
 73
     0
 74
     0
 77
     1
 78
     8
140
3.5
147
2.0
172
     1
173
     1
174
     1
175
     1
176
     2
177
     2
271
     3
178
     2
271
     3
340
178
  0
DIMSTYLE
105
187
102
{ACAD_REACTORS
330
188
102
}
330
A
100
AcDbSymbolTableRecord
100
AcDbDimStyleTableRecord
  2
ME10_DIM_11
 70
     0
 41
3.5
 42
0.0
 44
2.0
 73
     0
 74
     0
 77
     1
 78
     8
140
3.5
147
2.0
172
     1
173
     1
174
     1
175
     1
176
     2
177
     2
271
     3
178
     2
271
     3
340
178
  0
DIMSTYLE
105
192
102
{ACAD_REACTORS
330
193
102
}
330
A
100
AcDbSymbolTableRecord
100
AcDbDimStyleTableRecord
  2
ME10_DIM_12
 70
     0
 41
3.5
 42
0.0
 44
2.0
 73
     0
 74
     0
 77
     1
 78
     8
140
3.5
147
2.0
172
     1
173
     1
174
     1
175
     1
176
     2
177
     2
271
     1
178
     2
271
     1
340
178
  0
DIMSTYLE
105
19F
102
{ACAD_REACTORS
330
1A0
102
}
330
A
100
AcDbSymbolTableRecord
100
AcDbDimStyleTableRecord
  2
ME10_DIM_13
 70
     0
 41
3.5
 42
0.0
 44
2.0
 73
     0
 74
     0
 77
     1
 78
     8
140
3.5
147
2.0
172
     1
173
     1
174
     1
175
     1
176
     2
177
     2
271
     1
178
     2
271
     1
340
178
  0
DIMSTYLE
105
1AC
102
{ACAD_REACTORS
330
1AD
102
}
330
A
100
AcDbSymbolTableRecord
100
AcDbDimStyleTableRecord
  2
ME10_DIM_14
 70
     0
 41
3.5
 42
0.0
 44
2.0
 73
     0
 74
     0
 77
     1
 78
     8
140
3.5
147
2.0
172
     1
173
     1
174
     1
175
     1
176
     2
177
     2
271
     3
178
     2
271
     3
340
178
  0
DIMSTYLE
105
1B7
102
{ACAD_REACTORS
330
1B8
102
}
330
A
100
AcDbSymbolTableRecord
100
AcDbDimStyleTableRecord
  2
ME10_DIM_15
 70
     0
 41
3.5
 42
0.0
 44
2.0
 73
     0
 74
     0
 77
     1
 78
     8
140
3.5
147
2.0
172
     1
173
     1
174
     1
175
     1
176
     2
177
     2
271
     1
178
     2
271
     1
340
178
  0
ENDTAB
  0
TABLE
  2
BLOCK_RECORD
  5
1
330
0
100
AcDbSymbolTable
 70
     7
  0
BLOCK_RECORD
  5
1F
330
1
100
AcDbSymbolTableRecord
100
AcDbBlockTableRecord
  2
*Model_Space
340
22
 70
     0
280
     1
281
     0
  0
BLOCK_RECORD
  5
1B
330
1
100
AcDbSymbolTableRecord
100
AcDbBlockTableRecord
  2
*Paper_Space
340
1E
 70
     0
280
     1
281
     0
  0
BLOCK_RECORD
  5
23
330
1
100
AcDbSymbolTableRecord
100
AcDbBlockTableRecord
  2
*Paper_Space0
340
26
 70
     0
280
     1
281
     0
  0
BLOCK_RECORD
  5
172
330
1
100
AcDbSymbolTableRecord
100
AcDbBlockTableRecord
  2
*D1
340
0
 70
     0
280
     1
281
     0
  0
BLOCK_RECORD
  5
17E
330
1
100
AcDbSymbolTableRecord
100
AcDbBlockTableRecord
  2
*D2
340
0
 70
     0
280
     1
281
     0
  0
BLOCK_RECORD
  5
189
330
1
100
AcDbSymbolTableRecord
100
AcDbBlockTableRecord
  2
*D3
340
0
 70
     0
280
     1
281
     0
  0
BLOCK_RECORD
  5
194
330
1
100
AcDbSymbolTableRecord
100
AcDbBlockTableRecord
  2
*D4
340
0
 70
     0
280
     1
281
     0
  0
BLOCK_RECORD
  5
1A1
330
1
100
AcDbSymbolTableRecord
100
AcDbBlockTableRecord
  2
*D5
340
0
 70
     0
280
     1
281
     0
  0
BLOCK_RECORD
  5
1AE
330
1
100
AcDbSymbolTableRecord
100
AcDbBlockTableRecord
  2
*D6
340
0
 70
     0
280
     1
281
     0
  0
ENDTAB
  0
ENDSEC
  0
SECTION
  2
BLOCKS
  0
BLOCK
  5
20
330
1F
100
AcDbEntity
  8
0
100
AcDbBlockBegin
  2
*Model_Space
 70
     0
 10
0.0
 20
0.0
 30
0.0
  3
*Model_Space
  1

  0
ENDBLK
  5
21
330
1F
100
AcDbEntity
  8
0
100
AcDbBlockEnd
  0
BLOCK
  5
1C
330
1B
100
AcDbEntity
 67
     1
  8
0
100
AcDbBlockBegin
  2
*Paper_Space
 70
     0
 10
0.0
 20
0.0
 30
0.0
  3
*Paper_Space
  1

  0
ENDBLK
  5
1D
330
1B
100
AcDbEntity
 67
     1
  8
0
100
AcDbBlockEnd
  0
BLOCK
  5
24
330
23
100
AcDbEntity
  8
0
100
AcDbBlockBegin
  2
*Paper_Space0
 70
     0
 10
0.0
 20
0.0
 30
0.0
  3
*Paper_Space0
  1

  0
ENDBLK
  5
25
330
23
100
AcDbEntity
  8
0
100
AcDbBlockEnd
  0
BLOCK
  5
17A
330
172
100
AcDbEntity
  8
0
100
AcDbBlockBegin
  2
*D1
 70
     1
 10
0.0
 20
0.0
 30
0.0
  3
*D1
  1

  0
LINE
  5
173
330
172
100
AcDbEntity
  8
1
  6
Continuous
 62
     2
100
AcDbLine
 10
324.617827324044
 20
186.8257038647004
 30
0.0
 11
324.617827324044
 21
146.8257038647004
 31
0.0
  0
LINE
  5
174
330
172
100
AcDbEntity
  8
1
  6
Continuous
 62
     2
100
AcDbLine
 10
304.9299798879074
 20
146.8257038647004
 30
0.0
 11
326.617827324044
 21
146.8257038647004
 31
0.0
  0
LINE
  5
175
330
172
100
AcDbEntity
  8
1
  6
Continuous
 62
     2
100
AcDbLine
 10
304.9299798879074
 20
186.8257038647004
 30
0.0
 11
326.617827324044
 21
186.8257038647004
 31
0.0
  0
SOLID
  5
176
330
172
100
AcDbEntity
  8
1
 62
     2
100
AcDbTrace
 10
325.0786110655999
 20
183.3257038647004
 30
0.0
 11
324.1570435824881
 21
183.3257038647004
 31
0.0
 12
324.617827324044
 22
186.8257038647004
 32
0.0
 13
324.617827324044
 23
186.8257038647004
 33
0.0
  0
SOLID
  5
177
330
172
100
AcDbEntity
  8
1
 62
     2
100
AcDbTrace
 10
324.1570435824881
 20
150.3257038647004
 30
0.0
 11
325.0786110655999
 21
150.3257038647004
 31
0.0
 12
324.617827324044
 22
146.8257038647004
 32
0.0
 13
324.617827324044
 23
146.8257038647004
 33
0.0
  0
MTEXT
  5
179
330
172
100
AcDbEntity
  8
1
 62
     2
100
AcDbMText
 10
322.617827324044
 20
164.513607091336
 30
0.0
 40
3.5
 41
0.0
 46
0.0
 71
     7
 72
     1
  1
40
  7
CONVERTER_11
 11
0.0
 21
1.0
 31
0.0
 73
     1
 44
0.60024009603842
  0
ENDBLK
  5
17B
330
172
100
AcDbEntity
  8
0
100
AcDbBlockEnd
  0
BLOCK
  5
185
330
17E
100
AcDbEntity
  8
0
100
AcDbBlockBegin
  2
*D2
 70
     1
 10
0.0
 20
0.0
 30
0.0
  3
*D2
  1

  0
LINE
  5
17F
330
17E
100
AcDbEntity
  8
1
  6
Continuous
 62
     2
100
AcDbLine
 10
315.0292230610113
 20
181.3319040373004
 30
0.0
 11
315.0292230610113
 21
152.3319062165004
 31
0.0
  0
LINE
  5
180
330
17E
100
AcDbEntity
  8
1
  6
Continuous
 62
     2
100
AcDbLine
 10
288.9433558024073
 20
181.3319040373004
 30
0.0
 11
317.0292230610113
 21
181.3319040373004
 31
0.0
  0
LINE
  5
181
330
17E
100
AcDbEntity
  8
1
  6
Continuous
 62
     2
100
AcDbLine
 10
288.9321132907073
 20
152.3319062165004
 30
0.0
 11
317.0292230610113
 21
152.3319062165004
 31
0.0
  0
SOLID
  5
182
330
17E
100
AcDbEntity
  8
1
 62
     2
100
AcDbTrace
 10
315.4900068025672
 20
177.8319040373004
 30
0.0
 11
314.5684393194554
 21
177.8319040373004
 31
0.0
 12
315.0292230610113
 22
181.3319040373004
 32
0.0
 13
315.0292230610113
 23
181.3319040373004
 33
0.0
  0
SOLID
  5
183
330
17E
100
AcDbEntity
  8
1
 62
     2
100
AcDbTrace
 10
314.5684393194554
 20
155.8319062165004
 30
0.0
 11
315.4900068025672
 21
155.8319062165004
 31
0.0
 12
315.0292230610113
 22
152.3319062165004
 32
0.0
 13
315.0292230610113
 23
152.3319062165004
 33
0.0
  0
MTEXT
  5
184
330
17E
100
AcDbEntity
  8
1
 62
     2
100
AcDbMText
 10
313.0292230610113
 20
167.1893902171034
 30
0.0
 40
3.5
 41
0.0
 46
0.0
 71
     7
 72
     1
  1
29
  7
CONVERTER_11
 11
0.0
 21
1.0
 31
0.0
 73
     1
 44
0.60024009603842
  0
ENDBLK
  5
186
330
17E
100
AcDbEntity
  8
0
100
AcDbBlockEnd
  0
BLOCK
  5
190
330
189
100
AcDbEntity
  8
0
100
AcDbBlockBegin
  2
*D3
 70
     1
 10
0.0
 20
0.0
 30
0.0
  3
*D3
  1

  0
LINE
  5
18A
330
189
100
AcDbEntity
  8
1
  6
Continuous
 62
     2
100
AcDbLine
 10
254.9317356504066
 20
126.7160068468624
 30
0.0
 11
288.9321132907073
 21
126.7160068468624
 31
0.0
  0
LINE
  5
18B
330
189
100
AcDbEntity
  8
1
  6
Continuous
 62
     2
100
AcDbLine
 10
254.9317356504066
 20
146.8257038647004
 30
0.0
 11
254.9317356504066
 21
124.7160068468624
 31
0.0
  0
LINE
  5
18C
330
189
100
AcDbEntity
  8
1
  6
Continuous
 62
     2
100
AcDbLine
 10
288.9321132907073
 20
152.3319062165004
 30
0.0
 11
288.9321132907073
 21
124.7160068468624
 31
0.0
  0
SOLID
  5
18D
330
189
100
AcDbEntity
  8
1
 62
     2
100
AcDbTrace
 10
258.4317356504066
 20
127.1767905884183
 30
0.0
 11
258.4317356504066
 21
126.2552231053065
 31
0.0
 12
254.9317356504066
 22
126.7160068468624
 32
0.0
 13
254.9317356504066
 23
126.7160068468624
 33
0.0
  0
SOLID
  5
18E
330
189
100
AcDbEntity
  8
1
 62
     2
100
AcDbTrace
 10
285.4321132907073
 20
126.2552231053065
 30
0.0
 11
285.4321132907073
 21
127.1767905884183
 31
0.0
 12
288.9321132907073
 22
126.7160068468624
 32
0.0
 13
288.9321132907073
 23
126.7160068468624
 33
0.0
  0
MTEXT
  5
18F
330
189
100
AcDbEntity
  8
1
 62
     2
100
AcDbMText
 10
268.3859493044599
 20
128.7160068468624
 30
0.0
 40
3.5
 41
0.0
 46
0.0
 71
     7
 72
     1
  1
34
  7
CONVERTER_11
 11
0.9999999999970619
 21
2.424068405545306E-6
 31
0.0
 73
     1
 44
0.60024009603842
  0
ENDBLK
  5
191
330
189
100
AcDbEntity
  8
0
100
AcDbBlockEnd
  0
BLOCK
  5
19D
330
194
100
AcDbEntity
  8
0
100
AcDbBlockBegin
  2
*D4
 70
     1
 10
0.0
 20
0.0
 30
0.0
  3
*D4
  1

  0
LINE
  5
195
330
194
100
AcDbEntity
  8
1
  6
Continuous
 62
     2
100
AcDbLine
 10
315.0292230610113
 20
137.7198373636454
 30
0.0
 11
315.0292230610113
 21
146.8257038647004
 31
0.0
  0
LINE
  5
196
330
194
100
AcDbEntity
  8
1
  6
Continuous
 62
     2
100
AcDbLine
 10
315.0292230610113
 20
146.8257038647004
 30
0.0
 11
315.0292230610113
 21
152.3319062165004
 31
0.0
  0
LINE
  5
197
330
194
100
AcDbEntity
  8
1
  6
Continuous
 62
     2
100
AcDbLine
 10
315.0292230610113
 20
152.3319062165004
 30
0.0
 11
315.0292230610113
 21
159.3319062165004
 31
0.0
  0
LINE
  5
198
330
194
100
AcDbEntity
  8
1
  6
Continuous
 62
     2
100
AcDbLine
 10
304.9299798879073
 20
146.8257038647004
 30
0.0
 11
317.0292230610113
 21
146.8257038647004
 31
0.0
  0
LINE
  5
199
330
194
100
AcDbEntity
  8
1
  6
Continuous
 62
     2
100
AcDbLine
 10
288.9321132907073
 20
152.3319062165004
 30
0.0
 11
317.0292230610113
 21
152.3319062165004
 31
0.0
  0
SOLID
  5
19A
330
194
100
AcDbEntity
  8
1
 62
     2
100
AcDbTrace
 10
315.4900068025672
 20
143.3257038647004
 30
0.0
 11
314.5684393194554
 21
143.3257038647004
 31
0.0
 12
315.0292230610113
 22
146.8257038647004
 32
0.0
 13
315.0292230610113
 23
146.8257038647004
 33
0.0
  0
SOLID
  5
19B
330
194
100
AcDbEntity
  8
1
 62
     2
100
AcDbTrace
 10
314.5684393194554
 20
155.8319062165004
 30
0.0
 11
315.4900068025672
 21
155.8319062165004
 31
0.0
 12
315.0292230610113
 22
152.3319062165004
 32
0.0
 13
315.0292230610113
 23
152.3319062165004
 33
0.0
  0
MTEXT
  5
19C
330
194
100
AcDbEntity
  8
1
 62
     2
100
AcDbMText
 10
313.0292230610113
 20
137.7198373636454
 30
0.0
 40
3.5
 41
0.0
 46
0.0
 71
     7
 72
     1
  1
5.5
  7
CONVERTER_11
 11
0.0
 21
1.0
 31
0.0
 73
     1
 44
0.60024009603842
  0
ENDBLK
  5
19E
330
194
100
AcDbEntity
  8
0
100
AcDbBlockEnd
  0
BLOCK
  5
1AA
330
1A1
100
AcDbEntity
  8
0
100
AcDbBlockBegin
  2
*D5
 70
     1
 10
0.0
 20
0.0
 30
0.0
  3
*D5
  1

  0
LINE
  5
1A2
330
1A1
100
AcDbEntity
  8
1
  6
Continuous
 62
     2
100
AcDbLine
 10
244.9317363032982
 20
136.7645100479974
 30
0.0
 11
251.9317363032982
 21
136.7645100479974
 31
0.0
  0
LINE
  5
1A3
330
1A1
100
AcDbEntity
  8
1
  6
Continuous
 62
     2
100
AcDbLine
 10
251.9317363032982
 20
136.7645100479974
 30
0.0
 11
254.9317356504066
 21
136.7645100479974
 31
0.0
  0
LINE
  5
1A4
330
1A1
100
AcDbEntity
  8
1
  6
Continuous
 62
     2
100
AcDbLine
 10
254.9317356504066
 20
136.7645100479974
 30
0.0
 11
261.9317356504066
 21
136.7645100479974
 31
0.0
  0
LINE
  5
1A5
330
1A1
100
AcDbEntity
  8
1
  6
Continuous
 62
     2
100
AcDbLine
 10
251.9317363032981
 20
146.8257038647004
 30
0.0
 11
251.9317363032981
 21
134.7645100479974
 31
0.0
  0
LINE
  5
1A6
330
1A1
100
AcDbEntity
  8
1
  6
Continuous
 62
     2
100
AcDbLine
 10
254.9317356504066
 20
146.8257038647004
 30
0.0
 11
254.9317356504066
 21
134.7645100479974
 31
0.0
  0
SOLID
  5
1A7
330
1A1
100
AcDbEntity
  8
1
 62
     2
100
AcDbTrace
 10
248.4317363032982
 20
136.3037263064415
 30
0.0
 11
248.4317363032982
 21
137.2252937895533
 31
0.0
 12
251.9317363032982
 22
136.7645100479974
 32
0.0
 13
251.9317363032982
 23
136.7645100479974
 33
0.0
  0
SOLID
  5
1A8
330
1A1
100
AcDbEntity
  8
1
 62
     2
100
AcDbTrace
 10
258.4317356504066
 20
137.2252937895533
 30
0.0
 11
258.4317356504066
 21
136.3037263064415
 31
0.0
 12
254.9317356504066
 22
136.7645100479974
 32
0.0
 13
254.9317356504066
 23
136.7645100479974
 33
0.0
  0
MTEXT
  5
1A9
330
1A1
100
AcDbEntity
  8
1
 62
     2
100
AcDbMText
 10
247.4880946483072
 20
138.7645100479974
 30
0.0
 40
3.5
 41
0.0
 46
0.0
 71
     7
 72
     1
  1
3
  7
CONVERTER_11
 11
0.9999999999970619
 21
2.424068405545306E-6
 31
0.0
 73
     1
 44
0.60024009603842
  0
ENDBLK
  5
1AB
330
1A1
100
AcDbEntity
  8
0
100
AcDbBlockEnd
  0
BLOCK
  5
1B5
330
1AE
100
AcDbEntity
  8
0
100
AcDbBlockBegin
  2
*D6
 70
     1
 10
0.0
 20
0.0
 30
0.0
  3
*D6
  1

  0
LINE
  5
1AF
330
1AE
100
AcDbEntity
  8
1
  6
Continuous
 62
     2
100
AcDbLine
 10
251.9317363032982
 20
126.7160068468624
 30
0.0
 11
219.8933526642074
 21
126.7160068468624
 31
0.0
  0
LINE
  5
1B0
330
1AE
100
AcDbEntity
  8
1
  6
Continuous
 62
     2
100
AcDbLine
 10
251.9317363032981
 20
146.8257038647004
 30
0.0
 11
251.9317363032981
 21
124.7160068468624
 31
0.0
  0
LINE
  5
1B1
330
1AE
100
AcDbEntity
  8
1
  6
Continuous
 62
     2
100
AcDbLine
 10
219.8933526642074
 20
152.2462486079004
 30
0.0
 11
219.8933526642074
 21
124.7160068468624
 31
0.0
  0
SOLID
  5
1B2
330
1AE
100
AcDbEntity
  8
1
 62
     2
100
AcDbTrace
 10
248.4317363032982
 20
126.2552231053065
 30
0.0
 11
248.4317363032982
 21
127.1767905884183
 31
0.0
 12
251.9317363032982
 22
126.7160068468624
 32
0.0
 13
251.9317363032982
 23
126.7160068468624
 33
0.0
  0
SOLID
  5
1B3
330
1AE
100
AcDbEntity
  8
1
 62
     2
100
AcDbTrace
 10
223.3933526642074
 20
127.1767905884183
 30
0.0
 11
223.3933526642074
 21
126.2552231053065
 31
0.0
 12
219.8933526642074
 22
126.7160068468624
 32
0.0
 13
219.8933526642074
 23
126.7160068468624
 33
0.0
  0
MTEXT
  5
1B4
330
1AE
100
AcDbEntity
  8
1
 62
     2
100
AcDbMText
 10
234.7660553231268
 20
128.7160068468624
 30
0.0
 40
3.5
 41
0.0
 46
0.0
 71
     7
 72
     1
  1
32
  7
CONVERTER_11
 11
0.9999999999970619
 21
2.424068405545306E-6
 31
0.0
 73
     1
 44
0.60024009603842
  0
ENDBLK
  5
1B6
330
1AE
100
AcDbEntity
  8
0
100
AcDbBlockEnd
  0
ENDSEC
  0
SECTION
  2
ENTITIES
  0
POINT
  5
4E
330
1F
100
AcDbEntity
  8
1
 62
     3
 60
     1
100
AcDbPoint
 10
264.891855508487
 20
191.8048602732915
 30
0.0
  0
POINT
  5
4F
330
1F
100
AcDbEntity
  8
1
 62
     3
 60
     1
100
AcDbPoint
 10
251.891855508487
 20
191.8048602732915
 30
0.0
  0
POINT
  5
50
330
1F
100
AcDbEntity
  8
1
 62
     3
 60
     1
100
AcDbPoint
 10
251.891855508487
 20
191.695064289712
 30
0.0
  0
POINT
  5
51
330
1F
100
AcDbEntity
  8
A_BEMASSUNGEN
 62
     7
100
AcDbPoint
 10
218.891855508487
 20
152.3048602732915
 30
0.0
  0
POINT
  5
52
330
1F
100
AcDbEntity
  8
A_BEMASSUNGEN
 62
     7
100
AcDbPoint
 10
218.891855508487
 20
152.3048602732915
 30
0.0
  0
POINT
  5
53
330
1F
100
AcDbEntity
  8
A_BEMASSUNGEN
 62
     7
100
AcDbPoint
 10
218.891855508487
 20
152.3048602732915
 30
0.0
  0
POINT
  5
54
330
1F
100
AcDbEntity
  8
A_BEMASSUNGEN
 62
     7
100
AcDbPoint
 10
201.891855508487
 20
146.8257038647004
 30
0.0
  0
POINT
  5
55
330
1F
100
AcDbEntity
  8
A_BEMASSUNGEN
 62
     7
100
AcDbPoint
 10
221.9933526642074
 20
181.2462486079004
 30
0.0
  0
POINT
  5
56
330
1F
100
AcDbEntity
  8
A_BEMASSUNGEN
 62
     7
100
AcDbPoint
 10
219.8933526642073
 20
152.2462486079004
 30
0.0
  0
POINT
  5
57
330
1F
100
AcDbEntity
  8
A_BEMASSUNGEN
 62
     7
100
AcDbPoint
 10
219.8933526642073
 20
153.2462486079004
 30
0.0
  0
POINT
  5
58
330
1F
100
AcDbEntity
  8
A_BEMASSUNGEN
 62
     7
100
AcDbPoint
 10
254.9317356504067
 20
146.8257038647004
 30
0.0
  0
POINT
  5
59
330
1F
100
AcDbEntity
  8
A_BEMASSUNGEN
 62
     7
100
AcDbPoint
 10
288.9325203471074
 20
153.3819061376004
 30
0.0
  0
POINT
  5
5A
330
1F
100
AcDbEntity
  8
A_BEMASSUNGEN
 62
     7
100
AcDbPoint
 10
254.9317356504067
 20
146.8257038647004
 30
0.0
  0
POINT
  5
5B
330
1F
100
AcDbEntity
  8
A_BEMASSUNGEN
 62
     7
100
AcDbPoint
 10
288.9321132907073
 20
152.3319062165004
 30
0.0
  0
POINT
  5
5C
330
1F
100
AcDbEntity
  8
A_BEMASSUNGEN
 62
     7
100
AcDbPoint
 10
304.9299798879074
 20
146.8257038647004
 30
0.0
  0
POINT
  5
5D
330
1F
100
AcDbEntity
  8
A_BEMASSUNGEN
 62
     7
100
AcDbPoint
 10
288.9321132907073
 20
152.3319062165004
 30
0.0
  0
POINT
  5
5E
330
1F
100
AcDbEntity
  8
A_BEMASSUNGEN
 62
     7
100
AcDbPoint
 10
288.9433558024074
 20
181.3319040373004
 30
0.0
  0
LINE
  5
5F
330
1F
100
AcDbEntity
  8
0
  6
Continuous
 62
     7
100
AcDbLine
 10
264.891855508487
 20
191.8048602732915
 30
0.0
 11
264.891855508487
 21
242.8048602732915
 31
0.0
  0
LINE
  5
60
330
1F
100
AcDbEntity
  8
1
  6
Continuous
 62
     7
100
AcDbLine
 10
251.891855508487
 20
191.8048602732915
 30
0.0
 11
264.891855508487
 21
191.8048602732915
 31
0.0
  0
LINE
  5
61
330
1F
100
AcDbEntity
  8
1
  6
Continuous
 62
     7
100
AcDbLine
 10
251.891855508487
 20
191.695064289712
 30
0.0
 11
251.891855508487
 21
191.8048602732915
 31
0.0
  0
LINE
  5
62
330
1F
100
AcDbEntity
  8
1
  6
Continuous
 62
     7
100
AcDbLine
 10
251.891855508487
 20
189.8048602732915
 30
0.0
 11
251.891855508487
 21
191.695064289712
 31
0.0
  0
LINE
  5
63
330
1F
100
AcDbEntity
  8
0
  6
DASHED
 62
     2
100
AcDbLine
 10
238.191855508487
 20
197.0548602732915
 30
0.0
 11
240.441855508487
 21
199.3048602732915
 31
0.0
  0
LINE
  5
64
330
1F
100
AcDbEntity
  8
0
  6
DASHED
 62
     2
100
AcDbLine
 10
238.191855508487
 20
197.0548602732915
 30
0.0
 11
238.191855508487
 21
203.0548602732915
 31
0.0
  0
LINE
  5
65
330
1F
100
AcDbEntity
  8
0
  6
DASHED
 62
     2
100
AcDbLine
 10
238.191855508487
 20
207.5548602732915
 30
0.0
 11
240.441855508487
 21
205.3048602732915
 31
0.0
  0
LINE
  5
66
330
1F
100
AcDbEntity
  8
0
  6
DASHED
 62
     2
100
AcDbLine
 10
237.891855508487
 20
197.0548602732915
 30
0.0
 11
238.191855508487
 21
197.0548602732915
 31
0.0
  0
LINE
  5
67
330
1F
100
AcDbEntity
  8
0
  6
DASHED
 62
     2
100
AcDbLine
 10
241.891855508487
 20
199.3048602732915
 30
0.0
 11
240.441855508487
 21
199.3048602732915
 31
0.0
  0
LINE
  5
68
330
1F
100
AcDbEntity
  8
0
  6
DASHED
 62
     2
100
AcDbLine
 10
241.891855508487
 20
205.3048602732915
 30
0.0
 11
240.441855508487
 21
205.3048602732915
 31
0.0
  0
LINE
  5
69
330
1F
100
AcDbEntity
  8
0
  6
DASHED
 62
     2
100
AcDbLine
 10
237.891855508487
 20
207.5548602732915
 30
0.0
 11
238.191855508487
 21
207.5548602732915
 31
0.0
  0
LINE
  5
6A
330
1F
100
AcDbEntity
  8
0
  6
Continuous
 62
     7
100
AcDbLine
 10
264.891855508487
 20
242.8048602732915
 30
0.0
 11
241.891855508487
 21
242.8048602732915
 31
0.0
  0
LINE
  5
6B
330
1F
100
AcDbEntity
  8
0
  6
Continuous
 62
     7
100
AcDbLine
 10
237.891855508487
 20
222.3048602732915
 30
0.0
 11
241.891855508487
 21
222.3048602732915
 31
0.0
  0
LINE
  5
6C
330
1F
100
AcDbEntity
  8
A_ACHSEN
  6
DOT_CENTER
 62
     2
100
AcDbLine
 10
234.891855508487
 20
215.3048602732915
 30
0.0
 11
244.891855508487
 21
215.3048602732915
 31
0.0
  0
LINE
  5
6D
330
1F
100
AcDbEntity
  8
0
  6
DASHED
 62
     2
100
AcDbLine
 10
237.891855508487
 20
213.5548602732915
 30
0.0
 11
238.191855508487
 21
213.5548602732915
 31
0.0
  0
LINE
  5
6E
330
1F
100
AcDbEntity
  8
0
  6
DASHED
 62
     2
100
AcDbLine
 10
241.891855508487
 20
211.3048602732915
 30
0.0
 11
240.441855508487
 21
211.3048602732915
 31
0.0
  0
LINE
  5
6F
330
1F
100
AcDbEntity
  8
A_ACHSEN
  6
DOT_CENTER
 62
     2
100
AcDbLine
 10
234.891855508487
 20
208.3048602732915
 30
0.0
 11
244.891855508487
 21
208.3048602732915
 31
0.0
  0
LINE
  5
70
330
1F
100
AcDbEntity
  8
0
  6
DASHED
 62
     2
100
AcDbLine
 10
241.891855508487
 20
205.3048602732915
 30
0.0
 11
240.441855508487
 21
205.3048602732915
 31
0.0
  0
LINE
  5
71
330
1F
100
AcDbEntity
  8
0
  6
DASHED
 62
     2
100
AcDbLine
 10
237.891855508487
 20
203.0548602732915
 30
0.0
 11
238.191855508487
 21
203.0548602732915
 31
0.0
  0
LINE
  5
72
330
1F
100
AcDbEntity
  8
A_ACHSEN
  6
DOT_CENTER
 62
     2
100
AcDbLine
 10
234.891855508487
 20
202.3048602732915
 30
0.0
 11
244.891855508487
 21
202.3048602732915
 31
0.0
  0
LINE
  5
73
330
1F
100
AcDbEntity
  8
0
  6
DASHED
 62
     2
100
AcDbLine
 10
238.191855508487
 20
213.5548602732915
 30
0.0
 11
240.441855508487
 21
211.3048602732915
 31
0.0
  0
LINE
  5
74
330
1F
100
AcDbEntity
  8
0
  6
Continuous
 62
     7
100
AcDbLine
 10
252.891855508487
 20
190.8048602732915
 30
0.0
 11
263.891855508487
 21
190.8048602732915
 31
0.0
  0
LINE
  5
75
330
1F
100
AcDbEntity
  8
0
  6
Continuous
 62
     7
100
AcDbLine
 10
255.306069070887
 20
187.8048602732915
 30
0.0
 11
252.891855508487
 21
190.2190738356915
 31
0.0
  0
LINE
  5
76
330
1F
100
AcDbEntity
  8
0
  6
Continuous
 62
     7
100
AcDbLine
 10
251.891855508487
 20
189.8048602732915
 30
0.0
 11
254.891855508487
 21
186.8257252493774
 31
0.0
  0
LINE
  5
77
330
1F
100
AcDbEntity
  8
0
  6
Continuous
 62
     7
100
AcDbLine
 10
261.477641946087
 20
187.8048602732915
 30
0.0
 11
255.306069070887
 21
187.8048602732915
 31
0.0
  0
LINE
  5
78
330
1F
100
AcDbEntity
  8
0
  6
Continuous
 62
     7
100
AcDbLine
 10
254.891855508487
 20
186.8257252493774
 30
0.0
 11
261.891855508487
 21
186.8257252493774
 31
0.0
  0
LINE
  5
79
330
1F
100
AcDbEntity
  8
0
  6
Continuous
 62
     7
100
AcDbLine
 10
264.891855508487
 20
189.8048602732915
 30
0.0
 11
264.891855508487
 21
191.8048602732915
 31
0.0
  0
LINE
  5
7A
330
1F
100
AcDbEntity
  8
0
  6
Continuous
 62
     7
100
AcDbLine
 10
263.891855508487
 20
190.8048602732915
 30
0.0
 11
263.891855508487
 21
190.2190738356915
 31
0.0
  0
LINE
  5
7B
330
1F
100
AcDbEntity
  8
0
  6
Continuous
 62
     7
100
AcDbLine
 10
261.891855508487
 20
186.8257252493774
 30
0.0
 11
264.891855508487
 21
189.8048602732915
 31
0.0
  0
LINE
  5
7C
330
1F
100
AcDbEntity
  8
0
  6
Continuous
 62
     7
100
AcDbLine
 10
263.891855508487
 20
190.2190738356915
 30
0.0
 11
261.477641946087
 21
187.8048602732915
 31
0.0
  0
LINE
  5
7D
330
1F
100
AcDbEntity
  8
0
  6
Continuous
 62
     7
100
AcDbLine
 10
252.891855508487
 20
190.2190738356915
 30
0.0
 11
252.891855508487
 21
190.8048602732915
 31
0.0
  0
LINE
  5
7E
330
1F
100
AcDbEntity
  8
0
  6
Continuous
 62
     7
100
AcDbLine
 10
251.891855508487
 20
178.5455999903915
 30
0.0
 11
251.891855508487
 21
189.8048602732915
 31
0.0
  0
LINE
  5
7F
330
1F
100
AcDbEntity
  8
0
  6
Continuous
 62
     7
100
AcDbLine
 10
201.891855508487
 20
166.8048602732915
 30
0.0
 11
219.891855508487
 21
166.8048602732915
 31
0.0
  0
LINE
  5
80
330
1F
100
AcDbEntity
  8
0
  6
Continuous
 62
     7
100
AcDbLine
 10
241.891855508487
 20
242.8048602732915
 30
0.0
 11
241.891855508487
 21
181.0785001801915
 31
0.0
  0
LINE
  5
81
330
1F
100
AcDbEntity
  8
0
  6
DASHED
 62
     2
100
AcDbLine
 10
238.191855508487
 20
203.0548602732915
 30
0.0
 11
238.191855508487
 21
213.5548602732915
 31
0.0
  0
LINE
  5
82
330
1F
100
AcDbEntity
  8
0
  6
Continuous
 62
     7
100
AcDbLine
 10
237.891855508487
 20
222.3048602732915
 30
0.0
 11
237.891855508487
 21
181.0435927089915
 31
0.0
  0
LINE
  5
83
330
1F
100
AcDbEntity
  8
0
  6
Continuous
 62
     7
100
AcDbLine
 10
218.891855508487
 20
152.3048602732915
 30
0.0
 11
251.891855508487
 21
152.3048602732915
 31
0.0
  0
LINE
  5
84
330
1F
100
AcDbEntity
  8
0
  6
DASHED
 62
     2
100
AcDbLine
 10
238.191855508487
 20
203.0548602732915
 30
0.0
 11
240.441855508487
 21
205.3048602732915
 31
0.0
  0
LINE
  5
85
330
1F
100
AcDbEntity
  8
0
  6
Continuous
 62
     7
100
AcDbLine
 10
201.891855508487
 20
146.8257038647004
 30
0.0
 11
251.9317363032981
 21
146.8257038647004
 31
0.0
  0
LINE
  5
86
330
1F
100
AcDbEntity
  8
0
  6
Continuous
 62
     7
100
AcDbLine
 10
218.891855508487
 20
152.3048602732915
 30
0.0
 11
218.891855508487
 21
166.8048602732915
 31
0.0
  0
LINE
  5
87
330
1F
100
AcDbEntity
  8
0
  6
Continuous
 62
     7
100
AcDbLine
 10
201.891855508487
 20
166.8048602732915
 30
0.0
 11
201.891855508487
 21
146.8257038647004
 31
0.0
  0
LINE
  5
88
330
1F
100
AcDbEntity
  8
A_RUNDUNGEN
  6
Continuous
 62
     7
100
AcDbLine
 10
283.9643283086325
 20
175.4513096679204
 30
0.0
 11
283.9652162438074
 21
177.5930359891004
 31
0.0
  0
LINE
  5
89
330
1F
100
AcDbEntity
  8
0
  6
Continuous
 62
     7
100
AcDbLine
 10
304.9299798879074
 20
146.8257038647004
 30
0.0
 11
304.9299798879074
 21
186.8257038647004
 31
0.0
  0
LINE
  5
8A
330
1F
100
AcDbEntity
  8
0
  6
Continuous
 62
     7
100
AcDbLine
 10
288.9433558024074
 20
181.3319040373004
 30
0.0
 11
288.9321132907073
 21
152.3319062165004
 31
0.0
  0
LINE
  5
8B
330
1F
100
AcDbEntity
  8
A_RUNDUNGEN
  6
Continuous
 62
     7
100
AcDbLine
 10
283.9642849640073
 20
175.3467611298004
 30
0.0
 11
283.9643283086325
 21
175.4513096679204
 31
0.0
  0
LINE
  5
8C
330
1F
100
AcDbEntity
  8
0
  6
Continuous
 62
     7
100
AcDbLine
 10
283.9642849640073
 20
175.3467611298004
 30
0.0
 11
283.9636795901348
 21
173.8865810380133
 31
0.0
  0
LINE
  5
8D
330
1F
100
AcDbEntity
  8
0
  6
Continuous
 62
     7
100
AcDbLine
 10
287.4829081289074
 20
154.3824681881004
 30
0.0
 11
287.4927744021073
 21
179.8324662756004
 31
0.0
  0
LINE
  5
8E
330
1F
100
AcDbEntity
  8
0
  6
Continuous
 62
     7
100
AcDbLine
 10
281.9576501758073
 20
159.3438667345004
 30
0.0
 11
281.9592090599074
 21
163.1039419882004
 31
0.0
  0
LINE
  5
8F
330
1F
100
AcDbEntity
  8
A_ACHSEN
  6
DOT_CENTER
 62
     2
100
AcDbLine
 10
280.8365808206074
 20
166.9923370071004
 30
0.0
 11
280.8365808206074
 21
176.4673370071004
 31
0.0
  0
LINE
  5
90
330
1F
100
AcDbEntity
  8
A_ACHSEN
  6
DOT_CENTER
 62
     2
100
AcDbLine
 10
280.8365808206074
 20
166.9923370071004
 30
0.0
 11
280.8365808206074
 21
166.3173370071004
 31
0.0
  0
LINE
  5
91
330
1F
100
AcDbEntity
  8
0
  6
Continuous
 62
     7
100
AcDbLine
 10
255.9187773793074
 20
159.2692345137004
 30
0.0
 11
258.0010735635074
 21
163.2173362369003
 31
0.0
  0
LINE
  5
92
330
1F
100
AcDbEntity
  8
A_RUNDUNGEN
  6
Continuous
 62
     7
100
AcDbLine
 10
268.4325218876073
 20
153.3898534304004
 30
0.0
 11
268.4336073715074
 21
156.1898532199912
 31
0.0
  0
LINE
  5
93
330
1F
100
AcDbEntity
  8
0
  6
Continuous
 62
     7
100
AcDbLine
 10
268.4325218876073
 20
153.3898534304004
 30
0.0
 11
268.4321342148073
 21
152.3898535055004
 31
0.0
  0
LINE
  5
94
330
1F
100
AcDbEntity
  8
0
  6
Continuous
 62
     7
100
AcDbLine
 10
249.1129654566074
 20
165.9584520555004
 30
0.0
 11
251.8246032351074
 21
169.2920260953003
 31
0.0
  0
LINE
  5
95
330
1F
100
AcDbEntity
  8
0
  6
Continuous
 62
     7
100
AcDbLine
 10
255.6103669794073
 20
158.5007508631003
 30
0.0
 11
255.9187773793074
 21
159.2692345137004
 31
0.0
  0
LINE
  5
96
330
1F
100
AcDbEntity
  8
0
  6
Continuous
 62
     7
100
AcDbLine
 10
264.2639430271074
 20
165.1351185887004
 30
0.0
 11
263.4363099414073
 21
156.9984224288004
 31
0.0
  0
LINE
  5
97
330
1F
100
AcDbEntity
  8
A_RUNDUNGEN
  6
Continuous
 62
     7
100
AcDbLine
 10
264.9551641059073
 20
153.3509152544004
 30
0.0
 11
264.9562005771073
 21
155.8509150396004
 31
0.0
  0
LINE
  5
98
330
1F
100
AcDbEntity
  8
0
  6
Continuous
 62
     7
100
AcDbLine
 10
260.9322484280202
 20
152.6859196721081
 30
0.0
 11
260.9321153947074
 21
152.3427610554004
 31
0.0
  0
LINE
  5
99
330
1F
100
AcDbEntity
  8
0
  6
Continuous
 62
     7
100
AcDbLine
 10
260.9433579064074
 20
181.3427588762004
 30
0.0
 11
260.9433385228074
 21
181.2927588800004
 31
0.0
  0
LINE
  5
9A
330
1F
100
AcDbEntity
  8
DEFAULT_1
  6
DOT_CENTER
 62
     2
100
AcDbLine
 10
259.4568432148074
 20
152.8562486079003
 30
0.0
 11
259.4568432148074
 21
159.9431981923004
 31
0.0
  0
LINE
  5
9B
330
1F
100
AcDbEntity
  8
0
  6
Continuous
 62
     7
100
AcDbLine
 10
274.7337990727074
 20
172.5892416862004
 30
0.0
 11
277.7224673838074
 21
168.8818992958003
 31
0.0
  0
LINE
  5
9C
330
1F
100
AcDbEntity
  8
0
  6
Continuous
 62
     7
100
AcDbLine
 10
272.7705056944074
 20
174.0639610361004
 30
0.0
 11
269.0965337144073
 21
178.0212295852004
 31
0.0
  0
LINE
  5
9D
330
1F
100
AcDbEntity
  8
0
  6
Continuous
 62
     7
100
AcDbLine
 10
283.4612586022074
 20
174.4107913372004
 30
0.0
 11
282.7835100015074
 21
174.8865417471004
 31
0.0
  0
LINE
  5
9E
330
1F
100
AcDbEntity
  8
0
  6
Continuous
 62
     7
100
AcDbLine
 10
246.3493986306074
 20
172.5447428454004
 30
0.0
 11
243.8912815165074
 21
169.5228365041004
 31
0.0
  0
LINE
  5
9F
330
1F
100
AcDbEntity
  8
0
  6
Continuous
 62
     7
100
AcDbLine
 10
254.9656087630074
 20
178.5458156655004
 30
0.0
 11
254.9660479131073
 21
179.6050588833004
 31
0.0
  0
LINE
  5
A0
330
1F
100
AcDbEntity
  8
0
  6
Continuous
 62
     7
100
AcDbLine
 10
255.9426837146074
 20
179.6046539813004
 30
0.0
 11
255.9433388985074
 21
181.2946972441004
 31
0.0
  0
LINE
  5
A1
330
1F
100
AcDbEntity
  8
0
  6
Continuous
 62
     7
100
AcDbLine
 10
255.9321351541074
 20
152.3946994157004
 30
0.0
 11
255.9325073032073
 21
153.3546559444004
 31
0.0
  0
LINE
  5
A2
330
1F
100
AcDbEntity
  8
A_RUNDUNGEN
  6
Continuous
 62
     7
100
AcDbLine
 10
255.9321351541074
 20
152.3946994157004
 30
0.0
 11
255.9321545377073
 21
152.4446994120004
 31
0.0
  0
LINE
  5
A3
330
1F
100
AcDbEntity
  8
0
  6
Continuous
 62
     7
100
AcDbLine
 10
254.9422734925074
 20
178.5466819470004
 30
0.0
 11
254.9454905578074
 21
186.8257252493774
 31
0.0
  0
LINE
  5
A4
330
1F
100
AcDbEntity
  8
0
  6
Continuous
 62
     7
100
AcDbLine
 10
254.9317356504067
 20
146.8257038647004
 30
0.0
 11
254.932507388751
 21
153.3550705328715
 31
0.0
  0
LINE
  5
A5
330
1F
100
AcDbEntity
  8
A_ACHSEN
  6
DOT_CENTER
 62
     2
100
AcDbLine
 10
253.4154730553074
 20
169.7002592352004
 30
0.0
 11
253.4154732184073
 21
171.1001620188004
 31
0.0
  0
LINE
  5
A6
330
1F
100
AcDbEntity
  8
A_ACHSEN
  6
DOT_CENTER
 62
     2
100
AcDbLine
 10
253.4154730553074
 20
178.5002592352004
 30
0.0
 11
253.4154732184073
 21
171.1003620188005
 31
0.0
  0
LINE
  5
A7
330
1F
100
AcDbEntity
  8
0
  6
Continuous
 62
     7
100
AcDbLine
 10
282.7835100015074
 20
174.8865417471004
 30
0.0
 11
279.8302298680073
 21
176.5320741927004
 31
0.0
  0
LINE
  5
A8
330
1F
100
AcDbEntity
  8
0
  6
Continuous
 62
     7
100
AcDbLine
 10
250.8933526642073
 20
153.3962486079004
 30
0.0
 11
250.8933526642073
 21
152.2962486079003
 31
0.0
  0
LINE
  5
A9
330
1F
100
AcDbEntity
  8
0
  6
Continuous
 62
     7
100
AcDbLine
 10
250.8933526642073
 20
181.1462486079004
 30
0.0
 11
250.8933526642073
 21
178.6962486079004
 31
0.0
  0
LINE
  5
AA
330
1F
100
AcDbEntity
  8
DEFAULT_1
  6
DOT_CENTER
 62
     2
100
AcDbLine
 10
247.3933526642073
 20
160.7962486079003
 30
0.0
 11
247.3933526642073
 21
160.9362486079004
 31
0.0
  0
LINE
  5
AB
330
1F
100
AcDbEntity
  8
DEFAULT_1
  6
DOT_CENTER
 62
     2
100
AcDbLine
 10
247.3933526642073
 20
160.7962486079003
 30
0.0
 11
247.3933526642073
 21
151.8562486079003
 31
0.0
  0
LINE
  5
AC
330
1F
100
AcDbEntity
  8
0
  6
Continuous
 62
     7
100
AcDbLine
 10
256.9031166938074
 20
176.9439085954004
 30
0.0
 11
262.9449344069074
 21
169.5338147608003
 31
0.0
  0
LINE
  5
AD
330
1F
100
AcDbEntity
  8
0
  6
Continuous
 62
     7
100
AcDbLine
 10
223.3693495920073
 20
174.3761567119004
 30
0.0
 11
224.0465493772074
 21
174.8526880007004
 31
0.0
  0
LINE
  5
AE
330
1F
100
AcDbEntity
  8
0
  6
Continuous
 62
     7
100
AcDbLine
 10
232.0989029011074
 20
172.5646678230004
 30
0.0
 11
229.1145097780074
 21
168.8538830595004
 31
0.0
  0
LINE
  5
AF
330
1F
100
AcDbEntity
  8
A_RUNDUNGEN
  6
Continuous
 62
     7
100
AcDbLine
 10
246.3933526642073
 20
152.2667099889004
 30
0.0
 11
246.3933526642073
 21
152.2462486079004
 31
0.0
  0
LINE
  5
B0
330
1F
100
AcDbEntity
  8
0
  6
Continuous
 62
     7
100
AcDbLine
 10
245.8933526642073
 20
181.1462486079004
 30
0.0
 11
245.8933526642073
 21
181.2462486079004
 31
0.0
  0
LINE
  5
B1
330
1F
100
AcDbEntity
  8
0
  6
Continuous
 62
     7
100
AcDbLine
 10
245.8933526642073
 20
152.2462486079004
 30
0.0
 11
245.8933526642073
 21
152.7860294418003
 31
0.0
  0
LINE
  5
B2
330
1F
100
AcDbEntity
  8
A_RUNDUNGEN
  6
Continuous
 62
     7
100
AcDbLine
 10
241.8933526642073
 20
153.3962486079004
 30
0.0
 11
241.8933526642073
 21
154.3962486079004
 31
0.0
  0
LINE
  5
B3
330
1F
100
AcDbEntity
  8
0
  6
Continuous
 62
     7
100
AcDbLine
 10
251.2385607236074
 20
158.4982354410004
 30
0.0
 11
250.9292651638074
 21
159.2663616513004
 31
0.0
  0
LINE
  5
B4
330
1F
100
AcDbEntity
  8
0
  6
Continuous
 62
     7
100
AcDbLine
 10
257.7273623603073
 20
165.9634139982003
 30
0.0
 11
255.0118839978073
 21
169.2938603021004
 31
0.0
  0
LINE
  5
B5
330
1F
100
AcDbEntity
  8
0
  6
Continuous
 62
     7
100
AcDbLine
 10
304.9299798879074
 20
186.8257038647004
 30
0.0
 11
254.9454905578074
 21
186.8257252493774
 31
0.0
  0
LINE
  5
B6
330
1F
100
AcDbEntity
  8
0
  6
Continuous
 62
     7
100
AcDbLine
 10
241.3933526642073
 20
152.6962486079004
 30
0.0
 11
241.3933526642073
 21
152.2462486079004
 31
0.0
  0
LINE
  5
B7
330
1F
100
AcDbEntity
  8
0
  6
Continuous
 62
     7
100
AcDbLine
 10
243.4143550070074
 20
156.9868861239004
 30
0.0
 11
242.5773438519074
 21
165.1226229220004
 31
0.0
  0
LINE
  5
B8
330
1F
100
AcDbEntity
  8
0
  6
Continuous
 62
     7
100
AcDbLine
 10
250.9292651638074
 20
159.2663616513004
 30
0.0
 11
248.8424196532073
 21
163.2120606300003
 31
0.0
  0
LINE
  5
B9
330
1F
100
AcDbEntity
  8
0
  6
Continuous
 62
     7
100
AcDbLine
 10
264.5427761267074
 20
179.8413633668004
 30
0.0
 11
255.9430684589074
 21
180.5970998028004
 31
0.0
  0
LINE
  5
BA
330
1F
100
AcDbEntity
  8
0
  6
Continuous
 62
     7
100
AcDbLine
 10
288.9433558024074
 20
181.3319040373004
 30
0.0
 11
254.9433583573074
 21
181.3450849131004
 31
0.0
  0
LINE
  5
BB
330
1F
100
AcDbEntity
  8
0
  6
Continuous
 62
     7
100
AcDbLine
 10
287.9433364939074
 20
181.2822917139004
 30
0.0
 11
255.9433388985074
 21
181.2946972441004
 31
0.0
  0
LINE
  5
BC
330
1F
100
AcDbEntity
  8
0
  6
Continuous
 62
     7
100
AcDbLine
 10
255.9433195149073
 20
181.2446972478004
 30
0.0
 11
254.9433195900074
 21
181.2450849206004
 31
0.0
  0
LINE
  5
BD
330
1F
100
AcDbEntity
  8
0
  6
Continuous
 62
     7
100
AcDbLine
 10
221.9933526642074
 20
181.2462486079004
 30
0.0
 11
251.9358137805294
 21
181.2462486079004
 31
0.0
  0
LINE
  5
BE
330
1F
100
AcDbEntity
  8
0
  6
Continuous
 62
     7
100
AcDbLine
 10
220.8933526642073
 20
181.1462486079004
 30
0.0
 11
250.8933526642073
 21
181.1462486079004
 31
0.0
  0
LINE
  5
BF
330
1F
100
AcDbEntity
  8
A_RUNDUNGEN
  6
Continuous
 62
     7
100
AcDbLine
 10
253.5824129204074
 20
178.5971644122004
 30
0.0
 11
269.0965337144073
 21
178.0212295852004
 31
0.0
  0
LINE
  5
C0
330
1F
100
AcDbEntity
  8
0
  6
Continuous
 62
     7
100
AcDbLine
 10
275.3338840313073
 20
177.7896787726004
 30
0.0
 11
269.0965337144073
 21
178.0212295852004
 31
0.0
  0
LINE
  5
C1
330
1F
100
AcDbEntity
  8
A_RUNDUNGEN
  6
Continuous
 62
     7
100
AcDbLine
 10
281.9660455927074
 20
179.5938649942004
 30
0.0
 11
254.9660479131073
 21
179.6050588833004
 31
0.0
  0
LINE
  5
C2
330
1F
100
AcDbEntity
  8
0
  6
Continuous
 62
     7
100
AcDbLine
 10
287.4927744021073
 20
179.8324662756004
 30
0.0
 11
264.5427761267074
 21
179.8413633668004
 31
0.0
  0
LINE
  5
C3
330
1F
100
AcDbEntity
  8
0
  6
Continuous
 62
     7
100
AcDbLine
 10
221.3433526642074
 20
179.6962486079004
 30
0.0
 11
242.3208134372073
 21
179.6962486079004
 31
0.0
  0
LINE
  5
C4
330
1F
100
AcDbEntity
  8
A_RUNDUNGEN
  6
Continuous
 62
     7
100
AcDbLine
 10
251.9358137805294
 20
178.6962486079004
 30
0.0
 11
224.8933526642073
 21
178.6962486079004
 31
0.0
  0
LINE
  5
C5
330
1F
100
AcDbEntity
  8
0
  6
Continuous
 62
     7
100
AcDbLine
 10
231.4928241491074
 20
177.7644097775004
 30
0.0
 11
253.2433500769074
 21
178.5969663295004
 31
0.0
  0
LINE
  5
C6
330
1F
100
AcDbEntity
  8
0
  6
Continuous
 62
     7
100
AcDbLine
 10
242.3208134372073
 20
179.6962486079004
 30
0.0
 11
250.8933526642073
 21
180.4462486079004
 31
0.0
  0
LINE
  5
C7
330
1F
100
AcDbEntity
  8
0
  6
Continuous
 62
     7
100
AcDbLine
 10
235.9954741854074
 20
174.4275646534003
 30
0.0
 11
245.7539938983074
 21
171.8127771770004
 31
0.0
  0
LINE
  5
C8
330
1F
100
AcDbEntity
  8
0
  6
Continuous
 62
     7
100
AcDbLine
 10
249.0252141087074
 20
172.0339199663004
 30
0.0
 11
236.9327453585074
 21
174.3424161060004
 31
0.0
  0
LINE
  5
C9
330
1F
100
AcDbEntity
  8
A_ACHSEN
  6
DOT_CENTER
 62
     2
100
AcDbLine
 10
249.0154730553073
 20
174.1002592352004
 30
0.0
 11
256.4155732184074
 21
174.1002620188004
 31
0.0
  0
LINE
  5
CA
330
1F
100
AcDbEntity
  8
A_ACHSEN
  6
CENTER_5
 62
     2
100
AcDbLine
 10
257.8154730553073
 20
174.1002592352004
 30
0.0
 11
256.4155732184074
 21
174.1002620188004
 31
0.0
  0
LINE
  5
CB
330
1F
100
AcDbEntity
  8
A_ACHSEN
  6
DOT_CENTER
 62
     2
100
AcDbLine
 10
285.2365808206073
 20
171.3923370071004
 30
0.0
 11
285.9115808206074
 21
171.3923370071004
 31
0.0
  0
LINE
  5
CC
330
1F
100
AcDbEntity
  8
A_ACHSEN
  6
DOT_CENTER
 62
     2
100
AcDbLine
 10
285.2365808206073
 20
171.3923370071004
 30
0.0
 11
275.7615808206074
 21
171.3923370071004
 31
0.0
  0
LINE
  5
CD
330
1F
100
AcDbEntity
  8
A_ACHSEN
  6
DOT_CENTER
 62
     2
100
AcDbLine
 10
221.5975051625073
 20
171.3607295760004
 30
0.0
 11
231.0725051625074
 21
171.3607295760004
 31
0.0
  0
LINE
  5
CE
330
1F
100
AcDbEntity
  8
A_ACHSEN
  6
CENTER_5
 62
     2
100
AcDbLine
 10
221.5975051625073
 20
171.3607295760004
 30
0.0
 11
220.9225051625074
 21
171.3607295760004
 31
0.0
  0
LINE
  5
CF
330
1F
100
AcDbEntity
  8
A_ACHSEN
  6
CENTER_5
 62
     2
100
AcDbLine
 10
225.9975051625074
 20
175.7607295760004
 30
0.0
 11
225.9975051625074
 21
176.4357295760004
 31
0.0
  0
LINE
  5
D0
330
1F
100
AcDbEntity
  8
A_ACHSEN
  6
DOT_CENTER
 62
     2
100
AcDbLine
 10
225.9975051625074
 20
175.7607295760004
 30
0.0
 11
225.9975051625074
 21
166.2857295760003
 31
0.0
  0
LINE
  5
D1
330
1F
100
AcDbEntity
  8
0
  6
Continuous
 62
     7
100
AcDbLine
 10
224.8933526642073
 20
162.0711515319003
 30
0.0
 11
224.8933526642073
 21
157.8962486079004
 31
0.0
  0
LINE
  5
D2
330
1F
100
AcDbEntity
  8
A_RUNDUNGEN
  6
Continuous
 62
     7
100
AcDbLine
 10
222.8933526642073
 20
168.8379852313525
 30
0.0
 11
222.8933526642073
 21
156.8962486079004
 31
0.0
  0
LINE
  5
D3
330
1F
100
AcDbEntity
  8
0
  6
Continuous
 62
     7
100
AcDbLine
 10
222.8933526642073
 20
175.3500770831004
 30
0.0
 11
222.8933526642073
 21
175.2823369712228
 31
0.0
  0
LINE
  5
D4
330
1F
100
AcDbEntity
  8
A_RUNDUNGEN
  6
Continuous
 62
     7
100
AcDbLine
 10
222.8933526642073
 20
176.6962486079004
 30
0.0
 11
222.8933526642073
 21
175.3500770831004
 31
0.0
  0
LINE
  5
D5
330
1F
100
AcDbEntity
  8
0
  6
Continuous
 62
     7
100
AcDbLine
 10
221.3433526642074
 20
153.6962486079004
 30
0.0
 11
221.3433526642074
 21
179.6962486079004
 31
0.0
  0
LINE
  5
D6
330
1F
100
AcDbEntity
  8
0
  6
Continuous
 62
     7
100
AcDbLine
 10
260.4833320067074
 20
172.5528904157004
 30
0.0
 11
269.8979107362073
 21
174.3614171452004
 31
0.0
  0
LINE
  5
D7
330
1F
100
AcDbEntity
  8
A_ACHSEN
  6
Continuous
 62
     7
100
AcDbLine
 10
219.8933526642073
 20
175.6990742800004
 30
0.0
 11
219.8933526642073
 21
175.8294839225003
 31
0.0
  0
LINE
  5
D8
330
1F
100
AcDbEntity
  8
0
  6
Continuous
 62
     7
100
AcDbLine
 10
219.8933526642073
 20
173.8920336845004
 30
0.0
 11
219.8933526642073
 21
175.7056174911004
 31
0.0
  0
LINE
  5
D9
330
1F
100
AcDbEntity
  8
0
  6
Continuous
 62
     7
100
AcDbLine
 10
219.8933526642073
 20
152.2462486079004
 30
0.0
 11
219.8933526642073
 21
173.8916114605004
 31
0.0
  0
LINE
  5
DA
330
1F
100
AcDbEntity
  8
0
  6
Continuous
 62
     7
100
AcDbLine
 10
219.8933526642073
 20
180.1462486079004
 30
0.0
 11
219.8933526642073
 21
175.8294839225003
 31
0.0
  0
LINE
  5
DB
330
1F
100
AcDbEntity
  8
0
  6
Continuous
 62
     7
100
AcDbLine
 10
241.7331215385074
 20
158.8621744342004
 30
0.0
 11
226.1521717093074
 21
163.0370773582004
 31
0.0
  0
LINE
  5
DC
330
1F
100
AcDbEntity
  8
0
  6
Continuous
 62
     7
100
AcDbLine
 10
266.9244437863074
 20
158.3500992434003
 30
0.0
 11
280.9572356733074
 21
158.3442814089004
 31
0.0
  0
LINE
  5
DD
330
1F
100
AcDbEntity
  8
A_RUNDUNGEN
  6
Continuous
 62
     7
100
AcDbLine
 10
281.9564064104073
 20
156.3438669923004
 30
0.0
 11
265.4564078284074
 21
156.3507077024004
 31
0.0
  0
LINE
  5
DE
330
1F
100
AcDbEntity
  8
A_RUNDUNGEN
  6
Continuous
 62
     7
100
AcDbLine
 10
268.4336073715074
 20
156.1898532199912
 30
0.0
 11
287.4836059400074
 21
156.1824680528004
 31
0.0
  0
LINE
  5
DF
330
1F
100
AcDbEntity
  8
0
  6
Continuous
 62
     7
100
AcDbLine
 10
268.4336073715074
 20
156.1898532200004
 30
0.0
 11
287.4836059400074
 21
156.1824680528004
 31
0.0
  0
LINE
  5
E0
330
1F
100
AcDbEntity
  8
0
  6
Continuous
 62
     7
100
AcDbLine
 10
287.4829081289074
 20
154.3824681881004
 30
0.0
 11
269.4329094853074
 21
154.3894656824004
 31
0.0
  0
LINE
  5
E1
330
1F
100
AcDbEntity
  8
DEFAULT_1
  6
DOT_CENTER
 62
     2
100
AcDbLine
 10
254.8568432148073
 20
157.4031981923004
 30
0.0
 11
263.9968432148074
 21
157.4031981923004
 31
0.0
  0
LINE
  5
E2
330
1F
100
AcDbEntity
  8
DEFAULT_1
  6
DOT_CENTER
 62
     2
100
AcDbLine
 10
251.7933526642074
 20
157.3962486079004
 30
0.0
 11
242.9333526642075
 21
157.3962486079004
 31
0.0
  0
LINE
  5
E3
330
1F
100
AcDbEntity
  8
0
  6
Continuous
 62
     7
100
AcDbLine
 10
225.8933526642073
 20
156.8962486079004
 30
0.0
 11
241.4743024933074
 21
156.8962486079004
 31
0.0
  0
LINE
  5
E4
330
1F
100
AcDbEntity
  8
A_RUNDUNGEN
  6
Continuous
 62
     7
100
AcDbLine
 10
241.3933526642073
 20
154.8962486079004
 30
0.0
 11
224.8933526642073
 21
154.8962486079004
 31
0.0
  0
LINE
  5
E5
330
1F
100
AcDbEntity
  8
0
  6
Continuous
 62
     7
100
AcDbLine
 10
280.7007905847074
 20
164.0703896233003
 30
0.0
 11
266.6664398137074
 21
160.3161322041004
 31
0.0
  0
LINE
  5
E6
330
1F
100
AcDbEntity
  8
0
  6
Continuous
 62
     7
100
AcDbLine
 10
264.9551641059073
 20
153.3509152544004
 30
0.0
 11
254.932507388751
 21
153.3550705328715
 31
0.0
  0
LINE
  5
E7
330
1F
100
AcDbEntity
  8
A_RUNDUNGEN
  6
Continuous
 62
     7
100
AcDbLine
 10
260.9322484280202
 20
152.6859196721081
 30
0.0
 11
267.9322479020074
 21
152.6832059624003
 31
0.0
  0
LINE
  5
E8
330
1F
100
AcDbEntity
  8
0
  6
Continuous
 62
     7
100
AcDbLine
 10
255.9321545377073
 20
152.4446994120004
 30
0.0
 11
254.9321546129074
 21
152.4450870848004
 31
0.0
  0
LINE
  5
E9
330
1F
100
AcDbEntity
  8
A_RUNDUNGEN
  6
Continuous
 62
     7
100
AcDbLine
 10
260.9321347784074
 20
152.3927610517004
 30
0.0
 11
255.9321351541074
 21
152.3946994157004
 31
0.0
  0
LINE
  5
EA
330
1F
100
AcDbEntity
  8
0
  6
Continuous
 62
     7
100
AcDbLine
 10
287.9321327495073
 20
152.3822938856004
 30
0.0
 11
268.4321342148073
 21
152.3898535055004
 31
0.0
  0
LINE
  5
EB
330
1F
100
AcDbEntity
  8
0
  6
Continuous
 62
     7
100
AcDbLine
 10
288.9321132907073
 20
152.3319062165004
 30
0.0
 11
254.9321158456074
 21
152.3450870923004
 31
0.0
  0
LINE
  5
EC
330
1F
100
AcDbEntity
  8
0
  6
Continuous
 62
     7
100
AcDbLine
 10
240.3933526642073
 20
153.6962486079004
 30
0.0
 11
221.3433526642074
 21
153.6962486079004
 31
0.0
  0
LINE
  5
ED
330
1F
100
AcDbEntity
  8
0
  6
Continuous
 62
     7
100
AcDbLine
 10
251.9323927855282
 20
153.3962486079004
 30
0.0
 11
241.8933526642073
 21
153.3962486079004
 31
0.0
  0
LINE
  5
EE
330
1F
100
AcDbEntity
  8
A_RUNDUNGEN
  6
Continuous
 62
     7
100
AcDbLine
 10
241.3893142106074
 20
152.7860294418003
 30
0.0
 11
245.8933526642073
 21
152.7860294418003
 31
0.0
  0
LINE
  5
EF
330
1F
100
AcDbEntity
  8
0
  6
Continuous
 62
     7
100
AcDbLine
 10
219.8933526642073
 20
152.2462486079004
 30
0.0
 11
251.9315138509303
 21
152.2462486079004
 31
0.0
  0
LINE
  5
F0
330
1F
100
AcDbEntity
  8
0
  6
Continuous
 62
     7
100
AcDbLine
 10
254.932507388751
 20
153.3550705328715
 30
0.0
 11
254.9387132338073
 21
169.3630141644003
 31
0.0
  0
LINE
  5
F1
330
1F
100
AcDbEntity
  8
1
  6
DASHED
 62
     2
100
AcDbLine
 10
232.282423722245
 20
172.7665429635709
 30
0.0
 11
224.2133154351097
 21
174.9286540127242
 31
0.0
  0
LINE
  5
F2
330
1F
100
AcDbEntity
  8
1
  6
Continuous
 62
     7
100
AcDbLine
 10
224.2133154351097
 20
174.9286540127242
 30
0.0
 11
222.8933526642073
 21
175.2823369712228
 31
0.0
  0
LINE
  5
F3
330
1F
100
AcDbEntity
  8
1
  6
Continuous
 62
     7
100
AcDbLine
 10
244.0230035209373
 20
169.620664087873
 30
0.0
 11
232.282423722245
 21
172.7665429635709
 31
0.0
  0
LINE
  5
F4
330
1F
100
AcDbEntity
  8
1
  6
DASHED
 62
     2
100
AcDbLine
 10
227.7782928824712
 20
167.7617641022233
 30
0.0
 11
222.8933526642073
 21
169.0706798887668
 31
0.0
  0
LINE
  5
F5
330
1F
100
AcDbEntity
  8
1
  6
Continuous
 62
     7
100
AcDbLine
 10
242.7585406473227
 20
163.7478188112577
 30
0.0
 11
227.7782928824712
 21
167.7617641022233
 31
0.0
  0
LINE
  5
F6
330
1F
100
AcDbEntity
  8
A_RUNDUNGEN
  6
DASHED
 62
     2
100
AcDbLine
 10
234.0605339446192
 20
174.0300599392701
 30
0.0
 11
237.7275691978711
 21
177.9937573205706
 31
0.0
  0
LINE
  5
F7
330
1F
100
AcDbEntity
  8
0
  6
DASHED
 62
     2
100
AcDbLine
 10
249.9123564630975
 20
176.9248269564433
 30
0.0
 11
246.3736957316694
 21
172.5360673468887
 31
0.0
  0
LINE
  5
F8
330
1F
100
AcDbEntity
  8
1
  6
DASHED
 62
     2
100
AcDbLine
 10
246.4758820352383
 20
168.9634172708417
 30
0.0
 11
244.0230035209373
 21
169.620664087873
 31
0.0
  0
LINE
  5
F9
330
1F
100
AcDbEntity
  8
0
  6
DASHED
 62
     2
100
AcDbLine
 10
246.1477126359645
 20
163.874969094294
 30
0.0
 11
247.1829888164241
 21
167.7386723994368
 31
0.0
  0
LINE
  5
FA
330
1F
100
AcDbEntity
  8
A_NOTIZEN_SYMB
  6
CENTER_6
 62
     2
100
AcDbLine
 10
246.6653507261984
 20
165.8068207468806
 30
0.0
 11
248.2014176496701
 21
165.3952328552207
 31
0.0
  0
LINE
  5
FB
330
1F
100
AcDbEntity
  8
A_NOTIZEN_SYMB
  6
DOT_CENTER
 62
     2
100
AcDbLine
 10
220.1320059718701
 20
172.9164090462207
 30
0.0
 11
246.6653507261984
 21
165.8068207468806
 31
0.0
  0
LINE
  5
FC
330
1F
100
AcDbEntity
  8
1
  6
DASHED
 62
     2
100
AcDbLine
 10
244.922967764579
 20
163.1678623131191
 30
0.0
 11
242.7585406473227
 21
163.7478188112577
 31
0.0
  0
LINE
  5
FD
330
1F
100
AcDbEntity
  8
1
  6
DASHED
 62
     2
100
AcDbLine
 10
260.45853248891
 20
169.1529506605939
 30
0.0
 11
262.759855158369
 21
169.769588211397
 31
0.0
  0
LINE
  5
FE
330
1F
100
AcDbEntity
  8
1
  6
DASHED
 62
     2
100
AcDbLine
 10
260.7867018881395
 20
164.064502484046
 30
0.0
 11
259.7514257077231
 21
167.9282057892005
 31
0.0
  0
LINE
  5
FF
330
1F
100
AcDbEntity
  8
DEFAULT_1
  6
DOT_CENTER
 62
     2
100
AcDbLine
 10
285.616120358022
 20
172.7880774723877
 30
0.0
 11
259.1196375610222
 21
165.6883663046876
 31
0.0
  0
LINE
  5
100
330
1F
100
AcDbEntity
  8
1
  6
DASHED
 62
     2
100
AcDbLine
 10
264.1467565414897
 20
163.9295502345254
 30
0.0
 11
262.0114467595299
 21
163.3573957028607
 31
0.0
  0
LINE
  5
101
330
1F
100
AcDbEntity
  8
1
  6
Continuous
 62
     7
100
AcDbLine
 10
279.0688467699313
 20
167.9279122606088
 30
0.0
 11
264.1467565414897
 21
163.9295502345254
 31
0.0
  0
LINE
  5
102
330
1F
100
AcDbEntity
  8
1
  6
Continuous
 62
     7
100
AcDbLine
 10
262.759855158369
 20
169.769588211397
 30
0.0
 11
274.5298114379218
 21
172.9233384914432
 31
0.0
  0
LINE
  5
103
330
1F
100
AcDbEntity
  8
1
  6
DASHED
 62
     2
100
AcDbLine
 10
274.5298114379218
 20
172.9233384914432
 30
0.0
 11
282.6323088892115
 21
175.094396140185
 31
0.0
  0
LINE
  5
104
330
1F
100
AcDbEntity
  8
1
  6
Continuous
 62
     7
100
AcDbLine
 10
282.6323088892115
 20
175.094396140185
 30
0.0
 11
283.9643283086325
 21
175.4513096679204
 31
0.0
  0
LINE
  5
105
330
1F
100
AcDbEntity
  8
1
  6
DASHED
 62
     2
100
AcDbLine
 10
283.9275703717984
 20
169.2298033259711
 30
0.0
 11
279.0688467699313
 21
167.9279122606088
 31
0.0
  0
LINE
  5
106
330
1F
100
AcDbEntity
  8
0
  6
Continuous
 62
     7
100
AcDbLine
 10
283.9639822770711
 20
158.3568187324806
 30
0.0
 11
283.9639822770711
 21
168.8984725099328
 31
0.0
  0
LINE
  5
107
330
1F
100
AcDbEntity
  8
0
  6
DASHED
 62
     2
100
AcDbLine
 10
283.9275703717984
 20
168.8534822269776
 30
0.0
 11
283.9275703717984
 21
169.2403259332519
 31
0.0
  0
LINE
  5
108
330
1F
100
AcDbEntity
  8
0
  6
DASHED
 62
     2
100
AcDbLine
 10
283.9275703717984
 20
173.9311917872232
 30
0.0
 11
283.9275703717984
 21
169.2298033259711
 31
0.0
  0
LINE
  5
109
330
1F
100
AcDbEntity
  8
0
  6
DASHED
 62
     2
100
AcDbLine
 10
222.8933526642073
 20
173.8834741194482
 30
0.0
 11
222.8933526642073
 21
168.8379852313525
 31
0.0
  0
LINE
  5
10A
330
1F
100
AcDbEntity
  8
1
  6
DASHED
 62
     2
100
AcDbLine
 10
223.0046216312984
 20
169.0408654588924
 30
0.0
 11
222.9653507261984
 21
169.0513880661999
 31
0.0
  0
LINE
  5
10B
330
1F
100
AcDbEntity
  8
0
  6
Continuous
 62
     7
100
AcDbLine
 10
224.0465493772074
 20
174.8526880007004
 30
0.0
 11
226.9979308550073
 21
176.5016233994004
 31
0.0
  0
LINE
  5
10C
330
1F
100
AcDbEntity
  8
0
  6
Continuous
 62
     7
100
AcDbLine
 10
222.8933526642073
 20
175.2823369712228
 30
0.0
 11
222.8933526642073
 21
173.8834741194482
 31
0.0
  0
LINE
  5
10D
330
1F
100
AcDbEntity
  8
0
  6
DASHED
 62
     2
100
AcDbLine
 10
222.8933526642073
 20
169.0706798887668
 30
0.0
 11
222.8933526642073
 21
169.0408654588924
 31
0.0
  0
LINE
  5
10E
330
1F
100
AcDbEntity
  8
0
  6
Continuous
 62
     7
100
AcDbLine
 10
250.8933526642073
 20
181.0962486079004
 30
0.0
 11
251.9358137805294
 21
181.0962486079004
 31
0.0
  0
LINE
  5
10F
330
1F
100
AcDbEntity
  8
0
  6
Continuous
 62
     7
100
AcDbLine
 10
251.9315118068529
 20
169.4043940663541
 30
0.0
 11
251.9315118068529
 21
152.2962486079003
 31
0.0
  0
LINE
  5
110
330
1F
100
AcDbEntity
  8
0
  6
Continuous
 62
     7
100
AcDbLine
 10
254.9317356504067
 20
146.8257038647004
 30
0.0
 11
304.9299798879074
 21
146.8257038647004
 31
0.0
  0
LINE
  5
111
330
1F
100
AcDbEntity
  8
1
  6
Continuous
 62
     7
100
AcDbLine
 10
251.9315138509303
 20
152.2462486079004
 30
0.0
 11
251.9317363032981
 21
146.8257038647004
 31
0.0
  0
LINE
  5
112
330
1F
100
AcDbEntity
  8
0
  6
Continuous
 62
     7
100
AcDbLine
 10
251.9315118068529
 20
152.2962486079003
 30
0.0
 11
251.9323927855282
 21
152.2962486079003
 31
0.0
  0
LINE
  5
113
330
1F
100
AcDbEntity
  8
1
  6
Continuous
 62
     7
100
AcDbLine
 10
251.9315118068529
 20
152.2962486079003
 30
0.0
 11
251.9315138509303
 21
152.2462486079004
 31
0.0
  0
LINE
  5
114
330
1F
100
AcDbEntity
  8
A_RUNDUNGEN
  6
Continuous
 62
     7
100
AcDbLine
 10
250.8933526642073
 20
152.2462486079004
 30
0.0
 11
250.8933526642073
 21
152.2962486079003
 31
0.0
  0
LINE
  5
115
330
1F
100
AcDbEntity
  8
0
  6
Continuous
 62
     7
100
AcDbLine
 10
250.8933526642073
 20
152.2962486079003
 30
0.0
 11
251.9315118068529
 21
152.2962486079003
 31
0.0
  0
ARC
  5
116
330
1F
100
AcDbEntity
  8
0
  6
DASHED
 62
     2
100
AcDbCircle
 10
221.899947395787
 20
146.4974517820915
 30
0.0
 40
57.94223222750033
100
AcDbArc
 50
72.06037530089976
 51
72.40909479819956
  0
ARC
  5
117
330
1F
100
AcDbEntity
  8
0
  6
DASHED
 62
     2
100
AcDbCircle
 10
204.693192357287
 20
173.1045569640915
 30
0.0
 40
47.46604917089977
100
AcDbArc
 50
42.39596512349949
 51
42.99379851799956
  0
ARC
  5
118
330
1F
100
AcDbEntity
  8
0
  6
DASHED
 62
     2
100
AcDbCircle
 10
214.192181308487
 20
172.6677638870915
 30
0.0
 40
41.8352004433002
100
AcDbArc
 50
52.34937394279954
 51
52.9280556541002
  0
ARC
  5
119
330
1F
100
AcDbEntity
  8
0
  6
DASHED
 62
     2
100
AcDbCircle
 10
221.899947394787
 20
258.1122687677915
 30
0.0
 40
57.94223223089958
100
AcDbArc
 50
287.5909052017999
 51
287.9396246991002
  0
ARC
  5
11A
330
1F
100
AcDbEntity
  8
0
  6
DASHED
 62
     2
100
AcDbCircle
 10
204.693192355487
 20
231.5051635841915
 30
0.0
 40
47.46604917330011
100
AcDbArc
 50
317.0062014819997
 51
317.6040348764994
  0
ARC
  5
11B
330
1F
100
AcDbEntity
  8
0
  6
DASHED
 62
     2
100
AcDbCircle
 10
214.192181309587
 20
231.9419566581915
 30
0.0
 40
41.83520044160046
100
AcDbArc
 50
307.0719443459004
 51
307.6506260571999
  0
ARC
  5
11C
330
1F
100
AcDbEntity
  8
0
  6
DASHED
 62
     2
100
AcDbCircle
 10
214.192181309587
 20
237.9419566581915
 30
0.0
 40
41.83520044160046
100
AcDbArc
 50
307.0719443459004
 51
307.6506260571999
  0
ARC
  5
11D
330
1F
100
AcDbEntity
  8
0
  6
DASHED
 62
     2
100
AcDbCircle
 10
204.693192355487
 20
237.5051635841915
 30
0.0
 40
47.46604917330011
100
AcDbArc
 50
317.0062014819997
 51
317.6040348764994
  0
ARC
  5
11E
330
1F
100
AcDbEntity
  8
0
  6
DASHED
 62
     2
100
AcDbCircle
 10
221.899947394787
 20
264.1122687677915
 30
0.0
 40
57.94223223089958
100
AcDbArc
 50
287.5909052017999
 51
287.9396246991002
  0
ARC
  5
11F
330
1F
100
AcDbEntity
  8
0
  6
DASHED
 62
     2
100
AcDbCircle
 10
214.192181308487
 20
178.6677638870915
 30
0.0
 40
41.8352004433002
100
AcDbArc
 50
52.34937394279954
 51
52.9280556541002
  0
ARC
  5
120
330
1F
100
AcDbEntity
  8
0
  6
DASHED
 62
     2
100
AcDbCircle
 10
204.693192357287
 20
179.1045569640915
 30
0.0
 40
47.46604917089977
100
AcDbArc
 50
42.39596512349949
 51
42.99379851799956
  0
ARC
  5
121
330
1F
100
AcDbEntity
  8
0
  6
DASHED
 62
     2
100
AcDbCircle
 10
221.899947395787
 20
152.4974517820915
 30
0.0
 40
57.94223222750033
100
AcDbArc
 50
72.06037530089976
 51
72.40909479819956
  0
ARC
  5
122
330
1F
100
AcDbEntity
  8
0
  6
Continuous
 62
     7
100
AcDbCircle
 10
280.8365808206074
 20
171.3923370071004
 30
0.0
 40
3.99999999994702
100
AcDbArc
 50
218.8739698529709
 51
320.6012470038977
  0
ARC
  5
123
330
1F
100
AcDbEntity
  8
0
  6
Continuous
 62
     7
100
AcDbCircle
 10
280.8365808206074
 20
171.3923370071004
 30
0.0
 40
4.000000000015535
100
AcDbArc
 50
320.6012470038977
 51
321.4960385444782
  0
ARC
  5
124
330
1F
100
AcDbEntity
  8
0
  6
Continuous
 62
     7
100
AcDbCircle
 10
280.8365808206074
 20
171.3923370071004
 30
0.0
 40
4.00000000001554
100
AcDbArc
 50
38.57664701546207
 51
39.39875299610258
  0
ARC
  5
125
330
1F
100
AcDbEntity
  8
0
  6
Continuous
 62
     7
100
AcDbCircle
 10
280.8365808206074
 20
171.3923370071004
 30
0.0
 40
4.000000000015486
100
AcDbArc
 50
321.4960385444782
 51
38.57664701546207
  0
ARC
  5
126
330
1F
100
AcDbEntity
  8
0
  6
Continuous
 62
     7
100
AcDbCircle
 10
287.9429488211074
 20
180.2822917890003
 30
0.0
 40
1.000000000000042
100
AcDbArc
 50
359.9777879831977
 51
89.97778798417248
  0
ARC
  5
127
330
1F
100
AcDbEntity
  8
A_RUNDUNGEN
  6
Continuous
 62
     7
100
AcDbCircle
 10
281.9652164157074
 20
177.5938651661004
 30
0.0
 40
1.999999999983619
100
AcDbArc
 50
359.9762458280351
 51
89.97624582803427
  0
ARC
  5
128
330
1F
100
AcDbEntity
  8
0
  6
Continuous
 62
     7
100
AcDbCircle
 10
280.8365808206074
 20
171.3923370071004
 30
0.0
 40
4.000000000015554
100
AcDbArc
 50
39.39875299610258
 51
48.9916169124655
  0
ARC
  5
129
330
1F
100
AcDbEntity
  8
0
  6
Continuous
 62
     7
100
AcDbCircle
 10
270.8411572767074
 20
169.4511945470003
 30
0.0
 40
4.999999999980818
100
AcDbArc
 50
38.87396985364015
 51
67.3022581047593
  0
ARC
  5
12A
330
1F
100
AcDbEntity
  8
A_RUNDUNGEN
  6
Continuous
 62
     7
100
AcDbCircle
 10
270.8411572767074
 20
169.4511945470003
 30
0.0
 40
4.999999999984631
100
AcDbArc
 50
67.3022581047593
 51
100.8739698535817
  0
ARC
  5
12B
330
1F
100
AcDbEntity
  8
0
  6
Continuous
 62
     7
100
AcDbCircle
 10
274.9629069158074
 20
167.7965623428004
 30
0.0
 40
10.00000000003775
100
AcDbArc
 50
60.8739698534746
 51
87.87396985360812
  0
ARC
  5
12C
330
1F
100
AcDbEntity
  8
A_RUNDUNGEN
  6
Continuous
 62
     7
100
AcDbCircle
 10
265.4562005342074
 20
155.8507077453004
 30
0.0
 40
0.5000000000708748
100
AcDbArc
 50
89.97624583376994
 51
179.976245822309
  0
ARC
  5
12D
330
1F
100
AcDbEntity
  8
0
  6
Continuous
 62
     7
100
AcDbCircle
 10
269.4325218125074
 20
153.3894657576004
 30
0.0
 40
0.9999999999451249
100
AcDbArc
 50
89.97778798417026
 51
179.9777879841725
  0
ARC
  5
12E
330
1F
100
AcDbEntity
  8
0
  6
Continuous
 62
     7
100
AcDbCircle
 10
287.9325204223073
 20
153.3822938104004
 30
0.0
 40
0.9999999999450965
100
AcDbArc
 50
269.9777879841702
 51
359.9777879841702
  0
ARC
  5
12F
330
1F
100
AcDbEntity
  8
0
  6
Continuous
 62
     7
100
AcDbCircle
 10
280.9592091458073
 20
163.1043565767004
 30
0.0
 40
1.000000000041917
100
AcDbArc
 50
359.9762458280354
 51
104.9762458280533
  0
ARC
  5
130
330
1F
100
AcDbEntity
  8
0
  6
Continuous
 62
     7
100
AcDbCircle
 10
266.9248583748074
 20
159.3500991574003
 30
0.0
 40
1.00000000001882
100
AcDbArc
 50
104.9762458265758
 51
269.9762458280331
  0
ARC
  5
131
330
1F
100
AcDbEntity
  8
0
  6
Continuous
 62
     7
100
AcDbCircle
 10
280.9576502618073
 20
159.3442813230004
 30
0.0
 40
1.000000000041803
100
AcDbArc
 50
269.9762458280419
 51
359.9762458280347
  0
ARC
  5
132
330
1F
100
AcDbEntity
  8
A_RUNDUNGEN
  6
Continuous
 62
     7
100
AcDbCircle
 10
281.9537184735988
 20
158.3541307957725
 30
0.0
 40
2.010265600500192
100
AcDbArc
 50
270.0766105138418
 51
0.07661051098147
  0
ARC
  5
133
330
1F
100
AcDbEntity
  8
0
  6
Continuous
 62
     7
100
AcDbCircle
 10
252.6003630387074
 20
168.6609977859004
 30
0.0
 40
1.000000000072818
100
AcDbArc
 50
131.978464123807
 51
140.8739698527394
  0
ARC
  5
134
330
1F
100
AcDbEntity
  8
0
  6
Continuous
 62
     7
100
AcDbCircle
 10
248.8376968622073
 20
171.0516586557004
 30
0.0
 40
0.9999999999916274
100
AcDbArc
 50
33.66189684904057
 51
79.19207113029628
  0
ARC
  5
135
330
1F
100
AcDbEntity
  8
0
  6
Continuous
 62
     7
100
AcDbCircle
 10
254.2368520532074
 20
168.6619382461004
 30
0.0
 40
1.000000000004792
100
AcDbArc
 50
39.19207112921973
 51
98.58877651933314
  0
ARC
  5
136
330
1F
100
AcDbEntity
  8
0
  6
Continuous
 62
     7
100
AcDbCircle
 10
253.4154729431074
 20
174.1002593434004
 30
0.0
 40
4.500000000021878
100
AcDbArc
 50
39.19207112921551
 51
92.19207112932054
  0
ARC
  5
137
330
1F
100
AcDbEntity
  8
0
  6
Continuous
 62
     7
100
AcDbCircle
 10
253.4154729431074
 20
174.1002593434004
 30
0.0
 40
4.499999999999822
100
AcDbArc
 50
213.6618968479968
 51
278.5887765208954
  0
ARC
  5
138
330
1F
100
AcDbEntity
  8
0
  6
Continuous
 62
     7
100
AcDbCircle
 10
235.9951591259074
 20
169.4311095531004
 30
0.0
 40
5.000000000011938
100
AcDbArc
 50
79.19207112896046
 51
141.1920711287308
  0
ARC
  5
139
330
1F
100
AcDbEntity
  8
0
  6
Continuous
 62
     7
100
AcDbCircle
 10
248.5458403378074
 20
165.7366666481004
 30
0.0
 40
5.999999999952057
100
AcDbArc
 50
140.873969853889
 51
185.8739698541378
  0
ARC
  5
13A
330
1F
100
AcDbEntity
  8
0
  6
Continuous
 62
     7
100
AcDbCircle
 10
258.2947427393074
 20
165.7422824248004
 30
0.0
 40
5.999999999978265
100
AcDbArc
 50
354.1920711291997
 51
39.19207112921525
  0
ARC
  5
13B
330
1F
100
AcDbEntity
  8
A_RUNDUNGEN
  6
Continuous
 62
     7
100
AcDbCircle
 10
241.3933526642073
 20
154.3962486079004
 30
0.0
 40
0.5
100
AcDbArc
 50
0.0
 51
90.0
  0
ARC
  5
13C
330
1F
100
AcDbEntity
  8
0
  6
Continuous
 62
     7
100
AcDbCircle
 10
240.3933526642073
 20
152.6962486079004
 30
0.0
 40
1.0
100
AcDbArc
 50
0.0
 51
90.0
  0
ARC
  5
13D
330
1F
100
AcDbEntity
  8
0
  6
Continuous
 62
     7
100
AcDbCircle
 10
241.4743024933074
 20
157.8962486079004
 30
0.0
 40
1.0
100
AcDbArc
 50
270.0
 51
74.99999999476745
  0
ARC
  5
13E
330
1F
100
AcDbEntity
  8
0
  6
Continuous
 62
     7
100
AcDbCircle
 10
251.0523649655074
 20
164.3808812822004
 30
0.0
 40
2.499999999978376
100
AcDbArc
 50
140.8739698548429
 51
207.8739698536291
  0
ARC
  5
13F
330
1F
100
AcDbEntity
  8
0
  6
Continuous
 62
     7
100
AcDbCircle
 10
255.7897824988074
 20
164.3836088582004
 30
0.0
 40
2.500000000003269
100
AcDbArc
 50
332.1920711295491
 51
39.19207112921524
  0
ARC
  5
140
330
1F
100
AcDbEntity
  8
0
  6
Continuous
 62
     7
100
AcDbCircle
 10
247.3933526642073
 20
157.3962486079004
 30
0.0
 40
3.999999999913614
100
AcDbArc
 50
185.8739698532856
 51
15.9916169116333
  0
ARC
  5
141
330
1F
100
AcDbEntity
  8
0
  6
Continuous
 62
     7
100
AcDbCircle
 10
259.4568430828074
 20
157.4031983196004
 30
0.0
 40
3.999999999971373
100
AcDbArc
 50
164.0744456162755
 51
354.1920711283464
  0
ARC
  5
142
330
1F
100
AcDbEntity
  8
0
  6
Continuous
 62
     7
100
AcDbCircle
 10
220.8933526642073
 20
153.2462486079004
 30
0.0
 40
1.0
100
AcDbArc
 50
180.0
 51
270.0
  0
ARC
  5
143
330
1F
100
AcDbEntity
  8
0
  6
Continuous
 62
     7
100
AcDbCircle
 10
220.8933526642073
 20
180.1462486079004
 30
0.0
 40
1.0
100
AcDbArc
 50
90.0
 51
180.0
  0
ARC
  5
144
330
1F
100
AcDbEntity
  8
0
  6
Continuous
 62
     7
100
AcDbCircle
 10
225.8933526642073
 20
157.8962486079004
 30
0.0
 40
1.0
100
AcDbArc
 50
180.0
 51
270.0
  0
ARC
  5
145
330
1F
100
AcDbEntity
  8
0
  6
Continuous
 62
     7
100
AcDbCircle
 10
225.8933526642073
 20
162.0711515319003
 30
0.0
 40
1.000000000010022
100
AcDbArc
 50
75.00000000029765
 51
180.0
  0
ARC
  5
146
330
1F
100
AcDbEntity
  8
A_RUNDUNGEN
  6
Continuous
 62
     7
100
AcDbCircle
 10
224.8933526642073
 20
156.8962486079004
 30
0.0
 40
2.0
100
AcDbArc
 50
180.0
 51
270.0
  0
ARC
  5
147
330
1F
100
AcDbEntity
  8
A_RUNDUNGEN
  6
Continuous
 62
     7
100
AcDbCircle
 10
224.8933526642073
 20
176.6962486079004
 30
0.0
 40
2.0
100
AcDbArc
 50
90.0
 51
180.0
  0
ARC
  5
148
330
1F
100
AcDbEntity
  8
0
  6
Continuous
 62
     7
100
AcDbCircle
 10
225.9975047981073
 20
171.3607296754004
 30
0.0
 40
4.0000000000463
100
AcDbArc
 50
219.1007607205557
 51
321.1920711294936
  0
ARC
  5
149
330
1F
100
AcDbEntity
  8
0
  6
Continuous
 62
     7
100
AcDbCircle
 10
231.8753194073074
 20
167.7717275862004
 30
0.0
 40
9.999999999943473
100
AcDbArc
 50
92.19207112920053
 51
119.1920711291497
  0
ARC
  5
14A
330
1F
100
AcDbEntity
  8
0
  6
DASHED
 62
     2
100
AcDbCircle
 10
253.4154731522871
 20
174.1002608902916
 30
0.0
 40
4.500000000010029
100
AcDbArc
 50
88.1207369845977
 51
141.1207369843185
  0
ARC
  5
14B
330
1F
100
AcDbEntity
  8
0
  6
Continuous
 62
     7
100
AcDbCircle
 10
225.9975047981073
 20
171.3607296754004
 30
0.0
 40
3.999999999975707
100
AcDbArc
 50
131.074424070033
 51
140.8992392794452
  0
ARC
  5
14C
330
1F
100
AcDbEntity
  8
0
  6
Continuous
 62
     7
100
AcDbCircle
 10
225.9975047981073
 20
171.3607296754004
 30
0.0
 40
4.000000000046247
100
AcDbArc
 50
140.8992392794452
 51
219.1007607205557
  0
ARC
  5
14D
330
1F
100
AcDbEntity
  8
0
  6
Continuous
 62
     7
100
AcDbCircle
 10
252.6003630387074
 20
168.6609977859004
 30
0.0
 40
0.9999999999995735
100
AcDbArc
 50
81.4772644616215
 51
131.978464123807
  0
CIRCLE
  5
14E
330
1F
100
AcDbEntity
  8
0
  6
Continuous
 62
     7
100
AcDbCircle
 10
280.8365808206074
 20
171.3923370071004
 30
0.0
 40
2.024999999999864
  0
CIRCLE
  5
14F
330
1F
100
AcDbEntity
  8
0
  6
Continuous
 62
     7
100
AcDbCircle
 10
253.4154732184073
 20
174.1002620188004
 30
0.0
 40
2.0
  0
CIRCLE
  5
150
330
1F
100
AcDbEntity
  8
0
  6
Continuous
 62
     7
100
AcDbCircle
 10
259.4568435609074
 20
157.4031961779004
 30
0.0
 40
1.683810409800003
  0
CIRCLE
  5
151
330
1F
100
AcDbEntity
  8
0
  6
Continuous
 62
     7
100
AcDbCircle
 10
247.3933526642073
 20
157.3962486079004
 30
0.0
 40
1.683810409800003
  0
CIRCLE
  5
152
330
1F
100
AcDbEntity
  8
0
  6
Continuous
 62
     7
100
AcDbCircle
 10
225.9975051625074
 20
171.3607295760004
 30
0.0
 40
1.950000000000017
  0
SPLINE
  5
153
330
1F
100
AcDbEntity
  8
0
  6
DASHED
 62
     2
100
AcDbSpline
210
0.0
220
0.0
230
1.0
 70
     8
 71
     3
 72
     9
 73
     5
 74
     3
 42
0.000000001
 43
0.0000000001
 44
0.00000001
 40
0.0
 40
0.0
 40
0.0
 40
0.0
 40
0.1426779703872834
 40
0.2853681008781587
 40
0.2853681008781587
 40
0.2853681008781587
 40
0.2853681008781587
 10
239.229800604987
 20
205.6927085378915
 30
0.0
 10
239.2583116761627
 20
205.6546066746201
 30
0.0
 10
239.3153362640641
 20
205.5783997132108
 30
0.0
 10
239.379222319514
 20
205.5078456372533
 30
0.0
 10
239.411166716007
 20
205.4725671025225
 30
0.0
 11
239.229800604987
 21
205.6927085378915
 31
0.0
 11
239.3170490471145
 21
205.5798160551079
 31
0.0
 11
239.411166716007
 21
205.4725671025225
 31
0.0
  0
SPLINE
  5
154
330
1F
100
AcDbEntity
  8
0
  6
DASHED
 62
     2
100
AcDbSpline
210
0.0
220
0.0
230
1.0
 70
     8
 71
     3
 72
    21
 73
    17
 74
    15
 42
0.000000001
 43
0.0000000001
 44
0.00000001
 40
0.0
 40
0.0
 40
0.0
 40
0.0
 40
0.0206059828958004
 40
0.0410189864153474
 40
0.0603972170764954
 40
0.0799940683113363
 40
0.1057280484186778
 40
0.1317104893056947
 40
0.1668440471488686
 40
0.2017835972408115
 40
0.245461616218057
 40
0.2892179438707332
 40
0.3392977127252703
 40
0.3893508183249047
 40
0.4995617693558193
 40
0.6098025483717049
 40
0.6098025483717049
 40
0.6098025483717049
 40
0.6098025483717049
 10
239.094972658187
 20
206.2103933578915
 30
0.0
 10
239.0880929329662
 20
206.21002454158
 30
0.0
 10
239.0743979135967
 20
206.2092903585736
 30
0.0
 10
239.0551020501672
 20
206.2019400538242
 30
0.0
 10
239.0403817830465
 20
206.1881175777959
 30
0.0
 10
239.0295266665718
 20
206.1691609237195
 30
0.0
 10
239.0244892481927
 20
206.1455411434992
 30
0.0
 10
239.0250071826952
 20
206.1165086898742
 30
0.0
 10
239.0291920207926
 20
206.0846963135742
 30
0.0
 10
239.0381022483678
 20
206.0477894301424
 30
0.0
 10
239.0508777529574
 20
206.0090065922425
 30
0.0
 10
239.0681305875506
 20
205.9665158322555
 30
0.0
 10
239.0883064226751
 20
205.9229816506187
 30
0.0
 10
239.1206121266115
 20
205.8607396950391
 30
0.0
 10
239.166525008659
 20
205.7830031833121
 30
0.0
 10
239.2087068369465
 20
205.7228094677519
 30
0.0
 10
239.229800604987
 20
205.6927085378915
 30
0.0
 11
239.094972658187
 21
206.2103933578915
 31
0.0
 11
239.0744824061906
 21
206.2082124148103
 31
0.0
 11
239.0555214180254
 21
206.2006512207711
 31
0.0
 11
239.0412078372542
 21
206.1875884031248
 31
0.0
 11
239.031378927052
 21
206.1706346694909
 31
0.0
 11
239.0254876938239
 21
206.1455840989094
 31
0.0
 11
239.0253679773962
 21
206.1196019340068
 31
0.0
 11
239.0298128592102
 21
206.0847506800658
 31
0.0
 11
239.0378225187956
 21
206.0507416002899
 31
0.0
 11
239.0513292084422
 21
206.0092044040661
 31
0.0
 11
239.0676383093073
 21
205.9686010860414
 31
0.0
 11
239.0886449730542
 21
205.9231400772135
 31
0.0
 11
239.1116251629467
 21
205.8786740873888
 31
0.0
 11
239.1677107483863
 21
205.7838012207039
 31
0.0
 11
239.229800604987
 21
205.6927085378915
 31
0.0
  0
SPLINE
  5
155
330
1F
100
AcDbEntity
  8
0
  6
DASHED
 62
     2
100
AcDbSpline
210
0.0
220
0.0
230
1.0
 70
     8
 71
     3
 72
    21
 73
    17
 74
    15
 42
0.000000001
 43
0.0000000001
 44
0.00000001
 40
0.0
 40
0.0
 40
0.0
 40
0.0
 40
0.1089522114892342
 40
0.2178747595451626
 40
0.26718958262718
 40
0.3165280145389321
 40
0.359585981451879
 40
0.4025747735138398
 40
0.4368666179329381
 40
0.4713324147931369
 40
0.4968370817395522
 40
0.5221158174863387
 40
0.5414867441935554
 40
0.5606343395001208
 40
0.5808566730580603
 40
0.6012783023343337
 40
0.6012783023343337
 40
0.6012783023343337
 40
0.6012783023343337
 10
239.224837130087
 20
198.9101078823915
 30
0.0
 10
239.2041083946876
 20
198.8802761780788
 30
0.0
 10
239.1626565679826
 20
198.82062089115
 30
0.0
 10
239.117622337352
 20
198.7436497267422
 30
0.0
 10
239.0860339180761
 20
198.6820757154836
 30
0.0
 10
239.0663818259626
 20
198.6390996760391
 30
0.0
 10
239.0496240716724
 20
198.5971745614595
 30
0.0
 10
239.0372781918502
 20
198.5589659418409
 30
0.0
 10
239.028729177858
 20
198.5226603501958
 30
0.0
 10
239.0248616917975
 20
198.4914065353414
 30
0.0
 10
239.0246878547084
 20
198.4629015086045
 30
0.0
 10
239.0298989896525
 20
198.4397295471527
 30
0.0
 10
239.0407426811685
 20
198.4211267371327
 30
0.0
 10
239.0553906500183
 20
198.4075499262233
 30
0.0
 10
239.0745332907
 20
198.400396304255
 30
0.0
 10
239.0881023961432
 20
198.3996976983323
 30
0.0
 10
239.094920217087
 20
198.3993466848915
 30
0.0
 11
239.224837130087
 21
198.9101078823915
 31
0.0
 11
239.1638336275155
 21
198.8198352127451
 31
0.0
 11
239.1088029652025
 21
198.7258365548807
 31
0.0
 11
239.0863703289685
 21
198.6819192620941
 31
0.0
 11
239.0659033963221
 21
198.6370262166574
 31
0.0
 11
239.050071982503
 21
198.5969843030254
 31
0.0
 11
239.0370098292985
 21
198.5560280288977
 31
0.0
 11
239.0293491966042
 21
198.5226028094673
 31
0.0
 11
239.0252663352775
 21
198.488379697597
 31
0.0
 11
239.025664984456
 21
198.4628781465464
 31
0.0
 11
239.0317073176284
 21
198.4383321759015
 31
0.0
 11
239.0415540705318
 21
198.4216506219813
 31
0.0
 11
239.0557818699729
 21
198.4088365630214
 31
0.0
 11
239.0746072851826
 21
198.4014510004095
 31
0.0
 11
239.094920217087
 21
198.3993466848915
 31
0.0
  0
SPLINE
  5
156
330
1F
100
AcDbEntity
  8
0
  6
DASHED
 62
     2
100
AcDbSpline
210
0.0
220
0.0
230
1.0
 70
     8
 71
     3
 72
     9
 73
     5
 74
     3
 42
0.000000001
 43
0.0000000001
 44
0.00000001
 40
0.0
 40
0.0
 40
0.0
 40
0.0
 40
0.1469406219306189
 40
0.293866962546986
 40
0.293866962546986
 40
0.293866962546986
 40
0.293866962546986
 10
239.411166715962
 20
199.1371534441235
 30
0.0
 10
239.378283071293
 20
199.1008102062822
 30
0.0
 10
239.3125189931916
 20
199.0281272499142
 30
0.0
 10
239.2540634656342
 20
198.9494464011331
 30
0.0
 10
239.224837130087
 20
198.9101078823915
 30
0.0
 11
239.411166715962
 21
199.1371534441235
 31
0.0
 11
239.3143431046964
 21
199.0266241051705
 31
0.0
 11
239.224837130087
 21
198.9101078823915
 31
0.0
  0
SPLINE
  5
157
330
1F
100
AcDbEntity
  8
0
  6
DASHED
 62
     2
100
AcDbSpline
210
0.0
220
0.0
230
1.0
 70
     8
 71
     3
 72
    21
 73
    17
 74
    15
 42
0.000000001
 43
0.0000000001
 44
0.00000001
 40
0.0
 40
0.0
 40
0.0
 40
0.0
 40
0.385916360917923
 40
0.7715558448069186
 40
0.9616234496912676
 40
1.151791948032883
 40
1.329659259396757
 40
1.507122060718117
 40
1.665207836546763
 40
1.823046721997032
 40
1.9667670329577
 40
2.110707944107621
 40
2.248536979641247
 40
2.386344248943737
 40
2.522014420566163
 40
2.657545986420053
 40
2.657545986420053
 40
2.657545986420053
 40
2.657545986420053
 10
239.747003734809
 20
199.5011617734015
 30
0.0
 10
239.8320544330535
 20
199.597758463988
 30
0.0
 10
240.0020947986769
 20
199.7908825508003
 30
0.0
 10
240.1846684514738
 20
200.055644242173
 30
0.0
 10
240.3075293430497
 20
200.2796995781935
 30
0.0
 10
240.3801053867601
 20
200.4514564881581
 30
0.0
 10
240.4294756418398
 20
200.6270562393154
 30
0.0
 10
240.4476615048916
 20
200.7983831909417
 30
0.0
 10
240.4310082827417
 20
200.963078302422
 30
0.0
 10
240.3847468593779
 20
201.1104517989142
 30
0.0
 10
240.3102222938061
 20
201.2400170611145
 30
0.0
 10
240.2182282633011
 20
201.3488303217838
 30
0.0
 10
240.1120377606888
 20
201.4406180550728
 30
0.0
 10
239.9968673214808
 20
201.5155517985737
 30
0.0
 10
239.8749059816901
 20
201.5773193002191
 30
0.0
 10
239.7896232897185
 20
201.607529055836
 30
0.0
 10
239.747003734808
 20
201.6226262084585
 30
0.0
 11
239.747003734809
 21
199.5011617734015
 31
0.0
 11
239.9962633695791
 21
199.7957819875174
 31
0.0
 11
240.2141944536297
 21
200.1139389536934
 31
0.0
 11
240.3046269596429
 21
200.2811144800594
 31
0.0
 11
240.3778201802301
 21
200.4566331702464
 31
0.0
 11
240.4246079058734
 21
200.6282364614654
 31
0.0
 11
240.4418555075872
 21
200.8048591284424
 31
0.0
 11
240.4257083984435
 21
200.9621180986424
 31
0.0
 11
240.377820724218
 21
201.1125171835226
 31
0.0
 11
240.3067462017828
 21
201.2374329162236
 31
0.0
 11
240.2141948391204
 21
201.347674611541
 31
0.0
 11
240.1101768020669
 21
201.4381018817593
 31
0.0
 11
239.9950067284543
 21
201.5137768303879
 31
0.0
 11
239.8737600953305
 21
201.5746508794358
 31
0.0
 11
239.747003734808
 21
201.6226262084585
 31
0.0
  0
SPLINE
  5
158
330
1F
100
AcDbEntity
  8
0
  6
DASHED
 62
     2
100
AcDbSpline
210
0.0
220
0.0
230
1.0
 70
     8
 71
     3
 72
    13
 73
     9
 74
     7
 42
0.000000001
 43
0.0000000001
 44
0.00000001
 40
0.0
 40
0.0
 40
0.0
 40
0.0
 40
0.2041933544138723
 40
0.4085655145705264
 40
0.4947614657677854
 40
0.5807261331390599
 40
0.6598751727615348
 40
0.738871653324084
 40
0.738871653324084
 40
0.738871653324084
 40
0.738871653324084
 10
239.024955508487
 20
202.3048602732915
 30
0.0
 10
239.0309764802718
 20
202.2366134817242
 30
0.0
 10
239.0430237106359
 20
202.100060139267
 30
0.0
 10
239.1197942805948
 20
201.9487421775347
 30
0.0
 10
239.2019836014704
 20
201.8534966576721
 30
0.0
 10
239.2667714792372
 20
201.7998181159668
 30
0.0
 10
239.3368194034078
 20
201.7575256646762
 30
0.0
 10
239.3864002197908
 20
201.7393207880342
 30
0.0
 10
239.411166715961
 20
201.7302271371855
 30
0.0
 11
239.024955508487
 21
202.3048602732915
 31
0.0
 11
239.0558443412976
 21
202.1030167551597
 31
0.0
 11
239.1472034623683
 21
201.9202012969006
 31
0.0
 11
239.2037396688885
 21
201.855136716898
 31
0.0
 11
239.2698332496215
 21
201.8001679720003
 31
0.0
 11
239.3379153592809
 21
201.7598021797924
 31
0.0
 11
239.411166715961
 21
201.7302271371855
 31
0.0
  0
SPLINE
  5
159
330
1F
100
AcDbEntity
  8
0
  6
DASHED
 62
     2
100
AcDbSpline
210
0.0
220
0.0
230
1.0
 70
     8
 71
     3
 72
    13
 73
     9
 74
     7
 42
0.000000001
 43
0.0000000001
 44
0.00000001
 40
0.0
 40
0.0
 40
0.0
 40
0.0
 40
0.0789957716386031
 40
0.1581442172378389
 40
0.2441089013468269
 40
0.3303046245431263
 40
0.5346774939474347
 40
0.7388723200543492
 40
0.7388723200543492
 40
0.7388723200543492
 40
0.7388723200543492
 10
239.411166715988
 20
202.8794934094565
 30
0.0
 10
239.3864004674971
 20
202.8703997626332
 30
0.0
 10
239.336820110499
 20
202.8521948806652
 30
0.0
 10
239.2667727342948
 20
202.8099024366417
 30
0.0
 10
239.2019843032695
 20
202.756225098085
 30
0.0
 10
239.1197930939516
 20
202.6609808900795
 30
0.0
 10
239.0430228459189
 20
202.5096616288635
 30
0.0
 10
239.0309761996209
 20
202.3731075569842
 30
0.0
 10
239.024955508487
 20
202.3048602732915
 30
0.0
 11
239.411166715988
 21
202.8794934094565
 31
0.0
 11
239.3379161083872
 21
202.8499184051068
 31
0.0
 11
239.2698345195367
 21
202.8095528992453
 31
0.0
 11
239.2037402381044
 21
202.7545849706929
 31
0.0
 11
239.1472031808361
 21
202.6895214319899
 31
0.0
 11
239.0558436488064
 21
202.5067053862222
 31
0.0
 11
239.024955508487
 21
202.3048602732915
 31
0.0
  0
SPLINE
  5
15A
330
1F
100
AcDbEntity
  8
0
  6
DASHED
 62
     2
100
AcDbSpline
210
0.0
220
0.0
230
1.0
 70
     8
 71
     3
 72
    21
 73
    17
 74
    15
 42
0.000000001
 43
0.0000000001
 44
0.00000001
 40
0.0
 40
0.0
 40
0.0
 40
0.0
 40
0.1355315068535155
 40
0.2712016211373176
 40
0.4090087194479382
 40
0.546837576622982
 40
0.6907782404099667
 40
0.8344983203239354
 40
0.9923364881446821
 40
1.150421521883073
 40
1.327884894399626
 40
1.505752799450956
 40
1.695921578221173
 40
1.885989461142993
 40
2.271629259179843
 40
2.657545930034002
 40
2.657545930034002
 40
2.657545930034002
 40
2.657545930034002
 10
239.747003734855
 20
202.9870943381905
 30
0.0
 10
239.789623270926
 20
203.0021914851614
 30
0.0
 10
239.8749059257407
 20
203.0324012296609
 30
0.0
 10
239.9968671753886
 20
203.0941686972174
 30
0.0
 10
240.1120374998674
 20
203.1691023664548
 30
0.0
 10
240.2182278579636
 20
203.2608899621327
 30
0.0
 10
240.3102217520989
 20
203.3697030483101
 30
0.0
 10
240.3847461971498
 20
203.4992679044282
 30
0.0
 10
240.4310077940931
 20
203.6466407297694
 30
0.0
 10
240.4476615416158
 20
203.8113354833363
 30
0.0
 10
240.4294761289985
 20
203.9826626429892
 30
0.0
 10
240.3801060115919
 20
204.1582629448668
 30
0.0
 10
240.3075298859486
 20
204.3300202450042
 30
0.0
 10
240.184668824917
 20
204.5540758211624
 30
0.0
 10
240.0020949991651
 20
204.8188377568923
 30
0.0
 10
239.8320544995919
 20
205.01196200337
 30
0.0
 10
239.747003734837
 20
205.1085587732625
 30
0.0
 11
239.747003734855
 21
202.9870943381905
 31
0.0
 11
239.8737600387495
 21
203.0350696501534
 31
0.0
 11
239.9950066168833
 21
203.0959436809375
 31
0.0
 11
240.1101765467714
 21
203.1716185369177
 31
0.0
 11
240.2141944536774
 21
203.2620456849902
 31
0.0
 11
240.3067456747111
 21
203.3722871762314
 31
0.0
 11
240.3778201801755
 21
203.4972026527604
 31
0.0
 11
240.4257079654548
 21
203.6476009491516
 31
0.0
 11
240.4418555075976
 21
203.8048591288992
 31
0.0
 11
240.4246083413177
 21
203.9814824123088
 31
0.0
 11
240.37782072419
 21
204.1530863484733
 31
0.0
 11
240.3046274827354
 21
204.3286053337931
 31
0.0
 11
240.2141948391921
 21
204.4957811018734
 31
0.0
 11
239.9962635656744
 21
204.8139383190483
 31
0.0
 11
239.747003734837
 21
205.1085587732625
 31
0.0
  0
SPLINE
  5
15B
330
1F
100
AcDbEntity
  8
0
  6
DASHED
 62
     2
100
AcDbSpline
210
0.0
220
0.0
230
1.0
 70
     8
 71
     3
 72
    13
 73
     9
 74
     7
 42
0.000000001
 43
0.0000000001
 44
0.00000001
 40
0.0
 40
0.0
 40
0.0
 40
0.0
 40
0.0324509478637473
 40
0.0651871171254906
 40
0.1072566777052924
 40
0.1491755462077843
 40
0.2546157036062239
 40
0.3602171982188739
 40
0.3602171982188739
 40
0.3602171982188739
 40
0.3602171982188739
 10
239.094920217087
 20
198.3993466848915
 30
0.0
 10
239.1057461008018
 20
198.4001173721664
 30
0.0
 10
239.127493016996
 20
198.4016655403528
 30
0.0
 10
239.1618013264508
 20
198.4124586842499
 30
0.0
 10
239.1978716854805
 20
198.4270325033255
 30
0.0
 10
239.2542303841114
 20
198.4556444797181
 30
0.0
 10
239.3262847387974
 20
198.4997396040118
 30
0.0
 10
239.3828583051856
 20
198.5415827464694
 30
0.0
 10
239.411166716027
 20
198.5625203079675
 30
0.0
 11
239.094920217087
 21
198.3993466848915
 31
0.0
 11
239.1271759636587
 21
198.4029007060737
 31
0.0
 11
239.1586604122658
 21
198.4118665603038
 31
0.0
 11
239.197675887114
 21
198.4276031574325
 31
0.0
 11
239.2351804161491
 21
198.446327521108
 31
0.0
 11
239.3253550273824
 21
198.500973347982
 31
0.0
 11
239.411166716027
 21
198.5625203079675
 31
0.0
  0
SPLINE
  5
15C
330
1F
100
AcDbEntity
  8
0
  6
DASHED
 62
     2
100
AcDbSpline
210
0.0
220
0.0
230
1.0
 70
     8
 71
     3
 72
    11
 73
     7
 74
     5
 42
0.000000001
 43
0.0000000001
 44
0.00000001
 40
0.0
 40
0.0
 40
0.0
 40
0.0
 40
0.1547075540944511
 40
0.3094202204081209
 40
0.5787998986487272
 40
0.848217662551558
 40
0.848217662551558
 40
0.848217662551558
 40
0.848217662551558
 10
239.747003734856
 20
198.8189277085045
 30
0.0
 10
239.7879703799233
 20
198.8502530710191
 30
0.0
 10
239.8699050326516
 20
198.9129048194651
 30
0.0
 10
240.0256346093191
 20
199.0268091522866
 30
0.0
 10
240.2149787006971
 20
199.1595347676146
 30
0.0
 10
240.3662263393346
 20
199.2564161596608
 30
0.0
 10
240.441855508487
 20
199.3048602732915
 30
0.0
 11
239.747003734856
 21
198.8189277085045
 31
0.0
 11
239.8702328394659
 21
198.9124638786003
 31
0.0
 11
239.995006648625
 21
199.0039379499337
 31
0.0
 11
240.2160040597323
 21
199.1579689711496
 31
0.0
 11
240.441855508487
 21
199.3048602732915
 31
0.0
  0
SPLINE
  5
15D
330
1F
100
AcDbEntity
  8
0
  6
DASHED
 62
     2
100
AcDbSpline
210
0.0
220
0.0
230
1.0
 70
     8
 71
     3
 72
    13
 73
     9
 74
     7
 42
0.000000001
 43
0.0000000001
 44
0.00000001
 40
0.0
 40
0.0
 40
0.0
 40
0.0
 40
0.1055652959192373
 40
0.2109667308835982
 40
0.2528964226064352
 40
0.2949800615178297
 40
0.32772026783487
 40
0.3601717590437741
 40
0.3601717590437741
 40
0.3601717590437741
 40
0.3601717590437741
 10
239.411166715951
 20
206.0472002386715
 30
0.0
 10
239.3828683158178
 20
206.0681310225635
 30
0.0
 10
239.3263154469118
 20
206.1099601088162
 30
0.0
 10
239.254281860212
 20
206.1540479023496
 30
0.0
 10
239.1979279536263
 20
206.1826595212417
 30
0.0
 10
239.161853371119
 20
206.1972457583394
 30
0.0
 10
239.1275478057877
 20
206.2080714718575
 30
0.0
 10
239.1057989353319
 20
206.2096216909576
 30
0.0
 10
239.094972658187
 20
206.2103933578915
 30
0.0
 11
239.411166715951
 21
206.0472002386715
 31
0.0
 11
239.3253857231309
 21
206.1087278869544
 31
0.0
 11
239.2352466786191
 21
206.1633576889122
 31
0.0
 11
239.1977338409191
 21
206.1820896405882
 31
0.0
 11
239.158710587504
 21
206.1978445826771
 31
0.0
 11
239.1272281756373
 21
206.2068323029133
 31
0.0
 11
239.094972658187
 21
206.2103933578915
 31
0.0
  0
SPLINE
  5
15E
330
1F
100
AcDbEntity
  8
0
  6
DASHED
 62
     2
100
AcDbSpline
210
0.0
220
0.0
230
1.0
 70
     8
 71
     3
 72
    11
 73
     7
 74
     5
 42
0.000000001
 43
0.0000000001
 44
0.00000001
 40
0.0
 40
0.0
 40
0.0
 40
0.0
 40
0.0378786149287351
 40
0.0757597237907266
 40
0.4619660921625431
 40
0.848182332547025
 40
0.848182332547025
 40
0.848182332547025
 40
0.848182332547025
 10
240.441855508487
 20
205.3048602732915
 30
0.0
 10
240.4311662243163
 20
205.3115805290395
 30
0.0
 10
240.4097869598429
 20
205.3250214951412
 30
0.0
 10
240.2799257374504
 20
205.4077750022119
 30
0.0
 10
240.0554437870707
 20
205.5582719990816
 30
0.0
 10
239.849817957423
 20
205.7132852255197
 30
0.0
 10
239.747003734795
 20
205.7907928381245
 30
0.0
 11
240.441855508487
 21
205.3048602732915
 31
0.0
 11
240.409808353544
 21
205.3250535728768
 31
0.0
 11
240.3778556634956
 21
205.3454006616267
 31
0.0
 11
240.057536900624
 21
205.5611580475043
 31
0.0
 11
239.747003734795
 21
205.7907928381245
 31
0.0
  0
SPLINE
  5
15F
330
1F
100
AcDbEntity
  8
0
  6
DASHED
 62
     2
100
AcDbSpline
210
0.0
220
0.0
230
1.0
 70
     8
 71
     3
 72
    11
 73
     7
 74
     5
 42
0.000000001
 43
0.0000000001
 44
0.00000001
 40
0.0
 40
0.0
 40
0.0
 40
0.0
 40
0.0378786149287503
 40
0.0757597237907265
 40
0.461966092162543
 40
0.8481823325470249
 40
0.8481823325470249
 40
0.8481823325470249
 40
0.8481823325470249
 10
240.441855508487
 20
211.3048602732915
 30
0.0
 10
240.4311662243163
 20
211.3115805290395
 30
0.0
 10
240.4097869598429
 20
211.3250214951412
 30
0.0
 10
240.2799257374506
 20
211.407775002212
 30
0.0
 10
240.0554437870706
 20
211.5582719990816
 30
0.0
 10
239.849817957423
 20
211.7132852255197
 30
0.0
 10
239.747003734795
 20
211.7907928381245
 30
0.0
 11
240.441855508487
 21
211.3048602732915
 31
0.0
 11
240.409808353544
 21
211.3250535728769
 31
0.0
 11
240.3778556634956
 21
211.3454006616267
 31
0.0
 11
240.057536900624
 21
211.5611580475043
 31
0.0
 11
239.747003734795
 21
211.7907928381245
 31
0.0
  0
SPLINE
  5
160
330
1F
100
AcDbEntity
  8
0
  6
DASHED
 62
     2
100
AcDbSpline
210
0.0
220
0.0
230
1.0
 70
     8
 71
     3
 72
    13
 73
     9
 74
     7
 42
0.000000001
 43
0.0000000001
 44
0.00000001
 40
0.0
 40
0.0
 40
0.0
 40
0.0
 40
0.1055652959192373
 40
0.2109667308835982
 40
0.2528964226064478
 40
0.2949800615178317
 40
0.327720267834872
 40
0.3601717590437761
 40
0.3601717590437761
 40
0.3601717590437761
 40
0.3601717590437761
 10
239.411166715951
 20
212.0472002386715
 30
0.0
 10
239.3828683158179
 20
212.0681310225635
 30
0.0
 10
239.3263154469118
 20
212.1099601088163
 30
0.0
 10
239.254281860212
 20
212.1540479023495
 30
0.0
 10
239.1979279536263
 20
212.1826595212418
 30
0.0
 10
239.161853371119
 20
212.1972457583395
 30
0.0
 10
239.1275478057877
 20
212.2080714718575
 30
0.0
 10
239.1057989353319
 20
212.2096216909576
 30
0.0
 10
239.094972658187
 20
212.2103933578915
 30
0.0
 11
239.411166715951
 21
212.0472002386715
 31
0.0
 11
239.3253857231309
 21
212.1087278869544
 31
0.0
 11
239.2352466786191
 21
212.1633576889122
 31
0.0
 11
239.1977338409191
 21
212.1820896405882
 31
0.0
 11
239.158710587504
 21
212.1978445826771
 31
0.0
 11
239.1272281756373
 21
212.2068323029133
 31
0.0
 11
239.094972658187
 21
212.2103933578915
 31
0.0
  0
SPLINE
  5
161
330
1F
100
AcDbEntity
  8
0
  6
DASHED
 62
     2
100
AcDbSpline
210
0.0
220
0.0
230
1.0
 70
     8
 71
     3
 72
    11
 73
     7
 74
     5
 42
0.000000001
 43
0.0000000001
 44
0.00000001
 40
0.0
 40
0.0
 40
0.0
 40
0.0
 40
0.1547075540944511
 40
0.3094202204081378
 40
0.5787998986487277
 40
0.8482176625515585
 40
0.8482176625515585
 40
0.8482176625515585
 40
0.8482176625515585
 10
239.747003734856
 20
204.8189277085045
 30
0.0
 10
239.7879703799232
 20
204.850253071019
 30
0.0
 10
239.8699050326518
 20
204.9129048194652
 30
0.0
 10
240.025634609319
 20
205.0268091522865
 30
0.0
 10
240.214978700697
 20
205.1595347676145
 30
0.0
 10
240.3662263393346
 20
205.2564161596609
 30
0.0
 10
240.441855508487
 20
205.3048602732915
 30
0.0
 11
239.747003734856
 21
204.8189277085045
 31
0.0
 11
239.8702328394659
 21
204.9124638786003
 31
0.0
 11
239.995006648625
 21
205.0039379499337
 31
0.0
 11
240.2160040597323
 21
205.1579689711496
 31
0.0
 11
240.441855508487
 21
205.3048602732915
 31
0.0
  0
SPLINE
  5
162
330
1F
100
AcDbEntity
  8
0
  6
DASHED
 62
     2
100
AcDbSpline
210
0.0
220
0.0
230
1.0
 70
     8
 71
     3
 72
    13
 73
     9
 74
     7
 42
0.000000001
 43
0.0000000001
 44
0.00000001
 40
0.0
 40
0.0
 40
0.0
 40
0.0
 40
0.0324509478637504
 40
0.0651871171254781
 40
0.1072566777052906
 40
0.1491755462077825
 40
0.2546157036062073
 40
0.3602171982188739
 40
0.3602171982188739
 40
0.3602171982188739
 40
0.3602171982188739
 10
239.094920217087
 20
204.3993466848915
 30
0.0
 10
239.1057461008018
 20
204.4001173721664
 30
0.0
 10
239.1274930169961
 20
204.4016655403529
 30
0.0
 10
239.1618013264508
 20
204.4124586842498
 30
0.0
 10
239.1978716854804
 20
204.4270325033255
 30
0.0
 10
239.2542303841113
 20
204.455644479718
 30
0.0
 10
239.3262847387974
 20
204.4997396040118
 30
0.0
 10
239.3828583051856
 20
204.5415827464694
 30
0.0
 10
239.411166716027
 20
204.5625203079675
 30
0.0
 11
239.094920217087
 21
204.3993466848915
 31
0.0
 11
239.1271759636587
 21
204.4029007060737
 31
0.0
 11
239.1586604122658
 21
204.4118665603038
 31
0.0
 11
239.197675887114
 21
204.4276031574325
 31
0.0
 11
239.2351804161491
 21
204.446327521108
 31
0.0
 11
239.3253550273824
 21
204.5009733479819
 31
0.0
 11
239.411166716027
 21
204.5625203079675
 31
0.0
  0
SPLINE
  5
163
330
1F
100
AcDbEntity
  8
0
  6
DASHED
 62
     2
100
AcDbSpline
210
0.0
220
0.0
230
1.0
 70
     8
 71
     3
 72
    21
 73
    17
 74
    15
 42
0.000000001
 43
0.0000000001
 44
0.00000001
 40
0.0
 40
0.0
 40
0.0
 40
0.0
 40
0.1355315068535155
 40
0.2712016211373048
 40
0.409008719447941
 40
0.5468375766230222
 40
0.6907782404099416
 40
0.8344983203239104
 40
0.9923364881447111
 40
1.150421521883074
 40
1.327884894399683
 40
1.505752799450958
 40
1.695921578221202
 40
1.885989461143022
 40
2.271629259179848
 40
2.657545930034007
 40
2.657545930034007
 40
2.657545930034007
 40
2.657545930034007
 10
239.747003734855
 20
208.9870943381905
 30
0.0
 10
239.7896232709259
 20
209.0021914851613
 30
0.0
 10
239.8749059257408
 20
209.032401229661
 30
0.0
 10
239.9968671753886
 20
209.0941686972172
 30
0.0
 10
240.1120374998674
 20
209.1691023664548
 30
0.0
 10
240.2182278579636
 20
209.2608899621328
 30
0.0
 10
240.310221752099
 20
209.3697030483101
 30
0.0
 10
240.3847461971498
 20
209.4992679044282
 30
0.0
 10
240.431007794093
 20
209.6466407297692
 30
0.0
 10
240.447661541616
 20
209.8113354833365
 30
0.0
 10
240.4294761289985
 20
209.9826626429892
 30
0.0
 10
240.3801060115919
 20
210.1582629448668
 30
0.0
 10
240.3075298859486
 20
210.3300202450042
 30
0.0
 10
240.1846688249169
 20
210.5540758211624
 30
0.0
 10
240.0020949991652
 20
210.8188377568924
 30
0.0
 10
239.8320544995918
 20
211.0119620033699
 30
0.0
 10
239.747003734837
 20
211.1085587732625
 30
0.0
 11
239.747003734855
 21
208.9870943381905
 31
0.0
 11
239.8737600387495
 21
209.0350696501534
 31
0.0
 11
239.9950066168833
 21
209.0959436809375
 31
0.0
 11
240.1101765467714
 21
209.1716185369177
 31
0.0
 11
240.2141944536774
 21
209.2620456849903
 31
0.0
 11
240.3067456747111
 21
209.3722871762313
 31
0.0
 11
240.3778201801755
 21
209.4972026527603
 31
0.0
 11
240.4257079654548
 21
209.6476009491516
 31
0.0
 11
240.4418555075976
 21
209.8048591288992
 31
0.0
 11
240.4246083413177
 21
209.9814824123089
 31
0.0
 11
240.37782072419
 21
210.1530863484733
 31
0.0
 11
240.3046274827354
 21
210.3286053337931
 31
0.0
 11
240.2141948391921
 21
210.4957811018734
 31
0.0
 11
239.9962635656744
 21
210.8139383190483
 31
0.0
 11
239.747003734837
 21
211.1085587732625
 31
0.0
  0
SPLINE
  5
164
330
1F
100
AcDbEntity
  8
0
  6
DASHED
 62
     2
100
AcDbSpline
210
0.0
220
0.0
230
1.0
 70
     8
 71
     3
 72
    13
 73
     9
 74
     7
 42
0.000000001
 43
0.0000000001
 44
0.00000001
 40
0.0
 40
0.0
 40
0.0
 40
0.0
 40
0.0789957716386031
 40
0.1581442172378389
 40
0.2441089013468269
 40
0.3303046245431263
 40
0.5346774939474347
 40
0.7388723200543492
 40
0.7388723200543492
 40
0.7388723200543492
 40
0.7388723200543492
 10
239.411166715988
 20
208.8794934094565
 30
0.0
 10
239.3864004674971
 20
208.8703997626332
 30
0.0
 10
239.336820110499
 20
208.8521948806651
 30
0.0
 10
239.2667727342948
 20
208.8099024366417
 30
0.0
 10
239.2019843032695
 20
208.7562250980851
 30
0.0
 10
239.1197930939516
 20
208.6609808900794
 30
0.0
 10
239.0430228459189
 20
208.5096616288636
 30
0.0
 10
239.0309761996209
 20
208.3731075569842
 30
0.0
 10
239.024955508487
 20
208.3048602732915
 30
0.0
 11
239.411166715988
 21
208.8794934094565
 31
0.0
 11
239.3379161083872
 21
208.8499184051068
 31
0.0
 11
239.2698345195367
 21
208.8095528992453
 31
0.0
 11
239.2037402381044
 21
208.7545849706929
 31
0.0
 11
239.1472031808361
 21
208.6895214319899
 31
0.0
 11
239.0558436488064
 21
208.5067053862222
 31
0.0
 11
239.024955508487
 21
208.3048602732915
 31
0.0
  0
SPLINE
  5
165
330
1F
100
AcDbEntity
  8
0
  6
DASHED
 62
     2
100
AcDbSpline
210
0.0
220
0.0
230
1.0
 70
     8
 71
     3
 72
    13
 73
     9
 74
     7
 42
0.000000001
 43
0.0000000001
 44
0.00000001
 40
0.0
 40
0.0
 40
0.0
 40
0.0
 40
0.2041933544138723
 40
0.4085655145705264
 40
0.4947614657677854
 40
0.5807261331390418
 40
0.6598751727615313
 40
0.7388716533240804
 40
0.7388716533240804
 40
0.7388716533240804
 40
0.7388716533240804
 10
239.024955508487
 20
208.3048602732915
 30
0.0
 10
239.0309764802718
 20
208.2366134817242
 30
0.0
 10
239.0430237106359
 20
208.1000601392669
 30
0.0
 10
239.1197942805948
 20
207.9487421775347
 30
0.0
 10
239.2019836014704
 20
207.8534966576721
 30
0.0
 10
239.2667714792372
 20
207.7998181159668
 30
0.0
 10
239.336819403408
 20
207.7575256646762
 30
0.0
 10
239.3864002197908
 20
207.7393207880342
 30
0.0
 10
239.411166715961
 20
207.7302271371855
 30
0.0
 11
239.024955508487
 21
208.3048602732915
 31
0.0
 11
239.0558443412976
 21
208.1030167551597
 31
0.0
 11
239.1472034623683
 21
207.9202012969006
 31
0.0
 11
239.2037396688885
 21
207.855136716898
 31
0.0
 11
239.2698332496215
 21
207.8001679720003
 31
0.0
 11
239.3379153592809
 21
207.7598021797924
 31
0.0
 11
239.411166715961
 21
207.7302271371855
 31
0.0
  0
SPLINE
  5
166
330
1F
100
AcDbEntity
  8
0
  6
DASHED
 62
     2
100
AcDbSpline
210
0.0
220
0.0
230
1.0
 70
     8
 71
     3
 72
    21
 73
    17
 74
    15
 42
0.000000001
 43
0.0000000001
 44
0.00000001
 40
0.0
 40
0.0
 40
0.0
 40
0.0
 40
0.3859163609179446
 40
0.7715558448069169
 40
0.9616234496912658
 40
1.151791948032908
 40
1.329659259396726
 40
1.507122060718115
 40
1.665207836546732
 40
1.823046721997029
 40
1.966767032957696
 40
2.110707944107617
 40
2.248536979641262
 40
2.386344248943752
 40
2.522014420566165
 40
2.657545986420056
 40
2.657545986420056
 40
2.657545986420056
 40
2.657545986420056
 10
239.747003734809
 20
205.5011617734015
 30
0.0
 10
239.8320544330536
 20
205.597758463988
 30
0.0
 10
240.002094798677
 20
205.7908825508004
 30
0.0
 10
240.1846684514736
 20
206.0556442421729
 30
0.0
 10
240.3075293430499
 20
206.2796995781936
 30
0.0
 10
240.3801053867601
 20
206.451456488158
 30
0.0
 10
240.4294756418398
 20
206.6270562393154
 30
0.0
 10
240.4476615048916
 20
206.7983831909417
 30
0.0
 10
240.4310082827416
 20
206.963078302422
 30
0.0
 10
240.3847468593779
 20
207.1104517989142
 30
0.0
 10
240.3102222938061
 20
207.2400170611145
 30
0.0
 10
240.2182282633011
 20
207.3488303217838
 30
0.0
 10
240.1120377606889
 20
207.4406180550729
 30
0.0
 10
239.9968673214807
 20
207.5155517985736
 30
0.0
 10
239.8749059816901
 20
207.5773193002191
 30
0.0
 10
239.7896232897185
 20
207.6075290558361
 30
0.0
 10
239.747003734808
 20
207.6226262084585
 30
0.0
 11
239.747003734809
 21
205.5011617734015
 31
0.0
 11
239.9962633695791
 21
205.7957819875174
 31
0.0
 11
240.2141944536297
 21
206.1139389536934
 31
0.0
 11
240.3046269596429
 21
206.2811144800594
 31
0.0
 11
240.3778201802301
 21
206.4566331702464
 31
0.0
 11
240.4246079058734
 21
206.6282364614654
 31
0.0
 11
240.4418555075872
 21
206.8048591284424
 31
0.0
 11
240.4257083984435
 21
206.9621180986424
 31
0.0
 11
240.377820724218
 21
207.1125171835226
 31
0.0
 11
240.3067462017828
 21
207.2374329162236
 31
0.0
 11
240.2141948391204
 21
207.347674611541
 31
0.0
 11
240.1101768020669
 21
207.4381018817593
 31
0.0
 11
239.9950067284543
 21
207.5137768303879
 31
0.0
 11
239.8737600953305
 21
207.5746508794358
 31
0.0
 11
239.747003734808
 21
207.6226262084585
 31
0.0
  0
SPLINE
  5
167
330
1F
100
AcDbEntity
  8
0
  6
DASHED
 62
     2
100
AcDbSpline
210
0.0
220
0.0
230
1.0
 70
     8
 71
     3
 72
     9
 73
     5
 74
     3
 42
0.000000001
 43
0.0000000001
 44
0.00000001
 40
0.0
 40
0.0
 40
0.0
 40
0.0
 40
0.1469406219306189
 40
0.293866962546986
 40
0.293866962546986
 40
0.293866962546986
 40
0.293866962546986
 10
239.411166715962
 20
205.1371534441235
 30
0.0
 10
239.378283071293
 20
205.1008102062822
 30
0.0
 10
239.3125189931916
 20
205.0281272499142
 30
0.0
 10
239.2540634656342
 20
204.9494464011331
 30
0.0
 10
239.224837130087
 20
204.9101078823915
 30
0.0
 11
239.411166715962
 21
205.1371534441235
 31
0.0
 11
239.3143431046964
 21
205.0266241051705
 31
0.0
 11
239.224837130087
 21
204.9101078823915
 31
0.0
  0
SPLINE
  5
168
330
1F
100
AcDbEntity
  8
0
  6
DASHED
 62
     2
100
AcDbSpline
210
0.0
220
0.0
230
1.0
 70
     8
 71
     3
 72
    21
 73
    17
 74
    15
 42
0.000000001
 43
0.0000000001
 44
0.00000001
 40
0.0
 40
0.0
 40
0.0
 40
0.0
 40
0.1089522114892342
 40
0.2178747595451871
 40
0.2671895826272045
 40
0.3165280145389308
 40
0.3595859814518776
 40
0.4025747735138655
 40
0.436866617932936
 40
0.4713324147931066
 40
0.4968370817395219
 40
0.5221158174863361
 40
0.5414867441935771
 40
0.5606343395001044
 40
0.5808566730580648
 40
0.6012783023343351
 40
0.6012783023343351
 40
0.6012783023343351
 40
0.6012783023343351
 10
239.224837130087
 20
204.9101078823915
 30
0.0
 10
239.2041083946876
 20
204.8802761780788
 30
0.0
 10
239.1626565679825
 20
204.82062089115
 30
0.0
 10
239.1176223373519
 20
204.7436497267422
 30
0.0
 10
239.0860339180762
 20
204.6820757154836
 30
0.0
 10
239.0663818259626
 20
204.6390996760391
 30
0.0
 10
239.0496240716724
 20
204.5971745614594
 30
0.0
 10
239.0372781918501
 20
204.5589659418408
 30
0.0
 10
239.0287291778581
 20
204.5226603501958
 30
0.0
 10
239.0248616917976
 20
204.4914065353414
 30
0.0
 10
239.0246878547082
 20
204.4629015086045
 30
0.0
 10
239.0298989896525
 20
204.4397295471527
 30
0.0
 10
239.0407426811684
 20
204.4211267371327
 30
0.0
 10
239.0553906500184
 20
204.4075499262234
 30
0.0
 10
239.0745332907
 20
204.400396304255
 30
0.0
 10
239.0881023961432
 20
204.3996976983323
 30
0.0
 10
239.094920217087
 20
204.3993466848915
 30
0.0
 11
239.224837130087
 21
204.9101078823915
 31
0.0
 11
239.1638336275155
 21
204.8198352127451
 31
0.0
 11
239.1088029652025
 21
204.7258365548806
 31
0.0
 11
239.0863703289685
 21
204.6819192620941
 31
0.0
 11
239.0659033963221
 21
204.6370262166574
 31
0.0
 11
239.050071982503
 21
204.5969843030254
 31
0.0
 11
239.0370098292985
 21
204.5560280288977
 31
0.0
 11
239.0293491966042
 21
204.5226028094673
 31
0.0
 11
239.0252663352775
 21
204.4883796975971
 31
0.0
 11
239.025664984456
 21
204.4628781465465
 31
0.0
 11
239.0317073176284
 21
204.4383321759015
 31
0.0
 11
239.0415540705318
 21
204.4216506219813
 31
0.0
 11
239.0557818699729
 21
204.4088365630214
 31
0.0
 11
239.0746072851826
 21
204.4014510004095
 31
0.0
 11
239.094920217087
 21
204.3993466848915
 31
0.0
  0
SPLINE
  5
169
330
1F
100
AcDbEntity
  8
0
  6
DASHED
 62
     2
100
AcDbSpline
210
0.0
220
0.0
230
1.0
 70
     8
 71
     3
 72
    21
 73
    17
 74
    15
 42
0.000000001
 43
0.0000000001
 44
0.00000001
 40
0.0
 40
0.0
 40
0.0
 40
0.0
 40
0.0206059828957974
 40
0.0410189864153549
 40
0.0603972170765029
 40
0.0799940683113438
 40
0.1057280484186576
 40
0.1317104893057029
 40
0.1668440471488486
 40
0.2017835972408468
 40
0.2454616162180112
 40
0.2892179438707138
 40
0.3392977127253025
 40
0.3893508183249369
 40
0.4995617693558271
 40
0.6098025483717127
 40
0.6098025483717127
 40
0.6098025483717127
 40
0.6098025483717127
 10
239.094972658187
 20
212.2103933578915
 30
0.0
 10
239.0880929329662
 20
212.2100245415801
 30
0.0
 10
239.0743979135966
 20
212.2092903585735
 30
0.0
 10
239.0551020501672
 20
212.2019400538242
 30
0.0
 10
239.0403817830465
 20
212.1881175777959
 30
0.0
 10
239.0295266665718
 20
212.1691609237196
 30
0.0
 10
239.0244892481926
 20
212.1455411434991
 30
0.0
 10
239.0250071826953
 20
212.1165086898743
 30
0.0
 10
239.0291920207927
 20
212.0846963135742
 30
0.0
 10
239.0381022483677
 20
212.0477894301424
 30
0.0
 10
239.0508777529575
 20
212.0090065922426
 30
0.0
 10
239.0681305875505
 20
211.9665158322555
 30
0.0
 10
239.0883064226751
 20
211.9229816506187
 30
0.0
 10
239.1206121266115
 20
211.860739695039
 30
0.0
 10
239.1665250086591
 20
211.7830031833122
 30
0.0
 10
239.2087068369465
 20
211.7228094677519
 30
0.0
 10
239.229800604987
 20
211.6927085378915
 30
0.0
 11
239.094972658187
 21
212.2103933578915
 31
0.0
 11
239.0744824061906
 21
212.2082124148103
 31
0.0
 11
239.0555214180254
 21
212.2006512207711
 31
0.0
 11
239.0412078372542
 21
212.1875884031248
 31
0.0
 11
239.031378927052
 21
212.1706346694909
 31
0.0
 11
239.0254876938239
 21
212.1455840989094
 31
0.0
 11
239.0253679773962
 21
212.1196019340068
 31
0.0
 11
239.0298128592102
 21
212.0847506800658
 31
0.0
 11
239.0378225187956
 21
212.0507416002898
 31
0.0
 11
239.0513292084422
 21
212.0092044040661
 31
0.0
 11
239.0676383093073
 21
211.9686010860414
 31
0.0
 11
239.0886449730542
 21
211.9231400772135
 31
0.0
 11
239.1116251629467
 21
211.8786740873888
 31
0.0
 11
239.1677107483863
 21
211.7838012207039
 31
0.0
 11
239.229800604987
 21
211.6927085378915
 31
0.0
  0
SPLINE
  5
16A
330
1F
100
AcDbEntity
  8
0
  6
DASHED
 62
     2
100
AcDbSpline
210
0.0
220
0.0
230
1.0
 70
     8
 71
     3
 72
     9
 73
     5
 74
     3
 42
0.000000001
 43
0.0000000001
 44
0.00000001
 40
0.0
 40
0.0
 40
0.0
 40
0.0
 40
0.1426779703872834
 40
0.2853681008781587
 40
0.2853681008781587
 40
0.2853681008781587
 40
0.2853681008781587
 10
239.229800604987
 20
211.6927085378915
 30
0.0
 10
239.2583116761627
 20
211.6546066746201
 30
0.0
 10
239.3153362640641
 20
211.5783997132109
 30
0.0
 10
239.379222319514
 20
211.5078456372532
 30
0.0
 10
239.411166716007
 20
211.4725671025225
 30
0.0
 11
239.229800604987
 21
211.6927085378915
 31
0.0
 11
239.3170490471145
 21
211.5798160551079
 31
0.0
 11
239.411166716007
 21
211.4725671025225
 31
0.0
  0
SPLINE
  5
16B
330
1F
100
AcDbEntity
  8
A_RUNDUNGEN
  6
Continuous
 62
     7
100
AcDbSpline
210
0.0
220
0.0
230
1.0
 70
     8
 71
     3
 72
    17
 73
    13
 74
    11
 42
0.000000001
 43
0.0000000001
 44
0.00000001
 40
0.0
 40
0.0
 40
0.0
 40
0.0
 40
0.0095427471480112
 40
0.0197323702441038
 40
0.0364016261502939
 40
0.0526522003439945
 40
0.1083675447486917
 40
0.1646270362132002
 40
0.2466144151357907
 40
0.3283323721977345
 40
0.4247897187865616
 40
0.5212942593406267
 40
0.5212942593406267
 40
0.5212942593406267
 40
0.5212942593406267
 10
268.4322112226074
 20
152.5884948618004
 30
0.0
 10
268.4315095866876
 20
152.5916609283269
 30
0.0
 10
268.430058766928
 20
152.5982076844779
 30
0.0
 10
268.4212558497002
 20
152.607122484598
 30
0.0
 10
268.4096568741047
 20
152.6155556857283
 30
0.0
 10
268.3826346757962
 20
152.6278480009329
 30
0.0
 10
268.3420472284753
 20
152.6414434847746
 30
0.0
 10
268.2788532576766
 20
152.6554517215506
 30
0.0
 10
268.2064335205916
 20
152.6671447457018
 30
0.0
 10
268.1201529155075
 20
152.6761530318423
 30
0.0
 10
268.0287440741072
 20
152.682072322164
 30
0.0
 10
267.9644185368188
 20
152.6828280176799
 30
0.0
 10
267.9322479020074
 20
152.6832059624003
 30
0.0
 11
268.4322112226074
 21
152.5884948618004
 31
0.0
 11
268.4293296090855
 21
152.5975921324295
 31
0.0
 11
268.4227175268382
 21
152.6053451166042
 31
0.0
 11
268.4092419464718
 21
152.6151569870467
 31
0.0
 11
268.3946234940237
 21
152.6222550145229
 31
0.0
 11
268.3419623758641
 21
152.6404485896228
 31
0.0
 11
268.2871570627535
 21
152.6531571697507
 31
0.0
 11
268.2062459465706
 21
152.6663980744571
 31
0.0
 11
268.1249982831134
 21
152.6751525979377
 31
0.0
 11
268.0287320200145
 21
152.6812210674432
 31
0.0
 11
267.9322479020074
 21
152.6832059624003
 31
0.0
  0
SPLINE
  5
16C
330
1F
100
AcDbEntity
  8
A_RUNDUNGEN
  6
Continuous
 62
     7
100
AcDbSpline
210
0.0
220
0.0
230
1.0
 70
     8
 71
     3
 72
    15
 73
    11
 74
     9
 42
0.000000001
 43
0.0000000001
 44
0.00000001
 40
0.0
 40
0.0
 40
0.0
 40
0.0
 40
0.0996993449790683
 40
0.1998274894533212
 40
0.2997666990108466
 40
0.3996149139190194
 40
0.499457934702394
 40
0.5994007035571913
 40
0.6994941777009537
 40
0.7992331154250609
 40
0.7992331154250609
 40
0.7992331154250609
 40
0.7992331154250609
 10
245.8933526642073
 20
152.7860294418003
 30
0.0
 10
245.9266372003528
 20
152.7839735372421
 30
0.0
 10
245.9933494254451
 20
152.7798528714994
 30
0.0
 10
246.0892048431839
 20
152.7480331759604
 30
0.0
 10
246.1767224119423
 20
152.6985939024463
 30
0.0
 10
246.2525503117359
 20
152.6325382428072
 30
0.0
 10
246.3141526165978
 20
152.5530947141078
 30
0.0
 10
246.3592612448178
 20
152.4633495985553
 30
0.0
 10
246.3879035481453
 20
152.3666990243163
 30
0.0
 10
246.3915384466453
 20
152.3000002228484
 30
0.0
 10
246.3933526642073
 20
152.2667099889004
 30
0.0
 11
245.8933526642073
 21
152.7860294418003
 31
0.0
 11
245.9925057798119
 21
152.7756073749875
 31
0.0
 11
246.0878641813028
 21
152.7450718050253
 31
0.0
 11
246.1748124701492
 21
152.6957986781519
 31
0.0
 11
246.2501811967931
 21
152.630306530744
 31
0.0
 11
246.3113793628944
 21
152.5514179158923
 31
0.0
 11
246.3564983865807
 21
152.4622392690949
 31
0.0
 11
246.3840591378483
 21
152.3660150055374
 31
0.0
 11
246.3933526642073
 21
152.2667099889004
 31
0.0
  0
LWPOLYLINE
  5
16D
330
1F
100
AcDbEntity
  8
0
  6
Continuous
 62
     2
 60
     1
100
AcDbPolyline
 90
       15
 70
     0
 43
0.0
 10
241.891855508487
 20
242.8048602732915
 10
241.891855508487
 20
181.3048602732915
 10
251.891855508487
 20
181.3048602732915
 10
251.891855508487
 20
189.8048602732915
 10
254.891855508487
 20
186.8257252493774
 10
261.891855508487
 20
186.8257252493774
 10
264.891855508487
 20
189.8048602732915
 10
264.891855508487
 20
242.8048602732915
 10
241.891855508487
 20
242.8048602732915
 10
263.891855508487
 20
190.8048602732915
 10
263.891855508487
 20
190.2190738356915
 10
261.477641946087
 20
187.8048602732915
 10
255.306069070887
 20
187.8048602732915
 10
252.891855508487
 20
190.2190738356915
 10
252.891855508487
 20
190.8048602732915
  0
ARC
  5
16E
330
1F
100
AcDbEntity
  8
1
  6
DASHED
 62
     2
100
AcDbCircle
 10
246.2170629901383
 20
167.9974914445519
 30
0.0
 40
1.000000000000125
100
AcDbArc
 50
344.9999999992556
 51
75.00000000014937
  0
ARC
  5
16F
330
1F
100
AcDbEntity
  8
1
  6
DASHED
 62
     2
100
AcDbCircle
 10
245.1817868096788
 20
164.1337881394089
 30
0.0
 40
1.000000000000011
100
AcDbArc
 50
255.0000000001608
 51
344.9999999992645
  0
ARC
  5
170
330
1F
100
AcDbEntity
  8
1
  6
DASHED
 62
     2
100
AcDbCircle
 10
260.7173515340119
 20
168.1870248343046
 30
0.0
 40
1.000000000000061
100
AcDbArc
 50
104.9999999999632
 51
195.0000000000915
  0
ARC
  5
171
330
1F
100
AcDbEntity
  8
1
  6
DASHED
 62
     2
100
AcDbCircle
 10
261.7526277144281
 20
164.32332152915
 30
0.0
 40
0.9999999999999738
100
AcDbArc
 50
195.0000000000893
 51
284.9999999999569
  0
DIMENSION
  5
17D
330
1F
100
AcDbEntity
  8
1
100
AcDbDimension
280
     0
  2
*D1
 10
324.617827324044
 20
186.8257038647004
 30
0.0
 11
320.867827324044
 21
167.138607091336
 31
0.0
 70
    32
  1
<>
 71
     5
 42
-1.0
 73
     0
 74
     0
 75
     0
 53
90.0
  3
ME10_DIM_10
100
AcDbAlignedDimension
 13
304.9299798879074
 23
146.8257038647004
 33
0.0
 14
304.9299798879074
 24
186.8257038647004
 34
0.0
 50
90.0
100
AcDbRotatedDimension
  0
DIMENSION
  5
188
330
1F
100
AcDbEntity
  8
1
100
AcDbDimension
280
     0
  2
*D2
 10
315.0292230610113
 20
181.3319040373004
 30
0.0
 11
311.2792230610113
 21
169.8143902171034
 31
0.0
 70
    32
  1
<>
 71
     5
 42
-1.0
 73
     0
 74
     0
 75
     0
 53
90.0
  3
ME10_DIM_11
100
AcDbAlignedDimension
 13
288.9321132907073
 23
152.3319062165004
 33
0.0
 14
288.9433558024074
 24
181.3319040373004
 34
0.0
 50
90.0
100
AcDbRotatedDimension
  0
DIMENSION
  5
193
330
1F
100
AcDbEntity
  8
1
100
AcDbDimension
280
     0
  2
*D3
 10
254.9317356504066
 20
126.7160068468624
 30
0.0
 11
271.0109493044599
 21
130.4660068468624
 31
0.0
 70
    32
  1
<>
 71
     5
 42
-1.0
 73
     0
 74
     0
 75
     0
 53
0.00013888888889
  3
ME10_DIM_12
100
AcDbAlignedDimension
 13
288.9321132907073
 23
152.3319062165004
 33
0.0
 14
254.9317356504067
 24
146.8257038647004
 34
0.0
100
AcDbRotatedDimension
  0
DIMENSION
  5
1A0
330
1F
100
AcDbEntity
  8
1
100
AcDbDimension
280
     0
  2
*D4
 10
315.0292230610113
 20
146.8257038647004
 30
0.0
 11
311.2792230610113
 21
140.9135873636454
 31
0.0
 70
    32
  1
<>
 71
     5
 42
-1.0
 73
     0
 74
     0
 75
     0
 53
90.0
  3
ME10_DIM_13
100
AcDbAlignedDimension
 13
288.9321132907073
 23
152.3319062165004
 33
0.0
 14
304.9299798879074
 24
146.8257038647004
 34
0.0
 50
90.0
100
AcDbRotatedDimension
  0
DIMENSION
  5
1AD
330
1F
100
AcDbEntity
  8
1
100
AcDbDimension
280
     0
  2
*D5
 10
251.9317363032982
 20
136.7645100479974
 30
0.0
 11
248.5380946483072
 21
140.5145100479974
 31
0.0
 70
    32
  1
<>
 71
     5
 42
-1.0
 73
     0
 74
     0
 75
     0
 53
0.00013888888889
  3
ME10_DIM_14
100
AcDbAlignedDimension
 13
254.9317356504067
 23
146.8257038647004
 33
0.0
 14
251.9317363032981
 24
146.8257038647004
 34
0.0
100
AcDbRotatedDimension
  0
DIMENSION
  5
1B8
330
1F
100
AcDbEntity
  8
1
100
AcDbDimension
280
     0
  2
*D6
 10
251.9317363032982
 20
126.7160068468624
 30
0.0
 11
237.3910553231268
 21
130.4660068468624
 31
0.0
 70
    32
  1
<>
 71
     5
 42
-1.0
 73
     0
 74
     0
 75
     0
 53
0.00013888888889
  3
ME10_DIM_15
100
AcDbAlignedDimension
 13
219.8933526642073
 23
152.2462486079004
 33
0.0
 14
251.9317363032981
 24
146.8257038647004
 34
0.0
100
AcDbRotatedDimension
  0
ENDSEC
  0
SECTION
  2
OBJECTS
  0
DICTIONARY
  5
C
330
0
100
AcDbDictionary
281
     1
  3
ACAD_GROUP
350
D
  3
ACAD_LAYOUT
350
1A
  3
ACAD_MATERIAL
350
3B
  3
ACAD_MLEADERSTYLE
350
1BA
  3
ACAD_MLINESTYLE
350
17
  3
ACAD_PLOTSETTINGS
350
19
  3
ACAD_PLOTSTYLENAME
350
E
  3
ACAD_TABLESTYLE
350
1B9
  3
ACAD_VISUALSTYLE
350
2A
  0
DICTIONARY
  5
D
102
{ACAD_REACTORS
330
C
102
}
330
C
100
AcDbDictionary
281
     1
  0
DICTIONARY
  5
1A
102
{ACAD_REACTORS
330
C
102
}
330
C
100
AcDbDictionary
281
     1
  3
Layout1
350
1E
  3
Layout2
350
26
  3
Model
350
22
  0
DICTIONARY
  5
3B
102
{ACAD_REACTORS
330
C
102
}
330
C
100
AcDbDictionary
281
     1
  3
ByBlock
350
3D
  3
ByLayer
350
3C
  3
Global
350
3E
  0
DICTIONARY
  5
1BA
102
{ACAD_REACTORS
330
C
102
}
330
C
100
AcDbDictionary
281
     1
  0
DICTIONARY
  5
17
102
{ACAD_REACTORS
330
C
102
}
330
C
100
AcDbDictionary
281
     1
  3
Standard
350
18
  0
DICTIONARY
  5
19
102
{ACAD_REACTORS
330
C
102
}
330
C
100
AcDbDictionary
281
     1
  0
ACDBDICTIONARYWDFLT
  5
E
102
{ACAD_REACTORS
330
C
102
}
330
C
100
AcDbDictionary
281
     1
  3
Normal
350
F
100
AcDbDictionaryWithDefault
340
F
  0
DICTIONARY
  5
1B9
102
{ACAD_REACTORS
330
C
102
}
330
C
100
AcDbDictionary
281
     1
  0
DICTIONARY
  5
2A
102
{ACAD_REACTORS
330
C
102
}
330
C
100
AcDbDictionary
281
     1
  3
2dWireframe
350
2F
  3
3D Hidden
350
31
  3
3dWireframe
350
30
  3
Basic
350
32
  3
Brighten
350
36
  3
ColorChange
350
3A
  3
Conceptual
350
34
  3
Dim
350
35
  3
Facepattern
350
39
  3
Flat
350
2B
  3
FlatWithEdges
350
2C
  3
Gouraud
350
2D
  3
GouraudWithEdges
350
2E
  3
Linepattern
350
38
  3
Realistic
350
33
  3
Thicken
350
37
  0
LAYOUT
  5
1E
102
{ACAD_REACTORS
330
1A
102
}
330
1A
100
AcDbPlotSettings
  1

  2
none_device
  4

  6

 40
0.0
 41
0.0
 42
0.0
 43
0.0
 44
0.0
 45
0.0
 46
0.0
 47
0.0
 48
0.0
 49
0.0
140
0.0
141
0.0
142
1.0
143
1.0
 70
   688
 72
     0
 73
     0
 74
     5
  7

 75
    16
 76
     0
 77
     2
 78
   300
147
1.0
148
0.0
149
0.0
100
AcDbLayout
  1
Layout1
 70
     1
 71
     1
 10
0.0
 20
0.0
 11
12.0
 21
9.0
 12
0.0
 22
0.0
 32
0.0
 14
1.00000000000000E+20
 24
1.00000000000000E+20
 34
1.00000000000000E+20
 15
-1.00000000000000E+20
 25
-1.00000000000000E+20
 35
-1.00000000000000E+20
146
0.0
 13
0.0
 23
0.0
 33
0.0
 16
1.0
 26
0.0
 36
0.0
 17
0.0
 27
1.0
 37
0.0
 76
     0
330
1B
  0
LAYOUT
  5
26
102
{ACAD_REACTORS
330
1A
102
}
330
1A
100
AcDbPlotSettings
  1

  2
none_device
  4

  6

 40
0.0
 41
0.0
 42
0.0
 43
0.0
 44
0.0
 45
0.0
 46
0.0
 47
0.0
 48
0.0
 49
0.0
140
0.0
141
0.0
142
1.0
143
1.0
 70
   688
 72
     0
 73
     0
 74
     5
  7

 75
    16
 76
     0
 77
     2
 78
   300
147
1.0
148
0.0
149
0.0
100
AcDbLayout
  1
Layout2
 70
     1
 71
     2
 10
0.0
 20
0.0
 11
0.0
 21
0.0
 12
0.0
 22
0.0
 32
0.0
 14
0.0
 24
0.0
 34
0.0
 15
0.0
 25
0.0
 35
0.0
146
0.0
 13
0.0
 23
0.0
 33
0.0
 16
1.0
 26
0.0
 36
0.0
 17
0.0
 27
1.0
 37
0.0
 76
     0
330
23
  0
LAYOUT
  5
22
102
{ACAD_REACTORS
330
1A
102
}
330
1A
100
AcDbPlotSettings
  1

  2
none_device
  4

  6

 40
0.0
 41
0.0
 42
0.0
 43
0.0
 44
0.0
 45
0.0
 46
0.0
 47
0.0
 48
0.0
 49
0.0
140
0.0
141
0.0
142
1.0
143
1.0
 70
  1712
 72
     0
 73
     0
 74
     0
  7

 75
     0
 76
     0
 77
     2
 78
   300
147
1.0
148
0.0
149
0.0
100
AcDbLayout
  1
Model
 70
     1
 71
     0
 10
0.0
 20
0.0
 11
12.0
 21
9.0
 12
0.0
 22
0.0
 32
0.0
 14
201.891855508487
 24
124.7160068468624
 34
0.0
 15
326.617827324044
 25
242.8048602732915
 35
0.0
146
0.0
 13
0.0
 23
0.0
 33
0.0
 16
1.0
 26
0.0
 36
0.0
 17
0.0
 27
1.0
 37
0.0
 76
     0
330
1F
331
29
  0
MATERIAL
  5
3D
102
{ACAD_REACTORS
330
3B
102
}
330
3B
100
AcDbMaterial
  1
ByBlock
 72
     1
 94
      127
  0
MATERIAL
  5
3C
102
{ACAD_REACTORS
330
3B
102
}
330
3B
100
AcDbMaterial
  1
ByLayer
 72
     1
 94
      127
  0
MATERIAL
  5
3E
102
{ACAD_REACTORS
330
3B
102
}
330
3B
100
AcDbMaterial
  1
Global
 72
     1
 94
      127
  0
MLINESTYLE
  5
18
102
{ACAD_REACTORS
330
17
102
}
330
17
100
AcDbMlineStyle
  2
Standard
 70
     0
  3

 62
   256
 51
90.0
 52
90.0
 71
     2
 49
0.5
 62
   256
  6
BYLAYER
 49
-0.5
 62
   256
  6
BYLAYER
  0
ACDBPLACEHOLDER
  5
F
102
{ACAD_REACTORS
330
E
102
}
330
E
  0
VISUALSTYLE
  5
2F
102
{ACAD_REACTORS
330
2A
102
}
330
2A
100
AcDbVisualStyle
  2
2dWireframe
 70
     4
177
     2
291
     0
 71
     0
176
     1
 72
     2
176
     1
 73
     0
176
     1
 90
        0
176
     1
 40
-0.6
176
     1
 41
-30.0
176
     1
 62
     5
 63
     7
421
 16777215
176
     1
 74
     1
176
     1
 91
        4
176
     1
 64
     7
176
     1
 65
   257
176
     1
 75
     1
176
     1
175
     1
176
     1
 42
1.0
176
     1
 92
        0
176
     1
 66
   257
176
     1
 43
1.0
176
     1
 76
     1
176
     1
 77
     6
176
     1
 78
     2
176
     1
 67
     7
176
     1
 79
     5
176
     1
170
     0
176
     1
171
     0
176
     1
290
     0
176
     1
 93
        1
176
     1
 44
0.0
176
     1
173
     0
176
     1
  0
VISUALSTYLE
  5
31
102
{ACAD_REACTORS
330
2A
102
}
330
2A
100
AcDbVisualStyle
  2
3D Hidden
 70
     6
177
     2
291
     0
 71
     1
176
     1
 72
     2
176
     1
 73
     2
176
     1
 90
        0
176
     1
 40
-0.6
176
     1
 41
-30.0
176
     1
 62
     5
 63
     7
421
 16777215
176
     1
 74
     2
176
     1
 91
        2
176
     1
 64
     7
176
     1
 65
   257
176
     1
 75
     2
176
     1
175
     1
176
     1
 42
40.0
176
     1
 92
        0
176
     1
 66
   257
176
     1
 43
1.0
176
     1
 76
     1
176
     1
 77
     6
176
     1
 78
     2
176
     1
 67
     7
176
     1
 79
     3
176
     1
170
     0
176
     1
171
     0
176
     1
290
     0
176
     1
 93
        1
176
     1
 44
0.0
176
     1
173
     0
176
     1
  0
VISUALSTYLE
  5
30
102
{ACAD_REACTORS
330
2A
102
}
330
2A
100
AcDbVisualStyle
  2
3dWireframe
 70
     5
177
     2
291
     0
 71
     0
176
     1
 72
     2
176
     1
 73
     0
176
     1
 90
        0
176
     1
 40
-0.6
176
     1
 41
-30.0
176
     1
 62
     5
 63
     7
421
 16777215
176
     1
 74
     1
176
     1
 91
        4
176
     1
 64
     7
176
     1
 65
   257
176
     1
 75
     1
176
     1
175
     1
176
     1
 42
1.0
176
     1
 92
        0
176
     1
 66
   257
176
     1
 43
1.0
176
     1
 76
     1
176
     1
 77
     6
176
     1
 78
     2
176
     1
 67
     7
176
     1
 79
     5
176
     1
170
     0
176
     1
171
     0
176
     1
290
     0
176
     1
 93
        1
176
     1
 44
0.0
176
     1
173
     0
176
     1
  0
VISUALSTYLE
  5
32
102
{ACAD_REACTORS
330
2A
102
}
330
2A
100
AcDbVisualStyle
  2
Basic
 70
     7
177
     2
291
     1
 71
     1
176
     1
 72
     0
176
     1
 73
     1
176
     1
 90
        0
176
     1
 40
-0.6
176
     1
 41
-30.0
176
     1
 62
     5
 63
     7
421
 16777215
176
     1
 74
     0
176
     1
 91
        4
176
     1
 64
     7
176
     1
 65
   257
176
     1
 75
     1
176
     1
175
     1
176
     1
 42
1.0
176
     1
 92
        8
176
     1
 66
     7
176
     1
 43
1.0
176
     1
 76
     1
176
     1
 77
     6
176
     1
 78
     2
176
     1
 67
     7
176
     1
 79
     5
176
     1
170
     0
176
     1
171
     0
176
     1
290
     0
176
     1
 93
        1
176
     1
 44
0.0
176
     1
173
     0
176
     1
  0
VISUALSTYLE
  5
36
102
{ACAD_REACTORS
330
2A
102
}
330
2A
100
AcDbVisualStyle
  2
Brighten
 70
    12
177
     2
291
     1
 71
     2
176
     1
 72
     2
176
     1
 73
     0
176
     1
 90
        0
176
     1
 40
-0.6
176
     1
 41
-30.0
176
     1
 62
     5
 63
     7
421
 16777215
176
     1
 74
     1
176
     1
 91
        4
176
     1
 64
     7
176
     1
 65
   257
176
     1
 75
     1
176
     1
175
     1
176
     1
 42
1.0
176
     1
 92
        8
176
     1
 66
     7
176
     1
 43
1.0
176
     1
 76
     1
176
     1
 77
     6
176
     1
 78
     2
176
     1
 67
     7
176
     1
 79
     5
176
     1
170
     0
176
     1
171
     0
176
     1
290
     0
176
     1
 93
        1
176
     1
 44
50.0
176
     1
173
     0
176
     1
  0
VISUALSTYLE
  5
3A
102
{ACAD_REACTORS
330
2A
102
}
330
2A
100
AcDbVisualStyle
  2
ColorChange
 70
    16
177
     2
291
     1
 71
     2
176
     1
 72
     2
176
     1
 73
     3
176
     1
 90
        0
176
     1
 40
-0.6
176
     1
 41
-30.0
176
     1
 62
     5
 63
     8
421
  8421504
176
     1
 74
     1
176
     1
 91
        4
176
     1
 64
     7
176
     1
 65
   257
176
     1
 75
     1
176
     1
175
     1
176
     1
 42
1.0
176
     1
 92
        8
176
     1
 66
     8
424
  8421504
176
     1
 43
1.0
176
     1
 76
     1
176
     1
 77
     6
176
     1
 78
     2
176
     1
 67
     7
176
     1
 79
     5
176
     1
170
     0
176
     1
171
     0
176
     1
290
     0
176
     1
 93
        1
176
     1
 44
0.0
176
     1
173
     0
176
     1
  0
VISUALSTYLE
  5
34
102
{ACAD_REACTORS
330
2A
102
}
330
2A
100
AcDbVisualStyle
  2
Conceptual
 70
     9
177
     2
291
     0
 71
     3
176
     1
 72
     2
176
     1
 73
     0
176
     1
 90
        0
176
     1
 40
-0.6
176
     1
 41
-30.0
176
     1
 62
     5
 63
     7
421
 16777215
176
     1
 74
     2
176
     1
 91
        2
176
     1
 64
     7
176
     1
 65
   257
176
     1
 75
     1
176
     1
175
     1
176
     1
 42
40.0
176
     1
 92
        8
176
     1
 66
     7
176
     1
 43
1.0
176
     1
 76
     1
176
     1
 77
     6
176
     1
 78
     2
176
     1
 67
     7
176
     1
 79
     3
176
     1
170
     0
176
     1
171
     0
176
     1
290
     0
176
     1
 93
        1
176
     1
 44
0.0
176
     1
173
     0
176
     1
  0
VISUALSTYLE
  5
35
102
{ACAD_REACTORS
330
2A
102
}
330
2A
100
AcDbVisualStyle
  2
Dim
 70
    11
177
     2
291
     1
 71
     2
176
     1
 72
     2
176
     1
 73
     0
176
     1
 90
        0
176
     1
 40
-0.6
176
     1
 41
-30.0
176
     1
 62
     5
 63
     7
421
 16777215
176
     1
 74
     1
176
     1
 91
        4
176
     1
 64
     7
176
     1
 65
   257
176
     1
 75
     1
176
     1
175
     1
176
     1
 42
1.0
176
     1
 92
        8
176
     1
 66
     7
176
     1
 43
1.0
176
     1
 76
     1
176
     1
 77
     6
176
     1
 78
     2
176
     1
 67
     7
176
     1
 79
     5
176
     1
170
     0
176
     1
171
     0
176
     1
290
     0
176
     1
 93
        1
176
     1
 44
-50.0
176
     1
173
     0
176
     1
  0
VISUALSTYLE
  5
39
102
{ACAD_REACTORS
330
2A
102
}
330
2A
100
AcDbVisualStyle
  2
Facepattern
 70
    15
177
     2
291
     1
 71
     2
176
     1
 72
     2
176
     1
 73
     0
176
     1
 90
        0
176
     1
 40
-0.6
176
     1
 41
-30.0
176
     1
 62
     5
 63
     7
421
 16777215
176
     1
 74
     1
176
     1
 91
        4
176
     1
 64
     7
176
     1
 65
   257
176
     1
 75
     1
176
     1
175
     1
176
     1
 42
1.0
176
     1
 92
        8
176
     1
 66
     7
176
     1
 43
1.0
176
     1
 76
     1
176
     1
 77
     6
176
     1
 78
     2
176
     1
 67
     7
176
     1
 79
     5
176
     1
170
     0
176
     1
171
     0
176
     1
290
     0
176
     1
 93
        1
176
     1
 44
0.0
176
     1
173
     0
176
     1
  0
VISUALSTYLE
  5
2B
102
{ACAD_REACTORS
330
2A
102
}
330
2A
100
AcDbVisualStyle
  2
Flat
 70
     0
177
     2
291
     1
 71
     2
176
     1
 72
     1
176
     1
 73
     1
176
     1
 90
        2
176
     1
 40
-0.6
176
     1
 41
30.0
176
     1
 62
     5
 63
     7
421
 16777215
176
     1
 74
     0
176
     1
 91
        4
176
     1
 64
     7
176
     1
 65
   257
176
     1
 75
     1
176
     1
175
     1
176
     1
 42
1.0
176
     1
 92
        8
176
     1
 66
     7
176
     1
 43
1.0
176
     1
 76
     1
176
     1
 77
     6
176
     1
 78
     2
176
     1
 67
     7
176
     1
 79
     5
176
     1
170
     0
176
     1
171
     0
176
     1
290
     0
176
     1
 93
       13
176
     1
 44
0.0
176
     1
173
     0
176
     1
  0
VISUALSTYLE
  5
2C
102
{ACAD_REACTORS
330
2A
102
}
330
2A
100
AcDbVisualStyle
  2
FlatWithEdges
 70
     1
177
     2
291
     1
 71
     2
176
     1
 72
     1
176
     1
 73
     1
176
     1
 90
        2
176
     1
 40
-0.6
176
     1
 41
30.0
176
     1
 62
     5
 63
     7
421
 16777215
176
     1
 74
     1
176
     1
 91
        4
176
     1
 64
     7
176
     1
 65
   257
176
     1
 75
     1
176
     1
175
     1
176
     1
 42
1.0
176
     1
 92
        0
176
     1
 66
   257
176
     1
 43
1.0
176
     1
 76
     1
176
     1
 77
     6
176
     1
 78
     2
176
     1
 67
     7
176
     1
 79
     5
176
     1
170
     0
176
     1
171
     0
176
     1
290
     0
176
     1
 93
       13
176
     1
 44
0.0
176
     1
173
     0
176
     1
  0
VISUALSTYLE
  5
2D
102
{ACAD_REACTORS
330
2A
102
}
330
2A
100
AcDbVisualStyle
  2
Gouraud
 70
     2
177
     2
291
     1
 71
     2
176
     1
 72
     2
176
     1
 73
     1
176
     1
 90
        2
176
     1
 40
-0.6
176
     1
 41
30.0
176
     1
 62
     5
 63
     7
421
 16777215
176
     1
 74
     0
176
     1
 91
        4
176
     1
 64
     7
176
     1
 65
   257
176
     1
 75
     1
176
     1
175
     1
176
     1
 42
1.0
176
     1
 92
        0
176
     1
 66
     7
176
     1
 43
1.0
176
     1
 76
     1
176
     1
 77
     6
176
     1
 78
     2
176
     1
 67
     7
176
     1
 79
     5
176
     1
170
     0
176
     1
171
     0
176
     1
290
     0
176
     1
 93
       13
176
     1
 44
0.0
176
     1
173
     0
176
     1
  0
VISUALSTYLE
  5
2E
102
{ACAD_REACTORS
330
2A
102
}
330
2A
100
AcDbVisualStyle
  2
GouraudWithEdges
 70
     3
177
     2
291
     1
 71
     2
176
     1
 72
     2
176
     1
 73
     1
176
     1
 90
        2
176
     1
 40
-0.6
176
     1
 41
30.0
176
     1
 62
     5
 63
     7
421
 16777215
176
     1
 74
     1
176
     1
 91
        4
176
     1
 64
     7
176
     1
 65
   257
176
     1
 75
     1
176
     1
175
     1
176
     1
 42
1.0
176
     1
 92
        0
176
     1
 66
   257
176
     1
 43
1.0
176
     1
 76
     1
176
     1
 77
     6
176
     1
 78
     2
176
     1
 67
     7
176
     1
 79
     5
176
     1
170
     0
176
     1
171
     0
176
     1
290
     0
176
     1
 93
       13
176
     1
 44
0.0
176
     1
173
     0
176
     1
  0
VISUALSTYLE
  5
38
102
{ACAD_REACTORS
330
2A
102
}
330
2A
100
AcDbVisualStyle
  2
Linepattern
 70
    14
177
     2
291
     1
 71
     2
176
     1
 72
     2
176
     1
 73
     0
176
     1
 90
        0
176
     1
 40
-0.6
176
     1
 41
-30.0
176
     1
 62
     5
 63
     7
421
 16777215
176
     1
 74
     1
176
     1
 91
        4
176
     1
 64
     7
176
     1
 65
   257
176
     1
 75
     7
176
     1
175
     7
176
     1
 42
1.0
176
     1
 92
        8
176
     1
 66
     7
176
     1
 43
1.0
176
     1
 76
     1
176
     1
 77
     6
176
     1
 78
     2
176
     1
 67
     7
176
     1
 79
     5
176
     1
170
     0
176
     1
171
     0
176
     1
290
     0
176
     1
 93
        1
176
     1
 44
0.0
176
     1
173
     0
176
     1
  0
VISUALSTYLE
  5
33
102
{ACAD_REACTORS
330
2A
102
}
330
2A
100
AcDbVisualStyle
  2
Realistic
 70
     8
177
     2
291
     0
 71
     2
176
     1
 72
     2
176
     1
 73
     0
176
     1
 90
        0
176
     1
 40
-0.6
176
     1
 41
-30.0
176
     1
 62
     5
 63
     7
421
 16777215
176
     1
 74
     1
176
     1
 91
        0
176
     1
 64
     7
176
     1
 65
   257
176
     1
 75
     1
176
     1
175
     1
176
     1
 42
1.0
176
     1
 92
        8
176
     1
 66
     8
424
  7895160
176
     1
 43
1.0
176
     1
 76
     1
176
     1
 77
     6
176
     1
 78
     2
176
     1
 67
     7
176
     1
 79
     5
176
     1
170
     0
176
     1
171
     0
176
     1
290
     0
176
     1
 93
       13
176
     1
 44
0.0
176
     1
173
     0
176
     1
  0
VISUALSTYLE
  5
37
102
{ACAD_REACTORS
330
2A
102
}
330
2A
100
AcDbVisualStyle
  2
Thicken
 70
    13
177
     2
291
     1
 71
     2
176
     1
 72
     2
176
     1
 73
     0
176
     1
 90
        0
176
     1
 40
-0.6
176
     1
 41
-30.0
176
     1
 62
     5
 63
     7
421
 16777215
176
     1
 74
     1
176
     1
 91
        4
176
     1
 64
     7
176
     1
 65
   257
176
     1
 75
     1
176
     1
175
     1
176
     1
 42
1.0
176
     1
 92
       12
176
     1
 66
     7
176
     1
 43
1.0
176
     1
 76
     1
176
     1
 77
     6
176
     1
 78
     2
176
     1
 67
     7
176
     1
 79
     5
176
     1
170
     0
176
     1
171
     0
176
     1
290
     0
176
     1
 93
        1
176
     1
 44
0.0
176
     1
173
     0
176
     1
  0
ENDSEC
  0
EOF
