  0
SECTION
  2
HEADER
  9
$ACADVER
  1
AC1018
  9
$ACADMAINTVER
 70
     0
  9
$DWGCODEPAGE
  3
ANSI_1252
  9
$INSBASE
 10
0.0
 20
0.0
 30
0.0
  9
$EXTMIN
 10
56.14841806454039
 20
121.497602095862
 30
0.0
  9
$EXTMAX
 10
191.906306879807
 20
207.4578397329013
 30
0.0
  9
$LIMMIN
 10
0.0
 20
0.0
  9
$LIMMAX
 10
12.0
 20
9.0
  9
$ORTHOMODE
 70
     0
  9
$REGENMODE
 70
     1
  9
$FILLMODE
 70
     1
  9
$QTEXTMODE
 70
     0
  9
$MIRRTEXT
 70
     1
  9
$LTSCALE
 40
1.0
  9
$ATTMODE
 70
     1
  9
$TEXTSIZE
 40
0.2
  9
$TRACEWID
 40
0.05
  9
$TEXTSTYLE
  7
Standard
  9
$CLAYER
  8
0
  9
$CELTYPE
  6
ByLayer
  9
$CECOLOR
 62
   256
  9
$CELTSCALE
 40
1.0
  9
$DISPSILH
 70
     0
  9
$DIMSCALE
 40
1.0
  9
$DIMASZ
 40
0.18
  9
$DIMEXO
 40
0.0625
  9
$DIMDLI
 40
0.38
  9
$DIMRND
 40
0.0
  9
$DIMDLE
 40
0.0
  9
$DIMEXE
 40
0.18
  9
$DIMTP
 40
0.0
  9
$DIMTM
 40
0.0
  9
$DIMTXT
 40
0.18
  9
$DIMCEN
 40
0.09
  9
$DIMTSZ
 40
0.0
  9
$DIMTOL
 70
     0
  9
$DIMLIM
 70
     0
  9
$DIMTIH
 70
     1
  9
$DIMTOH
 70
     1
  9
$DIMSE1
 70
     0
  9
$DIMSE2
 70
     0
  9
$DIMTAD
 70
     0
  9
$DIMZIN
 70
     0
  9
$DIMBLK
  1

  9
$DIMASO
 70
     1
  9
$DIMSHO
 70
     1
  9
$DIMPOST
  1

  9
$DIMAPOST
  1

  9
$DIMALT
 70
     0
  9
$DIMALTD
 70
     2
  9
$DIMALTF
 40
25.4
  9
$DIMLFAC
 40
1.0
  9
$DIMTOFL
 70
     0
  9
$DIMTVP
 40
0.0
  9
$DIMTIX
 70
     0
  9
$DIMSOXD
 70
     0
  9
$DIMSAH
 70
     0
  9
$DIMBLK1
  1

  9
$DIMBLK2
  1

  9
$DIMSTYLE
  2
Standard
  9
$DIMCLRD
 70
     0
  9
$DIMCLRE
 70
     0
  9
$DIMCLRT
 70
     0
  9
$DIMTFAC
 40
1.0
  9
$DIMGAP
 40
0.09
  9
$DIMJUST
 70
     0
  9
$DIMSD1
 70
     0
  9
$DIMSD2
 70
     0
  9
$DIMTOLJ
 70
     1
  9
$DIMTZIN
 70
     0
  9
$DIMALTZ
 70
     0
  9
$DIMALTTZ
 70
     0
  9
$DIMUPT
 70
     0
  9
$DIMDEC
 70
     4
  9
$DIMTDEC
 70
     4
  9
$DIMALTU
 70
     2
  9
$DIMALTTD
 70
     2
  9
$DIMTXSTY
  7
Standard
  9
$DIMAUNIT
 70
     0
  9
$DIMADEC
 70
     0
  9
$DIMALTRND
 40
0.0
  9
$DIMAZIN
 70
     0
  9
$DIMDSEP
 70
    46
  9
$DIMATFIT
 70
     3
  9
$DIMFRAC
 70
     0
  9
$DIMLDRBLK
  1

  9
$DIMLUNIT
 70
     2
  9
$DIMLWD
 70
    -2
  9
$DIMLWE
 70
    -2
  9
$DIMTMOVE
 70
     0
  9
$LUNITS
 70
     2
  9
$LUPREC
 70
     4
  9
$SKETCHINC
 40
0.1
  9
$FILLETRAD
 40
0.5
  9
$AUNITS
 70
     0
  9
$AUPREC
 70
     0
  9
$MENU
  1
.
  9
$ELEVATION
 40
0.0
  9
$PELEVATION
 40
0.0
  9
$THICKNESS
 40
0.0
  9
$LIMCHECK
 70
     0
  9
$CHAMFERA
 40
0.5
  9
$CHAMFERB
 40
0.5
  9
$CHAMFERC
 40
1.0
  9
$CHAMFERD
 40
0.0
  9
$SKPOLY
 70
     0
  9
$TDCREATE
 40
2457084.603906343
  9
$TDUCREATE
 40
2457084.562239676
  9
$TDUPDATE
 40
2457084.603906354
  9
$TDUUPDATE
 40
2457084.562239687
  9
$TDINDWG
 40
0.0000000116
  9
$TDUSRTIMER
 40
0.0000000116
  9
$USRTIMER
 70
     1
  9
$ANGBASE
 50
0.0
  9
$ANGDIR
 70
     0
  9
$PDMODE
 70
     0
  9
$PDSIZE
 40
0.0
  9
$PLINEWID
 40
0.0
  9
$SPLFRAME
 70
     0
  9
$SPLINETYPE
 70
     6
  9
$SPLINESEGS
 70
     8
  9
$HANDSEED
  5
16C
  9
$SURFTAB1
 70
     6
  9
$SURFTAB2
 70
     6
  9
$SURFTYPE
 70
     6
  9
$SURFU
 70
     6
  9
$SURFV
 70
     6
  9
$UCSBASE
  2

  9
$UCSNAME
  2

  9
$UCSORG
 10
0.0
 20
0.0
 30
0.0
  9
$UCSXDIR
 10
1.0
 20
0.0
 30
0.0
  9
$UCSYDIR
 10
0.0
 20
1.0
 30
0.0
  9
$UCSORTHOREF
  2

  9
$UCSORTHOVIEW
 70
     0
  9
$UCSORGTOP
 10
0.0
 20
0.0
 30
0.0
  9
$UCSORGBOTTOM
 10
0.0
 20
0.0
 30
0.0
  9
$UCSORGLEFT
 10
0.0
 20
0.0
 30
0.0
  9
$UCSORGRIGHT
 10
0.0
 20
0.0
 30
0.0
  9
$UCSORGFRONT
 10
0.0
 20
0.0
 30
0.0
  9
$UCSORGBACK
 10
0.0
 20
0.0
 30
0.0
  9
$PUCSBASE
  2

  9
$PUCSNAME
  2

  9
$PUCSORG
 10
0.0
 20
0.0
 30
0.0
  9
$PUCSXDIR
 10
1.0
 20
0.0
 30
0.0
  9
$PUCSYDIR
 10
0.0
 20
1.0
 30
0.0
  9
$PUCSORTHOREF
  2

  9
$PUCSORTHOVIEW
 70
     0
  9
$PUCSORGTOP
 10
0.0
 20
0.0
 30
0.0
  9
$PUCSORGBOTTOM
 10
0.0
 20
0.0
 30
0.0
  9
$PUCSORGLEFT
 10
0.0
 20
0.0
 30
0.0
  9
$PUCSORGRIGHT
 10
0.0
 20
0.0
 30
0.0
  9
$PUCSORGFRONT
 10
0.0
 20
0.0
 30
0.0
  9
$PUCSORGBACK
 10
0.0
 20
0.0
 30
0.0
  9
$USERI1
 70
     0
  9
$USERI2
 70
     0
  9
$USERI3
 70
     0
  9
$USERI4
 70
     0
  9
$USERI5
 70
     0
  9
$USERR1
 40
14.5
  9
$USERR2
 40
0.0
  9
$USERR3
 40
0.0
  9
$USERR4
 40
0.0
  9
$USERR5
 40
0.0
  9
$WORLDVIEW
 70
     1
  9
$SHADEDGE
 70
     3
  9
$SHADEDIF
 70
    70
  9
$TILEMODE
 70
     1
  9
$MAXACTVP
 70
    64
  9
$PINSBASE
 10
0.0
 20
0.0
 30
0.0
  9
$PLIMCHECK
 70
     0
  9
$PEXTMIN
 10
1.00000000000000E+20
 20
1.00000000000000E+20
 30
1.00000000000000E+20
  9
$PEXTMAX
 10
-1.00000000000000E+20
 20
-1.00000000000000E+20
 30
-1.00000000000000E+20
  9
$PLIMMIN
 10
0.0
 20
0.0
  9
$PLIMMAX
 10
12.0
 20
9.0
  9
$UNITMODE
 70
     0
  9
$VISRETAIN
 70
     1
  9
$PLINEGEN
 70
     0
  9
$PSLTSCALE
 70
     1
  9
$TREEDEPTH
 70
  3020
  9
$CMLSTYLE
  2
Standard
  9
$CMLJUST
 70
     0
  9
$CMLSCALE
 40
1.0
  9
$PROXYGRAPHICS
 70
     1
  9
$MEASUREMENT
 70
     1
  9
$CELWEIGHT
370
    -1
  9
$ENDCAPS
280
     0
  9
$JOINSTYLE
280
     0
  9
$LWDISPLAY
290
     0
  9
$INSUNITS
 70
     1
  9
$HYPERLINKBASE
  1

  9
$STYLESHEET
  1

  9
$XEDIT
290
     1
  9
$CEPSNTYPE
380
     0
  9
$PSTYLEMODE
290
     1
  9
$FINGERPRINTGUID
  2
{D942FD5A-C71A-4AEA-B96E-C9EFEB05A096}
  9
$VERSIONGUID
  2
{FAEB1C32-E019-11D5-929B-00C0DF256EC4}
  9
$EXTNAMES
290
     1
  9
$PSVPSCALE
 40
0.0
  9
$OLESTARTUP
290
     0
  9
$SORTENTS
280
   127
  9
$INDEXCTL
280
     0
  9
$HIDETEXT
280
     1
  9
$XCLIPFRAME
290
     0
  9
$HALOGAP
280
     0
  9
$OBSCOLOR
 70
   257
  9
$OBSLTYPE
280
     0
  9
$INTERSECTIONDISPLAY
280
     0
  9
$INTERSECTIONCOLOR
 70
   257
  9
$DIMASSOC
280
     2
  9
$PROJECTNAME
  1

  0
ENDSEC
  0
SECTION
  2
CLASSES
  0
CLASS
  1
ACDBDICTIONARYWDFLT
  2
AcDbDictionaryWithDefault
  3
ObjectDBX Classes
 90
        0
 91
        3
280
     0
281
     0
  0
CLASS
  1

  2
exOdDbCircle
  3

 90
        0
 91
        3
280
     0
281
     1
  0
CLASS
  1

  2
exOdDbSpline
  3

 90
        0
 91
        3
280
     0
281
     1
  0
ENDSEC
  0
SECTION
  2
TABLES
  0
TABLE
  2
VPORT
  5
8
330
0
100
AcDbSymbolTable
 70
     1
  0
VPORT
  5
29
330
8
100
AcDbSymbolTableRecord
100
AcDbViewportTableRecord
  2
*Active
 70
     0
 10
0.0
 20
0.0
 11
1.0
 21
1.0
 12
124.0273624721737
 22
164.4777209143816
 13
0.0
 23
0.0
 14
0.5
 24
0.5
 15
0.5
 25
0.5
 16
0.0
 26
0.0
 36
1.0
 17
0.0
 27
0.0
 37
0.0
 40
94.55626140074324
 41
1.60267857142857
 42
50.0
 43
0.0
 44
0.0
 50
0.0
 51
0.0
 71
     0
 72
   100
 73
     1
 74
     3
 75
     0
 76
     0
 77
     0
 78
     0
281
     0
 65
     1
110
0.0
120
0.0
130
0.0
111
1.0
121
0.0
131
0.0
112
0.0
122
1.0
132
0.0
 79
     0
146
0.0
  0
ENDTAB
  0
TABLE
  2
LTYPE
  5
5
330
0
100
AcDbSymbolTable
 70
    10
  0
LTYPE
  5
14
330
5
100
AcDbSymbolTableRecord
100
AcDbLinetypeTableRecord
  2
ByBlock
 70
     0
  3

 72
    65
 73
     0
 40
0.0
  0
LTYPE
  5
15
330
5
100
AcDbSymbolTableRecord
100
AcDbLinetypeTableRecord
  2
ByLayer
 70
     0
  3

 72
    65
 73
     0
 40
0.0
  0
LTYPE
  5
16
330
5
100
AcDbSymbolTableRecord
100
AcDbLinetypeTableRecord
  2
Continuous
 70
     0
  3
Solid line
 72
    65
 73
     0
 40
0.0
  0
LTYPE
  5
2A
330
5
100
AcDbSymbolTableRecord
100
AcDbLinetypeTableRecord
  2
DASHED
 70
     0
  3
Dashed
 72
    65
 73
     2
 40
15.0
 49
7.0
 74
     0
 49
-8.0
 74
     0
  0
LTYPE
  5
2B
330
5
100
AcDbSymbolTableRecord
100
AcDbLinetypeTableRecord
  2
DOTTED
 70
     0
  3
Dotted
 72
    65
 73
     2
 40
1.0
 49
0.0
 74
     0
 49
-1.0
 74
     0
  0
LTYPE
  5
2C
330
5
100
AcDbSymbolTableRecord
100
AcDbLinetypeTableRecord
  2
DOT_CENTER
 70
     0
  3
Dot_Center
 72
    65
 73
     4
 40
14.0
 49
12.0
 74
     0
 49
-1.0
 74
     0
 49
0.0
 74
     0
 49
-1.0
 74
     0
  0
LTYPE
  5
2D
330
5
100
AcDbSymbolTableRecord
100
AcDbLinetypeTableRecord
  2
LONG_DASHED
 70
     0
  3
Long_Dashed
 72
    65
 73
     2
 40
15.0
 49
10.0
 74
     0
 49
-5.0
 74
     0
  0
LTYPE
  5
2E
330
5
100
AcDbSymbolTableRecord
100
AcDbLinetypeTableRecord
  2
DASH_CENTER
 70
     0
  3
Dash_Center
 72
    65
 73
     4
 40
14.0
 49
11.0
 74
     0
 49
-1.0
 74
     0
 49
1.0
 74
     0
 49
-1.0
 74
     0
  0
LTYPE
  5
2F
330
5
100
AcDbSymbolTableRecord
100
AcDbLinetypeTableRecord
  2
PHANTOM
 70
     0
  3
Phantom
 72
    65
 73
     6
 40
13.0
 49
10.0
 74
     0
 49
-1.0
 74
     0
 49
0.0
 74
     0
 49
-1.0
 74
     0
 49
0.0
 74
     0
 49
-1.0
 74
     0
  0
LTYPE
  5
30
330
5
100
AcDbSymbolTableRecord
100
AcDbLinetypeTableRecord
  2
CENTER_DASH_DASH
 70
     0
  3
Center_Dash_Dash
 72
    65
 73
     6
 40
14.0
 49
9.0
 74
     0
 49
-1.0
 74
     0
 49
1.0
 74
     0
 49
-1.0
 74
     0
 49
1.0
 74
     0
 49
-1.0
 74
     0
  0
LTYPE
  5
31
330
5
100
AcDbSymbolTableRecord
100
AcDbLinetypeTableRecord
  2
CENTER_5
 70
     0
  3
CENTER_5
 72
    65
 73
     4
 40
14.0
 49
8.0
 74
     0
 49
-2.0
 74
     0
 49
2.0
 74
     0
 49
-2.0
 74
     0
  0
LTYPE
  5
32
330
5
100
AcDbSymbolTableRecord
100
AcDbLinetypeTableRecord
  2
CENTER_6
 70
     0
  3
CENTER_6
 72
    65
 73
     4
 40
14.0
 49
8.0
 74
     0
 49
-2.0
 74
     0
 49
2.0
 74
     0
 49
-2.0
 74
     0
  0
ENDTAB
  0
TABLE
  2
LAYER
  5
2
330
0
100
AcDbSymbolTable
 70
     7
  0
LAYER
  5
10
330
2
100
AcDbSymbolTableRecord
100
AcDbLayerTableRecord
  2
0
 70
     0
 62
     7
  6
Continuous
370
    -3
390
F
  0
LAYER
  5
33
330
2
100
AcDbSymbolTableRecord
100
AcDbLayerTableRecord
  2
1
 70
     0
 62
     7
  6
Continuous
370
    -3
390
F
  0
LAYER
  5
34
330
2
100
AcDbSymbolTableRecord
100
AcDbLayerTableRecord
  2
A_ACHSEN
 70
     0
 62
     7
  6
Continuous
370
    -3
390
F
  0
LAYER
  5
35
330
2
100
AcDbSymbolTableRecord
100
AcDbLayerTableRecord
  2
A_BEMASSUNGEN
 70
     0
 62
     7
  6
Continuous
370
    -3
390
F
  0
LAYER
  5
36
330
2
100
AcDbSymbolTableRecord
100
AcDbLayerTableRecord
  2
A_NOTIZEN_SYMB
 70
     0
 62
     7
  6
Continuous
370
    -3
390
F
  0
LAYER
  5
37
330
2
100
AcDbSymbolTableRecord
100
AcDbLayerTableRecord
  2
A_RUNDUNGEN
 70
     0
 62
     7
  6
Continuous
370
    -3
390
F
  0
LAYER
  5
38
330
2
100
AcDbSymbolTableRecord
100
AcDbLayerTableRecord
  2
DEFAULT_1
 70
     0
 62
     7
  6
Continuous
370
    -3
390
F
  0
ENDTAB
  0
TABLE
  2
STYLE
  5
3
330
0
100
AcDbSymbolTable
 70
     2
  0
STYLE
  5
11
330
3
100
AcDbSymbolTableRecord
100
AcDbTextStyleTableRecord
  2
Standard
 70
     0
 40
0.0
 41
1.0
 50
0.0
 71
     0
 42
0.2
  3
txt
  4

  0
STYLE
  5
120
330
3
100
AcDbSymbolTableRecord
100
AcDbTextStyleTableRecord
  2
CONVERTER_11
 70
     0
 40
0.0
 41
0.9
 50
0.0
 71
     0
 42
0.2
  3
txt.shx
  4

  0
ENDTAB
  0
TABLE
  2
VIEW
  5
6
330
0
100
AcDbSymbolTable
 70
     0
  0
ENDTAB
  0
TABLE
  2
UCS
  5
7
330
0
100
AcDbSymbolTable
 70
     0
  0
ENDTAB
  0
TABLE
  2
APPID
  5
9
330
0
100
AcDbSymbolTable
 70
     1
  0
APPID
  5
12
330
9
100
AcDbSymbolTableRecord
100
AcDbRegAppTableRecord
  2
ACAD
 70
     0
  0
ENDTAB
  0
TABLE
  2
DIMSTYLE
  5
A
330
0
100
AcDbSymbolTable
 70
     8
100
AcDbDimStyleTable
  0
DIMSTYLE
105
27
330
A
100
AcDbSymbolTableRecord
100
AcDbDimStyleTableRecord
  2
Standard
 70
     0
340
11
  0
DIMSTYLE
105
124
102
{ACAD_REACTORS
330
125
102
}
330
A
100
AcDbSymbolTableRecord
100
AcDbDimStyleTableRecord
  2
ME10_DIM_10
 70
     0
 41
3.5
 42
0.0
 44
2.0
 73
     0
 74
     0
 77
     1
 78
     8
140
3.5
147
2.0
172
     1
173
     1
176
     2
177
     2
178
     2
271
     1
340
120
  0
DIMSTYLE
105
131
102
{ACAD_REACTORS
330
132
102
}
330
A
100
AcDbSymbolTableRecord
100
AcDbDimStyleTableRecord
  2
ME10_DIM_11
 70
     0
 41
3.5
 42
0.0
 44
2.0
 73
     0
 74
     0
 77
     1
 78
     8
140
3.5
147
2.0
172
     1
173
     1
176
     2
177
     2
178
     2
271
     3
340
120
  0
DIMSTYLE
105
13E
102
{ACAD_REACTORS
330
13F
102
}
330
A
100
AcDbSymbolTableRecord
100
AcDbDimStyleTableRecord
  2
ME10_DIM_12
 70
     0
 41
3.5
 42
0.0
 44
2.0
 73
     0
 74
     0
 77
     1
 78
     8
140
3.5
147
2.0
172
     1
173
     1
176
     2
177
     2
178
     2
271
     1
340
120
  0
DIMSTYLE
105
149
102
{ACAD_REACTORS
330
14A
102
}
330
A
100
AcDbSymbolTableRecord
100
AcDbDimStyleTableRecord
  2
ME10_DIM_13
 70
     0
 41
3.5
 42
0.0
 44
2.0
 73
     0
 74
     0
 77
     1
 78
     8
140
3.5
147
2.0
172
     1
173
     1
176
     2
177
     2
178
     2
271
     3
340
120
  0
DIMSTYLE
105
154
102
{ACAD_REACTORS
330
155
102
}
330
A
100
AcDbSymbolTableRecord
100
AcDbDimStyleTableRecord
  2
ME10_DIM_14
 70
     0
 41
3.5
 42
0.0
 44
2.0
 73
     0
 74
     0
 77
     1
 78
     8
140
3.5
147
2.0
172
     1
173
     1
176
     2
177
     2
178
     2
271
     1
340
120
  0
DIMSTYLE
105
15F
102
{ACAD_REACTORS
330
160
102
}
330
A
100
AcDbSymbolTableRecord
100
AcDbDimStyleTableRecord
  2
ME10_DIM_15
 70
     0
 41
3.5
 42
0.0
 44
2.0
 73
     0
 74
     0
 77
     1
 78
     8
140
3.5
147
2.0
172
     1
173
     1
176
     2
177
     2
178
     2
271
     3
340
120
  0
DIMSTYLE
105
16A
102
{ACAD_REACTORS
330
16B
102
}
330
A
100
AcDbSymbolTableRecord
100
AcDbDimStyleTableRecord
  2
ME10_DIM_16
 70
     0
 41
3.5
 42
0.0
 44
2.0
 73
     0
 74
     0
 77
     1
 78
     8
140
3.5
147
2.0
172
     1
173
     1
176
     2
177
     2
178
     2
271
     3
340
120
  0
ENDTAB
  0
TABLE
  2
BLOCK_RECORD
  5
1
330
0
100
AcDbSymbolTable
 70
     8
  0
BLOCK_RECORD
  5
1F
330
1
100
AcDbSymbolTableRecord
100
AcDbBlockTableRecord
  2
*Model_Space
340
22
  0
BLOCK_RECORD
  5
1B
330
1
100
AcDbSymbolTableRecord
100
AcDbBlockTableRecord
  2
*Paper_Space
340
1E
  0
BLOCK_RECORD
  5
23
330
1
100
AcDbSymbolTableRecord
100
AcDbBlockTableRecord
  2
*Paper_Space0
340
26
  0
BLOCK_RECORD
  5
11A
330
1
100
AcDbSymbolTableRecord
100
AcDbBlockTableRecord
  2
*D1
340
0
  0
BLOCK_RECORD
  5
126
330
1
100
AcDbSymbolTableRecord
100
AcDbBlockTableRecord
  2
*D2
340
0
  0
BLOCK_RECORD
  5
133
330
1
100
AcDbSymbolTableRecord
100
AcDbBlockTableRecord
  2
*D3
340
0
  0
BLOCK_RECORD
  5
140
330
1
100
AcDbSymbolTableRecord
100
AcDbBlockTableRecord
  2
*D4
340
0
  0
BLOCK_RECORD
  5
14B
330
1
100
AcDbSymbolTableRecord
100
AcDbBlockTableRecord
  2
*D5
340
0
  0
BLOCK_RECORD
  5
156
330
1
100
AcDbSymbolTableRecord
100
AcDbBlockTableRecord
  2
*D6
340
0
  0
BLOCK_RECORD
  5
161
330
1
100
AcDbSymbolTableRecord
100
AcDbBlockTableRecord
  2
*D7
340
0
  0
ENDTAB
  0
ENDSEC
  0
SECTION
  2
BLOCKS
  0
BLOCK
  5
20
330
1F
100
AcDbEntity
  8
0
100
AcDbBlockBegin
  2
*Model_Space
 70
     0
 71
     0
 10
0.0
 20
0.0
 30
0.0
  3
*Model_Space
  1

  0
ENDBLK
  5
21
330
1F
100
AcDbEntity
  8
0
100
AcDbBlockEnd
  0
BLOCK
  5
1C
330
1B
100
AcDbEntity
 67
     1
  8
0
100
AcDbBlockBegin
  2
*Paper_Space
 70
     0
 71
     0
 10
0.0
 20
0.0
 30
0.0
  3
*Paper_Space
  1

  0
ENDBLK
  5
1D
330
1B
100
AcDbEntity
 67
     1
  8
0
100
AcDbBlockEnd
  0
BLOCK
  5
24
330
23
100
AcDbEntity
  8
0
100
AcDbBlockBegin
  2
*Paper_Space0
 70
     0
 71
     0
 10
0.0
 20
0.0
 30
0.0
  3
*Paper_Space0
  1

  0
ENDBLK
  5
25
330
23
100
AcDbEntity
  8
0
100
AcDbBlockEnd
  0
BLOCK
  5
122
330
11A
100
AcDbEntity
  8
0
100
AcDbBlockBegin
  2
*D1
 70
     1
 71
     0
 10
0.0
 20
0.0
 30
0.0
  3
*D1
  1

  0
LINE
  5
11B
330
11A
100
AcDbEntity
  8
1
  6
Continuous
 62
     2
100
AcDbLine
 10
116.7400014316209
 20
123.497602095862
 30
0.0
 11
84.7016191882
 21
123.497602095862
 31
0.0
  0
LINE
  5
11C
330
11A
100
AcDbEntity
  8
1
  6
Continuous
 62
     2
100
AcDbLine
 10
84.7016191882
 20
149.0278438569
 30
0.0
 11
84.7016191882
 21
121.497602095862
 31
0.0
  0
LINE
  5
11D
330
11A
100
AcDbEntity
  8
1
  6
Continuous
 62
     2
100
AcDbLine
 10
116.7400014316209
 20
143.6205948835851
 30
0.0
 11
116.7400014316209
 21
121.497602095862
 31
0.0
  0
SOLID
  5
11E
330
11A
100
AcDbEntity
  8
1
 62
     2
100
AcDbTrace
 10
113.2400014316209
 20
123.0368183543061
 30
0.0
 11
113.2400014316209
 21
123.9583858374179
 31
0.0
 12
116.7400014316209
 22
123.497602095862
 32
0.0
 13
116.7400014316209
 23
123.497602095862
 33
0.0
  0
SOLID
  5
11F
330
11A
100
AcDbEntity
  8
1
 62
     2
100
AcDbTrace
 10
88.2016191882
 20
123.9583858374179
 30
0.0
 11
88.2016191882
 21
123.0368183543061
 31
0.0
 12
84.7016191882
 22
123.497602095862
 32
0.0
 13
84.7016191882
 23
123.497602095862
 33
0.0
  0
MTEXT
  5
121
330
11A
100
AcDbEntity
  8
1
 62
     2
100
AcDbMText
 10
99.574321084877
 20
125.497602095862
 30
0.0
 40
3.5
 41
0.0
 71
     7
 72
     1
  1
32
  7
CONVERTER_11
 11
0.9999999999970621
 21
2.424068405545307E-6
 31
0.0
 73
     1
 44
0.60024009603842
  0
ENDBLK
  5
123
330
11A
100
AcDbEntity
  8
0
100
AcDbBlockEnd
  0
BLOCK
  5
12F
330
126
100
AcDbEntity
  8
0
100
AcDbBlockBegin
  2
*D2
 70
     1
 71
     0
 10
0.0
 20
0.0
 30
0.0
  3
*D2
  1

  0
LINE
  5
127
330
126
100
AcDbEntity
  8
1
  6
Continuous
 62
     2
100
AcDbLine
 10
119.7400021743993
 20
133.546105296997
 30
0.0
 11
126.7400021743993
 21
133.546105296997
 31
0.0
  0
LINE
  5
128
330
126
100
AcDbEntity
  8
1
  6
Continuous
 62
     2
100
AcDbLine
 10
116.7400014316209
 20
133.546105296997
 30
0.0
 11
119.7400021743993
 21
133.546105296997
 31
0.0
  0
LINE
  5
129
330
126
100
AcDbEntity
  8
1
  6
Continuous
 62
     2
100
AcDbLine
 10
109.7400014316209
 20
133.546105296997
 30
0.0
 11
116.7400014316209
 21
133.546105296997
 31
0.0
  0
LINE
  5
12A
330
126
100
AcDbEntity
  8
1
  6
Continuous
 62
     2
100
AcDbLine
 10
119.7400021743993
 20
143.6266827546
 30
0.0
 11
119.7400021743993
 21
131.546105296997
 31
0.0
  0
LINE
  5
12B
330
126
100
AcDbEntity
  8
1
  6
Continuous
 62
     2
100
AcDbLine
 10
116.7400014316209
 20
143.6205948835851
 30
0.0
 11
116.7400014316209
 21
131.546105296997
 31
0.0
  0
SOLID
  5
12C
330
126
100
AcDbEntity
  8
1
 62
     2
100
AcDbTrace
 10
113.2400014316209
 20
133.0853215554411
 30
0.0
 11
113.2400014316209
 21
134.0068890385529
 31
0.0
 12
116.7400014316209
 22
133.546105296997
 32
0.0
 13
116.7400014316209
 23
133.546105296997
 33
0.0
  0
SOLID
  5
12D
330
126
100
AcDbEntity
  8
1
 62
     2
100
AcDbTrace
 10
123.2400021743993
 20
134.0068890385529
 30
0.0
 11
123.2400021743993
 21
133.0853215554411
 31
0.0
 12
119.7400021743993
 22
133.546105296997
 32
0.0
 13
119.7400021743993
 23
133.546105296997
 33
0.0
  0
MTEXT
  5
12E
330
126
100
AcDbEntity
  8
1
 62
     2
100
AcDbMText
 10
112.29635977663
 20
135.546105296997
 30
0.0
 40
3.5
 41
0.0
 71
     7
 72
     1
  1
3
  7
CONVERTER_11
 11
0.9999999999970621
 21
2.424068405545307E-6
 31
0.0
 73
     1
 44
0.60024009603842
  0
ENDBLK
  5
130
330
126
100
AcDbEntity
  8
0
100
AcDbBlockEnd
  0
BLOCK
  5
13C
330
133
100
AcDbEntity
  8
0
100
AcDbBlockBegin
  2
*D3
 70
     1
 71
     0
 10
0.0
 20
0.0
 30
0.0
  3
*D3
  1

  0
LINE
  5
134
330
133
100
AcDbEntity
  8
1
  6
Continuous
 62
     2
100
AcDbLine
 10
179.837489585004
 20
149.1135014655
 30
0.0
 11
179.837489585004
 21
156.1135014655
 31
0.0
  0
LINE
  5
135
330
133
100
AcDbEntity
  8
1
  6
Continuous
 62
     2
100
AcDbLine
 10
179.837489585004
 20
143.6072991137
 30
0.0
 11
179.837489585004
 21
149.1135014655
 31
0.0
  0
LINE
  5
136
330
133
100
AcDbEntity
  8
1
  6
Continuous
 62
     2
100
AcDbLine
 10
179.837489585004
 20
134.501432612645
 30
0.0
 11
179.837489585004
 21
143.6072991137
 31
0.0
  0
LINE
  5
137
330
133
100
AcDbEntity
  8
1
  6
Continuous
 62
     2
100
AcDbLine
 10
153.7403798147
 20
149.1135014655
 30
0.0
 11
181.837489585004
 21
149.1135014655
 31
0.0
  0
LINE
  5
138
330
133
100
AcDbEntity
  8
1
  6
Continuous
 62
     2
100
AcDbLine
 10
169.7382464119
 20
143.6072991137
 30
0.0
 11
181.837489585004
 21
143.6072991137
 31
0.0
  0
SOLID
  5
139
330
133
100
AcDbEntity
  8
1
 62
     2
100
AcDbTrace
 10
180.2982733265599
 20
140.1072991137
 30
0.0
 11
179.3767058434481
 21
140.1072991137
 31
0.0
 12
179.837489585004
 22
143.6072991137
 32
0.0
 13
179.837489585004
 23
143.6072991137
 33
0.0
  0
SOLID
  5
13A
330
133
100
AcDbEntity
  8
1
 62
     2
100
AcDbTrace
 10
179.3767058434481
 20
152.6135014655
 30
0.0
 11
180.2982733265599
 21
152.6135014655
 31
0.0
 12
179.837489585004
 22
149.1135014655
 32
0.0
 13
179.837489585004
 23
149.1135014655
 33
0.0
  0
MTEXT
  5
13B
330
133
100
AcDbEntity
  8
1
 62
     2
100
AcDbMText
 10
177.837489585004
 20
134.501432612645
 30
0.0
 40
3.5
 41
0.0
 71
     7
 72
     1
  1
5.5
  7
CONVERTER_11
 11
0.0
 21
1.0
 31
0.0
 73
     1
 44
0.60024009603842
  0
ENDBLK
  5
13D
330
133
100
AcDbEntity
  8
0
100
AcDbBlockEnd
  0
BLOCK
  5
147
330
140
100
AcDbEntity
  8
0
100
AcDbBlockBegin
  2
*D4
 70
     1
 71
     0
 10
0.0
 20
0.0
 30
0.0
  3
*D4
  1

  0
LINE
  5
141
330
140
100
AcDbEntity
  8
1
  6
Continuous
 62
     2
100
AcDbLine
 10
179.837489585004
 20
178.1134992863
 30
0.0
 11
179.837489585004
 21
149.1135014655
 31
0.0
  0
LINE
  5
142
330
140
100
AcDbEntity
  8
1
  6
Continuous
 62
     2
100
AcDbLine
 10
153.7516223264
 20
178.1134992863
 30
0.0
 11
181.837489585004
 21
178.1134992863
 31
0.0
  0
LINE
  5
143
330
140
100
AcDbEntity
  8
1
  6
Continuous
 62
     2
100
AcDbLine
 10
153.7403798147
 20
149.1135014655
 30
0.0
 11
181.837489585004
 21
149.1135014655
 31
0.0
  0
SOLID
  5
144
330
140
100
AcDbEntity
  8
1
 62
     2
100
AcDbTrace
 10
180.2982733265599
 20
174.6134992863
 30
0.0
 11
179.3767058434481
 21
174.6134992863
 31
0.0
 12
179.837489585004
 22
178.1134992863
 32
0.0
 13
179.837489585004
 23
178.1134992863
 33
0.0
  0
SOLID
  5
145
330
140
100
AcDbEntity
  8
1
 62
     2
100
AcDbTrace
 10
179.3767058434481
 20
152.6135014655
 30
0.0
 11
180.2982733265599
 21
152.6135014655
 31
0.0
 12
179.837489585004
 22
149.1135014655
 32
0.0
 13
179.837489585004
 23
149.1135014655
 33
0.0
  0
MTEXT
  5
146
330
140
100
AcDbEntity
  8
1
 62
     2
100
AcDbMText
 10
177.837489585004
 20
161.970985466103
 30
0.0
 40
3.5
 41
0.0
 71
     7
 72
     1
  1
29
  7
CONVERTER_11
 11
0.0
 21
1.0
 31
0.0
 73
     1
 44
0.60024009603842
  0
ENDBLK
  5
148
330
140
100
AcDbEntity
  8
0
100
AcDbBlockEnd
  0
BLOCK
  5
152
330
14B
100
AcDbEntity
  8
0
100
AcDbBlockBegin
  2
*D5
 70
     1
 71
     0
 10
0.0
 20
0.0
 30
0.0
  3
*D5
  1

  0
LINE
  5
14C
330
14B
100
AcDbEntity
  8
1
  6
Continuous
 62
     2
100
AcDbLine
 10
119.7400021743992
 20
123.497602095862
 30
0.0
 11
153.7403798147
 21
123.497602095862
 31
0.0
  0
LINE
  5
14D
330
14B
100
AcDbEntity
  8
1
  6
Continuous
 62
     2
100
AcDbLine
 10
153.7403798147
 20
149.1135014655
 30
0.0
 11
153.7403798147
 21
121.497602095862
 31
0.0
  0
LINE
  5
14E
330
14B
100
AcDbEntity
  8
1
  6
Continuous
 62
     2
100
AcDbLine
 10
119.7400021743992
 20
143.6266827546
 30
0.0
 11
119.7400021743992
 21
121.497602095862
 31
0.0
  0
SOLID
  5
14F
330
14B
100
AcDbEntity
  8
1
 62
     2
100
AcDbTrace
 10
123.2400021743992
 20
123.9583858374179
 30
0.0
 11
123.2400021743992
 21
123.0368183543061
 31
0.0
 12
119.7400021743992
 22
123.497602095862
 32
0.0
 13
119.7400021743992
 23
123.497602095862
 33
0.0
  0
SOLID
  5
150
330
14B
100
AcDbEntity
  8
1
 62
     2
100
AcDbTrace
 10
150.2403798147
 20
123.0368183543061
 30
0.0
 11
150.2403798147
 21
123.9583858374179
 31
0.0
 12
153.7403798147
 22
123.497602095862
 32
0.0
 13
153.7403798147
 23
123.497602095862
 33
0.0
  0
MTEXT
  5
151
330
14B
100
AcDbEntity
  8
1
 62
     2
100
AcDbMText
 10
133.1942158284526
 20
125.497602095862
 30
0.0
 40
3.5
 41
0.0
 71
     7
 72
     1
  1
34
  7
CONVERTER_11
 11
0.9999999999970621
 21
2.424068405545307E-6
 31
0.0
 73
     1
 44
0.60024009603842
  0
ENDBLK
  5
153
330
14B
100
AcDbEntity
  8
0
100
AcDbBlockEnd
  0
BLOCK
  5
15D
330
156
100
AcDbEntity
  8
0
100
AcDbBlockBegin
  2
*D6
 70
     1
 71
     0
 10
0.0
 20
0.0
 30
0.0
  3
*D6
  1

  0
LINE
  5
157
330
156
100
AcDbEntity
  8
1
  6
Continuous
 62
     2
100
AcDbLine
 10
61.64841806454039
 20
178.0278438569
 30
0.0
 11
61.64841806454039
 21
149.0278438569
 31
0.0
  0
LINE
  5
158
330
156
100
AcDbEntity
  8
1
  6
Continuous
 62
     2
100
AcDbLine
 10
84.7016191882
 20
149.0278438569
 30
0.0
 11
59.64841806454039
 21
149.0278438569
 31
0.0
  0
LINE
  5
159
330
156
100
AcDbEntity
  8
1
  6
Continuous
 62
     2
100
AcDbLine
 10
86.8016191882
 20
178.0278438569
 30
0.0
 11
59.64841806454039
 21
178.0278438569
 31
0.0
  0
SOLID
  5
15A
330
156
100
AcDbEntity
  8
1
 62
     2
100
AcDbTrace
 10
62.10920180609627
 20
174.5278438569
 30
0.0
 11
61.1876343229845
 21
174.5278438569
 31
0.0
 12
61.64841806454039
 22
178.0278438569
 32
0.0
 13
61.64841806454039
 23
178.0278438569
 33
0.0
  0
SOLID
  5
15B
330
156
100
AcDbEntity
  8
1
 62
     2
100
AcDbTrace
 10
61.1876343229845
 20
152.5278438569
 30
0.0
 11
62.10920180609627
 21
152.5278438569
 31
0.0
 12
61.64841806454039
 22
149.0278438569
 32
0.0
 13
61.64841806454039
 23
149.0278438569
 33
0.0
  0
MTEXT
  5
15C
330
156
100
AcDbEntity
  8
1
 62
     2
100
AcDbMText
 10
59.64841806454039
 20
161.698590964466
 30
0.0
 40
3.5
 41
0.0
 71
     7
 72
     1
  1
29
  7
CONVERTER_11
 11
0.0
 21
1.0
 31
0.0
 73
     1
 44
0.60024009603842
  0
ENDBLK
  5
15E
330
156
100
AcDbEntity
  8
0
100
AcDbBlockEnd
  0
BLOCK
  5
168
330
161
100
AcDbEntity
  8
0
100
AcDbBlockBegin
  2
*D7
 70
     1
 71
     0
 10
0.0
 20
0.0
 30
0.0
  3
*D7
  1

  0
LINE
  5
162
330
161
100
AcDbEntity
  8
1
  6
Continuous
 62
     2
100
AcDbLine
 10
189.906306879807
 20
183.6072961079
 30
0.0
 11
189.906306879807
 21
143.6072991137
 31
0.0
  0
LINE
  5
163
330
161
100
AcDbEntity
  8
1
  6
Continuous
 62
     2
100
AcDbLine
 10
169.7537533246
 20
183.6072961079
 30
0.0
 11
191.906306879807
 21
183.6072961079
 31
0.0
  0
LINE
  5
164
330
161
100
AcDbEntity
  8
1
  6
Continuous
 62
     2
100
AcDbLine
 10
169.7382464119
 20
143.6072991137
 30
0.0
 11
191.906306879807
 21
143.6072991137
 31
0.0
  0
SOLID
  5
165
330
161
100
AcDbEntity
  8
1
 62
     2
100
AcDbTrace
 10
190.3670906213629
 20
180.1072961079
 30
0.0
 11
189.4455231382511
 21
180.1072961079
 31
0.0
 12
189.906306879807
 22
183.6072961079
 32
0.0
 13
189.906306879807
 23
183.6072961079
 33
0.0
  0
SOLID
  5
166
330
161
100
AcDbEntity
  8
1
 62
     2
100
AcDbTrace
 10
189.4455231382511
 20
147.1072991137
 30
0.0
 11
190.3670906213629
 21
147.1072991137
 31
0.0
 12
189.906306879807
 22
143.6072991137
 32
0.0
 13
189.906306879807
 23
143.6072991137
 33
0.0
  0
MTEXT
  5
167
330
161
100
AcDbEntity
  8
1
 62
     2
100
AcDbMText
 10
187.906306879807
 20
162.055631346572
 30
0.0
 40
3.5
 41
0.0
 71
     7
 72
     1
  1
40
  7
CONVERTER_11
 11
0.0
 21
1.0
 31
0.0
 73
     1
 44
0.60024009603842
  0
ENDBLK
  5
169
330
161
100
AcDbEntity
  8
0
100
AcDbBlockEnd
  0
ENDSEC
  0
SECTION
  2
ENTITIES
  0
POINT
  5
39
330
1F
100
AcDbEntity
  8
A_BEMASSUNGEN
 62
     7
100
AcDbPoint
 10
86.8016191882
 20
178.0278438569
 30
0.0
  0
POINT
  5
3A
330
1F
100
AcDbEntity
  8
A_BEMASSUNGEN
 62
     7
100
AcDbPoint
 10
84.7016191882
 20
149.0278438569
 30
0.0
  0
POINT
  5
3B
330
1F
100
AcDbEntity
  8
A_BEMASSUNGEN
 62
     7
100
AcDbPoint
 10
84.7016191882
 20
150.0278438569
 30
0.0
  0
POINT
  5
3C
330
1F
100
AcDbEntity
  8
A_BEMASSUNGEN
 62
     7
100
AcDbPoint
 10
119.7400021743993
 20
143.6266827546
 30
0.0
  0
POINT
  5
3D
330
1F
100
AcDbEntity
  8
A_BEMASSUNGEN
 62
     7
100
AcDbPoint
 10
153.7407868711
 20
150.1635013866
 30
0.0
  0
POINT
  5
3E
330
1F
100
AcDbEntity
  8
A_BEMASSUNGEN
 62
     7
100
AcDbPoint
 10
119.7400021743993
 20
143.6266827546
 30
0.0
  0
POINT
  5
3F
330
1F
100
AcDbEntity
  8
A_BEMASSUNGEN
 62
     7
100
AcDbPoint
 10
153.7403798147
 20
149.1135014655
 30
0.0
  0
POINT
  5
40
330
1F
100
AcDbEntity
  8
A_BEMASSUNGEN
 62
     7
100
AcDbPoint
 10
169.7382464119
 20
143.6072991137
 30
0.0
  0
POINT
  5
41
330
1F
100
AcDbEntity
  8
A_BEMASSUNGEN
 62
     7
100
AcDbPoint
 10
153.7403798147
 20
149.1135014655
 30
0.0
  0
POINT
  5
42
330
1F
100
AcDbEntity
  8
A_BEMASSUNGEN
 62
     7
100
AcDbPoint
 10
153.7516223264
 20
178.1134992863
 30
0.0
  0
LINE
  5
43
330
1F
100
AcDbEntity
  8
A_RUNDUNGEN
  6
Continuous
 62
     7
100
AcDbLine
 10
148.7725948326251
 20
172.2329049169201
 30
0.0
 11
148.7734827678
 21
174.3746312381
 31
0.0
  0
LINE
  5
44
330
1F
100
AcDbEntity
  8
1
  6
Continuous
 62
     7
100
AcDbLine
 10
116.7397803749229
 20
149.0278438569
 30
0.0
 11
116.7400014316209
 21
143.6205948835851
 31
0.0
  0
LINE
  5
45
330
1F
100
AcDbEntity
  8
0
  6
Continuous
 62
     7
100
AcDbLine
 10
116.7397783308456
 20
149.0778438569
 30
0.0
 11
116.7406593095209
 21
149.0778438569
 31
0.0
  0
LINE
  5
46
330
1F
100
AcDbEntity
  8
1
  6
Continuous
 62
     7
100
AcDbLine
 10
119.05002837774
 20
184.6205948835852
 30
0.0
 11
117.7406273009816
 21
186.8885440760162
 31
0.0
  0
LINE
  5
47
330
1F
100
AcDbEntity
  8
1
  6
Continuous
 62
     7
100
AcDbLine
 10
117.7406273009816
 20
187.6205948835852
 30
0.0
 11
128.7406273009816
 21
187.6205948835852
 31
0.0
  0
LINE
  5
48
330
1F
100
AcDbEntity
  8
1
  6
Continuous
 62
     7
100
AcDbLine
 10
117.7406273009816
 20
186.8885440760162
 30
0.0
 11
117.7406273009816
 21
187.6205948835852
 31
0.0
  0
LINE
  5
49
330
1F
100
AcDbEntity
  8
1
  6
Continuous
 62
     7
100
AcDbLine
 10
127.4312262242231
 20
184.6205948835852
 30
0.0
 11
119.05002837774
 21
184.6205948835852
 31
0.0
  0
LINE
  5
4A
330
1F
100
AcDbEntity
  8
1
  6
Continuous
 62
     7
100
AcDbLine
 10
128.7406273009816
 20
186.8885440760162
 30
0.0
 11
127.4312262242231
 21
184.6205948835852
 31
0.0
  0
LINE
  5
4B
330
1F
100
AcDbEntity
  8
1
  6
Continuous
 62
     7
100
AcDbLine
 10
128.7406273009816
 20
187.6205948835852
 30
0.0
 11
128.7406273009816
 21
186.8885440760162
 31
0.0
  0
LINE
  5
4C
330
1F
100
AcDbEntity
  8
1
  6
Continuous
 62
     7
100
AcDbLine
 10
129.7406273009816
 20
186.6205948835852
 30
0.0
 11
129.7406273009816
 21
188.6205948835852
 31
0.0
  0
LINE
  5
4D
330
1F
100
AcDbEntity
  8
1
  6
Continuous
 62
     7
100
AcDbLine
 10
128.0085764934127
 20
183.6205948835852
 30
0.0
 11
129.7406273009816
 21
186.6205948835852
 31
0.0
  0
LINE
  5
4E
330
1F
100
AcDbEntity
  8
1
  6
Continuous
 62
     7
100
AcDbLine
 10
118.4726781085503
 20
183.6205948835852
 30
0.0
 11
128.0085764934127
 21
183.6205948835852
 31
0.0
  0
LINE
  5
4F
330
1F
100
AcDbEntity
  8
1
  6
Continuous
 62
     7
100
AcDbLine
 10
116.7406273009816
 20
186.6205948835852
 30
0.0
 11
118.4726781085503
 21
183.6205948835852
 31
0.0
  0
LINE
  5
50
330
1F
100
AcDbEntity
  8
1
  6
DOT_CENTER
 62
     2
100
AcDbLine
 10
71.74062730098164
 20
207.4578397329013
 30
0.0
 11
67.63543876944665
 21
207.4578397329013
 31
0.0
  0
LINE
  5
51
330
1F
100
AcDbEntity
  8
1
  6
DOT_CENTER
 62
     2
100
AcDbLine
 10
129.7406273009816
 20
207.4578397329013
 30
0.0
 11
132.7807320182266
 21
207.4578397329013
 31
0.0
  0
LINE
  5
52
330
1F
100
AcDbEntity
  8
1
  6
DOT_CENTER
 62
     2
100
AcDbLine
 10
71.74062730098164
 20
207.4578397329013
 30
0.0
 11
129.7406273009816
 21
207.4578397329013
 31
0.0
  0
LINE
  5
53
330
1F
100
AcDbEntity
  8
1
  6
Continuous
 62
     7
100
AcDbLine
 10
71.74062730098164
 20
143.6205948835851
 30
0.0
 11
71.74062730098164
 21
207.4578397329013
 31
0.0
  0
LINE
  5
54
330
1F
100
AcDbEntity
  8
1
  6
Continuous
 62
     7
100
AcDbLine
 10
116.7400014316209
 20
143.6205948835851
 30
0.0
 11
71.74062730098164
 21
143.6205948835851
 31
0.0
  0
LINE
  5
55
330
1F
100
AcDbEntity
  8
1
  6
Continuous
 62
     7
100
AcDbLine
 10
129.7406273009816
 20
188.6205948835852
 30
0.0
 11
116.7406273009816
 21
188.6205948835852
 31
0.0
  0
LINE
  5
56
330
1F
100
AcDbEntity
  8
1
  6
Continuous
 62
     7
100
AcDbLine
 10
129.7406273009816
 20
207.4578397329013
 30
0.0
 11
129.7406273009816
 21
188.6205948835852
 31
0.0
  0
LINE
  5
57
330
1F
100
AcDbEntity
  8
1
  6
Continuous
 62
     7
100
AcDbLine
 10
116.7406273009816
 20
188.6205948835852
 30
0.0
 11
116.7406273009816
 21
175.4801753479567
 31
0.0
  0
LINE
  5
58
330
1F
100
AcDbEntity
  8
1
  6
Continuous
 62
     7
100
AcDbLine
 10
116.7397783308456
 20
149.0778438569
 30
0.0
 11
116.7397803749229
 21
149.0278438569
 31
0.0
  0
LINE
  5
59
330
1F
100
AcDbEntity
  8
0
  6
Continuous
 62
     7
100
AcDbLine
 10
169.7382464119
 20
143.6072991137
 30
0.0
 11
169.7537533246
 21
183.6072961079
 31
0.0
  0
LINE
  5
5A
330
1F
100
AcDbEntity
  8
0
  6
Continuous
 62
     7
100
AcDbLine
 10
153.7516223264
 20
178.1134992863
 30
0.0
 11
153.7403798147
 21
149.1135014655
 31
0.0
  0
LINE
  5
5B
330
1F
100
AcDbEntity
  8
A_RUNDUNGEN
  6
Continuous
 62
     7
100
AcDbLine
 10
148.772551488
 20
172.1283563788
 30
0.0
 11
148.7725948326251
 21
172.2329049169201
 31
0.0
  0
LINE
  5
5C
330
1F
100
AcDbEntity
  8
0
  6
Continuous
 62
     7
100
AcDbLine
 10
148.772551488
 20
172.1283563788
 30
0.0
 11
148.7719461141274
 21
170.6681762870129
 31
0.0
  0
LINE
  5
5D
330
1F
100
AcDbEntity
  8
0
  6
Continuous
 62
     7
100
AcDbLine
 10
152.2911746529
 20
151.1640634371
 30
0.0
 11
152.3010409261
 21
176.6140615246
 31
0.0
  0
LINE
  5
5E
330
1F
100
AcDbEntity
  8
0
  6
Continuous
 62
     7
100
AcDbLine
 10
146.7659166998
 20
156.1254619835
 30
0.0
 11
146.7674755839
 21
159.8855372372
 31
0.0
  0
LINE
  5
5F
330
1F
100
AcDbEntity
  8
A_ACHSEN
  6
DOT_CENTER
 62
     2
100
AcDbLine
 10
145.6448473446
 20
163.7739322561
 30
0.0
 11
145.6448473446
 21
173.2489322561
 31
0.0
  0
LINE
  5
60
330
1F
100
AcDbEntity
  8
A_ACHSEN
  6
DOT_CENTER
 62
     2
100
AcDbLine
 10
145.6448473446
 20
163.7739322561
 30
0.0
 11
145.6448473446
 21
163.0989322561
 31
0.0
  0
LINE
  5
61
330
1F
100
AcDbEntity
  8
0
  6
Continuous
 62
     7
100
AcDbLine
 10
120.7270439033
 20
156.0508297627
 30
0.0
 11
122.8093400875
 21
159.9989314859
 31
0.0
  0
LINE
  5
62
330
1F
100
AcDbEntity
  8
A_RUNDUNGEN
  6
Continuous
 62
     7
100
AcDbLine
 10
133.2407884116
 20
150.1714486794
 30
0.0
 11
133.2418738955
 21
152.9714484689908
 31
0.0
  0
LINE
  5
63
330
1F
100
AcDbEntity
  8
0
  6
Continuous
 62
     7
100
AcDbLine
 10
133.2407884116
 20
150.1714486794
 30
0.0
 11
133.2404007388
 21
149.1714487545
 31
0.0
  0
LINE
  5
64
330
1F
100
AcDbEntity
  8
0
  6
Continuous
 62
     7
100
AcDbLine
 10
113.9212319806
 20
162.7400473045
 30
0.0
 11
116.6328697591
 21
166.0736213443
 31
0.0
  0
LINE
  5
65
330
1F
100
AcDbEntity
  8
0
  6
Continuous
 62
     7
100
AcDbLine
 10
120.4186335034
 20
155.2823461121
 30
0.0
 11
120.7270439033
 21
156.0508297627
 31
0.0
  0
LINE
  5
66
330
1F
100
AcDbEntity
  8
0
  6
Continuous
 62
     7
100
AcDbLine
 10
129.0722095511
 20
161.9167138377
 30
0.0
 11
128.2445764654
 21
153.7800176778
 31
0.0
  0
LINE
  5
67
330
1F
100
AcDbEntity
  8
A_RUNDUNGEN
  6
Continuous
 62
     7
100
AcDbLine
 10
129.7634306299
 20
150.1325105034
 30
0.0
 11
129.7644671011
 21
152.6325102886
 31
0.0
  0
LINE
  5
68
330
1F
100
AcDbEntity
  8
0
  6
Continuous
 62
     7
100
AcDbLine
 10
125.7405149520128
 20
149.4675149211077
 30
0.0
 11
125.7403819187
 21
149.1243563044
 31
0.0
  0
LINE
  5
69
330
1F
100
AcDbEntity
  8
0
  6
Continuous
 62
     7
100
AcDbLine
 10
125.7516244304
 20
178.1243541252
 30
0.0
 11
125.7516050468
 21
178.074354129
 31
0.0
  0
LINE
  5
6A
330
1F
100
AcDbEntity
  8
DEFAULT_1
  6
DOT_CENTER
 62
     2
100
AcDbLine
 10
124.2651097388
 20
149.6378438569
 30
0.0
 11
124.2651097388
 21
156.7247934413
 31
0.0
  0
LINE
  5
6B
330
1F
100
AcDbEntity
  8
0
  6
Continuous
 62
     7
100
AcDbLine
 10
139.5420655967
 20
169.3708369352
 30
0.0
 11
142.5307339078
 21
165.6634945448
 31
0.0
  0
LINE
  5
6C
330
1F
100
AcDbEntity
  8
0
  6
Continuous
 62
     7
100
AcDbLine
 10
137.5787722184
 20
170.8455562851
 30
0.0
 11
133.9048002384
 21
174.8028248342
 31
0.0
  0
LINE
  5
6D
330
1F
100
AcDbEntity
  8
0
  6
Continuous
 62
     7
100
AcDbLine
 10
148.2695251262
 20
171.1923865862
 30
0.0
 11
147.5917765255
 21
171.6681369961
 31
0.0
  0
LINE
  5
6E
330
1F
100
AcDbEntity
  8
0
  6
Continuous
 62
     7
100
AcDbLine
 10
111.1576651546
 20
169.3263380944
 30
0.0
 11
108.6995480405
 21
166.3044317531
 31
0.0
  0
LINE
  5
6F
330
1F
100
AcDbEntity
  8
0
  6
Continuous
 62
     7
100
AcDbLine
 10
119.773875287
 20
175.3274109145
 30
0.0
 11
119.7743144371
 21
176.3866541323
 31
0.0
  0
LINE
  5
70
330
1F
100
AcDbEntity
  8
0
  6
Continuous
 62
     7
100
AcDbLine
 10
120.7509502386
 20
176.3862492303
 30
0.0
 11
120.7516054225
 21
178.0762924931
 31
0.0
  0
LINE
  5
71
330
1F
100
AcDbEntity
  8
0
  6
Continuous
 62
     7
100
AcDbLine
 10
120.7404016781
 20
149.1762946647
 30
0.0
 11
120.7407738272
 21
150.1362511934
 31
0.0
  0
LINE
  5
72
330
1F
100
AcDbEntity
  8
A_RUNDUNGEN
  6
Continuous
 62
     7
100
AcDbLine
 10
120.7404016781
 20
149.1762946647
 30
0.0
 11
120.7404210617
 21
149.226294661
 31
0.0
  0
LINE
  5
73
330
1F
100
AcDbEntity
  8
0
  6
Continuous
 62
     7
100
AcDbLine
 10
119.7505400165
 20
175.328277196
 30
0.0
 11
119.7537570818
 21
183.6266797488
 31
0.0
  0
LINE
  5
74
330
1F
100
AcDbEntity
  8
0
  6
Continuous
 62
     7
100
AcDbLine
 10
119.7400021743993
 20
143.6266827546
 30
0.0
 11
119.7407739127436
 21
150.1366657818712
 31
0.0
  0
LINE
  5
75
330
1F
100
AcDbEntity
  8
A_ACHSEN
  6
DOT_CENTER
 62
     2
100
AcDbLine
 10
118.2237395793
 20
166.4818544842
 30
0.0
 11
118.2237397424
 21
167.8817572678
 31
0.0
  0
LINE
  5
76
330
1F
100
AcDbEntity
  8
A_ACHSEN
  6
DOT_CENTER
 62
     2
100
AcDbLine
 10
118.2237395793
 20
175.2818544842
 30
0.0
 11
118.2237397423999
 21
167.8819572678001
 31
0.0
  0
LINE
  5
77
330
1F
100
AcDbEntity
  8
0
  6
Continuous
 62
     7
100
AcDbLine
 10
116.7397783308456
 20
166.1859893153538
 30
0.0
 11
116.7397783308456
 21
149.0778438569
 31
0.0
  0
LINE
  5
78
330
1F
100
AcDbEntity
  8
0
  6
Continuous
 62
     7
100
AcDbLine
 10
147.5917765255
 20
171.6681369961
 30
0.0
 11
144.638496392
 21
173.3136694417
 31
0.0
  0
LINE
  5
79
330
1F
100
AcDbEntity
  8
A_RUNDUNGEN
  6
Continuous
 62
     7
100
AcDbLine
 10
115.7016191882
 20
149.0278438569
 30
0.0
 11
115.7016191882
 21
149.0778438569
 31
0.0
  0
LINE
  5
7A
330
1F
100
AcDbEntity
  8
0
  6
Continuous
 62
     7
100
AcDbLine
 10
115.7016191882
 20
150.1778438569
 30
0.0
 11
115.7016191882
 21
149.0778438569
 31
0.0
  0
LINE
  5
7B
330
1F
100
AcDbEntity
  8
0
  6
Continuous
 62
     7
100
AcDbLine
 10
115.7016191882
 20
177.9278438569
 30
0.0
 11
115.7016191882
 21
175.4778438569
 31
0.0
  0
LINE
  5
7C
330
1F
100
AcDbEntity
  8
DEFAULT_1
  6
DOT_CENTER
 62
     2
100
AcDbLine
 10
112.2016191882
 20
157.5778438569
 30
0.0
 11
112.2016191882
 21
157.7178438569
 31
0.0
  0
LINE
  5
7D
330
1F
100
AcDbEntity
  8
DEFAULT_1
  6
DOT_CENTER
 62
     2
100
AcDbLine
 10
112.2016191882
 20
157.5778438569
 30
0.0
 11
112.2016191882
 21
148.6378438569
 31
0.0
  0
LINE
  5
7E
330
1F
100
AcDbEntity
  8
0
  6
Continuous
 62
     7
100
AcDbLine
 10
121.7113832178
 20
173.7255038444
 30
0.0
 11
127.7532009309
 21
166.3154100098
 31
0.0
  0
LINE
  5
7F
330
1F
100
AcDbEntity
  8
0
  6
Continuous
 62
     7
100
AcDbLine
 10
88.177616116
 20
171.1577519609
 30
0.0
 11
88.8548159012
 21
171.6342832497
 31
0.0
  0
LINE
  5
80
330
1F
100
AcDbEntity
  8
0
  6
Continuous
 62
     7
100
AcDbLine
 10
96.9071694251
 20
169.346263072
 30
0.0
 11
93.922776302
 21
165.6354783085
 31
0.0
  0
LINE
  5
81
330
1F
100
AcDbEntity
  8
A_RUNDUNGEN
  6
Continuous
 62
     7
100
AcDbLine
 10
111.2016191882
 20
149.0483052379
 30
0.0
 11
111.2016191882
 21
149.0278438569
 31
0.0
  0
LINE
  5
82
330
1F
100
AcDbEntity
  8
0
  6
Continuous
 62
     7
100
AcDbLine
 10
110.7016191882
 20
177.9278438569
 30
0.0
 11
110.7016191882
 21
178.0278438569
 31
0.0
  0
LINE
  5
83
330
1F
100
AcDbEntity
  8
0
  6
Continuous
 62
     7
100
AcDbLine
 10
110.7016191882
 20
149.0278438569
 30
0.0
 11
110.7016191882
 21
149.5676246908
 31
0.0
  0
LINE
  5
84
330
1F
100
AcDbEntity
  8
A_RUNDUNGEN
  6
Continuous
 62
     7
100
AcDbLine
 10
106.7016191882
 20
150.1778438569
 30
0.0
 11
106.7016191882
 21
151.1778438569
 31
0.0
  0
LINE
  5
85
330
1F
100
AcDbEntity
  8
0
  6
Continuous
 62
     7
100
AcDbLine
 10
116.0468272476
 20
155.27983069
 30
0.0
 11
115.7375316878
 21
156.0479569003
 31
0.0
  0
LINE
  5
86
330
1F
100
AcDbEntity
  8
0
  6
Continuous
 62
     7
100
AcDbLine
 10
122.5356288843
 20
162.7450092472
 30
0.0
 11
119.8201505218
 21
166.0754555511
 31
0.0
  0
LINE
  5
87
330
1F
100
AcDbEntity
  8
0
  6
Continuous
 62
     7
100
AcDbLine
 10
169.7537533246
 20
183.6072961079
 30
0.0
 11
119.7537570818
 21
183.6266797488
 31
0.0
  0
LINE
  5
88
330
1F
100
AcDbEntity
  8
0
  6
Continuous
 62
     7
100
AcDbLine
 10
106.2016191882
 20
149.4778438569
 30
0.0
 11
106.2016191882
 21
149.0278438569
 31
0.0
  0
LINE
  5
89
330
1F
100
AcDbEntity
  8
0
  6
Continuous
 62
     7
100
AcDbLine
 10
108.222621531
 20
153.7684813729
 30
0.0
 11
107.3856103759
 21
161.904218171
 31
0.0
  0
LINE
  5
8A
330
1F
100
AcDbEntity
  8
0
  6
Continuous
 62
     7
100
AcDbLine
 10
115.7375316878
 20
156.0479569003
 30
0.0
 11
113.6506861772
 21
159.993655879
 31
0.0
  0
LINE
  5
8B
330
1F
100
AcDbEntity
  8
0
  6
Continuous
 62
     7
100
AcDbLine
 10
129.3510426507
 20
176.6229586158
 30
0.0
 11
120.7513349829
 21
177.3786950518
 31
0.0
  0
LINE
  5
8C
330
1F
100
AcDbEntity
  8
0
  6
Continuous
 62
     7
100
AcDbLine
 10
153.7516223264
 20
178.1134992863
 30
0.0
 11
119.7516248813
 21
178.1266801621
 31
0.0
  0
LINE
  5
8D
330
1F
100
AcDbEntity
  8
0
  6
Continuous
 62
     7
100
AcDbLine
 10
152.7516030179
 20
178.0638869629
 30
0.0
 11
120.7516054225
 21
178.0762924931
 31
0.0
  0
LINE
  5
8E
330
1F
100
AcDbEntity
  8
0
  6
Continuous
 62
     7
100
AcDbLine
 10
120.7515860389
 20
178.0262924968
 30
0.0
 11
119.751586114
 21
178.0266801696
 31
0.0
  0
LINE
  5
8F
330
1F
100
AcDbEntity
  8
0
  6
Continuous
 62
     7
100
AcDbLine
 10
86.8016191882
 20
178.0278438569
 30
0.0
 11
116.744080304522
 21
178.0278438569
 31
0.0
  0
LINE
  5
90
330
1F
100
AcDbEntity
  8
0
  6
Continuous
 62
     7
100
AcDbLine
 10
85.7016191882
 20
177.9278438569
 30
0.0
 11
115.7016191882
 21
177.9278438569
 31
0.0
  0
LINE
  5
91
330
1F
100
AcDbEntity
  8
0
  6
Continuous
 62
     7
100
AcDbLine
 10
115.7016191882
 20
177.8778438569
 30
0.0
 11
116.744080304522
 21
177.8778438569
 31
0.0
  0
LINE
  5
92
330
1F
100
AcDbEntity
  8
A_RUNDUNGEN
  6
Continuous
 62
     7
100
AcDbLine
 10
118.3906794444
 20
175.3787596612
 30
0.0
 11
133.9048002384
 21
174.8028248342
 31
0.0
  0
LINE
  5
93
330
1F
100
AcDbEntity
  8
0
  6
Continuous
 62
     7
100
AcDbLine
 10
140.1421505553
 20
174.5712740216
 30
0.0
 11
133.9048002384
 21
174.8028248342
 31
0.0
  0
LINE
  5
94
330
1F
100
AcDbEntity
  8
A_RUNDUNGEN
  6
Continuous
 62
     7
100
AcDbLine
 10
146.7743121167
 20
176.3754602432
 30
0.0
 11
119.7743144371
 21
176.3866541323
 31
0.0
  0
LINE
  5
95
330
1F
100
AcDbEntity
  8
0
  6
Continuous
 62
     7
100
AcDbLine
 10
152.3010409261
 20
176.6140615246
 30
0.0
 11
129.3510426507
 21
176.6229586158
 31
0.0
  0
LINE
  5
96
330
1F
100
AcDbEntity
  8
0
  6
Continuous
 62
     7
100
AcDbLine
 10
86.1516191882
 20
176.4778438569
 30
0.0
 11
107.1290799612
 21
176.4778438569
 31
0.0
  0
LINE
  5
97
330
1F
100
AcDbEntity
  8
A_RUNDUNGEN
  6
Continuous
 62
     7
100
AcDbLine
 10
116.744080304522
 20
175.4778438569
 30
0.0
 11
89.7016191882
 21
175.4778438569
 31
0.0
  0
LINE
  5
98
330
1F
100
AcDbEntity
  8
0
  6
Continuous
 62
     7
100
AcDbLine
 10
96.3010906731
 20
174.5460050265
 30
0.0
 11
118.0516166009
 21
175.3785615785
 31
0.0
  0
LINE
  5
99
330
1F
100
AcDbEntity
  8
0
  6
Continuous
 62
     7
100
AcDbLine
 10
107.1290799612
 20
176.4778438569
 30
0.0
 11
115.7016191882
 21
177.2278438569
 31
0.0
  0
LINE
  5
9A
330
1F
100
AcDbEntity
  8
0
  6
Continuous
 62
     7
100
AcDbLine
 10
100.8037407094
 20
171.2091599024
 30
0.0
 11
110.5622604223
 21
168.594372426
 31
0.0
  0
LINE
  5
9B
330
1F
100
AcDbEntity
  8
0
  6
Continuous
 62
     7
100
AcDbLine
 10
113.8334806327
 20
168.8155152153
 30
0.0
 11
101.7410118825
 21
171.124011355
 31
0.0
  0
LINE
  5
9C
330
1F
100
AcDbEntity
  8
A_ACHSEN
  6
DOT_CENTER
 62
     2
100
AcDbLine
 10
113.8237395793
 20
170.8818544842
 30
0.0
 11
121.2238397424
 21
170.8818572678
 31
0.0
  0
LINE
  5
9D
330
1F
100
AcDbEntity
  8
A_ACHSEN
  6
CENTER_5
 62
     2
100
AcDbLine
 10
122.6237395793
 20
170.8818544842
 30
0.0
 11
121.2238397424
 21
170.8818572678
 31
0.0
  0
LINE
  5
9E
330
1F
100
AcDbEntity
  8
A_ACHSEN
  6
DOT_CENTER
 62
     2
100
AcDbLine
 10
150.0448473446
 20
168.1739322561
 30
0.0
 11
150.7198473446
 21
168.1739322561
 31
0.0
  0
LINE
  5
9F
330
1F
100
AcDbEntity
  8
A_ACHSEN
  6
DOT_CENTER
 62
     2
100
AcDbLine
 10
150.0448473446
 20
168.1739322561
 30
0.0
 11
140.5698473446
 21
168.1739322561
 31
0.0
  0
LINE
  5
A0
330
1F
100
AcDbEntity
  8
A_ACHSEN
  6
DOT_CENTER
 62
     2
100
AcDbLine
 10
86.4057716865
 20
168.142324825
 30
0.0
 11
95.8807716865
 21
168.142324825
 31
0.0
  0
LINE
  5
A1
330
1F
100
AcDbEntity
  8
A_ACHSEN
  6
CENTER_5
 62
     2
100
AcDbLine
 10
86.4057716865
 20
168.142324825
 30
0.0
 11
85.7307716865
 21
168.142324825
 31
0.0
  0
LINE
  5
A2
330
1F
100
AcDbEntity
  8
A_ACHSEN
  6
CENTER_5
 62
     2
100
AcDbLine
 10
90.8057716865
 20
172.542324825
 30
0.0
 11
90.8057716865
 21
173.217324825
 31
0.0
  0
LINE
  5
A3
330
1F
100
AcDbEntity
  8
A_ACHSEN
  6
DOT_CENTER
 62
     2
100
AcDbLine
 10
90.8057716865
 20
172.542324825
 30
0.0
 11
90.8057716865
 21
163.067324825
 31
0.0
  0
LINE
  5
A4
330
1F
100
AcDbEntity
  8
0
  6
Continuous
 62
     7
100
AcDbLine
 10
89.7016191882
 20
158.8527467809
 30
0.0
 11
89.7016191882
 21
154.6778438569
 31
0.0
  0
LINE
  5
A5
330
1F
100
AcDbEntity
  8
A_RUNDUNGEN
  6
Continuous
 62
     7
100
AcDbLine
 10
87.7016191882
 20
165.6195804803521
 30
0.0
 11
87.7016191882
 21
153.6778438569
 31
0.0
  0
LINE
  5
A6
330
1F
100
AcDbEntity
  8
0
  6
Continuous
 62
     7
100
AcDbLine
 10
87.7016191882
 20
172.1316723321
 30
0.0
 11
87.7016191882
 21
172.0639322202224
 31
0.0
  0
LINE
  5
A7
330
1F
100
AcDbEntity
  8
A_RUNDUNGEN
  6
Continuous
 62
     7
100
AcDbLine
 10
87.7016191882
 20
173.4778438569
 30
0.0
 11
87.7016191882
 21
172.1316723321
 31
0.0
  0
LINE
  5
A8
330
1F
100
AcDbEntity
  8
0
  6
Continuous
 62
     7
100
AcDbLine
 10
86.1516191882
 20
150.4778438569
 30
0.0
 11
86.1516191882
 21
176.4778438569
 31
0.0
  0
LINE
  5
A9
330
1F
100
AcDbEntity
  8
0
  6
Continuous
 62
     7
100
AcDbLine
 10
125.2915985307
 20
169.3344856647
 30
0.0
 11
134.7061772602
 21
171.1430123942
 31
0.0
  0
LINE
  5
AA
330
1F
100
AcDbEntity
  8
A_ACHSEN
  6
Continuous
 62
     7
100
AcDbLine
 10
84.7016191882
 20
172.480669529
 30
0.0
 11
84.7016191882
 21
172.6110791715
 31
0.0
  0
LINE
  5
AB
330
1F
100
AcDbEntity
  8
0
  6
Continuous
 62
     7
100
AcDbLine
 10
84.7016191882
 20
170.6736289335
 30
0.0
 11
84.7016191882
 21
172.4872127401
 31
0.0
  0
LINE
  5
AC
330
1F
100
AcDbEntity
  8
0
  6
Continuous
 62
     7
100
AcDbLine
 10
84.7016191882
 20
149.0278438569
 30
0.0
 11
84.7016191882
 21
170.6732067095
 31
0.0
  0
LINE
  5
AD
330
1F
100
AcDbEntity
  8
0
  6
Continuous
 62
     7
100
AcDbLine
 10
84.7016191882
 20
176.9278438569
 30
0.0
 11
84.7016191882
 21
172.6110791715
 31
0.0
  0
LINE
  5
AE
330
1F
100
AcDbEntity
  8
0
  6
Continuous
 62
     7
100
AcDbLine
 10
106.5413880625
 20
155.6437696832
 30
0.0
 11
90.9604382333
 21
159.8186726072
 31
0.0
  0
LINE
  5
AF
330
1F
100
AcDbEntity
  8
0
  6
Continuous
 62
     7
100
AcDbLine
 10
131.7327103103
 20
155.1316944924
 30
0.0
 11
145.7655021973
 21
155.1258766579
 31
0.0
  0
LINE
  5
B0
330
1F
100
AcDbEntity
  8
A_RUNDUNGEN
  6
Continuous
 62
     7
100
AcDbLine
 10
146.7646729344
 20
153.1254622413
 30
0.0
 11
130.2646743524
 21
153.1323029514
 31
0.0
  0
LINE
  5
B1
330
1F
100
AcDbEntity
  8
A_RUNDUNGEN
  6
Continuous
 62
     7
100
AcDbLine
 10
133.2418738955
 20
152.9714484689908
 30
0.0
 11
152.291872464
 21
152.9640633018
 31
0.0
  0
LINE
  5
B2
330
1F
100
AcDbEntity
  8
0
  6
Continuous
 62
     7
100
AcDbLine
 10
133.2418738955
 20
152.971448469
 30
0.0
 11
152.291872464
 21
152.9640633018
 31
0.0
  0
LINE
  5
B3
330
1F
100
AcDbEntity
  8
0
  6
Continuous
 62
     7
100
AcDbLine
 10
152.2911746529
 20
151.1640634371
 30
0.0
 11
134.2411760093
 21
151.1710609314
 31
0.0
  0
LINE
  5
B4
330
1F
100
AcDbEntity
  8
DEFAULT_1
  6
DOT_CENTER
 62
     2
100
AcDbLine
 10
119.6651097388
 20
154.1847934413
 30
0.0
 11
128.8051097388
 21
154.1847934413
 31
0.0
  0
LINE
  5
B5
330
1F
100
AcDbEntity
  8
DEFAULT_1
  6
DOT_CENTER
 62
     2
100
AcDbLine
 10
116.6016191882
 20
154.1778438569
 30
0.0
 11
107.7416191882001
 21
154.1778438569
 31
0.0
  0
LINE
  5
B6
330
1F
100
AcDbEntity
  8
0
  6
Continuous
 62
     7
100
AcDbLine
 10
90.7016191882
 20
153.6778438569
 30
0.0
 11
106.2825690173
 21
153.6778438569
 31
0.0
  0
LINE
  5
B7
330
1F
100
AcDbEntity
  8
A_RUNDUNGEN
  6
Continuous
 62
     7
100
AcDbLine
 10
106.2016191882
 20
151.6778438569
 30
0.0
 11
89.7016191882
 21
151.6778438569
 31
0.0
  0
LINE
  5
B8
330
1F
100
AcDbEntity
  8
0
  6
Continuous
 62
     7
100
AcDbLine
 10
145.5090571087
 20
160.8519848723
 30
0.0
 11
131.4747063377
 21
157.0977274531
 31
0.0
  0
LINE
  5
B9
330
1F
100
AcDbEntity
  8
0
  6
Continuous
 62
     7
100
AcDbLine
 10
129.7634306299
 20
150.1325105034
 30
0.0
 11
119.7407739127436
 21
150.1366657818712
 31
0.0
  0
LINE
  5
BA
330
1F
100
AcDbEntity
  8
A_RUNDUNGEN
  6
Continuous
 62
     7
100
AcDbLine
 10
125.7405149520128
 20
149.4675149211077
 30
0.0
 11
132.740514426
 21
149.4648012114
 31
0.0
  0
LINE
  5
BB
330
1F
100
AcDbEntity
  8
0
  6
Continuous
 62
     7
100
AcDbLine
 10
120.7404210617
 20
149.226294661
 30
0.0
 11
119.7404211369
 21
149.2266823338
 31
0.0
  0
LINE
  5
BC
330
1F
100
AcDbEntity
  8
A_RUNDUNGEN
  6
Continuous
 62
     7
100
AcDbLine
 10
125.7404013024
 20
149.1743563007
 30
0.0
 11
120.7404016781
 21
149.1762946647
 31
0.0
  0
LINE
  5
BD
330
1F
100
AcDbEntity
  8
0
  6
Continuous
 62
     7
100
AcDbLine
 10
152.7403992735
 20
149.1638891346
 30
0.0
 11
133.2404007388
 21
149.1714487545
 31
0.0
  0
LINE
  5
BE
330
1F
100
AcDbEntity
  8
0
  6
Continuous
 62
     7
100
AcDbLine
 10
153.7403798147
 20
149.1135014655
 30
0.0
 11
119.7403823696
 21
149.1266823413
 31
0.0
  0
LINE
  5
BF
330
1F
100
AcDbEntity
  8
0
  6
Continuous
 62
     7
100
AcDbLine
 10
105.2016191882
 20
150.4778438569
 30
0.0
 11
86.1516191882
 21
150.4778438569
 31
0.0
  0
LINE
  5
C0
330
1F
100
AcDbEntity
  8
0
  6
Continuous
 62
     7
100
AcDbLine
 10
116.7406593095209
 20
150.1778438569
 30
0.0
 11
106.7016191882
 21
150.1778438569
 31
0.0
  0
LINE
  5
C1
330
1F
100
AcDbEntity
  8
A_RUNDUNGEN
  6
Continuous
 62
     7
100
AcDbLine
 10
106.1975807346
 20
149.5676246908
 30
0.0
 11
110.7016191882
 21
149.5676246908
 31
0.0
  0
LINE
  5
C2
330
1F
100
AcDbEntity
  8
0
  6
Continuous
 62
     7
100
AcDbLine
 10
115.7016191882
 20
149.0778438569
 30
0.0
 11
116.7397783308456
 21
149.0778438569
 31
0.0
  0
LINE
  5
C3
330
1F
100
AcDbEntity
  8
0
  6
Continuous
 62
     7
100
AcDbLine
 10
84.7016191882
 20
149.0278438569
 30
0.0
 11
116.7397803749229
 21
149.0278438569
 31
0.0
  0
LINE
  5
C4
330
1F
100
AcDbEntity
  8
0
  6
Continuous
 62
     7
100
AcDbLine
 10
119.7400021743993
 20
143.6266827546
 30
0.0
 11
169.7382464119
 21
143.6072991137
 31
0.0
  0
LINE
  5
C5
330
1F
100
AcDbEntity
  8
0
  6
Continuous
 62
     7
100
AcDbLine
 10
119.7407739127436
 20
150.1366657818712
 30
0.0
 11
119.7469797578
 21
166.1446094134
 31
0.0
  0
LINE
  5
C6
330
1F
100
AcDbEntity
  8
1
  6
DASHED
 62
     2
100
AcDbLine
 10
97.09069024623761
 20
169.5481382125705
 30
0.0
 11
89.02158195910232
 21
171.7102492617238
 31
0.0
  0
LINE
  5
C7
330
1F
100
AcDbEntity
  8
1
  6
Continuous
 62
     7
100
AcDbLine
 10
89.02158195910232
 20
171.7102492617238
 30
0.0
 11
87.7016191882
 21
172.0639322202224
 31
0.0
  0
LINE
  5
C8
330
1F
100
AcDbEntity
  8
1
  6
Continuous
 62
     7
100
AcDbLine
 10
108.8312700449299
 20
166.4022593368726
 30
0.0
 11
97.09069024623761
 21
169.5481382125705
 31
0.0
  0
LINE
  5
C9
330
1F
100
AcDbEntity
  8
1
  6
DASHED
 62
     2
100
AcDbLine
 10
92.58655940646383
 20
164.5433593512229
 30
0.0
 11
87.7016191882
 21
165.8522751377664
 31
0.0
  0
LINE
  5
CA
330
1F
100
AcDbEntity
  8
1
  6
Continuous
 62
     7
100
AcDbLine
 10
107.5668071713153
 20
160.5294140602573
 30
0.0
 11
92.58655940646383
 21
164.5433593512229
 31
0.0
  0
LINE
  5
CB
330
1F
100
AcDbEntity
  8
A_RUNDUNGEN
  6
DASHED
 62
     2
100
AcDbLine
 10
98.86880046861191
 20
170.8116551882697
 30
0.0
 11
102.5358357218637
 21
174.7753525695703
 31
0.0
  0
LINE
  5
CC
330
1F
100
AcDbEntity
  8
0
  6
DASHED
 62
     2
100
AcDbLine
 10
114.7206229870901
 20
173.7064222054429
 30
0.0
 11
111.181962255662
 21
169.3176625958883
 31
0.0
  0
LINE
  5
CD
330
1F
100
AcDbEntity
  8
1
  6
DASHED
 62
     2
100
AcDbLine
 10
111.2841485592309
 20
165.7450125198413
 30
0.0
 11
108.8312700449299
 21
166.4022593368726
 31
0.0
  0
LINE
  5
CE
330
1F
100
AcDbEntity
  8
0
  6
DASHED
 62
     2
100
AcDbLine
 10
110.9559791599571
 20
160.6565643432936
 30
0.0
 11
111.9912553404168
 21
164.5202676484365
 31
0.0
  0
LINE
  5
CF
330
1F
100
AcDbEntity
  8
A_NOTIZEN_SYMB
  6
CENTER_6
 62
     2
100
AcDbLine
 10
111.473617250191
 20
162.5884159958802
 30
0.0
 11
113.0096841736627
 21
162.1768281042204
 31
0.0
  0
LINE
  5
D0
330
1F
100
AcDbEntity
  8
A_NOTIZEN_SYMB
  6
DOT_CENTER
 62
     2
100
AcDbLine
 10
84.9402724958627
 20
169.6980042952204
 30
0.0
 11
111.473617250191
 21
162.5884159958802
 31
0.0
  0
LINE
  5
D1
330
1F
100
AcDbEntity
  8
1
  6
DASHED
 62
     2
100
AcDbLine
 10
109.7312342885716
 20
159.9494575621187
 30
0.0
 11
107.5668071713153
 21
160.5294140602573
 31
0.0
  0
LINE
  5
D2
330
1F
100
AcDbEntity
  8
1
  6
DASHED
 62
     2
100
AcDbLine
 10
125.2667990129026
 20
165.9345459095935
 30
0.0
 11
127.5681216823616
 21
166.5511834603966
 31
0.0
  0
LINE
  5
D3
330
1F
100
AcDbEntity
  8
1
  6
DASHED
 62
     2
100
AcDbLine
 10
125.5949684121321
 20
160.8460977330456
 30
0.0
 11
124.5596922317157
 21
164.7098010382001
 31
0.0
  0
LINE
  5
D4
330
1F
100
AcDbEntity
  8
DEFAULT_1
  6
DOT_CENTER
 62
     2
100
AcDbLine
 10
150.4243868820147
 20
169.5696727213873
 30
0.0
 11
123.9279040850148
 21
162.4699615536872
 31
0.0
  0
LINE
  5
D5
330
1F
100
AcDbEntity
  8
1
  6
DASHED
 62
     2
100
AcDbLine
 10
128.9550230654823
 20
160.711145483525
 30
0.0
 11
126.8197132835225
 21
160.1389909518604
 31
0.0
  0
LINE
  5
D6
330
1F
100
AcDbEntity
  8
1
  6
Continuous
 62
     7
100
AcDbLine
 10
143.8771132939239
 20
164.7095075096084
 30
0.0
 11
128.9550230654823
 21
160.711145483525
 31
0.0
  0
LINE
  5
D7
330
1F
100
AcDbEntity
  8
1
  6
Continuous
 62
     7
100
AcDbLine
 10
127.5681216823616
 20
166.5511834603966
 30
0.0
 11
139.3380779619144
 21
169.7049337404428
 31
0.0
  0
LINE
  5
D8
330
1F
100
AcDbEntity
  8
1
  6
DASHED
 62
     2
100
AcDbLine
 10
139.3380779619144
 20
169.7049337404428
 30
0.0
 11
147.4405754132041
 21
171.8759913891846
 31
0.0
  0
LINE
  5
D9
330
1F
100
AcDbEntity
  8
1
  6
Continuous
 62
     7
100
AcDbLine
 10
147.4405754132041
 20
171.8759913891846
 30
0.0
 11
148.7725948326251
 21
172.2329049169201
 31
0.0
  0
LINE
  5
DA
330
1F
100
AcDbEntity
  8
1
  6
DASHED
 62
     2
100
AcDbLine
 10
148.735836895791
 20
166.0113985749707
 30
0.0
 11
143.8771132939239
 21
164.7095075096084
 31
0.0
  0
LINE
  5
DB
330
1F
100
AcDbEntity
  8
0
  6
Continuous
 62
     7
100
AcDbLine
 10
148.7722488010637
 20
155.1384139814802
 30
0.0
 11
148.7722488010637
 21
165.6800677589324
 31
0.0
  0
LINE
  5
DC
330
1F
100
AcDbEntity
  8
0
  6
DASHED
 62
     2
100
AcDbLine
 10
148.735836895791
 20
165.6350774759772
 30
0.0
 11
148.735836895791
 21
166.0219211822515
 31
0.0
  0
LINE
  5
DD
330
1F
100
AcDbEntity
  8
0
  6
DASHED
 62
     2
100
AcDbLine
 10
148.735836895791
 20
170.7127870362228
 30
0.0
 11
148.735836895791
 21
166.0113985749707
 31
0.0
  0
LINE
  5
DE
330
1F
100
AcDbEntity
  8
0
  6
DASHED
 62
     2
100
AcDbLine
 10
87.7016191882
 20
170.6650693684479
 30
0.0
 11
87.7016191882
 21
165.6195804803521
 31
0.0
  0
LINE
  5
DF
330
1F
100
AcDbEntity
  8
1
  6
DASHED
 62
     2
100
AcDbLine
 10
87.81288815529103
 20
165.822460707892
 30
0.0
 11
87.77361725019102
 21
165.8329833151995
 31
0.0
  0
LINE
  5
E0
330
1F
100
AcDbEntity
  8
0
  6
Continuous
 62
     7
100
AcDbLine
 10
88.8548159012
 20
171.6342832497
 30
0.0
 11
91.806197379
 21
173.2832186484
 31
0.0
  0
LINE
  5
E1
330
1F
100
AcDbEntity
  8
0
  6
Continuous
 62
     7
100
AcDbLine
 10
87.7016191882
 20
172.0639322202224
 30
0.0
 11
87.7016191882
 21
170.6650693684479
 31
0.0
  0
LINE
  5
E2
330
1F
100
AcDbEntity
  8
0
  6
DASHED
 62
     2
100
AcDbLine
 10
87.7016191882
 20
165.8522751377664
 30
0.0
 11
87.7016191882
 21
165.822460707892
 31
0.0
  0
ARC
  5
E3
330
1F
100
AcDbEntity
  8
0
  6
Continuous
 62
     7
100
AcDbCircle
 10
145.6448473446
 20
168.1739322561
 30
0.0
 40
3.999999999946945
100
AcDbArc
 50
-141.1260301470298
 51
-39.39875299610227
  0
ARC
  5
E4
330
1F
100
AcDbEntity
  8
0
  6
Continuous
 62
     7
100
AcDbCircle
 10
145.6448473446
 20
168.1739322561
 30
0.0
 40
4.000000000015535
100
AcDbArc
 50
-39.39875299610227
 51
-38.50396145552129
  0
ARC
  5
E5
330
1F
100
AcDbEntity
  8
0
  6
Continuous
 62
     7
100
AcDbCircle
 10
145.6448473446
 20
168.1739322561
 30
0.0
 40
4.00000000001554
100
AcDbArc
 50
38.57664701546206
 51
39.39875299610259
  0
ARC
  5
E6
330
1F
100
AcDbEntity
  8
0
  6
Continuous
 62
     7
100
AcDbCircle
 10
145.6448473446
 20
168.1739322561
 30
0.0
 40
4.000000000015491
100
AcDbArc
 50
-38.50396145552129
 51
38.57664701546206
  0
ARC
  5
E7
330
1F
100
AcDbEntity
  8
0
  6
Continuous
 62
     7
100
AcDbCircle
 10
117.4086295627
 20
165.4425930349
 30
0.0
 40
0.9999999999995756
100
AcDbArc
 50
81.47726446162069
 51
131.978464123799
  0
ARC
  5
E8
330
1F
100
AcDbEntity
  8
0
  6
Continuous
 62
     7
100
AcDbCircle
 10
152.7512153451
 20
177.063887038
 30
0.0
 40
1.000000000000099
100
AcDbArc
 50
-0.02221201680233
 51
89.97778798417248
  0
ARC
  5
E9
330
1F
100
AcDbEntity
  8
A_RUNDUNGEN
  6
Continuous
 62
     7
100
AcDbCircle
 10
146.7734829397
 20
174.3754604151
 30
0.0
 40
1.999999999983648
100
AcDbArc
 50
-0.02375417196575
 51
89.97624582803425
  0
ARC
  5
EA
330
1F
100
AcDbEntity
  8
0
  6
Continuous
 62
     7
100
AcDbCircle
 10
145.6448473446
 20
168.1739322561
 30
0.0
 40
4.000000000015554
100
AcDbArc
 50
39.39875299610259
 51
48.9916169124655
  0
ARC
  5
EB
330
1F
100
AcDbEntity
  8
0
  6
Continuous
 62
     7
100
AcDbCircle
 10
135.6494238007
 20
166.232789796
 30
0.0
 40
4.999999999980765
100
AcDbArc
 50
38.87396985363939
 51
67.30225810475892
  0
ARC
  5
EC
330
1F
100
AcDbEntity
  8
A_RUNDUNGEN
  6
Continuous
 62
     7
100
AcDbCircle
 10
135.6494238007
 20
166.232789796
 30
0.0
 40
4.999999999984553
100
AcDbArc
 50
67.30225810475892
 51
100.8739698535802
  0
ARC
  5
ED
330
1F
100
AcDbEntity
  8
0
  6
Continuous
 62
     7
100
AcDbCircle
 10
139.7711734398
 20
164.5781575918
 30
0.0
 40
10.00000000003782
100
AcDbArc
 50
60.87396985347389
 51
87.87396985360762
  0
ARC
  5
EE
330
1F
100
AcDbEntity
  8
A_RUNDUNGEN
  6
Continuous
 62
     7
100
AcDbCircle
 10
130.2644670582
 20
152.6323029943
 30
0.0
 40
0.5000000000708748
100
AcDbArc
 50
89.97624583376992
 51
179.976245822309
  0
ARC
  5
EF
330
1F
100
AcDbEntity
  8
0
  6
Continuous
 62
     7
100
AcDbCircle
 10
134.2407883365
 20
150.1710610066
 30
0.0
 40
0.9999999999450965
100
AcDbArc
 50
89.97778798417026
 51
179.9777879841741
  0
ARC
  5
F0
330
1F
100
AcDbEntity
  8
0
  6
Continuous
 62
     7
100
AcDbCircle
 10
152.7407869463
 20
150.1638890594
 30
0.0
 40
0.9999999999450965
100
AcDbArc
 50
-90.02221201582975
 51
-0.02221201582974
  0
ARC
  5
F1
330
1F
100
AcDbEntity
  8
0
  6
Continuous
 62
     7
100
AcDbCircle
 10
145.7674756698
 20
159.8859518257
 30
0.0
 40
1.000000000041803
100
AcDbArc
 50
-0.02375417196456
 51
104.9762458280595
  0
ARC
  5
F2
330
1F
100
AcDbEntity
  8
0
  6
Continuous
 62
     7
100
AcDbCircle
 10
131.7331248988
 20
156.1316944064
 30
0.0
 40
1.000000000018745
100
AcDbArc
 50
104.9762458265786
 51
-90.02375417196694
  0
ARC
  5
F3
330
1F
100
AcDbEntity
  8
0
  6
Continuous
 62
     7
100
AcDbCircle
 10
145.7659167858
 20
156.125876572
 30
0.0
 40
1.000000000041832
100
AcDbArc
 50
-90.02375417196295
 51
-0.02375417196694
  0
ARC
  5
F4
330
1F
100
AcDbEntity
  8
A_RUNDUNGEN
  6
Continuous
 62
     7
100
AcDbCircle
 10
146.7619849975914
 20
155.1357260447721
 30
0.0
 40
2.010265600500193
100
AcDbArc
 50
-89.92338948615414
 51
0.07661051098147
  0
ARC
  5
F5
330
1F
100
AcDbEntity
  8
0
  6
Continuous
 62
     7
100
AcDbCircle
 10
117.4086295627
 20
165.4425930349
 30
0.0
 40
1.000000000072845
100
AcDbArc
 50
131.978464123799
 51
140.8739698527338
  0
ARC
  5
F6
330
1F
100
AcDbEntity
  8
0
  6
Continuous
 62
     7
100
AcDbCircle
 10
113.6459633862
 20
167.8332539047
 30
0.0
 40
0.9999999999916155
100
AcDbArc
 50
33.6618968490469
 51
79.19207113030028
  0
ARC
  5
F7
330
1F
100
AcDbEntity
  8
0
  6
Continuous
 62
     7
100
AcDbCircle
 10
119.0451185772
 20
165.4435334951
 30
0.0
 40
1.000000000004851
100
AcDbArc
 50
39.19207112921486
 51
98.58877651932701
  0
ARC
  5
F8
330
1F
100
AcDbEntity
  8
0
  6
Continuous
 62
     7
100
AcDbCircle
 10
118.2237394671
 20
170.8818545924
 30
0.0
 40
4.500000000021886
100
AcDbArc
 50
39.1920711292159
 51
92.19207112932052
  0
ARC
  5
F9
330
1F
100
AcDbEntity
  8
0
  6
Continuous
 62
     7
100
AcDbCircle
 10
118.2237394671
 20
170.8818545924
 30
0.0
 40
4.499999999999764
100
AcDbArc
 50
-146.3381031520041
 51
-81.41122347910319
  0
ARC
  5
FA
330
1F
100
AcDbEntity
  8
0
  6
Continuous
 62
     7
100
AcDbCircle
 10
100.8034256499
 20
166.2127048021
 30
0.0
 40
5.000000000011941
100
AcDbArc
 50
79.19207112896031
 51
141.1920711287309
  0
ARC
  5
FB
330
1F
100
AcDbEntity
  8
0
  6
Continuous
 62
     7
100
AcDbCircle
 10
113.3541068618
 20
162.5182618971
 30
0.0
 40
5.999999999952069
100
AcDbArc
 50
140.873969853889
 51
-174.1260301458622
  0
ARC
  5
FC
330
1F
100
AcDbEntity
  8
0
  6
Continuous
 62
     7
100
AcDbCircle
 10
123.1030092633
 20
162.5238776738
 30
0.0
 40
5.99999999997828
100
AcDbArc
 50
-5.80792887080028
 51
39.19207112921579
  0
ARC
  5
FD
330
1F
100
AcDbEntity
  8
A_RUNDUNGEN
  6
Continuous
 62
     7
100
AcDbCircle
 10
106.2016191882
 20
151.1778438569
 30
0.0
 40
0.5
100
AcDbArc
 50
0.0
 51
90.0
  0
ARC
  5
FE
330
1F
100
AcDbEntity
  8
0
  6
Continuous
 62
     7
100
AcDbCircle
 10
105.2016191882
 20
149.4778438569
 30
0.0
 40
1.0
100
AcDbArc
 50
0.0
 51
90.0
  0
ARC
  5
FF
330
1F
100
AcDbEntity
  8
0
  6
Continuous
 62
     7
100
AcDbCircle
 10
106.2825690173
 20
154.6778438569
 30
0.0
 40
1.0
100
AcDbArc
 50
-90.0
 51
74.99999999476701
  0
ARC
  5
100
330
1F
100
AcDbEntity
  8
0
  6
Continuous
 62
     7
100
AcDbCircle
 10
115.8606314895
 20
161.1624765312
 30
0.0
 40
2.49999999997837
100
AcDbArc
 50
140.8739698548436
 51
-152.1260301463708
  0
ARC
  5
101
330
1F
100
AcDbEntity
  8
0
  6
Continuous
 62
     7
100
AcDbCircle
 10
120.5980490228
 20
161.1652041072
 30
0.0
 40
2.500000000003217
100
AcDbArc
 50
-27.80792887044932
 51
39.19207112921573
  0
ARC
  5
102
330
1F
100
AcDbEntity
  8
0
  6
Continuous
 62
     7
100
AcDbCircle
 10
112.2016191882
 20
154.1778438569
 30
0.0
 40
3.999999999913716
100
AcDbArc
 50
-174.1260301467141
 51
15.99161691163369
  0
ARC
  5
103
330
1F
100
AcDbEntity
  8
0
  6
Continuous
 62
     7
100
AcDbCircle
 10
124.2651096068
 20
154.1847935686
 30
0.0
 40
3.999999999971307
100
AcDbArc
 50
164.0744456162744
 51
-5.80792887165383
  0
ARC
  5
104
330
1F
100
AcDbEntity
  8
0
  6
Continuous
 62
     7
100
AcDbCircle
 10
85.7016191882
 20
150.0278438569
 30
0.0
 40
1.0
100
AcDbArc
 50
180.0
 51
-90.0
  0
ARC
  5
105
330
1F
100
AcDbEntity
  8
0
  6
Continuous
 62
     7
100
AcDbCircle
 10
85.7016191882
 20
176.9278438569
 30
0.0
 40
1.0
100
AcDbArc
 50
90.0
 51
180.0
  0
ARC
  5
106
330
1F
100
AcDbEntity
  8
0
  6
Continuous
 62
     7
100
AcDbCircle
 10
90.7016191882
 20
154.6778438569
 30
0.0
 40
1.0
100
AcDbArc
 50
180.0
 51
-90.0
  0
ARC
  5
107
330
1F
100
AcDbEntity
  8
0
  6
Continuous
 62
     7
100
AcDbCircle
 10
90.7016191882
 20
158.8527467809
 30
0.0
 40
1.000000000009914
100
AcDbArc
 50
75.0000000003019
 51
180.0
  0
ARC
  5
108
330
1F
100
AcDbEntity
  8
A_RUNDUNGEN
  6
Continuous
 62
     7
100
AcDbCircle
 10
89.7016191882
 20
153.6778438569
 30
0.0
 40
2.0
100
AcDbArc
 50
180.0
 51
-90.0
  0
ARC
  5
109
330
1F
100
AcDbEntity
  8
A_RUNDUNGEN
  6
Continuous
 62
     7
100
AcDbCircle
 10
89.7016191882
 20
173.4778438569
 30
0.0
 40
2.0
100
AcDbArc
 50
90.0
 51
180.0
  0
ARC
  5
10A
330
1F
100
AcDbEntity
  8
0
  6
Continuous
 62
     7
100
AcDbCircle
 10
90.8057713221
 20
168.1423249244
 30
0.0
 40
4.000000000046293
100
AcDbArc
 50
-140.8992392794447
 51
-38.80792887050711
  0
ARC
  5
10B
330
1F
100
AcDbEntity
  8
0
  6
Continuous
 62
     7
100
AcDbCircle
 10
96.6835859313
 20
164.5533228352
 30
0.0
 40
9.999999999943501
100
AcDbArc
 50
92.1920711292006
 51
119.1920711291492
  0
ARC
  5
10C
330
1F
100
AcDbEntity
  8
0
  6
DASHED
 62
     2
100
AcDbCircle
 10
118.2237396762797
 20
170.8818561392912
 30
0.0
 40
4.500000000010029
100
AcDbArc
 50
88.12073698459788
 51
141.1207369843186
  0
ARC
  5
10D
330
1F
100
AcDbEntity
  8
0
  6
Continuous
 62
     7
100
AcDbCircle
 10
90.8057713221
 20
168.1423249244
 30
0.0
 40
3.999999999975716
100
AcDbArc
 50
131.0744240700331
 51
140.8992392794444
  0
ARC
  5
10E
330
1F
100
AcDbEntity
  8
0
  6
Continuous
 62
     7
100
AcDbCircle
 10
90.8057713221
 20
168.1423249244
 30
0.0
 40
4.000000000046311
100
AcDbArc
 50
140.8992392794444
 51
-140.8992392794447
  0
CIRCLE
  5
10F
330
1F
100
AcDbEntity
  8
0
  6
Continuous
 62
     7
100
AcDbCircle
 10
145.6448473446
 20
168.1739322561
 30
0.0
 40
2.024999999999977
  0
CIRCLE
  5
110
330
1F
100
AcDbEntity
  8
0
  6
Continuous
 62
     7
100
AcDbCircle
 10
118.2237397424
 20
170.8818572678
 30
0.0
 40
2.0
  0
CIRCLE
  5
111
330
1F
100
AcDbEntity
  8
0
  6
Continuous
 62
     7
100
AcDbCircle
 10
124.2651100849
 20
154.1847914269
 30
0.0
 40
1.683810409800003
  0
CIRCLE
  5
112
330
1F
100
AcDbEntity
  8
0
  6
Continuous
 62
     7
100
AcDbCircle
 10
112.2016191882
 20
154.1778438569
 30
0.0
 40
1.683810409800003
  0
CIRCLE
  5
113
330
1F
100
AcDbEntity
  8
0
  6
Continuous
 62
     7
100
AcDbCircle
 10
90.8057716865
 20
168.142324825
 30
0.0
 40
1.950000000000003
  0
SPLINE
  5
114
330
1F
100
AcDbEntity
  8
A_RUNDUNGEN
  6
Continuous
 62
     7
100
AcDbSpline
210
0.0
220
0.0
230
1.0
 70
     8
 71
     3
 72
    17
 73
    13
 74
    11
 42
0.0000000001
 43
0.0000000001
 44
0.00000001
 40
0.0
 40
0.0
 40
0.0
 40
0.0
 40
0.0095427474758961
 40
0.0197323694148415
 40
0.0364016245808728
 40
0.0526521982948661
 40
0.1083675421485583
 40
0.1646270333833832
 40
0.2466144121646539
 40
0.3283323691792148
 40
0.4247897158831039
 40
0.5212942486035725
 40
0.5212942486035725
 40
0.5212942486035725
 40
0.5212942486035725
 10
133.2404777466
 20
149.3700901108
 30
0.0
 10
133.2397761106562
 20
149.3732561774353
 30
0.0
 10
133.2383252769551
 20
149.3798029289446
 30
0.0
 10
133.2295223664154
 20
149.3887177303736
 30
0.0
 10
133.2179233885069
 20
149.397150929926
 30
0.0
 10
133.1909011917595
 20
149.4094432446777
 30
0.0
 10
133.1503137439323
 20
149.4230387279928
 30
0.0
 10
133.087119773711
 20
149.4370469645691
 30
0.0
 10
133.0147000366251
 20
149.4487399884008
 30
0.0
 10
132.9284194316116
 20
149.4577482752435
 30
0.0
 10
132.8370105927274
 20
149.4636675621272
 30
0.0
 10
132.7726850581999
 20
149.4644232667102
 30
0.0
 10
132.740514426
 20
149.4648012114
 30
0.0
 11
133.2404777466
 21
149.3700901108
 31
0.0
 11
133.2375961330782
 21
149.3791873814291
 31
0.0
 11
133.2309840508308
 21
149.3869403656037
 31
0.0
 11
133.2175084704644
 21
149.3967522360463
 31
0.0
 11
133.2028900180162
 21
149.4038502635225
 31
0.0
 11
133.1502288998566
 21
149.4220438386225
 31
0.0
 11
133.0954235867462
 21
149.4347524187502
 31
0.0
 11
133.0145124705632
 21
149.4479933234567
 31
0.0
 11
132.9332648071059
 21
149.4567478469373
 31
0.0
 11
132.8369985440071
 21
149.4628163164428
 31
0.0
 11
132.740514426
 21
149.4648012114
 31
0.0
  0
SPLINE
  5
115
330
1F
100
AcDbEntity
  8
A_RUNDUNGEN
  6
Continuous
 62
     7
100
AcDbSpline
210
0.0
220
0.0
230
1.0
 70
     8
 71
     3
 72
    15
 73
    11
 74
     9
 42
0.0000000001
 43
0.0000000001
 44
0.00000001
 40
0.0
 40
0.0
 40
0.0
 40
0.0
 40
0.0996993470928692
 40
0.199827493824028
 40
0.2997667051736478
 40
0.3996149216225238
 40
0.4994579438493458
 40
0.5994007141883142
 40
0.6994941900377292
 40
0.7992331290809215
 40
0.7992331290809215
 40
0.7992331290809215
 40
0.7992331290809215
 10
110.7016191882
 20
149.5676246908
 30
0.0
 10
110.7349037250512
 20
149.5655687861982
 30
0.0
 10
110.8016159531251
 20
149.5614481346985
 30
0.0
 10
110.8974713721176
 20
149.529628432377
 30
0.0
 10
110.9849889425961
 20
149.4801891593366
 30
0.0
 10
111.0608168433515
 20
149.4141334981187
 30
0.0
 10
111.1224191495155
 20
149.3346899683542
 30
0.0
 10
111.1675277768559
 20
149.2449448512409
 30
0.0
 10
111.196170086537
 20
149.1482942761253
 30
0.0
 10
111.1998049706139
 20
149.0815954722883
 30
0.0
 10
111.2016191882
 20
149.0483052379
 30
0.0
 11
110.7016191882
 21
149.5676246908
 31
0.0
 11
110.8007723038046
 21
149.5572026239871
 31
0.0
 11
110.8961307052955
 21
149.5266670540249
 31
0.0
 11
110.9830789941418
 21
149.4773939271516
 31
0.0
 11
111.0584477207857
 21
149.4119017797436
 31
0.0
 11
111.119645886887
 21
149.3330131648919
 31
0.0
 11
111.1647649105734
 21
149.2438345180945
 31
0.0
 11
111.192325661841
 21
149.147610254537
 31
0.0
 11
111.2016191882
 21
149.0483052379
 31
0.0
  0
ARC
  5
116
330
1F
100
AcDbEntity
  8
1
  6
DASHED
 62
     2
100
AcDbCircle
 10
111.025329514131
 20
164.7790866935515
 30
0.0
 40
1.000000000000075
100
AcDbArc
 50
-15.00000000074016
 51
75.00000000015608
  0
ARC
  5
117
330
1F
100
AcDbEntity
  8
1
  6
DASHED
 62
     2
100
AcDbCircle
 10
109.9900533336714
 20
160.9153833884085
 30
0.0
 40
0.9999999999999795
100
AcDbArc
 50
-104.9999999998388
 51
-15.00000000073377
  0
ARC
  5
118
330
1F
100
AcDbEntity
  8
1
  6
DASHED
 62
     2
100
AcDbCircle
 10
125.5256180580045
 20
164.9686200833042
 30
0.0
 40
1.000000000000085
100
AcDbArc
 50
104.999999999962
 51
-164.9999999999099
  0
ARC
  5
119
330
1F
100
AcDbEntity
  8
1
  6
DASHED
 62
     2
100
AcDbCircle
 10
126.5608942384207
 20
161.1049167781496
 30
0.0
 40
0.9999999999999252
100
AcDbArc
 50
-164.9999999999117
 51
-75.00000000004185
  0
DIMENSION
  5
125
330
1F
100
AcDbEntity
  8
1
100
AcDbDimension
  2
*D1
 10
116.7400014316209
 20
123.497602095862
 30
0.0
 11
102.199321084877
 21
127.247602095862
 31
0.0
 70
    32
  1
<>
 71
     5
 42
-1.0
 53
0.00013888888889
  3
ME10_DIM_10
100
AcDbAlignedDimension
 13
84.7016191882
 23
149.0278438569
 33
0.0
 14
116.7400014316209
 24
143.6205948835851
 34
0.0
100
AcDbRotatedDimension
  0
DIMENSION
  5
132
330
1F
100
AcDbEntity
  8
1
100
AcDbDimension
  2
*D2
 10
116.7400014316209
 20
133.546105296997
 30
0.0
 11
113.34635977663
 21
137.296105296997
 31
0.0
 70
    32
  1
<>
 71
     5
 42
-1.0
 53
0.00013888888889
  3
ME10_DIM_11
100
AcDbAlignedDimension
 13
119.7400021743993
 23
143.6266827546
 33
0.0
 14
116.7400014316209
 24
143.6205948835851
 34
0.0
100
AcDbRotatedDimension
  0
DIMENSION
  5
13F
330
1F
100
AcDbEntity
  8
1
100
AcDbDimension
  2
*D3
 10
179.837489585004
 20
143.6072991137
 30
0.0
 11
176.087489585004
 21
137.695182612645
 31
0.0
 70
    32
  1
<>
 71
     5
 42
-1.0
 53
90.0
  3
ME10_DIM_12
100
AcDbAlignedDimension
 13
153.7403798147
 23
149.1135014655
 33
0.0
 14
169.7382464119
 24
143.6072991137
 34
0.0
 50
90.0
100
AcDbRotatedDimension
  0
DIMENSION
  5
14A
330
1F
100
AcDbEntity
  8
1
100
AcDbDimension
  2
*D4
 10
179.837489585004
 20
178.1134992863
 30
0.0
 11
176.087489585004
 21
164.595985466103
 31
0.0
 70
    32
  1
<>
 71
     5
 42
-1.0
 53
90.0
  3
ME10_DIM_13
100
AcDbAlignedDimension
 13
153.7403798147
 23
149.1135014655
 33
0.0
 14
153.7516223264
 24
178.1134992863
 34
0.0
 50
90.0
100
AcDbRotatedDimension
  0
DIMENSION
  5
155
330
1F
100
AcDbEntity
  8
1
100
AcDbDimension
  2
*D5
 10
119.7400021743992
 20
123.497602095862
 30
0.0
 11
135.8192158284526
 21
127.247602095862
 31
0.0
 70
    32
  1
<>
 71
     5
 42
-1.0
 53
0.00013888888889
  3
ME10_DIM_14
100
AcDbAlignedDimension
 13
153.7403798147
 23
149.1135014655
 33
0.0
 14
119.7400021743993
 24
143.6266827546
 34
0.0
100
AcDbRotatedDimension
  0
DIMENSION
  5
160
330
1F
100
AcDbEntity
  8
1
100
AcDbDimension
  2
*D6
 10
61.64841806454039
 20
178.0278438569
 30
0.0
 11
57.89841806454039
 21
164.323590964466
 31
0.0
 70
    32
  1
<>
 71
     5
 42
-1.0
 53
90.0
  3
ME10_DIM_15
100
AcDbAlignedDimension
 13
84.7016191882
 23
149.0278438569
 33
0.0
 14
86.8016191882
 24
178.0278438569
 34
0.0
 50
90.0
100
AcDbRotatedDimension
  0
DIMENSION
  5
16B
330
1F
100
AcDbEntity
  8
1
100
AcDbDimension
  2
*D7
 10
189.906306879807
 20
183.6072961079
 30
0.0
 11
186.156306879807
 21
164.680631346572
 31
0.0
 70
    32
  1
<>
 71
     5
 42
-1.0
 53
90.0
  3
ME10_DIM_16
100
AcDbAlignedDimension
 13
169.7382464119
 23
143.6072991137
 33
0.0
 14
169.7537533246
 24
183.6072961079
 34
0.0
 50
90.0
100
AcDbRotatedDimension
  0
ENDSEC
  0
SECTION
  2
OBJECTS
  0
DICTIONARY
  5
C
330
0
100
AcDbDictionary
281
     1
  3
ACAD_GROUP
350
D
  3
ACAD_LAYOUT
350
1A
  3
ACAD_MLINESTYLE
350
17
  3
ACAD_PLOTSETTINGS
350
19
  3
ACAD_PLOTSTYLENAME
350
E
  0
DICTIONARY
  5
D
102
{ACAD_REACTORS
330
C
102
}
330
C
100
AcDbDictionary
281
     1
  0
DICTIONARY
  5
1A
102
{ACAD_REACTORS
330
C
102
}
330
C
100
AcDbDictionary
281
     1
  3
Layout1
350
1E
  3
Layout2
350
26
  3
Model
350
22
  0
DICTIONARY
  5
17
102
{ACAD_REACTORS
330
C
102
}
330
C
100
AcDbDictionary
281
     1
  3
Standard
350
18
  0
DICTIONARY
  5
19
102
{ACAD_REACTORS
330
C
102
}
330
C
100
AcDbDictionary
281
     1
  0
ACDBDICTIONARYWDFLT
  5
E
102
{ACAD_REACTORS
330
C
102
}
330
C
100
AcDbDictionary
281
     1
  3
Normal
350
F
100
AcDbDictionaryWithDefault
340
F
  0
LAYOUT
  5
1E
102
{ACAD_REACTORS
330
1A
102
}
330
1A
100
AcDbPlotSettings
  1

  2

  4

  6

 40
0.0
 41
0.0
 42
0.0
 43
0.0
 44
0.0
 45
0.0
 46
0.0
 47
0.0
 48
0.0
 49
0.0
140
0.0
141
0.0
142
1.0
143
1.0
 70
   688
 72
     0
 73
     0
 74
     5
  7

 75
    16
 76
     0
 77
     2
 78
   300
147
1.0
148
0.0
149
0.0
100
AcDbLayout
  1
Layout1
 70
     1
 71
     1
 10
0.0
 20
0.0
 11
0.0
 21
0.0
 12
0.0
 22
0.0
 32
0.0
 14
0.0
 24
0.0
 34
0.0
 15
0.0
 25
0.0
 35
0.0
146
0.0
 13
0.0
 23
0.0
 33
0.0
 16
1.0
 26
0.0
 36
0.0
 17
0.0
 27
1.0
 37
0.0
 76
     0
330
1B
  0
LAYOUT
  5
26
102
{ACAD_REACTORS
330
1A
102
}
330
1A
100
AcDbPlotSettings
  1

  2

  4

  6

 40
0.0
 41
0.0
 42
0.0
 43
0.0
 44
0.0
 45
0.0
 46
0.0
 47
0.0
 48
0.0
 49
0.0
140
0.0
141
0.0
142
1.0
143
1.0
 70
   688
 72
     0
 73
     0
 74
     5
  7

 75
    16
 76
     0
 77
     2
 78
   300
147
1.0
148
0.0
149
0.0
100
AcDbLayout
  1
Layout2
 70
     1
 71
     2
 10
0.0
 20
0.0
 11
0.0
 21
0.0
 12
0.0
 22
0.0
 32
0.0
 14
0.0
 24
0.0
 34
0.0
 15
0.0
 25
0.0
 35
0.0
146
0.0
 13
0.0
 23
0.0
 33
0.0
 16
1.0
 26
0.0
 36
0.0
 17
0.0
 27
1.0
 37
0.0
 76
     0
330
23
  0
LAYOUT
  5
22
102
{ACAD_REACTORS
330
1A
102
}
330
1A
100
AcDbPlotSettings
  1

  2

  4

  6

 40
0.0
 41
0.0
 42
0.0
 43
0.0
 44
0.0
 45
0.0
 46
0.0
 47
0.0
 48
0.0
 49
0.0
140
0.0
141
0.0
142
1.0
143
1.0
 70
  1712
 72
     0
 73
     0
 74
     0
  7

 75
     0
 76
     0
 77
     2
 78
   300
147
1.0
148
0.0
149
0.0
100
AcDbLayout
  1
Model
 70
     1
 71
     0
 10
0.0
 20
0.0
 11
0.0
 21
0.0
 12
0.0
 22
0.0
 32
0.0
 14
56.14841806454039
 24
121.497602095862
 34
0.0
 15
191.906306879807
 25
207.4578397329013
 35
0.0
146
0.0
 13
0.0
 23
0.0
 33
0.0
 16
1.0
 26
0.0
 36
0.0
 17
0.0
 27
1.0
 37
0.0
 76
     0
330
1F
  0
MLINESTYLE
  5
18
102
{ACAD_REACTORS
330
17
102
}
330
17
100
AcDbMlineStyle
  2
Standard
 70
     0
  3

 62
   256
 51
90.0
 52
90.0
 71
     2
 49
0.5
 62
   256
  6
BYLAYER
 49
-0.5
 62
   256
  6
BYLAYER
  0
ACDBPLACEHOLDER
  5
F
102
{ACAD_REACTORS
330
E
102
}
330
E
  0
ENDSEC
  0
EOF
