  0
SECTION
  2
HEADER
  9
$ACADVER
  1
AC1018
  9
$ACADMAINTVER
 70
     0
  9
$DWGCODEPAGE
  3
ANSI_1252
  9
$INSBASE
 10
0.0
 20
0.0
 30
0.0
  9
$EXTMIN
 10
110.550604674667
 20
50.3956066263642
 30
0.0
  9
$EXTMAX
 10
185.840815335679
 20
217.4168559373
 30
0.0
  9
$LIMMIN
 10
0.0
 20
0.0
  9
$LIMMAX
 10
12.0
 20
9.0
  9
$ORTHOMODE
 70
     0
  9
$REGENMODE
 70
     1
  9
$FILLMODE
 70
     1
  9
$QTEXTMODE
 70
     0
  9
$MIRRTEXT
 70
     1
  9
$LTSCALE
 40
1.0
  9
$ATTMODE
 70
     1
  9
$TEXTSIZE
 40
0.2
  9
$TRACEWID
 40
0.05
  9
$TEXTSTYLE
  7
Standard
  9
$CLAYER
  8
0
  9
$CELTYPE
  6
ByLayer
  9
$CECOLOR
 62
   256
  9
$CELTSCALE
 40
1.0
  9
$DISPSILH
 70
     0
  9
$DIMSCALE
 40
1.0
  9
$DIMASZ
 40
0.18
  9
$DIMEXO
 40
0.0625
  9
$DIMDLI
 40
0.38
  9
$DIMRND
 40
0.0
  9
$DIMDLE
 40
0.0
  9
$DIMEXE
 40
0.18
  9
$DIMTP
 40
0.0
  9
$DIMTM
 40
0.0
  9
$DIMTXT
 40
0.18
  9
$DIMCEN
 40
0.09
  9
$DIMTSZ
 40
0.0
  9
$DIMTOL
 70
     0
  9
$DIMLIM
 70
     0
  9
$DIMTIH
 70
     1
  9
$DIMTOH
 70
     1
  9
$DIMSE1
 70
     0
  9
$DIMSE2
 70
     0
  9
$DIMTAD
 70
     0
  9
$DIMZIN
 70
     0
  9
$DIMBLK
  1

  9
$DIMASO
 70
     1
  9
$DIMSHO
 70
     1
  9
$DIMPOST
  1

  9
$DIMAPOST
  1

  9
$DIMALT
 70
     0
  9
$DIMALTD
 70
     2
  9
$DIMALTF
 40
25.4
  9
$DIMLFAC
 40
1.0
  9
$DIMTOFL
 70
     0
  9
$DIMTVP
 40
0.0
  9
$DIMTIX
 70
     0
  9
$DIMSOXD
 70
     0
  9
$DIMSAH
 70
     0
  9
$DIMBLK1
  1

  9
$DIMBLK2
  1

  9
$DIMSTYLE
  2
Standard
  9
$DIMCLRD
 70
     0
  9
$DIMCLRE
 70
     0
  9
$DIMCLRT
 70
     0
  9
$DIMTFAC
 40
1.0
  9
$DIMGAP
 40
0.09
  9
$DIMJUST
 70
     0
  9
$DIMSD1
 70
     0
  9
$DIMSD2
 70
     0
  9
$DIMTOLJ
 70
     1
  9
$DIMTZIN
 70
     0
  9
$DIMALTZ
 70
     0
  9
$DIMALTTZ
 70
     0
  9
$DIMUPT
 70
     0
  9
$DIMDEC
 70
     4
  9
$DIMTDEC
 70
     4
  9
$DIMALTU
 70
     2
  9
$DIMALTTD
 70
     2
  9
$DIMTXSTY
  7
Standard
  9
$DIMAUNIT
 70
     0
  9
$DIMADEC
 70
     0
  9
$DIMALTRND
 40
0.0
  9
$DIMAZIN
 70
     0
  9
$DIMDSEP
 70
    46
  9
$DIMATFIT
 70
     3
  9
$DIMFRAC
 70
     0
  9
$DIMLDRBLK
  1

  9
$DIMLUNIT
 70
     2
  9
$DIMLWD
 70
    -2
  9
$DIMLWE
 70
    -2
  9
$DIMTMOVE
 70
     0
  9
$LUNITS
 70
     2
  9
$LUPREC
 70
     4
  9
$SKETCHINC
 40
0.1
  9
$FILLETRAD
 40
0.5
  9
$AUNITS
 70
     0
  9
$AUPREC
 70
     0
  9
$MENU
  1
.
  9
$ELEVATION
 40
0.0
  9
$PELEVATION
 40
0.0
  9
$THICKNESS
 40
0.0
  9
$LIMCHECK
 70
     0
  9
$CHAMFERA
 40
0.5
  9
$CHAMFERB
 40
0.5
  9
$CHAMFERC
 40
1.0
  9
$CHAMFERD
 40
0.0
  9
$SKPOLY
 70
     0
  9
$TDCREATE
 40
2456966.484289942
  9
$TDUCREATE
 40
2456966.442623275
  9
$TDUPDATE
 40
2456966.484289953
  9
$TDUUPDATE
 40
2456966.442623287
  9
$TDINDWG
 40
0.0000000116
  9
$TDUSRTIMER
 40
0.0000000116
  9
$USRTIMER
 70
     1
  9
$ANGBASE
 50
0.0
  9
$ANGDIR
 70
     0
  9
$PDMODE
 70
     0
  9
$PDSIZE
 40
0.0
  9
$PLINEWID
 40
0.0
  9
$SPLFRAME
 70
     0
  9
$SPLINETYPE
 70
     6
  9
$SPLINESEGS
 70
     8
  9
$HANDSEED
  5
1A1
  9
$SURFTAB1
 70
     6
  9
$SURFTAB2
 70
     6
  9
$SURFTYPE
 70
     6
  9
$SURFU
 70
     6
  9
$SURFV
 70
     6
  9
$UCSBASE
  2

  9
$UCSNAME
  2

  9
$UCSORG
 10
0.0
 20
0.0
 30
0.0
  9
$UCSXDIR
 10
1.0
 20
0.0
 30
0.0
  9
$UCSYDIR
 10
0.0
 20
1.0
 30
0.0
  9
$UCSORTHOREF
  2

  9
$UCSORTHOVIEW
 70
     0
  9
$UCSORGTOP
 10
0.0
 20
0.0
 30
0.0
  9
$UCSORGBOTTOM
 10
0.0
 20
0.0
 30
0.0
  9
$UCSORGLEFT
 10
0.0
 20
0.0
 30
0.0
  9
$UCSORGRIGHT
 10
0.0
 20
0.0
 30
0.0
  9
$UCSORGFRONT
 10
0.0
 20
0.0
 30
0.0
  9
$UCSORGBACK
 10
0.0
 20
0.0
 30
0.0
  9
$PUCSBASE
  2

  9
$PUCSNAME
  2

  9
$PUCSORG
 10
0.0
 20
0.0
 30
0.0
  9
$PUCSXDIR
 10
1.0
 20
0.0
 30
0.0
  9
$PUCSYDIR
 10
0.0
 20
1.0
 30
0.0
  9
$PUCSORTHOREF
  2

  9
$PUCSORTHOVIEW
 70
     0
  9
$PUCSORGTOP
 10
0.0
 20
0.0
 30
0.0
  9
$PUCSORGBOTTOM
 10
0.0
 20
0.0
 30
0.0
  9
$PUCSORGLEFT
 10
0.0
 20
0.0
 30
0.0
  9
$PUCSORGRIGHT
 10
0.0
 20
0.0
 30
0.0
  9
$PUCSORGFRONT
 10
0.0
 20
0.0
 30
0.0
  9
$PUCSORGBACK
 10
0.0
 20
0.0
 30
0.0
  9
$USERI1
 70
     0
  9
$USERI2
 70
     0
  9
$USERI3
 70
     0
  9
$USERI4
 70
     0
  9
$USERI5
 70
     0
  9
$USERR1
 40
14.5
  9
$USERR2
 40
0.0
  9
$USERR3
 40
0.0
  9
$USERR4
 40
0.0
  9
$USERR5
 40
0.0
  9
$WORLDVIEW
 70
     1
  9
$SHADEDGE
 70
     3
  9
$SHADEDIF
 70
    70
  9
$TILEMODE
 70
     1
  9
$MAXACTVP
 70
    64
  9
$PINSBASE
 10
0.0
 20
0.0
 30
0.0
  9
$PLIMCHECK
 70
     0
  9
$PEXTMIN
 10
1.00000000000000E+20
 20
1.00000000000000E+20
 30
1.00000000000000E+20
  9
$PEXTMAX
 10
-1.00000000000000E+20
 20
-1.00000000000000E+20
 30
-1.00000000000000E+20
  9
$PLIMMIN
 10
0.0
 20
0.0
  9
$PLIMMAX
 10
12.0
 20
9.0
  9
$UNITMODE
 70
     0
  9
$VISRETAIN
 70
     1
  9
$PLINEGEN
 70
     0
  9
$PSLTSCALE
 70
     1
  9
$TREEDEPTH
 70
  3020
  9
$CMLSTYLE
  2
Standard
  9
$CMLJUST
 70
     0
  9
$CMLSCALE
 40
1.0
  9
$PROXYGRAPHICS
 70
     1
  9
$MEASUREMENT
 70
     1
  9
$CELWEIGHT
370
    -1
  9
$ENDCAPS
280
     0
  9
$JOINSTYLE
280
     0
  9
$LWDISPLAY
290
     0
  9
$INSUNITS
 70
     1
  9
$HYPERLINKBASE
  1

  9
$STYLESHEET
  1

  9
$XEDIT
290
     1
  9
$CEPSNTYPE
380
     0
  9
$PSTYLEMODE
290
     1
  9
$FINGERPRINTGUID
  2
{F0E86A32-E48F-4671-8F0E-22A4E1E34D0F}
  9
$VERSIONGUID
  2
{FAEB1C32-E019-11D5-929B-00C0DF256EC4}
  9
$EXTNAMES
290
     1
  9
$PSVPSCALE
 40
0.0
  9
$OLESTARTUP
290
     0
  9
$SORTENTS
280
   127
  9
$INDEXCTL
280
     0
  9
$HIDETEXT
280
     1
  9
$XCLIPFRAME
290
     0
  9
$HALOGAP
280
     0
  9
$OBSCOLOR
 70
   257
  9
$OBSLTYPE
280
     0
  9
$INTERSECTIONDISPLAY
280
     0
  9
$INTERSECTIONCOLOR
 70
   257
  9
$DIMASSOC
280
     2
  9
$PROJECTNAME
  1

  0
ENDSEC
  0
SECTION
  2
CLASSES
  0
CLASS
  1
ACDBDICTIONARYWDFLT
  2
AcDbDictionaryWithDefault
  3
ObjectDBX Classes
 90
        0
 91
        3
280
     0
281
     0
  0
CLASS
  1

  2
exOdDbCircle
  3

 90
        0
 91
        3
280
     0
281
     1
  0
CLASS
  1

  2
exOdDbSpline
  3

 90
        0
 91
        3
280
     0
281
     1
  0
ENDSEC
  0
SECTION
  2
TABLES
  0
TABLE
  2
VPORT
  5
8
330
0
100
AcDbSymbolTable
 70
     1
  0
VPORT
  5
29
330
8
100
AcDbSymbolTableRecord
100
AcDbViewportTableRecord
  2
*Active
 70
     0
 10
0.0
 20
0.0
 11
1.0
 21
1.0
 12
148.195710005173
 22
133.9062312818321
 13
0.0
 23
0.0
 14
0.5
 24
0.5
 15
0.5
 25
0.5
 16
0.0
 26
0.0
 36
1.0
 17
0.0
 27
0.0
 37
0.0
 40
183.7233742420294
 41
1.60267857142857
 42
50.0
 43
0.0
 44
0.0
 50
0.0
 51
0.0
 71
     0
 72
   100
 73
     1
 74
     3
 75
     0
 76
     0
 77
     0
 78
     0
281
     0
 65
     1
110
0.0
120
0.0
130
0.0
111
1.0
121
0.0
131
0.0
112
0.0
122
1.0
132
0.0
 79
     0
146
0.0
  0
ENDTAB
  0
TABLE
  2
LTYPE
  5
5
330
0
100
AcDbSymbolTable
 70
     9
  0
LTYPE
  5
14
330
5
100
AcDbSymbolTableRecord
100
AcDbLinetypeTableRecord
  2
ByBlock
 70
     0
  3

 72
    65
 73
     0
 40
0.0
  0
LTYPE
  5
15
330
5
100
AcDbSymbolTableRecord
100
AcDbLinetypeTableRecord
  2
ByLayer
 70
     0
  3

 72
    65
 73
     0
 40
0.0
  0
LTYPE
  5
16
330
5
100
AcDbSymbolTableRecord
100
AcDbLinetypeTableRecord
  2
Continuous
 70
     0
  3
Solid line
 72
    65
 73
     0
 40
0.0
  0
LTYPE
  5
2A
330
5
100
AcDbSymbolTableRecord
100
AcDbLinetypeTableRecord
  2
DASHED
 70
     0
  3
Dashed
 72
    65
 73
     2
 40
15.0
 49
7.0
 74
     0
 49
-8.0
 74
     0
  0
LTYPE
  5
2B
330
5
100
AcDbSymbolTableRecord
100
AcDbLinetypeTableRecord
  2
DOTTED
 70
     0
  3
Dotted
 72
    65
 73
     2
 40
1.0
 49
0.0
 74
     0
 49
-1.0
 74
     0
  0
LTYPE
  5
2C
330
5
100
AcDbSymbolTableRecord
100
AcDbLinetypeTableRecord
  2
DOT_CENTER
 70
     0
  3
Dot_Center
 72
    65
 73
     4
 40
14.0
 49
12.0
 74
     0
 49
-1.0
 74
     0
 49
0.0
 74
     0
 49
-1.0
 74
     0
  0
LTYPE
  5
2D
330
5
100
AcDbSymbolTableRecord
100
AcDbLinetypeTableRecord
  2
LONG_DASHED
 70
     0
  3
Long_Dashed
 72
    65
 73
     2
 40
15.0
 49
10.0
 74
     0
 49
-5.0
 74
     0
  0
LTYPE
  5
2E
330
5
100
AcDbSymbolTableRecord
100
AcDbLinetypeTableRecord
  2
DASH_CENTER
 70
     0
  3
Dash_Center
 72
    65
 73
     4
 40
14.0
 49
11.0
 74
     0
 49
-1.0
 74
     0
 49
1.0
 74
     0
 49
-1.0
 74
     0
  0
LTYPE
  5
2F
330
5
100
AcDbSymbolTableRecord
100
AcDbLinetypeTableRecord
  2
PHANTOM
 70
     0
  3
Phantom
 72
    65
 73
     6
 40
13.0
 49
10.0
 74
     0
 49
-1.0
 74
     0
 49
0.0
 74
     0
 49
-1.0
 74
     0
 49
0.0
 74
     0
 49
-1.0
 74
     0
  0
LTYPE
  5
30
330
5
100
AcDbSymbolTableRecord
100
AcDbLinetypeTableRecord
  2
CENTER_DASH_DASH
 70
     0
  3
Center_Dash_Dash
 72
    65
 73
     6
 40
14.0
 49
9.0
 74
     0
 49
-1.0
 74
     0
 49
1.0
 74
     0
 49
-1.0
 74
     0
 49
1.0
 74
     0
 49
-1.0
 74
     0
  0
LTYPE
  5
31
330
5
100
AcDbSymbolTableRecord
100
AcDbLinetypeTableRecord
  2
HIDDEN_1
 70
     0
  3
HIDDEN_1
 72
    65
 73
     2
 40
6.0
 49
3.0
 74
     0
 49
-3.0
 74
     0
  0
ENDTAB
  0
TABLE
  2
LAYER
  5
2
330
0
100
AcDbSymbolTable
 70
     5
  0
LAYER
  5
10
330
2
100
AcDbSymbolTableRecord
100
AcDbLayerTableRecord
  2
0
 70
     0
 62
     7
  6
Continuous
370
    -3
390
F
  0
LAYER
  5
32
330
2
100
AcDbSymbolTableRecord
100
AcDbLayerTableRecord
  2
1
 70
     0
 62
     7
  6
Continuous
370
    -3
390
F
  0
LAYER
  5
33
330
2
100
AcDbSymbolTableRecord
100
AcDbLayerTableRecord
  2
A_BEMASSUNGEN
 70
     0
 62
     7
  6
Continuous
370
    -3
390
F
  0
LAYER
  5
34
330
2
100
AcDbSymbolTableRecord
100
AcDbLayerTableRecord
  2
DEFAULT_1
 70
     0
 62
     7
  6
Continuous
370
    -3
390
F
  0
LAYER
  5
35
330
2
100
AcDbSymbolTableRecord
100
AcDbLayerTableRecord
  2
DEFAULT_2
 70
     0
 62
     7
  6
Continuous
370
    -3
390
F
  0
ENDTAB
  0
TABLE
  2
STYLE
  5
3
330
0
100
AcDbSymbolTable
 70
     2
  0
STYLE
  5
11
330
3
100
AcDbSymbolTableRecord
100
AcDbTextStyleTableRecord
  2
Standard
 70
     0
 40
0.0
 41
1.0
 50
0.0
 71
     0
 42
0.2
  3
txt
  4

  0
STYLE
  5
173
330
3
100
AcDbSymbolTableRecord
100
AcDbTextStyleTableRecord
  2
CONVERTER_11
 70
     0
 40
0.0
 41
0.9
 50
0.0
 71
     0
 42
0.2
  3
txt.shx
  4

  0
ENDTAB
  0
TABLE
  2
VIEW
  5
6
330
0
100
AcDbSymbolTable
 70
     0
  0
ENDTAB
  0
TABLE
  2
UCS
  5
7
330
0
100
AcDbSymbolTable
 70
     0
  0
ENDTAB
  0
TABLE
  2
APPID
  5
9
330
0
100
AcDbSymbolTable
 70
     1
  0
APPID
  5
12
330
9
100
AcDbSymbolTableRecord
100
AcDbRegAppTableRecord
  2
ACAD
 70
     0
  0
ENDTAB
  0
TABLE
  2
DIMSTYLE
  5
A
330
0
100
AcDbSymbolTable
 70
     5
100
AcDbDimStyleTable
  0
DIMSTYLE
105
27
330
A
100
AcDbSymbolTableRecord
100
AcDbDimStyleTableRecord
  2
Standard
 70
     0
340
11
  0
DIMSTYLE
105
17E
102
{ACAD_REACTORS
330
17F
102
}
330
A
100
AcDbSymbolTableRecord
100
AcDbDimStyleTableRecord
  2
ME10_DIM_10
 70
     0
 41
3.5
 42
0.0
 44
2.0
 73
     0
 74
     0
 77
     1
 78
     8
140
3.5
147
2.0
172
     1
173
     1
176
     2
177
     2
178
     2
271
     3
340
173
  0
DIMSTYLE
105
189
102
{ACAD_REACTORS
330
18A
102
}
330
A
100
AcDbSymbolTableRecord
100
AcDbDimStyleTableRecord
  2
ME10_DIM_11
 70
     0
 41
3.5
 42
0.0
 44
2.0
 73
     0
 74
     0
 77
     1
 78
     8
140
3.5
147
2.0
172
     1
173
     1
176
     2
177
     2
178
     2
271
     3
340
173
  0
DIMSTYLE
105
194
102
{ACAD_REACTORS
330
195
102
}
330
A
100
AcDbSymbolTableRecord
100
AcDbDimStyleTableRecord
  2
ME10_DIM_12
 70
     0
 41
3.5
 42
0.0
 44
2.0
 73
     0
 74
     0
 77
     1
 78
     8
140
3.5
147
2.0
172
     1
173
     1
176
     2
177
     2
178
     2
271
     3
340
173
  0
DIMSTYLE
105
19F
102
{ACAD_REACTORS
330
1A0
102
}
330
A
100
AcDbSymbolTableRecord
100
AcDbDimStyleTableRecord
  2
ME10_DIM_13
 70
     0
 41
3.5
 42
0.0
 44
2.0
 73
     0
 74
     0
 77
     1
 78
     8
140
3.5
147
2.0
172
     1
173
     1
176
     2
177
     2
178
     2
271
     3
340
173
  0
ENDTAB
  0
TABLE
  2
BLOCK_RECORD
  5
1
330
0
100
AcDbSymbolTable
 70
     5
  0
BLOCK_RECORD
  5
1F
330
1
100
AcDbSymbolTableRecord
100
AcDbBlockTableRecord
  2
*Model_Space
340
22
  0
BLOCK_RECORD
  5
1B
330
1
100
AcDbSymbolTableRecord
100
AcDbBlockTableRecord
  2
*Paper_Space
340
1E
  0
BLOCK_RECORD
  5
23
330
1
100
AcDbSymbolTableRecord
100
AcDbBlockTableRecord
  2
*Paper_Space0
340
26
  0
BLOCK_RECORD
  5
175
330
1
100
AcDbSymbolTableRecord
100
AcDbBlockTableRecord
  2
*D1
340
0
  0
BLOCK_RECORD
  5
180
330
1
100
AcDbSymbolTableRecord
100
AcDbBlockTableRecord
  2
*D2
340
0
  0
BLOCK_RECORD
  5
18B
330
1
100
AcDbSymbolTableRecord
100
AcDbBlockTableRecord
  2
*D3
340
0
  0
BLOCK_RECORD
  5
196
330
1
100
AcDbSymbolTableRecord
100
AcDbBlockTableRecord
  2
*D4
340
0
  0
ENDTAB
  0
ENDSEC
  0
SECTION
  2
BLOCKS
  0
BLOCK
  5
20
330
1F
100
AcDbEntity
  8
0
100
AcDbBlockBegin
  2
*Model_Space
 70
     0
 71
     0
 10
0.0
 20
0.0
 30
0.0
  3
*Model_Space
  1

  0
ENDBLK
  5
21
330
1F
100
AcDbEntity
  8
0
100
AcDbBlockEnd
  0
BLOCK
  5
1C
330
1B
100
AcDbEntity
 67
     1
  8
0
100
AcDbBlockBegin
  2
*Paper_Space
 70
     0
 71
     0
 10
0.0
 20
0.0
 30
0.0
  3
*Paper_Space
  1

  0
ENDBLK
  5
1D
330
1B
100
AcDbEntity
 67
     1
  8
0
100
AcDbBlockEnd
  0
BLOCK
  5
24
330
23
100
AcDbEntity
  8
0
100
AcDbBlockBegin
  2
*Paper_Space0
 70
     0
 71
     0
 10
0.0
 20
0.0
 30
0.0
  3
*Paper_Space0
  1

  0
ENDBLK
  5
25
330
23
100
AcDbEntity
  8
0
100
AcDbBlockEnd
  0
BLOCK
  5
17C
330
175
100
AcDbEntity
  8
0
100
AcDbBlockBegin
  2
*D1
 70
     1
 71
     0
 10
0.0
 20
0.0
 30
0.0
  3
*D1
  1

  0
LINE
  5
176
330
175
100
AcDbEntity
  8
1
  6
Continuous
 62
     2
100
AcDbLine
 10
183.840815335679
 20
217.4168559373
 30
0.0
 11
183.840815335679
 21
62.51685593730005
 31
0.0
  0
LINE
  5
177
330
175
100
AcDbEntity
  8
1
  6
Continuous
 62
     2
100
AcDbLine
 10
162.9690392245
 20
62.51685593730005
 30
0.0
 11
185.840815335679
 21
62.51685593730005
 31
0.0
  0
LINE
  5
178
330
175
100
AcDbEntity
  8
1
  6
Continuous
 62
     2
100
AcDbLine
 10
162.9690392245
 20
217.4168559373
 30
0.0
 11
185.840815335679
 21
217.4168559373
 31
0.0
  0
SOLID
  5
179
330
175
100
AcDbEntity
  8
1
 62
     2
100
AcDbTrace
 10
184.3015990772349
 20
213.9168559373
 30
0.0
 11
183.3800315941231
 21
213.9168559373
 31
0.0
 12
183.840815335679
 22
217.4168559373
 32
0.0
 13
183.840815335679
 23
217.4168559373
 33
0.0
  0
SOLID
  5
17A
330
175
100
AcDbEntity
  8
1
 62
     2
100
AcDbTrace
 10
183.3800315941231
 20
66.01685593730005
 30
0.0
 11
184.3015990772349
 21
66.01685593730005
 31
0.0
 12
183.840815335679
 22
62.51685593730005
 32
0.0
 13
183.840815335679
 23
62.51685593730005
 33
0.0
  0
MTEXT
  5
17B
330
175
100
AcDbEntity
  8
1
 62
     2
100
AcDbMText
 10
181.840815335679
 20
139.454949594227
 30
0.0
 40
3.5
 41
0.0
 71
     7
 72
     1
  1
155
  7
CONVERTER_11
 11
0.0
 21
1.0
 31
0.0
 73
     1
 44
0.60024009603842
  0
ENDBLK
  5
17D
330
175
100
AcDbEntity
  8
0
100
AcDbBlockEnd
  0
BLOCK
  5
187
330
180
100
AcDbEntity
  8
0
100
AcDbBlockBegin
  2
*D2
 70
     1
 71
     0
 10
0.0
 20
0.0
 30
0.0
  3
*D2
  1

  0
LINE
  5
181
330
180
100
AcDbEntity
  8
1
  6
Continuous
 62
     2
100
AcDbLine
 10
122.7551548938
 20
52.3956066263642
 30
0.0
 11
140.7551548938
 21
52.3956066263642
 31
0.0
  0
LINE
  5
182
330
180
100
AcDbEntity
  8
1
  6
Continuous
 62
     2
100
AcDbLine
 10
140.7551548938
 20
71.51685593729997
 30
0.0
 11
140.7551548938
 21
50.3956066263642
 31
0.0
  0
LINE
  5
183
330
180
100
AcDbEntity
  8
1
  6
Continuous
 62
     2
100
AcDbLine
 10
122.7551548938
 20
71.51685593729997
 30
0.0
 11
122.7551548938
 21
50.3956066263642
 31
0.0
  0
SOLID
  5
184
330
180
100
AcDbEntity
  8
1
 62
     2
100
AcDbTrace
 10
126.2551548938
 20
52.85639036792008
 30
0.0
 11
126.2551548938
 21
51.93482288480831
 31
0.0
 12
122.7551548938
 22
52.3956066263642
 32
0.0
 13
122.7551548938
 23
52.3956066263642
 33
0.0
  0
SOLID
  5
185
330
180
100
AcDbEntity
  8
1
 62
     2
100
AcDbTrace
 10
137.2551548938
 20
51.93482288480831
 30
0.0
 11
137.2551548938
 21
52.85639036792008
 31
0.0
 12
140.7551548938
 22
52.3956066263642
 32
0.0
 13
140.7551548938
 23
52.3956066263642
 33
0.0
  0
MTEXT
  5
186
330
180
100
AcDbEntity
  8
1
 62
     2
100
AcDbMText
 10
129.6551548938
 20
54.3956066263642
 30
0.0
 40
3.5
 41
0.0
 71
     7
 72
     1
  1
18
  7
CONVERTER_11
 11
0.9999999999970621
 21
2.424068405545307E-6
 31
0.0
 73
     1
 44
0.60024009603842
  0
ENDBLK
  5
188
330
180
100
AcDbEntity
  8
0
100
AcDbBlockEnd
  0
BLOCK
  5
192
330
18B
100
AcDbEntity
  8
0
100
AcDbBlockBegin
  2
*D3
 70
     1
 71
     0
 10
0.0
 20
0.0
 30
0.0
  3
*D3
  1

  0
LINE
  5
18C
330
18B
100
AcDbEntity
  8
1
  6
Continuous
 62
     2
100
AcDbLine
 10
152.4690392245
 20
52.3956066263642
 30
0.0
 11
173.4690392245
 21
52.3956066263642
 31
0.0
  0
LINE
  5
18D
330
18B
100
AcDbEntity
  8
1
  6
Continuous
 62
     2
100
AcDbLine
 10
173.4690392245
 20
73.01685593730002
 30
0.0
 11
173.4690392245
 21
50.3956066263642
 31
0.0
  0
LINE
  5
18E
330
18B
100
AcDbEntity
  8
1
  6
Continuous
 62
     2
100
AcDbLine
 10
152.4690392245
 20
73.01685593730002
 30
0.0
 11
152.4690392245
 21
50.3956066263642
 31
0.0
  0
SOLID
  5
18F
330
18B
100
AcDbEntity
  8
1
 62
     2
100
AcDbTrace
 10
155.9690392245
 20
52.85639036792008
 30
0.0
 11
155.9690392245
 21
51.93482288480831
 31
0.0
 12
152.4690392245
 22
52.3956066263642
 32
0.0
 13
152.4690392245
 23
52.3956066263642
 33
0.0
  0
SOLID
  5
190
330
18B
100
AcDbEntity
  8
1
 62
     2
100
AcDbTrace
 10
169.9690392245
 20
51.93482288480831
 30
0.0
 11
169.9690392245
 21
52.85639036792008
 31
0.0
 12
173.4690392245
 22
52.3956066263642
 32
0.0
 13
173.4690392245
 23
52.3956066263642
 33
0.0
  0
MTEXT
  5
191
330
18B
100
AcDbEntity
  8
1
 62
     2
100
AcDbMText
 10
160.8690392245
 20
54.3956066263642
 30
0.0
 40
3.5
 41
0.0
 71
     7
 72
     1
  1
21
  7
CONVERTER_11
 11
0.9999999999970621
 21
2.424068405545307E-6
 31
0.0
 73
     1
 44
0.60024009603842
  0
ENDBLK
  5
193
330
18B
100
AcDbEntity
  8
0
100
AcDbBlockEnd
  0
BLOCK
  5
19D
330
196
100
AcDbEntity
  8
0
100
AcDbBlockBegin
  2
*D4
 70
     1
 71
     0
 10
0.0
 20
0.0
 30
0.0
  3
*D4
  1

  0
LINE
  5
197
330
196
100
AcDbEntity
  8
1
  6
Continuous
 62
     2
100
AcDbLine
 10
140.7551548938
 20
52.3956066263642
 30
0.0
 11
152.4690392245
 21
52.3956066263642
 31
0.0
  0
LINE
  5
198
330
196
100
AcDbEntity
  8
1
  6
Continuous
 62
     2
100
AcDbLine
 10
152.4690392245
 20
73.01685593730002
 30
0.0
 11
152.4690392245
 21
50.3956066263642
 31
0.0
  0
LINE
  5
199
330
196
100
AcDbEntity
  8
1
  6
Continuous
 62
     2
100
AcDbLine
 10
140.7551548938
 20
71.51685593729997
 30
0.0
 11
140.7551548938
 21
50.3956066263642
 31
0.0
  0
SOLID
  5
19A
330
196
100
AcDbEntity
  8
1
 62
     2
100
AcDbTrace
 10
144.2551548938
 20
52.85639036792008
 30
0.0
 11
144.2551548938
 21
51.93482288480831
 31
0.0
 12
140.7551548938
 22
52.3956066263642
 32
0.0
 13
140.7551548938
 23
52.3956066263642
 33
0.0
  0
SOLID
  5
19B
330
196
100
AcDbEntity
  8
1
 62
     2
100
AcDbTrace
 10
148.9690392245
 20
51.93482288480831
 30
0.0
 11
148.9690392245
 21
52.85639036792008
 31
0.0
 12
152.4690392245
 22
52.3956066263642
 32
0.0
 13
152.4690392245
 23
52.3956066263642
 33
0.0
  0
MTEXT
  5
19C
330
196
100
AcDbEntity
  8
1
 62
     2
100
AcDbMText
 10
143.234302347081
 20
54.3956066263642
 30
0.0
 40
3.5
 41
0.0
 71
     7
 72
     1
  1
11.7
  7
CONVERTER_11
 11
0.9999999999970621
 21
2.424068405545307E-6
 31
0.0
 73
     1
 44
0.60024009603842
  0
ENDBLK
  5
19E
330
196
100
AcDbEntity
  8
0
100
AcDbBlockEnd
  0
ENDSEC
  0
SECTION
  2
ENTITIES
  0
POINT
  5
36
330
1F
100
AcDbEntity
  8
A_BEMASSUNGEN
 62
     7
100
AcDbPoint
 10
122.7551548938
 20
208.4168559373
 30
0.0
  0
POINT
  5
37
330
1F
100
AcDbEntity
  8
A_BEMASSUNGEN
 62
     7
100
AcDbPoint
 10
140.7551548938
 20
208.4168559373
 30
0.0
  0
POINT
  5
38
330
1F
100
AcDbEntity
  8
A_BEMASSUNGEN
 62
     7
100
AcDbPoint
 10
140.7551548938
 20
208.4168559373
 30
0.0
  0
POINT
  5
39
330
1F
100
AcDbEntity
  8
A_BEMASSUNGEN
 62
     7
100
AcDbPoint
 10
152.4690392245
 20
206.9168559373
 30
0.0
  0
POINT
  5
3A
330
1F
100
AcDbEntity
  8
A_BEMASSUNGEN
 62
     7
100
AcDbPoint
 10
152.4690392245
 20
206.9168559373
 30
0.0
  0
POINT
  5
3B
330
1F
100
AcDbEntity
  8
A_BEMASSUNGEN
 62
     7
100
AcDbPoint
 10
173.4690392245
 20
206.9168559373
 30
0.0
  0
POINT
  5
3C
330
1F
100
AcDbEntity
  8
A_BEMASSUNGEN
 62
     7
100
AcDbPoint
 10
140.7551548938
 20
71.51685593729997
 30
0.0
  0
POINT
  5
3D
330
1F
100
AcDbEntity
  8
A_BEMASSUNGEN
 62
     7
100
AcDbPoint
 10
140.7551548938
 20
71.51685593729997
 30
0.0
  0
POINT
  5
3E
330
1F
100
AcDbEntity
  8
A_BEMASSUNGEN
 62
     7
100
AcDbPoint
 10
122.7551548938
 20
71.51685593729997
 30
0.0
  0
POINT
  5
3F
330
1F
100
AcDbEntity
  8
A_BEMASSUNGEN
 62
     7
100
AcDbPoint
 10
122.7551548938
 20
71.51685593729997
 30
0.0
  0
POINT
  5
40
330
1F
100
AcDbEntity
  8
1
 62
     3
 60
     1
100
AcDbPoint
 10
159.23221830986
 20
194.9168559373
 30
0.0
  0
POINT
  5
41
330
1F
100
AcDbEntity
  8
1
 62
     3
 60
     1
100
AcDbPoint
 10
169.23221830986
 20
194.9168559373
 30
0.0
  0
POINT
  5
42
330
1F
100
AcDbEntity
  8
1
 62
     3
 60
     1
100
AcDbPoint
 10
158.921291303373
 20
188.9168559373
 30
0.0
  0
POINT
  5
43
330
1F
100
AcDbEntity
  8
1
 62
     3
 60
     1
100
AcDbPoint
 10
169.921291303373
 20
188.9168559373
 30
0.0
  0
POINT
  5
44
330
1F
100
AcDbEntity
  8
A_BEMASSUNGEN
 62
     7
100
AcDbPoint
 10
173.4690392245
 20
73.01685593730002
 30
0.0
  0
POINT
  5
45
330
1F
100
AcDbEntity
  8
A_BEMASSUNGEN
 62
     7
100
AcDbPoint
 10
152.4690392245
 20
73.01685593730002
 30
0.0
  0
POINT
  5
46
330
1F
100
AcDbEntity
  8
A_BEMASSUNGEN
 62
     7
100
AcDbPoint
 10
152.4690392245
 20
73.01685593730002
 30
0.0
  0
POINT
  5
47
330
1F
100
AcDbEntity
  8
1
 62
     3
 60
     1
100
AcDbPoint
 10
110.550604674667
 20
139.9668559373
 30
0.0
  0
POINT
  5
48
330
1F
100
AcDbEntity
  8
1
 62
     3
 60
     1
100
AcDbPoint
 10
175.550604674667
 20
139.9668559373
 30
0.0
  0
LINE
  5
49
330
1F
100
AcDbEntity
  8
DEFAULT_2
  6
HIDDEN_1
 62
   252
420
  8685188
100
AcDbLine
 10
141.9203505581
 20
208.2168559373
 30
0.0
 11
141.921653945
 21
208.2168559373
 31
0.0
  0
LINE
  5
4A
330
1F
100
AcDbEntity
  8
DEFAULT_2
  6
HIDDEN_1
 62
   252
420
  8685188
100
AcDbLine
 10
152.5190431695
 20
206.9168559373
 30
0.0
 11
152.5203465564
 21
206.9168559373
 31
0.0
  0
LINE
  5
4B
330
1F
100
AcDbEntity
  8
DEFAULT_2
  6
HIDDEN_1
 62
   252
420
  8685188
100
AcDbLine
 10
173.4190352794
 20
206.9168559373
 30
0.0
 11
173.4203386664
 21
206.9168559373
 31
0.0
  0
LINE
  5
4C
330
1F
100
AcDbEntity
  8
DEFAULT_2
  6
HIDDEN_1
 62
   252
420
  8685188
100
AcDbLine
 10
152.5190431695
 20
169.9168559373
 30
0.0
 11
152.5203465564
 21
169.9168559373
 31
0.0
  0
LINE
  5
4D
330
1F
100
AcDbEntity
  8
0
  6
Continuous
 62
     7
100
AcDbLine
 10
165.7420104923
 20
117.3168559373
 30
0.0
 11
128.4889255565
 21
117.3168559373
 31
0.0
  0
LINE
  5
4E
330
1F
100
AcDbEntity
  8
0
  6
Continuous
 62
     7
100
AcDbLine
 10
158.0270617323
 20
128.3668559373
 30
0.0
 11
150.1044394325
 21
128.3668559373
 31
0.0
  0
LINE
  5
4F
330
1F
100
AcDbEntity
  8
0
  6
Continuous
 62
     7
100
AcDbLine
 10
156.7417241373
 20
129.7168559373
 30
0.0
 11
136.1867201411
 21
129.7168559373
 31
0.0
  0
LINE
  5
50
330
1F
100
AcDbEntity
  8
0
  6
Continuous
 62
     7
100
AcDbLine
 10
156.7417241373
 20
150.2168559373
 30
0.0
 11
136.1867201411
 21
150.2168559373
 31
0.0
  0
LINE
  5
51
330
1F
100
AcDbEntity
  8
0
  6
Continuous
 62
     7
100
AcDbLine
 10
173.4690392245
 20
177.9168559373
 30
0.0
 11
173.4690392245
 21
169.9168559373
 31
0.0
  0
LINE
  5
52
330
1F
100
AcDbEntity
  8
0
  6
Continuous
 62
     7
100
AcDbLine
 10
173.4690392245
 20
177.9168559373
 30
0.0
 11
173.4690392245
 21
206.9168559373
 31
0.0
  0
LINE
  5
53
330
1F
100
AcDbEntity
  8
0
  6
Continuous
 62
     7
100
AcDbLine
 10
158.0270617323
 20
151.5668559373
 30
0.0
 11
150.1044394325
 21
151.5668559373
 31
0.0
  0
LINE
  5
54
330
1F
100
AcDbEntity
  8
0
  6
DASHED
 62
     2
100
AcDbLine
 10
168.7190392245
 20
188.9168559373
 30
0.0
 11
168.7190392245
 21
194.9168559373
 31
0.0
  0
LINE
  5
55
330
1F
100
AcDbEntity
  8
DEFAULT_2
  6
DASHED
 62
     2
100
AcDbLine
 10
167.0690392245
 20
188.9168559373
 30
0.0
 11
167.0690392245
 21
194.9168559373
 31
0.0
  0
LINE
  5
56
330
1F
100
AcDbEntity
  8
0
  6
Continuous
 62
     7
100
AcDbLine
 10
166.7779117095
 20
163.9168559373
 30
0.0
 11
166.7779117095
 21
162.6668559373
 31
0.0
  0
LINE
  5
57
330
1F
100
AcDbEntity
  8
0
  6
Continuous
 62
     7
100
AcDbLine
 10
165.1413509162
 20
162.6668559373
 30
0.0
 11
165.1413509162
 21
163.9168559373
 31
0.0
  0
LINE
  5
58
330
1F
100
AcDbEntity
  8
DEFAULT_1
  6
DOT_CENTER
 62
     2
100
AcDbLine
 10
164.4690392245
 20
187.9168559373
 30
0.0
 11
164.4690392245
 21
201.0800402511
 31
0.0
  0
LINE
  5
59
330
1F
100
AcDbEntity
  8
DEFAULT_1
  6
DOT_CENTER
 62
     2
100
AcDbLine
 10
162.9690392245
 20
206.9168559373
 30
0.0
 11
162.9690392245
 21
216.9168559373
 31
0.0
  0
LINE
  5
5A
330
1F
100
AcDbEntity
  8
0
  6
Continuous
 62
     7
100
AcDbLine
 10
166.7779103188
 20
162.6668559373
 30
0.0
 11
165.7420348179
 21
162.6668559373
 31
0.0
  0
LINE
  5
5B
330
1F
100
AcDbEntity
  8
0
  6
Continuous
 62
     7
100
AcDbLine
 10
134.5551548938
 20
162.6668559373
 30
0.0
 11
127.4462837995
 21
162.6668559373
 31
0.0
  0
LINE
  5
5C
330
1F
100
AcDbEntity
  8
0
  6
Continuous
 62
     7
100
AcDbLine
 10
123.4551548938
 20
163.9168559373
 30
0.0
 11
140.6551548938
 21
163.9168559373
 31
0.0
  0
LINE
  5
5D
330
1F
100
AcDbEntity
  8
0
  6
Continuous
 62
     7
100
AcDbLine
 10
153.4690392245
 20
163.9168559373
 30
0.0
 11
169.2190392245
 21
163.9168559373
 31
0.0
  0
LINE
  5
5E
330
1F
100
AcDbEntity
  8
DEFAULT_2
  6
DASHED
 62
     2
100
AcDbLine
 10
161.8690392245
 20
194.9168559373
 30
0.0
 11
161.8690392245
 21
188.9168559373
 31
0.0
  0
LINE
  5
5F
330
1F
100
AcDbEntity
  8
0
  6
Continuous
 62
     7
100
AcDbLine
 10
161.6996245579
 20
162.6668559373
 30
0.0
 11
161.6996245579
 21
163.9168559373
 31
0.0
  0
LINE
  5
60
330
1F
100
AcDbEntity
  8
0
  6
DASHED
 62
     2
100
AcDbLine
 10
160.2190392245
 20
194.9168559373
 30
0.0
 11
160.2190392245
 21
188.9168559373
 31
0.0
  0
LINE
  5
61
330
1F
100
AcDbEntity
  8
0
  6
Continuous
 62
     7
100
AcDbLine
 10
159.6690392245
 20
163.9168559373
 30
0.0
 11
159.6690392245
 21
162.6668559373
 31
0.0
  0
LINE
  5
62
330
1F
100
AcDbEntity
  8
0
  6
Continuous
 62
     7
100
AcDbLine
 10
158.0270617323
 20
162.6168559373
 30
0.0
 11
158.0270617323
 21
151.2168559373
 31
0.0
  0
LINE
  5
63
330
1F
100
AcDbEntity
  8
0
  6
Continuous
 62
     7
100
AcDbLine
 10
158.0270617323
 20
117.3168559373
 30
0.0
 11
158.0270617323
 21
128.7168559373
 31
0.0
  0
LINE
  5
64
330
1F
100
AcDbEntity
  8
0
  6
Continuous
 62
     7
100
AcDbLine
 10
153.4690392245
 20
166.6168559373
 30
0.0
 11
169.2190392245
 21
166.6168559373
 31
0.0
  0
LINE
  5
65
330
1F
100
AcDbEntity
  8
0
  6
Continuous
 62
     7
100
AcDbLine
 10
125.1551548938
 20
169.7710011257
 30
0.0
 11
140.7551548938
 21
169.7710011257
 31
0.0
  0
LINE
  5
66
330
1F
100
AcDbEntity
  8
0
  6
Continuous
 62
     7
100
AcDbLine
 10
172.8690392245
 20
169.9168559373
 30
0.0
 11
169.2190392245
 21
169.9168559373
 31
0.0
  0
LINE
  5
67
330
1F
100
AcDbEntity
  8
0
  6
Continuous
 62
     7
100
AcDbLine
 10
158.7190392245
 20
169.9168559373
 30
0.0
 11
152.4690392245
 21
169.9168559373
 31
0.0
  0
LINE
  5
68
330
1F
100
AcDbEntity
  8
0
  6
Continuous
 62
     7
100
AcDbLine
 10
125.1551548938
 20
169.7710011257
 30
0.0
 11
123.4551548938
 21
169.7710011257
 31
0.0
  0
LINE
  5
69
330
1F
100
AcDbEntity
  8
0
  6
Continuous
 62
     7
100
AcDbLine
 10
153.6690392245
 20
163.9168559373
 30
0.0
 11
153.6690392245
 21
162.6168559373
 31
0.0
  0
LINE
  5
6A
330
1F
100
AcDbEntity
  8
0
  6
Continuous
 62
     7
100
AcDbLine
 10
153.6690392245
 20
128.3668559373
 30
0.0
 11
153.6690392245
 21
129.7168559373
 31
0.0
  0
LINE
  5
6B
330
1F
100
AcDbEntity
  8
0
  6
Continuous
 62
     7
100
AcDbLine
 10
153.6690392245
 20
150.2168559373
 30
0.0
 11
153.6690392245
 21
151.5668559373
 31
0.0
  0
LINE
  5
6C
330
1F
100
AcDbEntity
  8
0
  6
Continuous
 62
     7
100
AcDbLine
 10
153.4690392245
 20
163.9168559373
 30
0.0
 11
153.4690392245
 21
169.9168559373
 31
0.0
  0
LINE
  5
6D
330
1F
100
AcDbEntity
  8
0
  6
Continuous
 62
     7
100
AcDbLine
 10
152.4690392245
 20
206.9168559373
 30
0.0
 11
152.4690392245
 21
169.9168559373
 31
0.0
  0
LINE
  5
6E
330
1F
100
AcDbEntity
  8
0
  6
Continuous
 62
     7
100
AcDbLine
 10
150.1044394325
 20
151.5668559373
 30
0.0
 11
150.1044394325
 21
150.2168559373
 31
0.0
  0
LINE
  5
6F
330
1F
100
AcDbEntity
  8
0
  6
Continuous
 62
     7
100
AcDbLine
 10
150.1044394325
 20
128.3668559373
 30
0.0
 11
150.1044394325
 21
129.7168559373
 31
0.0
  0
LINE
  5
70
330
1F
100
AcDbEntity
  8
DEFAULT_1
  6
DOT_CENTER
 62
     2
100
AcDbLine
 10
147.1044394325
 20
108.2168559373
 30
0.0
 11
147.1044394325
 21
163.9168559373
 31
0.0
  0
LINE
  5
71
330
1F
100
AcDbEntity
  8
0
  6
Continuous
 62
     7
100
AcDbLine
 10
144.1044394325
 20
151.5668559373
 30
0.0
 11
144.1044394325
 21
150.2168559373
 31
0.0
  0
LINE
  5
72
330
1F
100
AcDbEntity
  8
0
  6
Continuous
 62
     7
100
AcDbLine
 10
144.1044394325
 20
128.3668559373
 30
0.0
 11
144.1044394325
 21
129.7168559373
 31
0.0
  0
LINE
  5
73
330
1F
100
AcDbEntity
  8
0
  6
Continuous
 62
     7
100
AcDbLine
 10
140.7551548938
 20
208.4168559373
 30
0.0
 11
140.7551548938
 21
169.7710011257
 31
0.0
  0
LINE
  5
74
330
1F
100
AcDbEntity
  8
0
  6
Continuous
 62
     7
100
AcDbLine
 10
140.6551548938
 20
163.9168559373
 30
0.0
 11
140.6551548938
 21
169.7710011257
 31
0.0
  0
LINE
  5
75
330
1F
100
AcDbEntity
  8
0
  6
Continuous
 62
     7
100
AcDbLine
 10
140.5551548938
 20
163.9168559373
 30
0.0
 11
140.5551548938
 21
162.6168559373
 31
0.0
  0
LINE
  5
76
330
1F
100
AcDbEntity
  8
0
  6
Continuous
 62
     7
100
AcDbLine
 10
140.5551546573
 20
150.8045429192
 30
0.0
 11
140.5551546573
 21
151.5668559373
 31
0.0
  0
LINE
  5
77
330
1F
100
AcDbEntity
  8
0
  6
Continuous
 62
     7
100
AcDbLine
 10
140.5419291708
 20
128.3668559373
 30
0.0
 11
140.5419291708
 21
128.7168559373
 31
0.0
  0
LINE
  5
78
330
1F
100
AcDbEntity
  8
0
  6
Continuous
 62
     7
100
AcDbLine
 10
140.5419291708
 20
151.2168559373
 30
0.0
 11
140.5419291708
 21
151.5668559373
 31
0.0
  0
LINE
  5
79
330
1F
100
AcDbEntity
  8
0
  6
Continuous
 62
     7
100
AcDbLine
 10
136.1867201411
 20
150.5668559373
 30
0.0
 11
136.1867201411
 21
129.3668559373
 31
0.0
  0
LINE
  5
7A
330
1F
100
AcDbEntity
  8
0
  6
Continuous
 62
     7
100
AcDbLine
 10
134.5551548938
 20
163.9168559373
 30
0.0
 11
134.5551548938
 21
162.6668559373
 31
0.0
  0
LINE
  5
7B
330
1F
100
AcDbEntity
  8
0
  6
Continuous
 62
     7
100
AcDbLine
 10
132.5245695603
 20
162.6668559373
 30
0.0
 11
132.5245695603
 21
163.9168559373
 31
0.0
  0
LINE
  5
7C
330
1F
100
AcDbEntity
  8
DEFAULT_1
  6
DOT_CENTER
 62
     2
100
AcDbLine
 10
131.7551548938
 20
204.9168559373
 30
0.0
 11
131.7551548938
 21
216.9168559373
 31
0.0
  0
LINE
  5
7D
330
1F
100
AcDbEntity
  8
0
  6
Continuous
 62
     7
100
AcDbLine
 10
129.082843202
 20
162.6668559373
 30
0.0
 11
129.082843202
 21
163.9168559373
 31
0.0
  0
LINE
  5
7E
330
1F
100
AcDbEntity
  8
0
  6
Continuous
 62
     7
100
AcDbLine
 10
128.4888990031
 20
162.6168559373
 30
0.0
 11
128.4888990031
 21
117.3168559373
 31
0.0
  0
LINE
  5
7F
330
1F
100
AcDbEntity
  8
0
  6
Continuous
 62
     7
100
AcDbLine
 10
127.4462824087
 20
163.9168559373
 30
0.0
 11
127.4462824087
 21
162.6668559373
 31
0.0
  0
LINE
  5
80
330
1F
100
AcDbEntity
  8
0
  6
Continuous
 62
     7
100
AcDbLine
 10
123.4551548938
 20
163.9168559373
 30
0.0
 11
123.4551548938
 21
169.7710011257
 31
0.0
  0
LINE
  5
81
330
1F
100
AcDbEntity
  8
0
  6
Continuous
 62
     7
100
AcDbLine
 10
122.7551548938
 20
208.4168559373
 30
0.0
 11
122.7551548938
 21
177.9168559373
 31
0.0
  0
LINE
  5
82
330
1F
100
AcDbEntity
  8
DEFAULT_1
  6
DOT_CENTER
 62
     2
100
AcDbLine
 10
126.5051548938
 20
210.9168559373
 30
0.0
 11
137.8551548938
 21
210.9168559373
 31
0.0
  0
LINE
  5
83
330
1F
100
AcDbEntity
  8
DEFAULT_1
  6
DOT_CENTER
 62
     2
100
AcDbLine
 10
157.7190392245
 20
210.9168559373
 30
0.0
 11
171.0690392245
 21
210.9168559373
 31
0.0
  0
LINE
  5
84
330
1F
100
AcDbEntity
  8
DEFAULT_1
  6
DOT_CENTER
 62
     2
100
AcDbLine
 10
157.7190392245
 20
210.9168559373
 30
0.0
 11
154.8690392245
 21
210.9168559373
 31
0.0
  0
LINE
  5
85
330
1F
100
AcDbEntity
  8
DEFAULT_1
  6
DOT_CENTER
 62
     2
100
AcDbLine
 10
126.5051548938
 20
210.9168559373
 30
0.0
 11
125.6551548938
 21
210.9168559373
 31
0.0
  0
LINE
  5
86
330
1F
100
AcDbEntity
  8
DEFAULT_1
  6
DOT_CENTER
 62
     2
100
AcDbLine
 10
130.7551548938
 20
108.1168559373
 30
0.0
 11
130.7551548938
 21
171.8168559373
 31
0.0
  0
LINE
  5
87
330
1F
100
AcDbEntity
  8
0
  6
Continuous
 62
     7
100
AcDbLine
 10
122.7551548938
 20
169.6251463141001
 30
0.0
 11
122.7551548938
 21
169.7710011257
 31
0.0
  0
LINE
  5
88
330
1F
100
AcDbEntity
  8
0
  6
Continuous
 62
     7
100
AcDbLine
 10
122.7551548938
 20
169.7710011257
 30
0.0
 11
122.7551548938
 21
208.4168559373
 31
0.0
  0
LINE
  5
89
330
1F
100
AcDbEntity
  8
0
  6
Continuous
 62
     7
100
AcDbLine
 10
123.4551548938
 20
169.7710011257
 30
0.0
 11
122.7551548938
 21
169.7710011257
 31
0.0
  0
LINE
  5
8A
330
1F
100
AcDbEntity
  8
1
  6
Continuous
 62
     7
100
AcDbLine
 10
134.5551548938
 20
162.6668559373
 30
0.0
 11
159.7420353901
 21
162.6668559373
 31
0.0
  0
LINE
  5
8B
330
1F
100
AcDbEntity
  8
DEFAULT_1
  6
DOT_CENTER
 62
     2
100
AcDbLine
 10
162.9690392245
 20
202.9168559373
 30
0.0
 11
162.9690392245
 21
196.9168559373
 31
0.0
  0
LINE
  5
8C
330
1F
100
AcDbEntity
  8
DEFAULT_1
  6
DOT_CENTER
 62
     2
100
AcDbLine
 10
162.9690392245
 20
202.9168559373
 30
0.0
 11
162.9690392245
 21
206.9168559373
 31
0.0
  0
LINE
  5
8D
330
1F
100
AcDbEntity
  8
DEFAULT_1
  6
DOT_CENTER
 62
     2
100
AcDbLine
 10
162.9690392245
 20
202.9168559373
 30
0.0
 11
168.9690392245
 21
202.9168559373
 31
0.0
  0
LINE
  5
8E
330
1F
100
AcDbEntity
  8
DEFAULT_1
  6
DOT_CENTER
 62
     2
100
AcDbLine
 10
162.9690392245
 20
202.9168559373
 30
0.0
 11
156.9690392245
 21
202.9168559373
 31
0.0
  0
LINE
  5
8F
330
1F
100
AcDbEntity
  8
1
  6
Continuous
 62
     7
100
AcDbLine
 10
163.7190392245
 20
202.1668559372999
 30
0.0
 11
163.4690392245
 21
201.9168559372999
 31
0.0
  0
LINE
  5
90
330
1F
100
AcDbEntity
  8
1
  6
Continuous
 62
     2
100
AcDbLine
 10
163.7190392245
 20
202.1668559372999
 30
0.0
 11
164.5600294821697
 21
201.3258656796302
 31
0.0
  0
LINE
  5
91
330
1F
100
AcDbEntity
  8
1
  6
Continuous
 62
     7
100
AcDbLine
 10
162.2190392245
 20
202.1668559372999
 30
0.0
 11
161.9690392245
 21
202.4168559372999
 31
0.0
  0
LINE
  5
92
330
1F
100
AcDbEntity
  8
1
  6
Continuous
 62
     2
100
AcDbLine
 10
162.2190392245
 20
202.1668559372999
 30
0.0
 11
161.3780489668303
 21
201.3258656796302
 31
0.0
  0
LINE
  5
93
330
1F
100
AcDbEntity
  8
1
  6
Continuous
 62
     7
100
AcDbLine
 10
162.2190392245
 20
203.6668559372999
 30
0.0
 11
161.9690392245
 21
203.4168559372999
 31
0.0
  0
LINE
  5
94
330
1F
100
AcDbEntity
  8
1
  6
Continuous
 62
     2
100
AcDbLine
 10
162.2190392245
 20
203.6668559372999
 30
0.0
 11
161.3780489668303
 21
204.5078461949697
 31
0.0
  0
LINE
  5
95
330
1F
100
AcDbEntity
  8
1
  6
Continuous
 62
     7
100
AcDbLine
 10
163.7190392245
 20
203.6668559372999
 30
0.0
 11
163.9690392245
 21
203.4168559372999
 31
0.0
  0
LINE
  5
96
330
1F
100
AcDbEntity
  8
1
  6
Continuous
 62
     2
100
AcDbLine
 10
163.7190392245
 20
203.6668559372999
 30
0.0
 11
164.5600294821697
 21
204.5078461949697
 31
0.0
  0
LINE
  5
97
330
1F
100
AcDbEntity
  8
1
  6
Continuous
 62
     7
100
AcDbLine
 10
162.4690392245
 20
201.9168559372999
 30
0.0
 11
162.2190392245
 21
202.1668559372999
 31
0.0
  0
LINE
  5
98
330
1F
100
AcDbEntity
  8
1
  6
Continuous
 62
     7
100
AcDbLine
 10
163.9690392245
 20
202.4168559372999
 30
0.0
 11
163.7190392245
 21
202.1668559372999
 31
0.0
  0
LINE
  5
99
330
1F
100
AcDbEntity
  8
1
  6
Continuous
 62
     7
100
AcDbLine
 10
163.4690392245
 20
203.9168559372999
 30
0.0
 11
163.7190392245
 21
203.6668559372999
 31
0.0
  0
LINE
  5
9A
330
1F
100
AcDbEntity
  8
1
  6
Continuous
 62
     7
100
AcDbLine
 10
162.4690392245
 20
203.9168559372999
 30
0.0
 11
162.2190392245
 21
203.6668559372999
 31
0.0
  0
LINE
  5
9B
330
1F
100
AcDbEntity
  8
1
  6
Continuous
 62
     7
100
AcDbLine
 10
162.4690392245
 20
203.9168559372999
 30
0.0
 11
162.4690392245
 21
205.1668559372999
 31
0.0
  0
LINE
  5
9C
330
1F
100
AcDbEntity
  8
1
  6
Continuous
 62
     7
100
AcDbLine
 10
160.7190392245
 20
203.4168559372999
 30
0.0
 11
161.9690392245
 21
203.4168559372999
 31
0.0
  0
LINE
  5
9D
330
1F
100
AcDbEntity
  8
1
  6
Continuous
 62
     7
100
AcDbLine
 10
160.7190392245
 20
202.4168559372999
 30
0.0
 11
160.7190392245
 21
203.4168559372999
 31
0.0
  0
LINE
  5
9E
330
1F
100
AcDbEntity
  8
1
  6
Continuous
 62
     7
100
AcDbLine
 10
161.9690392245
 20
202.4168559372999
 30
0.0
 11
160.7190392245
 21
202.4168559372999
 31
0.0
  0
LINE
  5
9F
330
1F
100
AcDbEntity
  8
1
  6
Continuous
 62
     7
100
AcDbLine
 10
162.4690392245
 20
200.6668559372999
 30
0.0
 11
162.4690392245
 21
201.9168559372999
 31
0.0
  0
LINE
  5
A0
330
1F
100
AcDbEntity
  8
1
  6
Continuous
 62
     7
100
AcDbLine
 10
163.4690392245
 20
200.6668559372999
 30
0.0
 11
162.4690392245
 21
200.6668559372999
 31
0.0
  0
LINE
  5
A1
330
1F
100
AcDbEntity
  8
1
  6
Continuous
 62
     7
100
AcDbLine
 10
163.4690392245
 20
201.9168559372999
 30
0.0
 11
163.4690392245
 21
200.6668559372999
 31
0.0
  0
LINE
  5
A2
330
1F
100
AcDbEntity
  8
1
  6
Continuous
 62
     7
100
AcDbLine
 10
165.2190392245
 20
202.4168559372999
 30
0.0
 11
163.9690392245
 21
202.4168559372999
 31
0.0
  0
LINE
  5
A3
330
1F
100
AcDbEntity
  8
1
  6
Continuous
 62
     7
100
AcDbLine
 10
165.2190392245
 20
203.4168559372999
 30
0.0
 11
165.2190392245
 21
202.4168559372999
 31
0.0
  0
LINE
  5
A4
330
1F
100
AcDbEntity
  8
1
  6
Continuous
 62
     7
100
AcDbLine
 10
163.9690392245
 20
203.4168559372999
 30
0.0
 11
165.2190392245
 21
203.4168559372999
 31
0.0
  0
LINE
  5
A5
330
1F
100
AcDbEntity
  8
1
  6
Continuous
 62
     7
100
AcDbLine
 10
163.4690392245
 20
205.1668559372999
 30
0.0
 11
163.4690392245
 21
203.9168559372999
 31
0.0
  0
LINE
  5
A6
330
1F
100
AcDbEntity
  8
1
  6
Continuous
 62
     7
100
AcDbLine
 10
162.4690392245
 20
205.1668559372999
 30
0.0
 11
163.4690392245
 21
205.1668559372999
 31
0.0
  0
LINE
  5
A7
330
1F
100
AcDbEntity
  8
1
  6
Continuous
 62
     7
100
AcDbLine
 10
131.2551548938
 20
205.1668559372999
 30
0.0
 11
132.2551548938
 21
205.1668559372999
 31
0.0
  0
LINE
  5
A8
330
1F
100
AcDbEntity
  8
1
  6
Continuous
 62
     7
100
AcDbLine
 10
132.2551548938
 20
205.1668559372999
 30
0.0
 11
132.2551548938
 21
203.9168559372999
 31
0.0
  0
LINE
  5
A9
330
1F
100
AcDbEntity
  8
1
  6
Continuous
 62
     7
100
AcDbLine
 10
132.7551548938
 20
203.4168559372999
 30
0.0
 11
134.0051548938
 21
203.4168559372999
 31
0.0
  0
LINE
  5
AA
330
1F
100
AcDbEntity
  8
1
  6
Continuous
 62
     7
100
AcDbLine
 10
134.0051548938
 20
203.4168559372999
 30
0.0
 11
134.0051548938
 21
202.4168559372999
 31
0.0
  0
LINE
  5
AB
330
1F
100
AcDbEntity
  8
1
  6
Continuous
 62
     7
100
AcDbLine
 10
134.0051548938
 20
202.4168559372999
 30
0.0
 11
132.7551548938
 21
202.4168559372999
 31
0.0
  0
LINE
  5
AC
330
1F
100
AcDbEntity
  8
1
  6
Continuous
 62
     7
100
AcDbLine
 10
132.2551548938
 20
201.9168559372999
 30
0.0
 11
132.2551548938
 21
200.6668559372999
 31
0.0
  0
LINE
  5
AD
330
1F
100
AcDbEntity
  8
1
  6
Continuous
 62
     7
100
AcDbLine
 10
132.2551548938
 20
200.6668559372999
 30
0.0
 11
131.2551548938
 21
200.6668559372999
 31
0.0
  0
LINE
  5
AE
330
1F
100
AcDbEntity
  8
1
  6
Continuous
 62
     7
100
AcDbLine
 10
131.2551548938
 20
200.6668559372999
 30
0.0
 11
131.2551548938
 21
201.9168559372999
 31
0.0
  0
LINE
  5
AF
330
1F
100
AcDbEntity
  8
1
  6
Continuous
 62
     7
100
AcDbLine
 10
130.7551548938
 20
202.4168559372999
 30
0.0
 11
129.5051548938
 21
202.4168559372999
 31
0.0
  0
LINE
  5
B0
330
1F
100
AcDbEntity
  8
1
  6
Continuous
 62
     7
100
AcDbLine
 10
129.5051548938
 20
202.4168559372999
 30
0.0
 11
129.5051548938
 21
203.4168559372999
 31
0.0
  0
LINE
  5
B1
330
1F
100
AcDbEntity
  8
1
  6
Continuous
 62
     7
100
AcDbLine
 10
129.5051548938
 20
203.4168559372999
 30
0.0
 11
130.7551548938
 21
203.4168559372999
 31
0.0
  0
LINE
  5
B2
330
1F
100
AcDbEntity
  8
1
  6
Continuous
 62
     7
100
AcDbLine
 10
131.2551548938
 20
203.9168559372999
 30
0.0
 11
131.2551548938
 21
205.1668559372999
 31
0.0
  0
LINE
  5
B3
330
1F
100
AcDbEntity
  8
1
  6
Continuous
 62
     7
100
AcDbLine
 10
131.2551548938
 20
203.9168559372999
 30
0.0
 11
131.0051548938
 21
203.6668559372999
 31
0.0
  0
LINE
  5
B4
330
1F
100
AcDbEntity
  8
1
  6
Continuous
 62
     7
100
AcDbLine
 10
132.2551548938
 20
203.9168559372999
 30
0.0
 11
132.5051548938
 21
203.6668559372999
 31
0.0
  0
LINE
  5
B5
330
1F
100
AcDbEntity
  8
1
  6
Continuous
 62
     7
100
AcDbLine
 10
132.7551548938
 20
202.4168559372999
 30
0.0
 11
132.5051548938
 21
202.1668559372999
 31
0.0
  0
LINE
  5
B6
330
1F
100
AcDbEntity
  8
1
  6
Continuous
 62
     7
100
AcDbLine
 10
131.2551548938
 20
201.9168559372999
 30
0.0
 11
131.0051548938
 21
202.1668559372999
 31
0.0
  0
LINE
  5
B7
330
1F
100
AcDbEntity
  8
1
  6
Continuous
 62
     2
100
AcDbLine
 10
132.5051548938
 20
203.6668559372999
 30
0.0
 11
133.3461451514697
 21
204.5078461949697
 31
0.0
  0
LINE
  5
B8
330
1F
100
AcDbEntity
  8
1
  6
Continuous
 62
     7
100
AcDbLine
 10
132.5051548938
 20
203.6668559372999
 30
0.0
 11
132.7551548938
 21
203.4168559372999
 31
0.0
  0
LINE
  5
B9
330
1F
100
AcDbEntity
  8
1
  6
Continuous
 62
     2
100
AcDbLine
 10
131.0051548938
 20
203.6668559372999
 30
0.0
 11
130.1641646361303
 21
204.5078461949697
 31
0.0
  0
LINE
  5
BA
330
1F
100
AcDbEntity
  8
1
  6
Continuous
 62
     7
100
AcDbLine
 10
131.0051548938
 20
203.6668559372999
 30
0.0
 11
130.7551548938
 21
203.4168559372999
 31
0.0
  0
LINE
  5
BB
330
1F
100
AcDbEntity
  8
1
  6
Continuous
 62
     2
100
AcDbLine
 10
131.0051548938
 20
202.1668559372999
 30
0.0
 11
130.1641646361303
 21
201.3258656796302
 31
0.0
  0
LINE
  5
BC
330
1F
100
AcDbEntity
  8
1
  6
Continuous
 62
     7
100
AcDbLine
 10
131.0051548938
 20
202.1668559372999
 30
0.0
 11
130.7551548938
 21
202.4168559372999
 31
0.0
  0
LINE
  5
BD
330
1F
100
AcDbEntity
  8
1
  6
Continuous
 62
     2
100
AcDbLine
 10
132.5051548938
 20
202.1668559372999
 30
0.0
 11
133.3461451514697
 21
201.3258656796302
 31
0.0
  0
LINE
  5
BE
330
1F
100
AcDbEntity
  8
1
  6
Continuous
 62
     7
100
AcDbLine
 10
132.5051548938
 20
202.1668559372999
 30
0.0
 11
132.2551548938
 21
201.9168559372999
 31
0.0
  0
LINE
  5
BF
330
1F
100
AcDbEntity
  8
DEFAULT_1
  6
DOT_CENTER
 62
     2
100
AcDbLine
 10
131.7551548938
 20
202.9168559373
 30
0.0
 11
125.7551548938
 21
202.9168559373
 31
0.0
  0
LINE
  5
C0
330
1F
100
AcDbEntity
  8
DEFAULT_1
  6
DOT_CENTER
 62
     2
100
AcDbLine
 10
131.7551548938
 20
202.9168559373
 30
0.0
 11
137.7551548938
 21
202.9168559373
 31
0.0
  0
LINE
  5
C1
330
1F
100
AcDbEntity
  8
DEFAULT_1
  6
DOT_CENTER
 62
     2
100
AcDbLine
 10
131.7551548938
 20
202.9168559373
 30
0.0
 11
131.7551548938
 21
204.9168559373
 31
0.0
  0
LINE
  5
C2
330
1F
100
AcDbEntity
  8
DEFAULT_1
  6
DOT_CENTER
 62
     2
100
AcDbLine
 10
131.7551548938
 20
202.9168559373
 30
0.0
 11
131.7551548938
 21
196.9168559373
 31
0.0
  0
LINE
  5
C3
330
1F
100
AcDbEntity
  8
0
  6
Continuous
 62
     7
100
AcDbLine
 10
150.1044394325
 20
151.5668559373
 30
0.0
 11
144.1044394325
 21
151.5668559373
 31
0.0
  0
LINE
  5
C4
330
1F
100
AcDbEntity
  8
0
  6
Continuous
 62
     7
100
AcDbLine
 10
144.1044394325
 20
151.5668559373
 30
0.0
 11
137.4710307483
 21
151.5668559373
 31
0.0
  0
LINE
  5
C5
330
1F
100
AcDbEntity
  8
0
  6
DOT_CENTER
 62
     2
100
AcDbLine
 10
163.42048773705
 20
108.1168559373
 30
0.0
 11
163.42048773705
 21
171.8168559373
 31
0.0
  0
LINE
  5
C6
330
1F
100
AcDbEntity
  8
0
  6
Continuous
 62
     7
100
AcDbLine
 10
165.7420348179
 20
117.3168559373
 30
0.0
 11
165.7420348179
 21
162.6668559373
 31
0.0
  0
LINE
  5
C7
330
1F
100
AcDbEntity
  8
0
  6
Continuous
 62
     7
100
AcDbLine
 10
144.1044394325
 20
128.3668559373
 30
0.0
 11
137.4710307483
 21
128.3668559373
 31
0.0
  0
LINE
  5
C8
330
1F
100
AcDbEntity
  8
0
  6
Continuous
 62
     7
100
AcDbLine
 10
150.1044394325
 20
128.3668559373
 30
0.0
 11
144.1044394325
 21
128.3668559373
 31
0.0
  0
LINE
  5
C9
330
1F
100
AcDbEntity
  8
0
  6
Continuous
 62
     7
100
AcDbLine
 10
122.7551548938
 20
139.9668559373
 30
0.0
 11
122.7551548938
 21
177.7168559373
 31
0.0
  0
LINE
  5
CA
330
1F
100
AcDbEntity
  8
0
  6
Continuous
 62
     7
100
AcDbLine
 10
123.4551548938
 20
139.9668559373
 30
0.0
 11
123.4551548938
 21
163.9168559373
 31
0.0
  0
LINE
  5
CB
330
1F
100
AcDbEntity
  8
DEFAULT_1
  6
DOT_CENTER
 62
     2
100
AcDbLine
 10
131.7551548938
 20
83.01685593729997
 30
0.0
 11
131.7551548938
 21
77.01685593729997
 31
0.0
  0
LINE
  5
CC
330
1F
100
AcDbEntity
  8
DEFAULT_1
  6
DOT_CENTER
 62
     2
100
AcDbLine
 10
131.7551548938
 20
75.01685593729997
 30
0.0
 11
131.7551548938
 21
77.01685593729997
 31
0.0
  0
LINE
  5
CD
330
1F
100
AcDbEntity
  8
DEFAULT_1
  6
DOT_CENTER
 62
     2
100
AcDbLine
 10
137.7551548938
 20
77.01685593729997
 30
0.0
 11
131.7551548938
 21
77.01685593729997
 31
0.0
  0
LINE
  5
CE
330
1F
100
AcDbEntity
  8
DEFAULT_1
  6
DOT_CENTER
 62
     2
100
AcDbLine
 10
125.7551548938
 20
77.01685593729997
 30
0.0
 11
131.7551548938
 21
77.01685593729997
 31
0.0
  0
LINE
  5
CF
330
1F
100
AcDbEntity
  8
1
  6
Continuous
 62
     7
100
AcDbLine
 10
132.2551548938
 20
78.01685593730008
 30
0.0
 11
132.5051548938
 21
77.76685593730008
 31
0.0
  0
LINE
  5
D0
330
1F
100
AcDbEntity
  8
1
  6
Continuous
 62
     2
100
AcDbLine
 10
133.3461451514697
 20
78.60784619496974
 30
0.0
 11
132.5051548938
 21
77.76685593730008
 31
0.0
  0
LINE
  5
D1
330
1F
100
AcDbEntity
  8
1
  6
Continuous
 62
     7
100
AcDbLine
 10
130.7551548938
 20
77.51685593730008
 30
0.0
 11
131.0051548938
 21
77.76685593730008
 31
0.0
  0
LINE
  5
D2
330
1F
100
AcDbEntity
  8
1
  6
Continuous
 62
     2
100
AcDbLine
 10
130.1641646361303
 20
78.60784619496974
 30
0.0
 11
131.0051548938
 21
77.76685593730008
 31
0.0
  0
LINE
  5
D3
330
1F
100
AcDbEntity
  8
1
  6
Continuous
 62
     7
100
AcDbLine
 10
130.7551548938
 20
76.51685593730008
 30
0.0
 11
131.0051548938
 21
76.26685593730008
 31
0.0
  0
LINE
  5
D4
330
1F
100
AcDbEntity
  8
1
  6
Continuous
 62
     2
100
AcDbLine
 10
130.1641646361303
 20
75.42586567963025
 30
0.0
 11
131.0051548938
 21
76.26685593730008
 31
0.0
  0
LINE
  5
D5
330
1F
100
AcDbEntity
  8
1
  6
Continuous
 62
     7
100
AcDbLine
 10
132.7551548938
 20
76.51685593730008
 30
0.0
 11
132.5051548938
 21
76.26685593730008
 31
0.0
  0
LINE
  5
D6
330
1F
100
AcDbEntity
  8
1
  6
Continuous
 62
     2
100
AcDbLine
 10
133.3461451514697
 20
75.42586567963025
 30
0.0
 11
132.5051548938
 21
76.26685593730008
 31
0.0
  0
LINE
  5
D7
330
1F
100
AcDbEntity
  8
1
  6
Continuous
 62
     7
100
AcDbLine
 10
131.0051548938
 20
77.76685593730008
 30
0.0
 11
131.2551548938
 21
78.01685593730008
 31
0.0
  0
LINE
  5
D8
330
1F
100
AcDbEntity
  8
1
  6
Continuous
 62
     7
100
AcDbLine
 10
132.5051548938
 20
77.76685593730008
 30
0.0
 11
132.7551548938
 21
77.51685593730008
 31
0.0
  0
LINE
  5
D9
330
1F
100
AcDbEntity
  8
1
  6
Continuous
 62
     7
100
AcDbLine
 10
132.5051548938
 20
76.26685593730008
 30
0.0
 11
132.2551548938
 21
76.01685593730008
 31
0.0
  0
LINE
  5
DA
330
1F
100
AcDbEntity
  8
1
  6
Continuous
 62
     7
100
AcDbLine
 10
131.0051548938
 20
76.26685593730008
 30
0.0
 11
131.2551548938
 21
76.01685593730008
 31
0.0
  0
LINE
  5
DB
330
1F
100
AcDbEntity
  8
1
  6
Continuous
 62
     7
100
AcDbLine
 10
131.2551548938
 20
74.76685593730008
 30
0.0
 11
131.2551548938
 21
76.01685593730008
 31
0.0
  0
LINE
  5
DC
330
1F
100
AcDbEntity
  8
1
  6
Continuous
 62
     7
100
AcDbLine
 10
130.7551548938
 20
76.51685593730008
 30
0.0
 11
129.5051548938
 21
76.51685593730008
 31
0.0
  0
LINE
  5
DD
330
1F
100
AcDbEntity
  8
1
  6
Continuous
 62
     7
100
AcDbLine
 10
129.5051548938
 20
76.51685593730008
 30
0.0
 11
129.5051548938
 21
77.51685593730008
 31
0.0
  0
LINE
  5
DE
330
1F
100
AcDbEntity
  8
1
  6
Continuous
 62
     7
100
AcDbLine
 10
129.5051548938
 20
77.51685593730008
 30
0.0
 11
130.7551548938
 21
77.51685593730008
 31
0.0
  0
LINE
  5
DF
330
1F
100
AcDbEntity
  8
1
  6
Continuous
 62
     7
100
AcDbLine
 10
131.2551548938
 20
78.01685593730008
 30
0.0
 11
131.2551548938
 21
79.26685593730008
 31
0.0
  0
LINE
  5
E0
330
1F
100
AcDbEntity
  8
1
  6
Continuous
 62
     7
100
AcDbLine
 10
131.2551548938
 20
79.26685593730008
 30
0.0
 11
132.2551548938
 21
79.26685593730008
 31
0.0
  0
LINE
  5
E1
330
1F
100
AcDbEntity
  8
1
  6
Continuous
 62
     7
100
AcDbLine
 10
132.2551548938
 20
79.26685593730008
 30
0.0
 11
132.2551548938
 21
78.01685593730008
 31
0.0
  0
LINE
  5
E2
330
1F
100
AcDbEntity
  8
1
  6
Continuous
 62
     7
100
AcDbLine
 10
132.7551548938
 20
77.51685593730008
 30
0.0
 11
134.0051548938
 21
77.51685593730008
 31
0.0
  0
LINE
  5
E3
330
1F
100
AcDbEntity
  8
1
  6
Continuous
 62
     7
100
AcDbLine
 10
134.0051548938
 20
77.51685593730008
 30
0.0
 11
134.0051548938
 21
76.51685593730008
 31
0.0
  0
LINE
  5
E4
330
1F
100
AcDbEntity
  8
1
  6
Continuous
 62
     7
100
AcDbLine
 10
134.0051548938
 20
76.51685593730008
 30
0.0
 11
132.7551548938
 21
76.51685593730008
 31
0.0
  0
LINE
  5
E5
330
1F
100
AcDbEntity
  8
1
  6
Continuous
 62
     7
100
AcDbLine
 10
132.2551548938
 20
76.01685593730008
 30
0.0
 11
132.2551548938
 21
74.76685593730008
 31
0.0
  0
LINE
  5
E6
330
1F
100
AcDbEntity
  8
1
  6
Continuous
 62
     7
100
AcDbLine
 10
132.2551548938
 20
74.76685593730008
 30
0.0
 11
131.2551548938
 21
74.76685593730008
 31
0.0
  0
LINE
  5
E7
330
1F
100
AcDbEntity
  8
DEFAULT_1
  6
DOT_CENTER
 62
     2
100
AcDbLine
 10
125.6551548938
 20
69.01685593729997
 30
0.0
 11
126.5051548938
 21
69.01685593729997
 31
0.0
  0
LINE
  5
E8
330
1F
100
AcDbEntity
  8
DEFAULT_1
  6
DOT_CENTER
 62
     2
100
AcDbLine
 10
137.8551548938
 20
69.01685593729997
 30
0.0
 11
126.5051548938
 21
69.01685593729997
 31
0.0
  0
LINE
  5
E9
330
1F
100
AcDbEntity
  8
DEFAULT_1
  6
DOT_CENTER
 62
     2
100
AcDbLine
 10
131.7551548938
 20
63.01685593729997
 30
0.0
 11
131.7551548938
 21
75.01685593729997
 31
0.0
  0
LINE
  5
EA
330
1F
100
AcDbEntity
  8
0
  6
Continuous
 62
     7
100
AcDbLine
 10
140.7551548938
 20
110.1627107488999
 30
0.0
 11
140.7551548938
 21
71.51685593729997
 31
0.0
  0
LINE
  5
EB
330
1F
100
AcDbEntity
  8
0
  6
Continuous
 62
     7
100
AcDbLine
 10
122.7551548938
 20
110.1627107488999
 30
0.0
 11
123.4551548938
 21
110.1627107488999
 31
0.0
  0
LINE
  5
EC
330
1F
100
AcDbEntity
  8
0
  6
Continuous
 62
     7
100
AcDbLine
 10
122.7551548938
 20
110.1627107488999
 30
0.0
 11
122.7551548938
 21
110.3085655604999
 31
0.0
  0
LINE
  5
ED
330
1F
100
AcDbEntity
  8
0
  6
Continuous
 62
     7
100
AcDbLine
 10
123.4551548938
 20
110.1627107488999
 30
0.0
 11
123.4551548938
 21
116.0168559373
 31
0.0
  0
LINE
  5
EE
330
1F
100
AcDbEntity
  8
0
  6
Continuous
 62
     7
100
AcDbLine
 10
127.4462824087
 20
117.2668559373
 30
0.0
 11
127.4462824087
 21
116.0168559373
 31
0.0
  0
LINE
  5
EF
330
1F
100
AcDbEntity
  8
0
  6
Continuous
 62
     7
100
AcDbLine
 10
129.082843202
 20
116.0168559373
 30
0.0
 11
129.082843202
 21
117.2668559373
 31
0.0
  0
LINE
  5
F0
330
1F
100
AcDbEntity
  8
0
  6
Continuous
 62
     7
100
AcDbLine
 10
132.5245695603
 20
116.0168559373
 30
0.0
 11
132.5245695603
 21
117.2668559373
 31
0.0
  0
LINE
  5
F1
330
1F
100
AcDbEntity
  8
0
  6
Continuous
 62
     7
100
AcDbLine
 10
134.5551548938
 20
117.2668559373
 30
0.0
 11
134.5551548938
 21
116.0168559373
 31
0.0
  0
LINE
  5
F2
330
1F
100
AcDbEntity
  8
0
  6
Continuous
 62
     7
100
AcDbLine
 10
140.5551548938
 20
117.3168559373
 30
0.0
 11
140.5551548938
 21
116.0168559373
 31
0.0
  0
LINE
  5
F3
330
1F
100
AcDbEntity
  8
0
  6
Continuous
 62
     7
100
AcDbLine
 10
140.6551548938
 20
110.1627107488999
 30
0.0
 11
140.6551548938
 21
116.0168559373
 31
0.0
  0
LINE
  5
F4
330
1F
100
AcDbEntity
  8
0
  6
Continuous
 62
     7
100
AcDbLine
 10
123.4551548938
 20
110.1627107488999
 30
0.0
 11
125.1551548938
 21
110.1627107488999
 31
0.0
  0
LINE
  5
F5
330
1F
100
AcDbEntity
  8
0
  6
Continuous
 62
     7
100
AcDbLine
 10
140.7551548938
 20
110.1627107488999
 30
0.0
 11
125.1551548938
 21
110.1627107488999
 31
0.0
  0
LINE
  5
F6
330
1F
100
AcDbEntity
  8
0
  6
Continuous
 62
     7
100
AcDbLine
 10
140.6551548938
 20
116.0168559373
 30
0.0
 11
123.4551548938
 21
116.0168559373
 31
0.0
  0
LINE
  5
F7
330
1F
100
AcDbEntity
  8
0
  6
Continuous
 62
     7
100
AcDbLine
 10
127.4462837995
 20
117.2668559373
 30
0.0
 11
134.5551548938
 21
117.2668559373
 31
0.0
  0
LINE
  5
F8
330
1F
100
AcDbEntity
  8
0
  6
Continuous
 62
     7
100
AcDbLine
 10
122.7551548938
 20
102.2168559373
 30
0.0
 11
122.7551548938
 21
139.9668559373
 31
0.0
  0
LINE
  5
F9
330
1F
100
AcDbEntity
  8
0
  6
Continuous
 62
     7
100
AcDbLine
 10
123.4551548938
 20
116.0168559373
 30
0.0
 11
123.4551548938
 21
139.9668559373
 31
0.0
  0
LINE
  5
FA
330
1F
100
AcDbEntity
  8
0
  6
Continuous
 62
     7
100
AcDbLine
 10
122.7551548938
 20
102.2168559373
 30
0.0
 11
122.7551548938
 21
139.9668559373
 31
0.0
  0
LINE
  5
FB
330
1F
100
AcDbEntity
  8
0
  6
Continuous
 62
     7
100
AcDbLine
 10
122.7551548938
 20
71.51685593729997
 30
0.0
 11
122.7551548938
 21
110.1627107488999
 31
0.0
  0
LINE
  5
FC
330
1F
100
AcDbEntity
  8
1
  6
DOT_CENTER
 62
     2
100
AcDbLine
 10
159.23221830986
 20
194.9168559373
 30
0.0
 11
169.23221830986
 21
194.9168559373
 31
0.0
  0
LINE
  5
FD
330
1F
100
AcDbEntity
  8
1
  6
DOT_CENTER
 62
     2
100
AcDbLine
 10
158.921291303373
 20
188.9168559373
 30
0.0
 11
169.921291303373
 21
188.9168559373
 31
0.0
  0
LINE
  5
FE
330
1F
100
AcDbEntity
  8
DEFAULT_1
  6
DOT_CENTER
 62
     2
100
AcDbLine
 10
164.4690392245
 20
183.439032576692
 30
0.0
 11
164.4690392245
 21
187.9168559373
 31
0.0
  0
LINE
  5
FF
330
1F
100
AcDbEntity
  8
0
  6
Continuous
 62
     7
100
AcDbLine
 10
152.5203465564
 20
169.9168559373
 30
0.0
 11
153.4690392245
 21
169.9168559373
 31
0.0
  0
LINE
  5
100
330
1F
100
AcDbEntity
  8
0
  6
Continuous
 62
     7
100
AcDbLine
 10
169.2190392245
 20
163.9168559373
 30
0.0
 11
169.2190392245
 21
169.9168559373
 31
0.0
  0
LINE
  5
101
330
1F
100
AcDbEntity
  8
0
  6
Continuous
 62
     7
100
AcDbLine
 10
169.2190392245
 20
169.9168559373
 30
0.0
 11
172.9690392245
 21
169.9168559373
 31
0.0
  0
LINE
  5
102
330
1F
100
AcDbEntity
  8
0
  6
Continuous
 62
     7
100
AcDbLine
 10
153.4690392245
 20
169.9168559373
 30
0.0
 11
169.2190392245
 21
169.9168559373
 31
0.0
  0
LINE
  5
103
330
1F
100
AcDbEntity
  8
0
  6
Continuous
 62
     7
100
AcDbLine
 10
172.7690392245
 20
169.9168559373
 30
0.0
 11
172.7690392245
 21
139.9668559373
 31
0.0
  0
LINE
  5
104
330
1F
100
AcDbEntity
  8
0
  6
Continuous
 62
     7
100
AcDbLine
 10
172.9690392245
 20
169.9168559373
 30
0.0
 11
173.4690392245
 21
169.9168559373
 31
0.0
  0
LINE
  5
105
330
1F
100
AcDbEntity
  8
0
  6
Continuous
 62
     7
100
AcDbLine
 10
173.4690392245
 20
169.9168559373
 30
0.0
 11
173.4690392245
 21
139.9668559373
 31
0.0
  0
LINE
  5
106
330
1F
100
AcDbEntity
  8
0
  6
Continuous
 62
     7
100
AcDbLine
 10
165.7420348179
 20
162.6668559373
 30
0.0
 11
159.7420353901
 21
162.6668559373
 31
0.0
  0
LINE
  5
107
330
1F
100
AcDbEntity
  8
0
  6
Continuous
 62
     7
100
AcDbLine
 10
173.4690392245
 20
139.9668559373
 30
0.0
 11
173.4690392245
 21
110.0168559373
 31
0.0
  0
LINE
  5
108
330
1F
100
AcDbEntity
  8
0
  6
Continuous
 62
     7
100
AcDbLine
 10
172.7690392245
 20
139.9668559373
 30
0.0
 11
172.7690392245
 21
110.0168559373
 31
0.0
  0
LINE
  5
109
330
1F
100
AcDbEntity
  8
DEFAULT_1
  6
DOT_CENTER
 62
     2
100
AcDbLine
 10
164.4690392245
 20
92.01685593730002
 30
0.0
 11
164.4690392245
 21
96.49467929790802
 31
0.0
  0
LINE
  5
10A
330
1F
100
AcDbEntity
  8
1
  6
DOT_CENTER
 62
     2
100
AcDbLine
 10
169.921291303373
 20
91.01685593730002
 30
0.0
 11
158.921291303373
 21
91.01685593730002
 31
0.0
  0
LINE
  5
10B
330
1F
100
AcDbEntity
  8
1
  6
DOT_CENTER
 62
     2
100
AcDbLine
 10
169.23221830986
 20
85.01685593730002
 30
0.0
 11
159.23221830986
 21
85.01685593730002
 31
0.0
  0
LINE
  5
10C
330
1F
100
AcDbEntity
  8
1
  6
Continuous
 62
     7
100
AcDbLine
 10
163.4690392245
 20
74.76685593730014
 30
0.0
 11
162.4690392245
 21
74.76685593730014
 31
0.0
  0
LINE
  5
10D
330
1F
100
AcDbEntity
  8
1
  6
Continuous
 62
     7
100
AcDbLine
 10
163.4690392245
 20
76.01685593730014
 30
0.0
 11
163.4690392245
 21
74.76685593730014
 31
0.0
  0
LINE
  5
10E
330
1F
100
AcDbEntity
  8
1
  6
Continuous
 62
     7
100
AcDbLine
 10
165.2190392245
 20
76.51685593730014
 30
0.0
 11
163.9690392245
 21
76.51685593730014
 31
0.0
  0
LINE
  5
10F
330
1F
100
AcDbEntity
  8
1
  6
Continuous
 62
     7
100
AcDbLine
 10
165.2190392245
 20
77.51685593730014
 30
0.0
 11
165.2190392245
 21
76.51685593730014
 31
0.0
  0
LINE
  5
110
330
1F
100
AcDbEntity
  8
1
  6
Continuous
 62
     7
100
AcDbLine
 10
163.9690392245
 20
77.51685593730014
 30
0.0
 11
165.2190392245
 21
77.51685593730014
 31
0.0
  0
LINE
  5
111
330
1F
100
AcDbEntity
  8
1
  6
Continuous
 62
     7
100
AcDbLine
 10
163.4690392245
 20
79.26685593730014
 30
0.0
 11
163.4690392245
 21
78.01685593730014
 31
0.0
  0
LINE
  5
112
330
1F
100
AcDbEntity
  8
1
  6
Continuous
 62
     7
100
AcDbLine
 10
162.4690392245
 20
79.26685593730014
 30
0.0
 11
163.4690392245
 21
79.26685593730014
 31
0.0
  0
LINE
  5
113
330
1F
100
AcDbEntity
  8
1
  6
Continuous
 62
     7
100
AcDbLine
 10
162.4690392245
 20
78.01685593730014
 30
0.0
 11
162.4690392245
 21
79.26685593730014
 31
0.0
  0
LINE
  5
114
330
1F
100
AcDbEntity
  8
1
  6
Continuous
 62
     7
100
AcDbLine
 10
160.7190392245
 20
77.51685593730014
 30
0.0
 11
161.9690392245
 21
77.51685593730014
 31
0.0
  0
LINE
  5
115
330
1F
100
AcDbEntity
  8
1
  6
Continuous
 62
     7
100
AcDbLine
 10
160.7190392245
 20
76.51685593730014
 30
0.0
 11
160.7190392245
 21
77.51685593730014
 31
0.0
  0
LINE
  5
116
330
1F
100
AcDbEntity
  8
1
  6
Continuous
 62
     7
100
AcDbLine
 10
161.9690392245
 20
76.51685593730014
 30
0.0
 11
160.7190392245
 21
76.51685593730014
 31
0.0
  0
LINE
  5
117
330
1F
100
AcDbEntity
  8
1
  6
Continuous
 62
     7
100
AcDbLine
 10
162.4690392245
 20
74.76685593730014
 30
0.0
 11
162.4690392245
 21
76.01685593730014
 31
0.0
  0
LINE
  5
118
330
1F
100
AcDbEntity
  8
1
  6
Continuous
 62
     7
100
AcDbLine
 10
162.2190392245
 20
76.26685593730014
 30
0.0
 11
162.4690392245
 21
76.01685593730014
 31
0.0
  0
LINE
  5
119
330
1F
100
AcDbEntity
  8
1
  6
Continuous
 62
     7
100
AcDbLine
 10
163.7190392245
 20
76.26685593730014
 30
0.0
 11
163.4690392245
 21
76.01685593730014
 31
0.0
  0
LINE
  5
11A
330
1F
100
AcDbEntity
  8
1
  6
Continuous
 62
     7
100
AcDbLine
 10
163.7190392245
 20
77.76685593730014
 30
0.0
 11
163.9690392245
 21
77.51685593730014
 31
0.0
  0
LINE
  5
11B
330
1F
100
AcDbEntity
  8
1
  6
Continuous
 62
     7
100
AcDbLine
 10
162.2190392245
 20
77.76685593730014
 30
0.0
 11
162.4690392245
 21
78.01685593730014
 31
0.0
  0
LINE
  5
11C
330
1F
100
AcDbEntity
  8
1
  6
Continuous
 62
     2
100
AcDbLine
 10
164.5600294821697
 20
75.4258656796303
 30
0.0
 11
163.7190392245
 21
76.26685593730014
 31
0.0
  0
LINE
  5
11D
330
1F
100
AcDbEntity
  8
1
  6
Continuous
 62
     7
100
AcDbLine
 10
163.9690392245
 20
76.51685593730014
 30
0.0
 11
163.7190392245
 21
76.26685593730014
 31
0.0
  0
LINE
  5
11E
330
1F
100
AcDbEntity
  8
1
  6
Continuous
 62
     2
100
AcDbLine
 10
161.3780489668303
 20
75.4258656796303
 30
0.0
 11
162.2190392245
 21
76.26685593730014
 31
0.0
  0
LINE
  5
11F
330
1F
100
AcDbEntity
  8
1
  6
Continuous
 62
     7
100
AcDbLine
 10
161.9690392245
 20
76.51685593730014
 30
0.0
 11
162.2190392245
 21
76.26685593730014
 31
0.0
  0
LINE
  5
120
330
1F
100
AcDbEntity
  8
1
  6
Continuous
 62
     2
100
AcDbLine
 10
161.3780489668303
 20
78.6078461949698
 30
0.0
 11
162.2190392245
 21
77.76685593730014
 31
0.0
  0
LINE
  5
121
330
1F
100
AcDbEntity
  8
1
  6
Continuous
 62
     7
100
AcDbLine
 10
161.9690392245
 20
77.51685593730014
 30
0.0
 11
162.2190392245
 21
77.76685593730014
 31
0.0
  0
LINE
  5
122
330
1F
100
AcDbEntity
  8
1
  6
Continuous
 62
     2
100
AcDbLine
 10
164.5600294821697
 20
78.6078461949698
 30
0.0
 11
163.7190392245
 21
77.76685593730014
 31
0.0
  0
LINE
  5
123
330
1F
100
AcDbEntity
  8
1
  6
Continuous
 62
     7
100
AcDbLine
 10
163.4690392245
 20
78.01685593730014
 30
0.0
 11
163.7190392245
 21
77.76685593730014
 31
0.0
  0
LINE
  5
124
330
1F
100
AcDbEntity
  8
DEFAULT_1
  6
DOT_CENTER
 62
     2
100
AcDbLine
 10
156.9690392245
 20
77.01685593730002
 30
0.0
 11
162.9690392245
 21
77.01685593730002
 31
0.0
  0
LINE
  5
125
330
1F
100
AcDbEntity
  8
DEFAULT_1
  6
DOT_CENTER
 62
     2
100
AcDbLine
 10
168.9690392245
 20
77.01685593730002
 30
0.0
 11
162.9690392245
 21
77.01685593730002
 31
0.0
  0
LINE
  5
126
330
1F
100
AcDbEntity
  8
DEFAULT_1
  6
DOT_CENTER
 62
     2
100
AcDbLine
 10
162.9690392245
 20
73.01685593730002
 30
0.0
 11
162.9690392245
 21
77.01685593730002
 31
0.0
  0
LINE
  5
127
330
1F
100
AcDbEntity
  8
DEFAULT_1
  6
DOT_CENTER
 62
     2
100
AcDbLine
 10
162.9690392245
 20
83.01685593730002
 30
0.0
 11
162.9690392245
 21
77.01685593730002
 31
0.0
  0
LINE
  5
128
330
1F
100
AcDbEntity
  8
DEFAULT_1
  6
DOT_CENTER
 62
     2
100
AcDbLine
 10
154.8690392245
 20
69.01685593730002
 30
0.0
 11
157.7190392245
 21
69.01685593730002
 31
0.0
  0
LINE
  5
129
330
1F
100
AcDbEntity
  8
DEFAULT_1
  6
DOT_CENTER
 62
     2
100
AcDbLine
 10
171.0690392245
 20
69.01685593730002
 30
0.0
 11
157.7190392245
 21
69.01685593730002
 31
0.0
  0
LINE
  5
12A
330
1F
100
AcDbEntity
  8
0
  6
DASHED
 62
     2
100
AcDbLine
 10
160.2190392245
 20
91.01685593730002
 30
0.0
 11
160.2190392245
 21
85.01685593730002
 31
0.0
  0
LINE
  5
12B
330
1F
100
AcDbEntity
  8
DEFAULT_2
  6
DASHED
 62
     2
100
AcDbLine
 10
161.8690392245
 20
91.01685593730002
 30
0.0
 11
161.8690392245
 21
85.01685593730002
 31
0.0
  0
LINE
  5
12C
330
1F
100
AcDbEntity
  8
DEFAULT_1
  6
DOT_CENTER
 62
     2
100
AcDbLine
 10
162.9690392245
 20
63.01685593730002
 30
0.0
 11
162.9690392245
 21
73.01685593730002
 31
0.0
  0
LINE
  5
12D
330
1F
100
AcDbEntity
  8
DEFAULT_1
  6
DOT_CENTER
 62
     2
100
AcDbLine
 10
164.4690392245
 20
78.85367162350002
 30
0.0
 11
164.4690392245
 21
92.01685593730002
 31
0.0
  0
LINE
  5
12E
330
1F
100
AcDbEntity
  8
DEFAULT_2
  6
DASHED
 62
     2
100
AcDbLine
 10
167.0690392245
 20
85.01685593730002
 30
0.0
 11
167.0690392245
 21
91.01685593730002
 31
0.0
  0
LINE
  5
12F
330
1F
100
AcDbEntity
  8
0
  6
DASHED
 62
     2
100
AcDbLine
 10
168.7190392245
 20
85.01685593730002
 30
0.0
 11
168.7190392245
 21
91.01685593730002
 31
0.0
  0
LINE
  5
130
330
1F
100
AcDbEntity
  8
0
  6
Continuous
 62
     7
100
AcDbLine
 10
173.4690392245
 20
73.01685593730002
 30
0.0
 11
173.4690392245
 21
102.0168559373
 31
0.0
  0
LINE
  5
131
330
1F
100
AcDbEntity
  8
DEFAULT_2
  6
HIDDEN_1
 62
   252
420
  8685188
100
AcDbLine
 10
173.4203386664
 20
73.01685593730002
 30
0.0
 11
173.4190352794
 21
73.01685593730002
 31
0.0
  0
LINE
  5
132
330
1F
100
AcDbEntity
  8
DEFAULT_2
  6
HIDDEN_1
 62
   252
420
  8685188
100
AcDbLine
 10
152.5203465564
 20
73.01685593730002
 30
0.0
 11
152.5190431695
 21
73.01685593730002
 31
0.0
  0
LINE
  5
133
330
1F
100
AcDbEntity
  8
0
  6
Continuous
 62
     7
100
AcDbLine
 10
159.7420353901
 20
117.2668559373
 30
0.0
 11
165.7420348179
 21
117.2668559373
 31
0.0
  0
LINE
  5
134
330
1F
100
AcDbEntity
  8
0
  6
Continuous
 62
     7
100
AcDbLine
 10
173.4690392245
 20
110.0168559373
 30
0.0
 11
172.9690392245
 21
110.0168559373
 31
0.0
  0
LINE
  5
135
330
1F
100
AcDbEntity
  8
0
  6
Continuous
 62
     7
100
AcDbLine
 10
169.2190392245
 20
110.0168559373
 30
0.0
 11
153.4690392245
 21
110.0168559373
 31
0.0
  0
LINE
  5
136
330
1F
100
AcDbEntity
  8
0
  6
Continuous
 62
     7
100
AcDbLine
 10
172.9690392245
 20
110.0168559373
 30
0.0
 11
169.2190392245
 21
110.0168559373
 31
0.0
  0
LINE
  5
137
330
1F
100
AcDbEntity
  8
0
  6
Continuous
 62
     7
100
AcDbLine
 10
169.2190392245
 20
110.0168559373
 30
0.0
 11
169.2190392245
 21
116.0168559373
 31
0.0
  0
LINE
  5
138
330
1F
100
AcDbEntity
  8
0
  6
Continuous
 62
     7
100
AcDbLine
 10
153.4690392245
 20
110.0168559373
 30
0.0
 11
152.5203465564
 21
110.0168559373
 31
0.0
  0
LINE
  5
139
330
1F
100
AcDbEntity
  8
0
  6
Continuous
 62
     7
100
AcDbLine
 10
153.4690392245
 20
110.0168559373
 30
0.0
 11
153.4690392245
 21
116.0168559373
 31
0.0
  0
LINE
  5
13A
330
1F
100
AcDbEntity
  8
0
  6
Continuous
 62
     7
100
AcDbLine
 10
153.6690392245
 20
117.3168559373
 30
0.0
 11
153.6690392245
 21
116.0168559373
 31
0.0
  0
LINE
  5
13B
330
1F
100
AcDbEntity
  8
0
  6
Continuous
 62
     7
100
AcDbLine
 10
152.4690392245
 20
110.0168559373
 30
0.0
 11
158.7190392245
 21
110.0168559373
 31
0.0
  0
LINE
  5
13C
330
1F
100
AcDbEntity
  8
0
  6
Continuous
 62
     7
100
AcDbLine
 10
169.2190392245
 20
110.0168559373
 30
0.0
 11
172.8690392245
 21
110.0168559373
 31
0.0
  0
LINE
  5
13D
330
1F
100
AcDbEntity
  8
0
  6
Continuous
 62
     7
100
AcDbLine
 10
169.2190392245
 20
113.3168559373
 30
0.0
 11
153.4690392245
 21
113.3168559373
 31
0.0
  0
LINE
  5
13E
330
1F
100
AcDbEntity
  8
0
  6
Continuous
 62
     7
100
AcDbLine
 10
159.6690392245
 20
117.2668559373
 30
0.0
 11
159.6690392245
 21
116.0168559373
 31
0.0
  0
LINE
  5
13F
330
1F
100
AcDbEntity
  8
0
  6
Continuous
 62
     7
100
AcDbLine
 10
161.6996245579
 20
116.0168559373
 30
0.0
 11
161.6996245579
 21
117.2668559373
 31
0.0
  0
LINE
  5
140
330
1F
100
AcDbEntity
  8
0
  6
Continuous
 62
     7
100
AcDbLine
 10
169.2190392245
 20
116.0168559373
 30
0.0
 11
153.4690392245
 21
116.0168559373
 31
0.0
  0
LINE
  5
141
330
1F
100
AcDbEntity
  8
0
  6
Continuous
 62
     7
100
AcDbLine
 10
165.7420348179
 20
117.2668559373
 30
0.0
 11
166.7779103188
 21
117.2668559373
 31
0.0
  0
LINE
  5
142
330
1F
100
AcDbEntity
  8
0
  6
Continuous
 62
     7
100
AcDbLine
 10
165.1413509162
 20
116.0168559373
 30
0.0
 11
165.1413509162
 21
117.2668559373
 31
0.0
  0
LINE
  5
143
330
1F
100
AcDbEntity
  8
0
  6
Continuous
 62
     7
100
AcDbLine
 10
166.7779117095
 20
117.2668559373
 30
0.0
 11
166.7779117095
 21
116.0168559373
 31
0.0
  0
LINE
  5
144
330
1F
100
AcDbEntity
  8
DEFAULT_2
  6
HIDDEN_1
 62
   252
420
  8685188
100
AcDbLine
 10
152.5203465564
 20
110.0168559373
 30
0.0
 11
152.5190431695
 21
110.0168559373
 31
0.0
  0
LINE
  5
145
330
1F
100
AcDbEntity
  8
0
  6
Continuous
 62
     7
100
AcDbLine
 10
152.4690392245
 20
110.0168559373
 30
0.0
 11
152.4690392245
 21
73.01685593730002
 31
0.0
  0
LINE
  5
146
330
1F
100
AcDbEntity
  8
0
  6
Continuous
 62
     7
100
AcDbLine
 10
173.4690392245
 20
110.0168559373
 30
0.0
 11
173.4690392245
 21
102.0168559373
 31
0.0
  0
LINE
  5
147
330
1F
100
AcDbEntity
  8
1
  6
DOT_CENTER
 62
     7
100
AcDbLine
 10
110.550604674667
 20
139.9668559373
 30
0.0
 11
175.550604674667
 21
139.9668559373
 31
0.0
  0
ARC
  5
148
330
1F
100
AcDbEntity
  8
DEFAULT_2
  6
DASHED
 62
     2
100
AcDbCircle
 10
164.4690392245
 20
194.9168559373
 30
0.0
 40
2.599999999999994
100
AcDbArc
 50
0.0
 51
8.36913148750246
  0
ARC
  5
149
330
1F
100
AcDbEntity
  8
DEFAULT_2
  6
DASHED
 62
     2
100
AcDbCircle
 10
164.4690392245
 20
194.9168559373
 30
0.0
 40
2.600000000000254
100
AcDbArc
 50
171.6308684924087
 51
180.0
  0
ARC
  5
14A
330
1F
100
AcDbEntity
  8
DEFAULT_2
  6
DASHED
 62
     2
100
AcDbCircle
 10
164.4690392245
 20
188.9168559373
 30
0.0
 40
2.599999999999994
100
AcDbArc
 50
180.0
 51
-171.6308685124975
  0
ARC
  5
14B
330
1F
100
AcDbEntity
  8
DEFAULT_2
  6
DASHED
 62
     2
100
AcDbCircle
 10
164.4690392245
 20
188.9168559373
 30
0.0
 40
2.600000000000283
100
AcDbArc
 50
-8.36913150759118
 51
0.0
  0
ARC
  5
14C
330
1F
100
AcDbEntity
  8
0
  6
Continuous
 62
     7
100
AcDbCircle
 10
131.7551548938
 20
208.4168559373
 30
0.0
 40
9.0
100
AcDbArc
 50
90.0
 51
180.0
  0
ARC
  5
14D
330
1F
100
AcDbEntity
  8
0
  6
DASHED
 62
     2
100
AcDbCircle
 10
164.4690392245
 20
194.9168559373
 30
0.0
 40
4.25
100
AcDbArc
 50
0.0
 51
180.0
  0
ARC
  5
14E
330
1F
100
AcDbEntity
  8
0
  6
DASHED
 62
     2
100
AcDbCircle
 10
164.4690392245
 20
188.9168559373
 30
0.0
 40
4.25
100
AcDbArc
 50
180.0
 51
0.0
  0
ARC
  5
14F
330
1F
100
AcDbEntity
  8
0
  6
Continuous
 62
     7
100
AcDbCircle
 10
162.9690392245
 20
206.9168559373
 30
0.0
 40
10.5
100
AcDbArc
 50
90.0
 51
180.0
  0
ARC
  5
150
330
1F
100
AcDbEntity
  8
0
  6
DASHED
 62
     2
100
AcDbCircle
 10
164.4690392245
 20
194.9168559373
 30
0.0
 40
2.599999999999582
100
AcDbArc
 50
8.36913148750246
 51
171.6308684924087
  0
ARC
  5
151
330
1F
100
AcDbEntity
  8
0
  6
DASHED
 62
     2
100
AcDbCircle
 10
164.4690392245
 20
188.9168559373
 30
0.0
 40
2.599999999999582
100
AcDbArc
 50
-171.6308685124975
 51
-8.36913150759118
  0
ARC
  5
152
330
1F
100
AcDbEntity
  8
0
  6
Continuous
 62
     7
100
AcDbCircle
 10
131.7551548938
 20
71.51685593729997
 30
0.0
 40
9.000000000000014
100
AcDbArc
 50
180.0
 51
0.0
  0
ARC
  5
153
330
1F
100
AcDbEntity
  8
0
  6
Continuous
 62
     7
100
AcDbCircle
 10
131.7551548938
 20
71.51685593729997
 30
0.0
 40
9.000000000000014
100
AcDbArc
 50
180.0
 51
0.0
  0
ARC
  5
154
330
1F
100
AcDbEntity
  8
0
  6
DASHED
 62
     2
100
AcDbCircle
 10
164.4690392245
 20
91.01685593730002
 30
0.0
 40
2.600000000000283
100
AcDbArc
 50
8.36913150759118
 51
171.6308685124975
  0
ARC
  5
155
330
1F
100
AcDbEntity
  8
0
  6
DASHED
 62
     2
100
AcDbCircle
 10
164.4690392245
 20
85.01685593730002
 30
0.0
 40
2.600000000000254
100
AcDbArc
 50
-171.6308684924087
 51
-8.36913148750246
  0
ARC
  5
156
330
1F
100
AcDbEntity
  8
0
  6
Continuous
 62
     7
100
AcDbCircle
 10
162.9690392245
 20
73.01685593730002
 30
0.0
 40
10.49999999999997
100
AcDbArc
 50
-90.0
 51
0.0
  0
ARC
  5
157
330
1F
100
AcDbEntity
  8
0
  6
DASHED
 62
     2
100
AcDbCircle
 10
164.4690392245
 20
91.01685593730002
 30
0.0
 40
4.25
100
AcDbArc
 50
0.0
 51
180.0
  0
ARC
  5
158
330
1F
100
AcDbEntity
  8
0
  6
DASHED
 62
     2
100
AcDbCircle
 10
164.4690392245
 20
85.01685593730002
 30
0.0
 40
4.25
100
AcDbArc
 50
180.0
 51
0.0
  0
ARC
  5
159
330
1F
100
AcDbEntity
  8
DEFAULT_2
  6
DASHED
 62
     2
100
AcDbCircle
 10
164.4690392245
 20
91.01685593730002
 30
0.0
 40
2.599999999999994
100
AcDbArc
 50
0.0
 51
8.36913150759118
  0
ARC
  5
15A
330
1F
100
AcDbEntity
  8
DEFAULT_2
  6
DASHED
 62
     2
100
AcDbCircle
 10
164.4690392245
 20
91.01685593730002
 30
0.0
 40
2.599999999999582
100
AcDbArc
 50
171.6308685124975
 51
180.0
  0
ARC
  5
15B
330
1F
100
AcDbEntity
  8
DEFAULT_2
  6
DASHED
 62
     2
100
AcDbCircle
 10
164.4690392245
 20
85.01685593730002
 30
0.0
 40
2.599999999999994
100
AcDbArc
 50
180.0
 51
-171.6308684924087
  0
ARC
  5
15C
330
1F
100
AcDbEntity
  8
DEFAULT_2
  6
DASHED
 62
     2
100
AcDbCircle
 10
164.4690392245
 20
85.01685593730002
 30
0.0
 40
2.599999999999582
100
AcDbArc
 50
-8.36913148750246
 51
0.0
  0
ARC
  5
15D
330
1F
100
AcDbEntity
  8
0
  6
Continuous
 62
     7
100
AcDbCircle
 10
162.9690392245
 20
206.9168559373
 30
0.0
 40
10.5
100
AcDbArc
 50
0.0
 51
90.0
  0
ARC
  5
15E
330
1F
100
AcDbEntity
  8
0
  6
Continuous
 62
     7
100
AcDbCircle
 10
131.7551548938
 20
208.4168559373
 30
0.0
 40
9.0
100
AcDbArc
 50
0.0
 51
90.0
  0
ARC
  5
15F
330
1F
100
AcDbEntity
  8
0
  6
Continuous
 62
     7
100
AcDbCircle
 10
162.9690392245
 20
73.01685593730002
 30
0.0
 40
10.5
100
AcDbArc
 50
180.0
 51
-90.0
  0
CIRCLE
  5
160
330
1F
100
AcDbEntity
  8
0
  6
DASHED
 62
     2
100
AcDbCircle
 10
131.7551548938
 20
210.9168559373
 30
0.0
 40
2.75
  0
CIRCLE
  5
161
330
1F
100
AcDbEntity
  8
0
  6
DASHED
 62
     2
100
AcDbCircle
 10
131.7551548938
 20
210.9168559373
 30
0.0
 40
5.099999999999994
  0
CIRCLE
  5
162
330
1F
100
AcDbEntity
  8
0
  6
DASHED
 62
     2
100
AcDbCircle
 10
162.9690392245
 20
210.9168559373
 30
0.0
 40
2.75
  0
CIRCLE
  5
163
330
1F
100
AcDbEntity
  8
0
  6
DASHED
 62
     2
100
AcDbCircle
 10
162.9690392245
 20
210.9168559373
 30
0.0
 40
5.099999999999994
  0
CIRCLE
  5
164
330
1F
100
AcDbEntity
  8
1
  6
Continuous
 62
     7
100
AcDbCircle
 10
162.9690392245
 20
202.9168559373
 30
0.0
 40
4.0
  0
CIRCLE
  5
165
330
1F
100
AcDbEntity
  8
1
  6
Continuous
 62
     7
100
AcDbCircle
 10
131.7551548938
 20
202.9168559373
 30
0.0
 40
3.999999999999915
  0
CIRCLE
  5
166
330
1F
100
AcDbEntity
  8
1
  6
Continuous
 62
     7
100
AcDbCircle
 10
131.7551548938
 20
77.01685593729997
 30
0.0
 40
3.999999999999886
  0
CIRCLE
  5
167
330
1F
100
AcDbEntity
  8
0
  6
DASHED
 62
     2
100
AcDbCircle
 10
131.7551548938
 20
69.01685593729997
 30
0.0
 40
5.099999999999994
  0
CIRCLE
  5
168
330
1F
100
AcDbEntity
  8
0
  6
DASHED
 62
     2
100
AcDbCircle
 10
131.7551548938
 20
69.01685593729997
 30
0.0
 40
2.75
  0
CIRCLE
  5
169
330
1F
100
AcDbEntity
  8
1
  6
Continuous
 62
     7
100
AcDbCircle
 10
162.9690392245
 20
77.01685593730002
 30
0.0
 40
4.0
  0
CIRCLE
  5
16A
330
1F
100
AcDbEntity
  8
0
  6
DASHED
 62
     2
100
AcDbCircle
 10
162.9690392245
 20
69.01685593730002
 30
0.0
 40
5.099999999999994
  0
CIRCLE
  5
16B
330
1F
100
AcDbEntity
  8
0
  6
DASHED
 62
     2
100
AcDbCircle
 10
162.9690392245
 20
69.01685593730002
 30
0.0
 40
2.75
  0
SPLINE
  5
16C
330
1F
100
AcDbEntity
  8
0
  6
Continuous
 62
     7
100
AcDbSpline
210
0.0
220
0.0
230
1.0
 70
     8
 71
     3
 72
    15
 73
    11
 74
     9
 42
0.0000000001
 43
0.0000000001
 44
0.00000001
 40
0.0
 40
0.0
 40
0.0
 40
0.0
 40
0.3674881855092473
 40
0.734807402637119
 40
0.8891691892679795
 40
1.043503107403972
 40
1.182130913762539
 40
1.32070080605457
 40
1.559045061047667
 40
1.797232851298303
 40
1.797232851298303
 40
1.797232851298303
 40
1.797232851298303
 10
137.4710307483
 20
128.3668559373
 30
0.0
 10
137.34830555928
 20
128.3746907859533
 30
0.0
 10
137.1029116093847
 20
128.3903568808537
 30
0.0
 10
136.8205490957653
 20
128.4953427018144
 30
0.0
 10
136.626173511583
 20
128.6097911678197
 30
0.0
 10
136.5078216977089
 20
128.7012254167192
 30
0.0
 10
136.4057847264238
 20
128.8033098970328
 30
0.0
 10
136.3021949032871
 20
128.9405569566207
 30
0.0
 10
136.2082483758736
 20
129.1277862490593
 30
0.0
 10
136.1938946483881
 20
129.2871834867396
 30
0.0
 10
136.1867201411
 20
129.3668559373
 30
0.0
 11
137.4710307483
 21
128.3668559373
 31
0.0
 11
137.1058691190266
 21
128.4081421455941
 31
0.0
 11
136.7606885601002
 21
128.5337358915
 31
0.0
 11
136.627937255246
 21
128.6125055063993
 31
0.0
 11
136.5059528546001
 21
128.7070505448004
 31
0.0
 11
136.4082335227897
 21
128.8053795887615
 31
0.0
 11
136.3246984917001
 21
128.9159395889003
 31
0.0
 11
136.2228412142597
 21
129.1314229500228
 31
0.0
 11
136.1867201411
 21
129.3668559373
 31
0.0
  0
SPLINE
  5
16D
330
1F
100
AcDbEntity
  8
0
  6
Continuous
 62
     7
100
AcDbSpline
210
0.0
220
0.0
230
1.0
 70
     8
 71
     3
 72
    15
 73
    11
 74
     9
 42
0.0000000001
 43
0.0000000001
 44
0.00000001
 40
0.0
 40
0.0
 40
0.0
 40
0.0
 40
0.2381877902504066
 40
0.4765320452435806
 40
0.6151019375378897
 40
0.7537297438952495
 40
0.9080636620007904
 40
1.062425448605579
 40
1.429744665739575
 40
1.797232851255264
 40
1.797232851255264
 40
1.797232851255264
 40
1.797232851255264
 10
136.1867201411
 20
150.5668559373
 30
0.0
 10
136.193894648388
 20
150.6465283878605
 30
0.0
 10
136.2082483758732
 20
150.8059256255412
 30
0.0
 10
136.3021949032908
 20
150.9931549179774
 30
0.0
 10
136.405784726417
 20
151.1304019775735
 30
0.0
 10
136.5078216976979
 20
151.2324864578793
 30
0.0
 10
136.6261735115854
 20
151.3239207067322
 30
0.0
 10
136.8205490957891
 20
151.4383691726657
 30
0.0
 10
137.1029116093869
 20
151.5433549936353
 30
0.0
 10
137.3483055592807
 20
151.5590210886097
 30
0.0
 10
137.4710307483
 20
151.5668559373
 30
0.0
 11
136.1867201411
 21
150.5668559373
 31
0.0
 11
136.22284121426
 21
150.8022889245769
 31
0.0
 11
136.3246984917
 21
151.0177722856997
 31
0.0
 11
136.4082335227855
 21
151.1283322858444
 31
0.0
 11
136.5059528545999
 21
151.2266613297999
 31
0.0
 11
136.6279372552461
 21
151.321206368151
 31
0.0
 11
136.7606885600998
 21
151.399975983
 31
0.0
 11
137.1058691190309
 21
151.5255697289109
 31
0.0
 11
137.4710307483
 21
151.5668559373
 31
0.0
  0
SPLINE
  5
16E
330
1F
100
AcDbEntity
  8
0
  6
Continuous
 62
     7
100
AcDbSpline
210
0.0
220
0.0
230
1.0
 70
     8
 71
     3
 72
    15
 73
    11
 74
     9
 42
0.0000000001
 43
0.0000000001
 44
0.00000001
 40
0.0
 40
0.0
 40
0.0
 40
0.0
 40
0.2382069612719911
 40
0.4765709524847833
 40
0.6151884721144351
 40
0.753863986447015
 40
0.9082820893804573
 40
1.062728111522304
 40
1.430322292439846
 40
1.798085330345007
 40
1.798085330345007
 40
1.798085330345007
 40
1.798085330345007
 10
158.0270617323
 20
151.2168559373
 30
0.0
 10
158.0198798017104
 20
151.1371766870867
 30
0.0
 10
158.0055112060846
 20
150.9777656607899
 30
0.0
 10
157.9114822972131
 20
150.7905392263405
 30
0.0
 10
157.8078159598241
 20
150.6533024219638
 30
0.0
 10
157.7056942441021
 20
150.5512175501255
 30
0.0
 10
157.5872493987567
 20
150.459786037205
 30
0.0
 10
157.3927053698187
 20
150.3453319337131
 30
0.0
 10
157.1101173195594
 20
150.2403539164076
 30
0.0
 10
156.8645406616317
 20
150.2246897959646
 30
0.0
 10
156.7417241373
 20
150.2168559373
 30
0.0
 11
158.0270617323
 21
151.2168559373
 31
0.0
 11
157.9909072668265
 21
150.9814086798839
 31
0.0
 11
157.8889731888001
 21
150.7659398049999
 31
0.0
 11
157.8053667264306
 21
150.6553740951331
 31
0.0
 11
157.7075739880002
 21
150.5570507581999
 31
0.0
 11
157.5854862144933
 21
150.4625016911834
 31
0.0
 11
157.4526346234003
 21
150.3837360356
 31
0.0
 11
157.1071627459396
 21
150.2581388074129
 31
0.0
 11
156.7417241373
 21
150.2168559373
 31
0.0
  0
SPLINE
  5
16F
330
1F
100
AcDbEntity
  8
0
  6
Continuous
 62
     7
100
AcDbSpline
210
0.0
220
0.0
230
1.0
 70
     8
 71
     3
 72
    21
 73
    17
 74
    15
 42
0.0000000001
 43
0.0000000001
 44
0.00000001
 40
0.0
 40
0.0
 40
0.0
 40
0.0
 40
0.2015254615837618
 40
0.4030509042707064
 40
0.4917148092645264
 40
0.5803803366698508
 40
0.6541050347453486
 40
0.7278381645288073
 40
0.7888329024324021
 40
0.8497261759709067
 40
0.9070893664772068
 40
0.9644102923533018
 40
1.028715569549857
 40
1.093216265898476
 40
1.286215913159487
 40
1.479111644152641
 40
1.479111644152641
 40
1.479111644152641
 40
1.479111644152641
 10
140.5419291708
 20
151.2168559373
 30
0.0
 10
140.5423486797122
 20
151.149681374081
 30
0.0
 10
140.5431876974973
 20
151.0153322539418
 30
0.0
 10
140.5502253854374
 20
150.8514952390572
 30
0.0
 10
140.5615830380053
 20
150.7256944529128
 30
0.0
 10
140.5731314823569
 20
150.6427640067883
 30
0.0
 10
140.5887806722461
 20
150.5655652094737
 30
0.0
 10
140.6085922159929
 20
150.4988287050769
 30
0.0
 10
140.6339484825844
 20
150.4386032749307
 30
0.0
 10
140.6646234388849
 20
150.3870152086769
 30
0.0
 10
140.7029536804854
 20
150.3424172478305
 30
0.0
 10
140.7491553178298
 20
150.3041659301401
 30
0.0
 10
140.8039265248772
 20
150.2742804310485
 30
0.0
 10
140.9051060994646
 20
150.2377059907804
 30
0.0
 10
141.0556442934748
 20
150.219110847584
 30
0.0
 10
141.1841352739706
 20
150.2176074391123
 30
0.0
 10
141.2483634638
 20
150.2168559373
 30
0.0
 11
140.5419291708
 21
151.2168559373
 31
0.0
 11
140.5444201137664
 21
151.0153458708773
 31
0.0
 11
140.5540332550999
 21
150.8140498411999
 31
0.0
 11
140.5622932214343
 21
150.7257715256014
 31
0.0
 11
140.5748003358997
 21
150.6379925541002
 31
0.0
 11
140.5898404178618
 21
150.5658182716937
 31
0.0
 11
140.6111981958997
 21
150.4952461826999
 31
0.0
 11
140.6352286052615
 21
150.4391846319023
 31
0.0
 11
140.666706931
 21
150.3870587672003
 31
0.0
 11
140.7041052953871
 21
150.3435628137536
 31
0.0
 11
140.7483288747997
 21
150.3070941482005
 31
0.0
 11
140.8045157190739
 21
150.2758178439776
 31
0.0
 11
140.8650247509997
 21
150.2534796058005
 31
0.0
 11
141.0555567565213
 21
150.2227156867589
 31
0.0
 11
141.2483634638
 21
150.2168559373
 31
0.0
  0
SPLINE
  5
170
330
1F
100
AcDbEntity
  8
0
  6
Continuous
 62
     7
100
AcDbSpline
210
0.0
220
0.0
230
1.0
 70
     8
 71
     3
 72
    15
 73
    11
 74
     9
 42
0.0000000001
 43
0.0000000001
 44
0.00000001
 40
0.0
 40
0.0
 40
0.0
 40
0.0
 40
0.3677630379099981
 40
0.735357218833882
 40
0.8898032409731522
 40
1.044221343908649
 40
1.182896858205651
 40
1.321514377795138
 40
1.559878369007616
 40
1.798085330279737
 40
1.798085330279737
 40
1.798085330279737
 40
1.798085330279737
 10
156.7417241373
 20
129.7168559373
 30
0.0
 10
156.8645406616284
 20
129.7090220785937
 30
0.0
 10
157.1101173195499
 20
129.6933579580672
 30
0.0
 10
157.3927053698186
 20
129.5883799407956
 30
0.0
 10
157.5872493987514
 20
129.4739258372877
 30
0.0
 10
157.7056942440871
 20
129.382494324377
 30
0.0
 10
157.8078159598186
 20
129.2804094525849
 30
0.0
 10
157.9114822972333
 20
129.1431726482569
 30
0.0
 10
158.0055112060814
 20
128.9559462138074
 30
0.0
 10
158.0198798017094
 20
128.7965351875124
 30
0.0
 10
158.0270617323
 20
128.7168559373
 30
0.0
 11
156.7417241373
 21
129.7168559373
 31
0.0
 11
157.1071627459335
 21
129.6755730670897
 31
0.0
 11
157.4526346233998
 21
129.5499758388997
 31
0.0
 11
157.5854862144875
 21
129.4712101833123
 31
0.0
 11
157.707573988
 21
129.3766611162996
 31
0.0
 11
157.805366726428
 21
129.2783377794142
 31
0.0
 11
157.8889731888
 21
129.1677720695997
 31
0.0
 11
157.9909072668272
 21
128.9523031947163
 31
0.0
 11
158.0270617323
 21
128.7168559373
 31
0.0
  0
SPLINE
  5
171
330
1F
100
AcDbEntity
  8
0
  6
Continuous
 62
     7
100
AcDbSpline
210
0.0
220
0.0
230
1.0
 70
     8
 71
     3
 72
    21
 73
    17
 74
    15
 42
0.0000000001
 43
0.0000000001
 44
0.00000001
 40
0.0
 40
0.0
 40
0.0
 40
0.0
 40
0.1928953673927608
 40
0.3858946491308916
 40
0.4503952075133818
 40
0.5147003505666455
 40
0.5720210839910765
 40
0.6293840780680389
 40
0.6902771511320883
 40
0.7512716897329995
 40
0.8250047895803141
 40
0.898729459348504
 40
0.9873952680481483
 40
1.076059453994928
 40
1.277585543126712
 40
1.47911165114667
 40
1.47911165114667
 40
1.47911165114667
 40
1.47911165114667
 10
141.2483634638
 20
129.7168559373
 30
0.0
 10
141.1841353939276
 20
129.7161044396717
 30
0.0
 10
141.0556446539851
 20
129.7146010395772
 30
0.0
 10
140.9051067601316
 20
129.6960059863634
 30
0.0
 10
140.8039273261855
 20
129.6594317954716
 30
0.0
 10
140.7491561846039
 20
129.6295465088164
 30
0.0
 10
140.7029545494523
 20
129.5912954683487
 30
0.0
 10
140.6646242598094
 20
129.5466978092117
 30
0.0
 10
140.6339492096168
 20
129.4951100298722
 30
0.0
 10
140.6085927925927
 20
129.4348848173822
 30
0.0
 10
140.5887811045488
 20
129.3681484427458
 30
0.0
 10
140.5731317667329
 20
129.2909495985233
 30
0.0
 10
140.5615832069535
 20
129.2080189875504
 30
0.0
 10
140.5502254454972
 20
129.0822178060992
 30
0.0
 10
140.543187704376
 20
128.9183802670098
 30
0.0
 10
140.5423486820051
 20
128.7840307159686
 30
0.0
 10
140.5419291708
 20
128.7168559373
 30
0.0
 11
141.2483634638
 21
129.7168559373
 31
0.0
 11
141.0555571193915
 21
129.7109962173893
 31
0.0
 11
140.8650254552004
 21
129.6802324774999
 31
0.0
 11
140.8045165137823
 21
129.6578943925301
 31
0.0
 11
140.7483297077004
 21
129.6266182955003
 31
0.0
 11
140.7041061519917
 21
129.5901499036959
 31
0.0
 11
140.6667077476004
 21
129.5466542437003
 31
0.0
 11
140.6352293296268
 21
129.4945286688923
 31
0.0
 11
140.6111988100003
 21
129.4384673821998
 31
0.0
 11
140.5898408589318
 21
129.3678953768489
 31
0.0
 11
140.5748006544001
 21
129.2957211488996
 31
0.0
 11
140.5622934001651
 21
129.207941913178
 31
0.0
 11
140.5540333525998
 21
129.119663323
 31
0.0
 11
140.5444201304066
 21
128.9183666500026
 31
0.0
 11
140.5419291708
 21
128.7168559373
 31
0.0
  0
XLINE
  5
172
330
1F
100
AcDbEntity
  8
1
  6
DOT_CENTER
 62
     3
 60
     1
100
AcDbXline
 10
131.7551548938
 20
209.214394012998
 30
0.0
 11
0.0
 21
1.0
 31
0.0
  0
MTEXT
  5
174
330
1F
100
AcDbEntity
  8
1
 62
     2
100
AcDbMText
 10
114.542734770992
 20
142.494145334683
 30
0.0
 40
2.5
 41
0.0
 71
     5
 72
     1
  1
BBL
  7
CONVERTER_11
 73
     1
 44
1.32052821128451
  0
DIMENSION
  5
17F
330
1F
100
AcDbEntity
  8
1
100
AcDbDimension
  2
*D1
 10
183.840815335679
 20
217.4168559373
 30
0.0
 11
180.090815335679
 21
143.129949594227
 31
0.0
 70
    32
  1
155
 71
     5
 42
-1.0
 53
90.0
  3
ME10_DIM_10
100
AcDbAlignedDimension
 13
162.9690392245
 23
62.51685593730005
 33
0.0
 14
162.9690392245
 24
217.4168559373
 34
0.0
 50
90.0
100
AcDbRotatedDimension
  0
DIMENSION
  5
18A
330
1F
100
AcDbEntity
  8
1
100
AcDbDimension
  2
*D2
 10
122.7551548938
 20
52.3956066263642
 30
0.0
 11
131.7551548938
 21
56.1456066263642
 31
0.0
 70
    32
  1
<>
 71
     5
 42
-1.0
 53
0.00013888888889
  3
ME10_DIM_11
100
AcDbAlignedDimension
 13
140.7551548938
 23
71.51685593729997
 33
0.0
 14
122.7551548938
 24
71.51685593729997
 34
0.0
100
AcDbRotatedDimension
  0
DIMENSION
  5
195
330
1F
100
AcDbEntity
  8
1
100
AcDbDimension
  2
*D3
 10
152.4690392245
 20
52.3956066263642
 30
0.0
 11
162.9690392245
 21
56.1456066263642
 31
0.0
 70
    32
  1
<>
 71
     5
 42
-1.0
 53
0.00013888888889
  3
ME10_DIM_12
100
AcDbAlignedDimension
 13
173.4690392245
 23
73.01685593730002
 33
0.0
 14
152.4690392245
 24
73.01685593730002
 34
0.0
100
AcDbRotatedDimension
  0
DIMENSION
  5
1A0
330
1F
100
AcDbEntity
  8
1
100
AcDbDimension
  2
*D4
 10
140.7551548938
 20
52.3956066263642
 30
0.0
 11
146.953052347081
 21
56.1456066263642
 31
0.0
 70
    32
  1
11.7
 71
     5
 42
-1.0
 53
0.00013888888889
  3
ME10_DIM_13
100
AcDbAlignedDimension
 13
152.4690392245
 23
73.01685593730002
 33
0.0
 14
140.7551548938
 24
71.51685593729997
 34
0.0
100
AcDbRotatedDimension
  0
ENDSEC
  0
SECTION
  2
OBJECTS
  0
DICTIONARY
  5
C
330
0
100
AcDbDictionary
281
     1
  3
ACAD_GROUP
350
D
  3
ACAD_LAYOUT
350
1A
  3
ACAD_MLINESTYLE
350
17
  3
ACAD_PLOTSETTINGS
350
19
  3
ACAD_PLOTSTYLENAME
350
E
  0
DICTIONARY
  5
D
102
{ACAD_REACTORS
330
C
102
}
330
C
100
AcDbDictionary
281
     1
  0
DICTIONARY
  5
1A
102
{ACAD_REACTORS
330
C
102
}
330
C
100
AcDbDictionary
281
     1
  3
Layout1
350
1E
  3
Layout2
350
26
  3
Model
350
22
  0
DICTIONARY
  5
17
102
{ACAD_REACTORS
330
C
102
}
330
C
100
AcDbDictionary
281
     1
  3
Standard
350
18
  0
DICTIONARY
  5
19
102
{ACAD_REACTORS
330
C
102
}
330
C
100
AcDbDictionary
281
     1
  0
ACDBDICTIONARYWDFLT
  5
E
102
{ACAD_REACTORS
330
C
102
}
330
C
100
AcDbDictionary
281
     1
  3
Normal
350
F
100
AcDbDictionaryWithDefault
340
F
  0
LAYOUT
  5
1E
102
{ACAD_REACTORS
330
1A
102
}
330
1A
100
AcDbPlotSettings
  1

  2

  4

  6

 40
0.0
 41
0.0
 42
0.0
 43
0.0
 44
0.0
 45
0.0
 46
0.0
 47
0.0
 48
0.0
 49
0.0
140
0.0
141
0.0
142
1.0
143
1.0
 70
   688
 72
     0
 73
     0
 74
     5
  7

 75
    16
 76
     0
 77
     2
 78
   300
147
1.0
148
0.0
149
0.0
100
AcDbLayout
  1
Layout1
 70
     1
 71
     1
 10
0.0
 20
0.0
 11
0.0
 21
0.0
 12
0.0
 22
0.0
 32
0.0
 14
0.0
 24
0.0
 34
0.0
 15
0.0
 25
0.0
 35
0.0
146
0.0
 13
0.0
 23
0.0
 33
0.0
 16
1.0
 26
0.0
 36
0.0
 17
0.0
 27
1.0
 37
0.0
 76
     0
330
1B
  0
LAYOUT
  5
26
102
{ACAD_REACTORS
330
1A
102
}
330
1A
100
AcDbPlotSettings
  1

  2

  4

  6

 40
0.0
 41
0.0
 42
0.0
 43
0.0
 44
0.0
 45
0.0
 46
0.0
 47
0.0
 48
0.0
 49
0.0
140
0.0
141
0.0
142
1.0
143
1.0
 70
   688
 72
     0
 73
     0
 74
     5
  7

 75
    16
 76
     0
 77
     2
 78
   300
147
1.0
148
0.0
149
0.0
100
AcDbLayout
  1
Layout2
 70
     1
 71
     2
 10
0.0
 20
0.0
 11
0.0
 21
0.0
 12
0.0
 22
0.0
 32
0.0
 14
0.0
 24
0.0
 34
0.0
 15
0.0
 25
0.0
 35
0.0
146
0.0
 13
0.0
 23
0.0
 33
0.0
 16
1.0
 26
0.0
 36
0.0
 17
0.0
 27
1.0
 37
0.0
 76
     0
330
23
  0
LAYOUT
  5
22
102
{ACAD_REACTORS
330
1A
102
}
330
1A
100
AcDbPlotSettings
  1

  2

  4

  6

 40
0.0
 41
0.0
 42
0.0
 43
0.0
 44
0.0
 45
0.0
 46
0.0
 47
0.0
 48
0.0
 49
0.0
140
0.0
141
0.0
142
1.0
143
1.0
 70
  1712
 72
     0
 73
     0
 74
     0
  7

 75
     0
 76
     0
 77
     2
 78
   300
147
1.0
148
0.0
149
0.0
100
AcDbLayout
  1
Model
 70
     1
 71
     0
 10
0.0
 20
0.0
 11
0.0
 21
0.0
 12
0.0
 22
0.0
 32
0.0
 14
110.550604674667
 24
50.3956066263642
 34
0.0
 15
185.840815335679
 25
217.4168559373
 35
0.0
146
0.0
 13
0.0
 23
0.0
 33
0.0
 16
1.0
 26
0.0
 36
0.0
 17
0.0
 27
1.0
 37
0.0
 76
     0
330
1F
  0
MLINESTYLE
  5
18
102
{ACAD_REACTORS
330
17
102
}
330
17
100
AcDbMlineStyle
  2
Standard
 70
     0
  3

 62
   256
 51
90.0
 52
90.0
 71
     2
 49
0.5
 62
   256
  6
BYLAYER
 49
-0.5
 62
   256
  6
BYLAYER
  0
ACDBPLACEHOLDER
  5
F
102
{ACAD_REACTORS
330
E
102
}
330
E
  0
ENDSEC
  0
EOF
