  0
SECTION
  2
HEADER
  9
$ACADVER
  1
AC1018
  9
$ACADMAINTVER
 70
     0
  9
$DWGCODEPAGE
  3
ANSI_1252
  9
$INSBASE
 10
0.0
 20
0.0
 30
0.0
  9
$EXTMIN
 10
80.7972633575118
 20
92.2710949141387
 30
0.0
  9
$EXTMAX
 10
219.040455352168
 20
165.876257280423
 30
0.0
  9
$LIMMIN
 10
0.0
 20
0.0
  9
$LIMMAX
 10
12.0
 20
9.0
  9
$ORTHOMODE
 70
     0
  9
$REGENMODE
 70
     1
  9
$FILLMODE
 70
     1
  9
$QTEXTMODE
 70
     0
  9
$MIRRTEXT
 70
     1
  9
$LTSCALE
 40
1.0
  9
$ATTMODE
 70
     1
  9
$TEXTSIZE
 40
0.2
  9
$TRACEWID
 40
0.05
  9
$TEXTSTYLE
  7
Standard
  9
$CLAYER
  8
0
  9
$CELTYPE
  6
ByLayer
  9
$CECOLOR
 62
   256
  9
$CELTSCALE
 40
1.0
  9
$DISPSILH
 70
     0
  9
$DIMSCALE
 40
1.0
  9
$DIMASZ
 40
0.18
  9
$DIMEXO
 40
0.0625
  9
$DIMDLI
 40
0.38
  9
$DIMRND
 40
0.0
  9
$DIMDLE
 40
0.0
  9
$DIMEXE
 40
0.18
  9
$DIMTP
 40
0.0
  9
$DIMTM
 40
0.0
  9
$DIMTXT
 40
0.18
  9
$DIMCEN
 40
0.09
  9
$DIMTSZ
 40
0.0
  9
$DIMTOL
 70
     0
  9
$DIMLIM
 70
     0
  9
$DIMTIH
 70
     1
  9
$DIMTOH
 70
     1
  9
$DIMSE1
 70
     0
  9
$DIMSE2
 70
     0
  9
$DIMTAD
 70
     0
  9
$DIMZIN
 70
     0
  9
$DIMBLK
  1

  9
$DIMASO
 70
     1
  9
$DIMSHO
 70
     1
  9
$DIMPOST
  1

  9
$DIMAPOST
  1

  9
$DIMALT
 70
     0
  9
$DIMALTD
 70
     2
  9
$DIMALTF
 40
25.4
  9
$DIMLFAC
 40
1.0
  9
$DIMTOFL
 70
     0
  9
$DIMTVP
 40
0.0
  9
$DIMTIX
 70
     0
  9
$DIMSOXD
 70
     0
  9
$DIMSAH
 70
     0
  9
$DIMBLK1
  1

  9
$DIMBLK2
  1

  9
$DIMSTYLE
  2
Standard
  9
$DIMCLRD
 70
     0
  9
$DIMCLRE
 70
     0
  9
$DIMCLRT
 70
     0
  9
$DIMTFAC
 40
1.0
  9
$DIMGAP
 40
0.09
  9
$DIMJUST
 70
     0
  9
$DIMSD1
 70
     0
  9
$DIMSD2
 70
     0
  9
$DIMTOLJ
 70
     1
  9
$DIMTZIN
 70
     0
  9
$DIMALTZ
 70
     0
  9
$DIMALTTZ
 70
     0
  9
$DIMUPT
 70
     0
  9
$DIMDEC
 70
     4
  9
$DIMTDEC
 70
     4
  9
$DIMALTU
 70
     2
  9
$DIMALTTD
 70
     2
  9
$DIMTXSTY
  7
Standard
  9
$DIMAUNIT
 70
     0
  9
$DIMADEC
 70
     0
  9
$DIMALTRND
 40
0.0
  9
$DIMAZIN
 70
     0
  9
$DIMDSEP
 70
    46
  9
$DIMATFIT
 70
     3
  9
$DIMFRAC
 70
     0
  9
$DIMLDRBLK
  1

  9
$DIMLUNIT
 70
     2
  9
$DIMLWD
 70
    -2
  9
$DIMLWE
 70
    -2
  9
$DIMTMOVE
 70
     0
  9
$LUNITS
 70
     2
  9
$LUPREC
 70
     4
  9
$SKETCHINC
 40
0.1
  9
$FILLETRAD
 40
0.5
  9
$AUNITS
 70
     0
  9
$AUPREC
 70
     0
  9
$MENU
  1
.
  9
$ELEVATION
 40
0.0
  9
$PELEVATION
 40
0.0
  9
$THICKNESS
 40
0.0
  9
$LIMCHECK
 70
     0
  9
$CHAMFERA
 40
0.5
  9
$CHAMFERB
 40
0.5
  9
$CHAMFERC
 40
1.0
  9
$CHAMFERD
 40
0.0
  9
$SKPOLY
 70
     0
  9
$TDCREATE
 40
2455817.448585301
  9
$TDUCREATE
 40
2455817.365251968
  9
$TDUPDATE
 40
2455817.448585312
  9
$TDUUPDATE
 40
2455817.365251979
  9
$TDINDWG
 40
0.0000000116
  9
$TDUSRTIMER
 40
0.0000000116
  9
$USRTIMER
 70
     1
  9
$ANGBASE
 50
0.0
  9
$ANGDIR
 70
     0
  9
$PDMODE
 70
     0
  9
$PDSIZE
 40
0.0
  9
$PLINEWID
 40
0.0
  9
$SPLFRAME
 70
     0
  9
$SPLINETYPE
 70
     6
  9
$SPLINESEGS
 70
     8
  9
$HANDSEED
  5
168
  9
$SURFTAB1
 70
     6
  9
$SURFTAB2
 70
     6
  9
$SURFTYPE
 70
     6
  9
$SURFU
 70
     6
  9
$SURFV
 70
     6
  9
$UCSBASE
  2

  9
$UCSNAME
  2

  9
$UCSORG
 10
0.0
 20
0.0
 30
0.0
  9
$UCSXDIR
 10
1.0
 20
0.0
 30
0.0
  9
$UCSYDIR
 10
0.0
 20
1.0
 30
0.0
  9
$UCSORTHOREF
  2

  9
$UCSORTHOVIEW
 70
     0
  9
$UCSORGTOP
 10
0.0
 20
0.0
 30
0.0
  9
$UCSORGBOTTOM
 10
0.0
 20
0.0
 30
0.0
  9
$UCSORGLEFT
 10
0.0
 20
0.0
 30
0.0
  9
$UCSORGRIGHT
 10
0.0
 20
0.0
 30
0.0
  9
$UCSORGFRONT
 10
0.0
 20
0.0
 30
0.0
  9
$UCSORGBACK
 10
0.0
 20
0.0
 30
0.0
  9
$PUCSBASE
  2

  9
$PUCSNAME
  2

  9
$PUCSORG
 10
0.0
 20
0.0
 30
0.0
  9
$PUCSXDIR
 10
1.0
 20
0.0
 30
0.0
  9
$PUCSYDIR
 10
0.0
 20
1.0
 30
0.0
  9
$PUCSORTHOREF
  2

  9
$PUCSORTHOVIEW
 70
     0
  9
$PUCSORGTOP
 10
0.0
 20
0.0
 30
0.0
  9
$PUCSORGBOTTOM
 10
0.0
 20
0.0
 30
0.0
  9
$PUCSORGLEFT
 10
0.0
 20
0.0
 30
0.0
  9
$PUCSORGRIGHT
 10
0.0
 20
0.0
 30
0.0
  9
$PUCSORGFRONT
 10
0.0
 20
0.0
 30
0.0
  9
$PUCSORGBACK
 10
0.0
 20
0.0
 30
0.0
  9
$USERI1
 70
     0
  9
$USERI2
 70
     0
  9
$USERI3
 70
     0
  9
$USERI4
 70
     0
  9
$USERI5
 70
     0
  9
$USERR1
 40
14.5
  9
$USERR2
 40
0.0
  9
$USERR3
 40
0.0
  9
$USERR4
 40
0.0
  9
$USERR5
 40
0.0
  9
$WORLDVIEW
 70
     1
  9
$SHADEDGE
 70
     3
  9
$SHADEDIF
 70
    70
  9
$TILEMODE
 70
     1
  9
$MAXACTVP
 70
    64
  9
$PINSBASE
 10
0.0
 20
0.0
 30
0.0
  9
$PLIMCHECK
 70
     0
  9
$PEXTMIN
 10
1.00000000000000E+20
 20
1.00000000000000E+20
 30
1.00000000000000E+20
  9
$PEXTMAX
 10
-1.00000000000000E+20
 20
-1.00000000000000E+20
 30
-1.00000000000000E+20
  9
$PLIMMIN
 10
0.0
 20
0.0
  9
$PLIMMAX
 10
12.0
 20
9.0
  9
$UNITMODE
 70
     0
  9
$VISRETAIN
 70
     1
  9
$PLINEGEN
 70
     0
  9
$PSLTSCALE
 70
     1
  9
$TREEDEPTH
 70
  3020
  9
$CMLSTYLE
  2
Standard
  9
$CMLJUST
 70
     0
  9
$CMLSCALE
 40
1.0
  9
$PROXYGRAPHICS
 70
     1
  9
$MEASUREMENT
 70
     1
  9
$CELWEIGHT
370
    -1
  9
$ENDCAPS
280
     0
  9
$JOINSTYLE
280
     0
  9
$LWDISPLAY
290
     0
  9
$INSUNITS
 70
     1
  9
$HYPERLINKBASE
  1

  9
$STYLESHEET
  1

  9
$XEDIT
290
     1
  9
$CEPSNTYPE
380
     0
  9
$PSTYLEMODE
290
     1
  9
$FINGERPRINTGUID
  2
{9DA450AD-D1EB-4AD5-84AD-F0A589327645}
  9
$VERSIONGUID
  2
{FAEB1C32-E019-11D5-929B-00C0DF256EC4}
  9
$EXTNAMES
290
     1
  9
$PSVPSCALE
 40
0.0
  9
$OLESTARTUP
290
     0
  9
$SORTENTS
280
   127
  9
$INDEXCTL
280
     0
  9
$HIDETEXT
280
     1
  9
$XCLIPFRAME
290
     0
  9
$HALOGAP
280
     0
  9
$OBSCOLOR
 70
   257
  9
$OBSLTYPE
280
     0
  9
$INTERSECTIONDISPLAY
280
     0
  9
$INTERSECTIONCOLOR
 70
   257
  9
$DIMASSOC
280
     2
  9
$PROJECTNAME
  1

  0
ENDSEC
  0
SECTION
  2
CLASSES
  0
CLASS
  1
ACDBDICTIONARYWDFLT
  2
AcDbDictionaryWithDefault
  3
ObjectDBX Classes
 90
        0
 91
        3
280
     0
281
     0
  0
CLASS
  1

  2
exOdDbCircle
  3

 90
        0
 91
        3
280
     0
281
     1
  0
ENDSEC
  0
SECTION
  2
TABLES
  0
TABLE
  2
VPORT
  5
8
330
0
100
AcDbSymbolTable
 70
     1
  0
VPORT
  5
29
330
8
100
AcDbSymbolTableRecord
100
AcDbViewportTableRecord
  2
*Active
 70
     0
 10
0.0
 20
0.0
 11
1.0
 21
1.0
 12
149.9188593548399
 22
129.0736760972808
 13
0.0
 23
0.0
 14
0.5
 24
0.5
 15
0.5
 25
0.5
 16
0.0
 26
0.0
 36
1.0
 17
0.0
 27
0.0
 37
0.0
 40
94.88334960301758
 41
1.60267857142857
 42
50.0
 43
0.0
 44
0.0
 50
0.0
 51
0.0
 71
     0
 72
   100
 73
     1
 74
     3
 75
     0
 76
     0
 77
     0
 78
     0
281
     0
 65
     1
110
0.0
120
0.0
130
0.0
111
1.0
121
0.0
131
0.0
112
0.0
122
1.0
132
0.0
 79
     0
146
0.0
  0
ENDTAB
  0
TABLE
  2
LTYPE
  5
5
330
0
100
AcDbSymbolTable
 70
     8
  0
LTYPE
  5
14
330
5
100
AcDbSymbolTableRecord
100
AcDbLinetypeTableRecord
  2
ByBlock
 70
     0
  3

 72
    65
 73
     0
 40
0.0
  0
LTYPE
  5
15
330
5
100
AcDbSymbolTableRecord
100
AcDbLinetypeTableRecord
  2
ByLayer
 70
     0
  3

 72
    65
 73
     0
 40
0.0
  0
LTYPE
  5
16
330
5
100
AcDbSymbolTableRecord
100
AcDbLinetypeTableRecord
  2
Continuous
 70
     0
  3
Solid line
 72
    65
 73
     0
 40
0.0
  0
LTYPE
  5
2A
330
5
100
AcDbSymbolTableRecord
100
AcDbLinetypeTableRecord
  2
DASHED
 70
     0
  3
Dashed
 72
    65
 73
     2
 40
15.0
 49
7.0
 74
     0
 49
-8.0
 74
     0
  0
LTYPE
  5
2B
330
5
100
AcDbSymbolTableRecord
100
AcDbLinetypeTableRecord
  2
DOTTED
 70
     0
  3
Dotted
 72
    65
 73
     2
 40
1.0
 49
0.0
 74
     0
 49
-1.0
 74
     0
  0
LTYPE
  5
2C
330
5
100
AcDbSymbolTableRecord
100
AcDbLinetypeTableRecord
  2
DOT_CENTER
 70
     0
  3
Dot_Center
 72
    65
 73
     4
 40
14.0
 49
12.0
 74
     0
 49
-1.0
 74
     0
 49
0.0
 74
     0
 49
-1.0
 74
     0
  0
LTYPE
  5
2D
330
5
100
AcDbSymbolTableRecord
100
AcDbLinetypeTableRecord
  2
LONG_DASHED
 70
     0
  3
Long_Dashed
 72
    65
 73
     2
 40
15.0
 49
10.0
 74
     0
 49
-5.0
 74
     0
  0
LTYPE
  5
2E
330
5
100
AcDbSymbolTableRecord
100
AcDbLinetypeTableRecord
  2
DASH_CENTER
 70
     0
  3
Dash_Center
 72
    65
 73
     4
 40
14.0
 49
11.0
 74
     0
 49
-1.0
 74
     0
 49
1.0
 74
     0
 49
-1.0
 74
     0
  0
LTYPE
  5
2F
330
5
100
AcDbSymbolTableRecord
100
AcDbLinetypeTableRecord
  2
PHANTOM
 70
     0
  3
Phantom
 72
    65
 73
     6
 40
13.0
 49
10.0
 74
     0
 49
-1.0
 74
     0
 49
0.0
 74
     0
 49
-1.0
 74
     0
 49
0.0
 74
     0
 49
-1.0
 74
     0
  0
LTYPE
  5
30
330
5
100
AcDbSymbolTableRecord
100
AcDbLinetypeTableRecord
  2
CENTER_DASH_DASH
 70
     0
  3
Center_Dash_Dash
 72
    65
 73
     6
 40
14.0
 49
9.0
 74
     0
 49
-1.0
 74
     0
 49
1.0
 74
     0
 49
-1.0
 74
     0
 49
1.0
 74
     0
 49
-1.0
 74
     0
  0
ENDTAB
  0
TABLE
  2
LAYER
  5
2
330
0
100
AcDbSymbolTable
 70
     2
  0
LAYER
  5
10
330
2
100
AcDbSymbolTableRecord
100
AcDbLayerTableRecord
  2
0
 70
     0
 62
     7
  6
Continuous
370
    -3
390
F
  0
LAYER
  5
31
330
2
100
AcDbSymbolTableRecord
100
AcDbLayerTableRecord
  2
1
 70
     0
 62
     7
  6
Continuous
370
    -3
390
F
  0
ENDTAB
  0
TABLE
  2
STYLE
  5
3
330
0
100
AcDbSymbolTable
 70
     2
  0
STYLE
  5
11
330
3
100
AcDbSymbolTableRecord
100
AcDbTextStyleTableRecord
  2
Standard
 70
     0
 40
0.0
 41
1.0
 50
0.0
 71
     0
 42
0.2
  3
txt
  4

  0
STYLE
  5
104
330
3
100
AcDbSymbolTableRecord
100
AcDbTextStyleTableRecord
  2
CONVERTER_11
 70
     0
 40
0.0
 41
0.9
 50
0.0
 71
     0
 42
0.2
  3
txt.shx
  4

  0
ENDTAB
  0
TABLE
  2
VIEW
  5
6
330
0
100
AcDbSymbolTable
 70
     0
  0
ENDTAB
  0
TABLE
  2
UCS
  5
7
330
0
100
AcDbSymbolTable
 70
     0
  0
ENDTAB
  0
TABLE
  2
APPID
  5
9
330
0
100
AcDbSymbolTable
 70
     1
  0
APPID
  5
12
330
9
100
AcDbSymbolTableRecord
100
AcDbRegAppTableRecord
  2
ACAD
 70
     0
  0
ENDTAB
  0
TABLE
  2
DIMSTYLE
  5
A
330
0
100
AcDbSymbolTable
 70
    10
100
AcDbDimStyleTable
  0
DIMSTYLE
105
27
330
A
100
AcDbSymbolTableRecord
100
AcDbDimStyleTableRecord
  2
Standard
 70
     0
340
11
  0
DIMSTYLE
105
108
102
{ACAD_REACTORS
330
109
102
}
330
A
100
AcDbSymbolTableRecord
100
AcDbDimStyleTableRecord
  2
ME10_DIM_10
 70
     0
 41
3.5
 42
0.0
 44
2.0
 73
     0
 74
     0
 77
     1
 78
     8
140
3.5
147
2.0
172
     1
173
     1
176
     2
177
     2
178
     2
271
     3
340
104
  0
DIMSTYLE
105
113
102
{ACAD_REACTORS
330
114
102
}
330
A
100
AcDbSymbolTableRecord
100
AcDbDimStyleTableRecord
  2
ME10_DIM_11
 70
     0
 41
3.5
 42
0.0
 44
2.0
 73
     0
 74
     0
 77
     1
 78
     8
140
3.5
147
2.0
172
     1
173
     1
176
     2
177
     2
178
     2
271
     3
340
104
  0
DIMSTYLE
105
11E
102
{ACAD_REACTORS
330
11F
102
}
330
A
100
AcDbSymbolTableRecord
100
AcDbDimStyleTableRecord
  2
ME10_DIM_12
 70
     0
 41
3.5
 42
0.0
 44
2.0
 73
     0
 74
     0
 77
     1
 78
     8
140
3.5
147
2.0
172
     1
173
     1
176
     2
177
     2
178
     2
271
     3
340
104
  0
DIMSTYLE
105
129
102
{ACAD_REACTORS
330
12A
102
}
330
A
100
AcDbSymbolTableRecord
100
AcDbDimStyleTableRecord
  2
ME10_DIM_13
 70
     0
 41
3.5
 42
0.0
 44
2.0
 73
     0
 74
     0
 77
     1
 78
     8
140
3.5
147
2.0
172
     1
173
     1
176
     2
177
     2
178
     2
271
     3
340
104
  0
DIMSTYLE
105
136
102
{ACAD_REACTORS
330
137
102
}
330
A
100
AcDbSymbolTableRecord
100
AcDbDimStyleTableRecord
  2
ME10_DIM_14
 70
     0
 41
3.5
 42
0.0
 44
2.0
 73
     0
 74
     0
 77
     1
 78
     8
140
3.5
147
2.0
172
     1
173
     1
176
     2
177
     2
178
     2
271
     3
340
104
  0
DIMSTYLE
105
141
102
{ACAD_REACTORS
330
142
102
}
330
A
100
AcDbSymbolTableRecord
100
AcDbDimStyleTableRecord
  2
ME10_DIM_15
 70
     0
 41
3.5
 42
0.0
 44
2.0
 73
     0
 74
     0
 77
     1
 78
     8
140
3.5
147
2.0
172
     1
173
     1
176
     2
177
     2
178
     2
271
     3
340
104
  0
DIMSTYLE
105
14E
102
{ACAD_REACTORS
330
14F
102
}
330
A
100
AcDbSymbolTableRecord
100
AcDbDimStyleTableRecord
  2
ME10_DIM_16
 70
     0
 41
3.5
 42
0.0
 44
2.0
 73
     0
 74
     0
 77
     1
 78
     8
140
3.5
147
2.0
172
     1
173
     1
176
     2
177
     2
178
     2
271
     3
340
104
  0
DIMSTYLE
105
159
102
{ACAD_REACTORS
330
15A
102
}
330
A
100
AcDbSymbolTableRecord
100
AcDbDimStyleTableRecord
  2
ME10_DIM_17
 70
     0
 41
3.5
 42
0.0
 44
2.0
 73
     0
 74
     0
 77
     1
 78
     8
140
3.5
147
2.0
172
     1
173
     1
176
     2
177
     2
178
     2
271
     3
340
104
  0
DIMSTYLE
105
166
102
{ACAD_REACTORS
330
167
102
}
330
A
100
AcDbSymbolTableRecord
100
AcDbDimStyleTableRecord
  2
ME10_DIM_18
 70
     0
 41
3.5
 42
0.0
 44
2.0
 73
     0
 74
     0
 77
     1
 78
     8
140
3.5
147
2.0
172
     1
173
     1
176
     2
177
     2
178
     2
271
     3
340
104
  0
ENDTAB
  0
TABLE
  2
BLOCK_RECORD
  5
1
330
0
100
AcDbSymbolTable
 70
    10
  0
BLOCK_RECORD
  5
1F
330
1
100
AcDbSymbolTableRecord
100
AcDbBlockTableRecord
  2
*Model_Space
340
22
  0
BLOCK_RECORD
  5
1B
330
1
100
AcDbSymbolTableRecord
100
AcDbBlockTableRecord
  2
*Paper_Space
340
1E
  0
BLOCK_RECORD
  5
23
330
1
100
AcDbSymbolTableRecord
100
AcDbBlockTableRecord
  2
*Paper_Space0
340
26
  0
BLOCK_RECORD
  5
FE
330
1
100
AcDbSymbolTableRecord
100
AcDbBlockTableRecord
  2
*D1
340
0
  0
BLOCK_RECORD
  5
10A
330
1
100
AcDbSymbolTableRecord
100
AcDbBlockTableRecord
  2
*D2
340
0
  0
BLOCK_RECORD
  5
115
330
1
100
AcDbSymbolTableRecord
100
AcDbBlockTableRecord
  2
*D3
340
0
  0
BLOCK_RECORD
  5
120
330
1
100
AcDbSymbolTableRecord
100
AcDbBlockTableRecord
  2
*D4
340
0
  0
BLOCK_RECORD
  5
12B
330
1
100
AcDbSymbolTableRecord
100
AcDbBlockTableRecord
  2
*D5
340
0
  0
BLOCK_RECORD
  5
138
330
1
100
AcDbSymbolTableRecord
100
AcDbBlockTableRecord
  2
*D6
340
0
  0
BLOCK_RECORD
  5
143
330
1
100
AcDbSymbolTableRecord
100
AcDbBlockTableRecord
  2
*D7
340
0
  0
BLOCK_RECORD
  5
150
330
1
100
AcDbSymbolTableRecord
100
AcDbBlockTableRecord
  2
*D8
340
0
  0
BLOCK_RECORD
  5
15B
330
1
100
AcDbSymbolTableRecord
100
AcDbBlockTableRecord
  2
*D9
340
0
  0
ENDTAB
  0
ENDSEC
  0
SECTION
  2
BLOCKS
  0
BLOCK
  5
20
330
1F
100
AcDbEntity
  8
0
100
AcDbBlockBegin
  2
*Model_Space
 70
     0
 71
     0
 10
0.0
 20
0.0
 30
0.0
  3
*Model_Space
  1

  0
ENDBLK
  5
21
330
1F
100
AcDbEntity
  8
0
100
AcDbBlockEnd
  0
BLOCK
  5
1C
330
1B
100
AcDbEntity
 67
     1
  8
0
100
AcDbBlockBegin
  2
*Paper_Space
 70
     0
 71
     0
 10
0.0
 20
0.0
 30
0.0
  3
*Paper_Space
  1

  0
ENDBLK
  5
1D
330
1B
100
AcDbEntity
 67
     1
  8
0
100
AcDbBlockEnd
  0
BLOCK
  5
24
330
23
100
AcDbEntity
  8
0
100
AcDbBlockBegin
  2
*Paper_Space0
 70
     0
 71
     0
 10
0.0
 20
0.0
 30
0.0
  3
*Paper_Space0
  1

  0
ENDBLK
  5
25
330
23
100
AcDbEntity
  8
0
100
AcDbBlockEnd
  0
BLOCK
  5
106
330
FE
100
AcDbEntity
  8
0
100
AcDbBlockBegin
  2
*D1
 70
     1
 71
     0
 10
0.0
 20
0.0
 30
0.0
  3
*D1
  1

  0
LINE
  5
FF
330
FE
100
AcDbEntity
  8
1
  6
Continuous
 62
     2
100
AcDbLine
 10
206.955044123684
 20
126.3107405160554
 30
0.0
 11
206.955044123684
 21
110.3107405160554
 31
0.0
  0
LINE
  5
100
330
FE
100
AcDbEntity
  8
1
  6
Continuous
 62
     2
100
AcDbLine
 10
177.0189224928618
 20
110.3107405160554
 30
0.0
 11
208.955044123684
 21
110.3107405160554
 31
0.0
  0
LINE
  5
101
330
FE
100
AcDbEntity
  8
1
  6
Continuous
 62
     2
100
AcDbLine
 10
179.0115678608418
 20
126.3107405160554
 30
0.0
 11
208.955044123684
 21
126.3107405160554
 31
0.0
  0
SOLID
  5
102
330
FE
100
AcDbEntity
  8
1
 62
     2
100
AcDbTrace
 10
207.4158278652399
 20
122.8107405160554
 30
0.0
 11
206.4942603821281
 21
122.8107405160554
 31
0.0
 12
206.955044123684
 22
126.3107405160554
 32
0.0
 13
206.955044123684
 23
126.3107405160554
 33
0.0
  0
SOLID
  5
103
330
FE
100
AcDbEntity
  8
1
 62
     2
100
AcDbTrace
 10
206.4942603821281
 20
113.8107405160554
 30
0.0
 11
207.4158278652399
 21
113.8107405160554
 31
0.0
 12
206.955044123684
 22
110.3107405160554
 32
0.0
 13
206.955044123684
 23
110.3107405160554
 33
0.0
  0
MTEXT
  5
105
330
FE
100
AcDbEntity
  8
1
 62
     2
100
AcDbMText
 10
204.955044123684
 20
116.386679277691
 30
0.0
 40
3.5
 41
0.0
 71
     7
 72
     1
  1
16
  7
CONVERTER_11
 11
0.0
 21
1.0
 31
0.0
 73
     1
 44
0.60024009603842
  0
ENDBLK
  5
107
330
FE
100
AcDbEntity
  8
0
100
AcDbBlockEnd
  0
BLOCK
  5
111
330
10A
100
AcDbEntity
  8
0
100
AcDbBlockBegin
  2
*D2
 70
     1
 71
     0
 10
0.0
 20
0.0
 30
0.0
  3
*D2
  1

  0
LINE
  5
10B
330
10A
100
AcDbEntity
  8
1
  6
Continuous
 62
     2
100
AcDbLine
 10
95.2452781236282
 20
128.3107405160554
 30
0.0
 11
95.2452781236282
 21
110.310375533998
 31
0.0
  0
LINE
  5
10C
330
10A
100
AcDbEntity
  8
1
  6
Continuous
 62
     2
100
AcDbLine
 10
125.0119847729802
 20
110.310375533998
 30
0.0
 11
93.2452781236282
 21
110.310375533998
 31
0.0
  0
LINE
  5
10D
330
10A
100
AcDbEntity
  8
1
  6
Continuous
 62
     2
100
AcDbLine
 10
125.0119847729802
 20
128.3107405160554
 30
0.0
 11
93.2452781236282
 21
128.3107405160554
 31
0.0
  0
SOLID
  5
10E
330
10A
100
AcDbEntity
  8
1
 62
     2
100
AcDbTrace
 10
95.70606186518408
 20
124.8107405160554
 30
0.0
 11
94.78449438207231
 21
124.8107405160554
 31
0.0
 12
95.2452781236282
 22
128.3107405160554
 32
0.0
 13
95.2452781236282
 23
128.3107405160554
 33
0.0
  0
SOLID
  5
10F
330
10A
100
AcDbEntity
  8
1
 62
     2
100
AcDbTrace
 10
94.78449438207231
 20
113.810375533998
 30
0.0
 11
95.70606186518408
 21
113.810375533998
 31
0.0
 12
95.2452781236282
 22
110.310375533998
 32
0.0
 13
95.2452781236282
 23
110.310375533998
 33
0.0
  0
MTEXT
  5
110
330
10A
100
AcDbEntity
  8
1
 62
     2
100
AcDbMText
 10
93.2452781236282
 20
116.514768487633
 30
0.0
 40
3.5
 41
0.0
 71
     7
 72
     1
  1
18
  7
CONVERTER_11
 11
0.0
 21
1.0
 31
0.0
 73
     1
 44
0.60024009603842
  0
ENDBLK
  5
112
330
10A
100
AcDbEntity
  8
0
100
AcDbBlockEnd
  0
BLOCK
  5
11C
330
115
100
AcDbEntity
  8
0
100
AcDbBlockBegin
  2
*D3
 70
     1
 71
     0
 10
0.0
 20
0.0
 30
0.0
  3
*D3
  1

  0
LINE
  5
116
330
115
100
AcDbEntity
  8
1
  6
Continuous
 62
     2
100
AcDbLine
 10
152.0119847742
 20
94.2710949141387
 30
0.0
 11
179.0115678608418
 21
94.2710949141387
 31
0.0
  0
LINE
  5
117
330
115
100
AcDbEntity
  8
1
  6
Continuous
 62
     2
100
AcDbLine
 10
179.0115678608418
 20
111.0359805680346
 30
0.0
 11
179.0115678608418
 21
92.2710949141387
 31
0.0
  0
LINE
  5
118
330
115
100
AcDbEntity
  8
1
  6
Continuous
 62
     2
100
AcDbLine
 10
152.0119847742
 20
104.3107405161
 30
0.0
 11
152.0119847742
 21
92.2710949141387
 31
0.0
  0
SOLID
  5
119
330
115
100
AcDbEntity
  8
1
 62
     2
100
AcDbTrace
 10
155.5119847742
 20
94.73187865569459
 30
0.0
 11
155.5119847742
 21
93.81031117258281
 31
0.0
 12
152.0119847742
 22
94.2710949141387
 32
0.0
 13
152.0119847742
 23
94.2710949141387
 33
0.0
  0
SOLID
  5
11A
330
115
100
AcDbEntity
  8
1
 62
     2
100
AcDbTrace
 10
175.5115678608418
 20
93.81031117258281
 30
0.0
 11
175.5115678608418
 21
94.73187865569459
 31
0.0
 12
179.0115678608418
 22
94.2710949141387
 32
0.0
 13
179.0115678608418
 23
94.2710949141387
 33
0.0
  0
MTEXT
  5
11B
330
115
100
AcDbEntity
  8
1
 62
     2
100
AcDbMText
 10
162.849135876456
 20
96.2710949141387
 30
0.0
 40
3.5
 41
0.0
 71
     7
 72
     1
  1
27
  7
CONVERTER_11
 11
0.9999999999970621
 21
2.424068405545307E-6
 31
0.0
 73
     1
 44
0.60024009603842
  0
ENDBLK
  5
11D
330
115
100
AcDbEntity
  8
0
100
AcDbBlockEnd
  0
BLOCK
  5
127
330
120
100
AcDbEntity
  8
0
100
AcDbBlockBegin
  2
*D4
 70
     1
 71
     0
 10
0.0
 20
0.0
 30
0.0
  3
*D4
  1

  0
LINE
  5
121
330
120
100
AcDbEntity
  8
1
  6
Continuous
 62
     2
100
AcDbLine
 10
125.0119847729802
 20
94.2710949141387
 30
0.0
 11
149.0119847742
 21
94.2710949141387
 31
0.0
  0
LINE
  5
122
330
120
100
AcDbEntity
  8
1
  6
Continuous
 62
     2
100
AcDbLine
 10
149.0119847742
 20
104.3107405161
 30
0.0
 11
149.0119847742
 21
92.2710949141387
 31
0.0
  0
LINE
  5
123
330
120
100
AcDbEntity
  8
1
  6
Continuous
 62
     2
100
AcDbLine
 10
125.0119847729802
 20
111.1606406578794
 30
0.0
 11
125.0119847729802
 21
92.2710949141387
 31
0.0
  0
SOLID
  5
124
330
120
100
AcDbEntity
  8
1
 62
     2
100
AcDbTrace
 10
128.5119847729802
 20
94.73187865569459
 30
0.0
 11
128.5119847729802
 21
93.81031117258281
 31
0.0
 12
125.0119847729802
 22
94.2710949141387
 32
0.0
 13
125.0119847729802
 23
94.2710949141387
 33
0.0
  0
SOLID
  5
125
330
120
100
AcDbEntity
  8
1
 62
     2
100
AcDbTrace
 10
145.5119847742
 20
93.81031117258281
 30
0.0
 11
145.5119847742
 21
94.73187865569459
 31
0.0
 12
149.0119847742
 22
94.2710949141387
 32
0.0
 13
149.0119847742
 23
94.2710949141387
 33
0.0
  0
MTEXT
  5
126
330
120
100
AcDbEntity
  8
1
 62
     2
100
AcDbMText
 10
135.559735821977
 20
96.2710949141387
 30
0.0
 40
3.5
 41
0.0
 71
     7
 72
     1
  1
24
  7
CONVERTER_11
 11
0.9999999999970621
 21
2.424068405545307E-6
 31
0.0
 73
     1
 44
0.60024009603842
  0
ENDBLK
  5
128
330
120
100
AcDbEntity
  8
0
100
AcDbBlockEnd
  0
BLOCK
  5
134
330
12B
100
AcDbEntity
  8
0
100
AcDbBlockBegin
  2
*D5
 70
     1
 71
     0
 10
0.0
 20
0.0
 30
0.0
  3
*D5
  1

  0
LINE
  5
12C
330
12B
100
AcDbEntity
  8
1
  6
Continuous
 62
     2
100
AcDbLine
 10
142.0119847742
 20
94.2710949141387
 30
0.0
 11
149.0119847742
 21
94.2710949141387
 31
0.0
  0
LINE
  5
12D
330
12B
100
AcDbEntity
  8
1
  6
Continuous
 62
     2
100
AcDbLine
 10
149.0119847742
 20
94.2710949141387
 30
0.0
 11
152.0119847742
 21
94.2710949141387
 31
0.0
  0
LINE
  5
12E
330
12B
100
AcDbEntity
  8
1
  6
Continuous
 62
     2
100
AcDbLine
 10
152.0119847742
 20
94.2710949141387
 30
0.0
 11
159.0119847742
 21
94.2710949141387
 31
0.0
  0
LINE
  5
12F
330
12B
100
AcDbEntity
  8
1
  6
Continuous
 62
     2
100
AcDbLine
 10
149.0119847742
 20
104.3107405161
 30
0.0
 11
149.0119847742
 21
92.2710949141387
 31
0.0
  0
LINE
  5
130
330
12B
100
AcDbEntity
  8
1
  6
Continuous
 62
     2
100
AcDbLine
 10
152.0119847742
 20
104.3107405161
 30
0.0
 11
152.0119847742
 21
92.2710949141387
 31
0.0
  0
SOLID
  5
131
330
12B
100
AcDbEntity
  8
1
 62
     2
100
AcDbTrace
 10
145.5119847742
 20
93.81031117258281
 30
0.0
 11
145.5119847742
 21
94.73187865569459
 31
0.0
 12
149.0119847742
 22
94.2710949141387
 32
0.0
 13
149.0119847742
 23
94.2710949141387
 33
0.0
  0
SOLID
  5
132
330
12B
100
AcDbEntity
  8
1
 62
     2
100
AcDbTrace
 10
155.5119847742
 20
94.73187865569459
 30
0.0
 11
155.5119847742
 21
93.81031117258281
 31
0.0
 12
152.0119847742
 22
94.2710949141387
 32
0.0
 13
152.0119847742
 23
94.2710949141387
 33
0.0
  0
MTEXT
  5
133
330
12B
100
AcDbEntity
  8
1
 62
     2
100
AcDbMText
 10
149.525608872757
 20
96.2710949141387
 30
0.0
 40
3.5
 41
0.0
 71
     7
 72
     1
  1
3
  7
CONVERTER_11
 11
0.9999999999970621
 21
2.424068405545307E-6
 31
0.0
 73
     1
 44
0.60024009603842
  0
ENDBLK
  5
135
330
12B
100
AcDbEntity
  8
0
100
AcDbBlockEnd
  0
BLOCK
  5
13F
330
138
100
AcDbEntity
  8
0
100
AcDbBlockBegin
  2
*D6
 70
     1
 71
     0
 10
0.0
 20
0.0
 30
0.0
  3
*D6
  1

  0
LINE
  5
139
330
138
100
AcDbEntity
  8
1
  6
Continuous
 62
     2
100
AcDbLine
 10
217.040455352168
 20
126.3107405160554
 30
0.0
 11
217.040455352168
 21
108.3107405160554
 31
0.0
  0
LINE
  5
13A
330
138
100
AcDbEntity
  8
1
  6
Continuous
 62
     2
100
AcDbLine
 10
162.014082223177
 20
108.3107405160554
 30
0.0
 11
219.040455352168
 21
108.3107405160554
 31
0.0
  0
LINE
  5
13B
330
138
100
AcDbEntity
  8
1
  6
Continuous
 62
     2
100
AcDbLine
 10
176.2186765521765
 20
126.3107405160554
 30
0.0
 11
219.040455352168
 21
126.3107405160554
 31
0.0
  0
SOLID
  5
13C
330
138
100
AcDbEntity
  8
1
 62
     2
100
AcDbTrace
 10
217.5012390937239
 20
122.8107405160554
 30
0.0
 11
216.5796716106121
 21
122.8107405160554
 31
0.0
 12
217.040455352168
 22
126.3107405160554
 32
0.0
 13
217.040455352168
 23
126.3107405160554
 33
0.0
  0
SOLID
  5
13D
330
138
100
AcDbEntity
  8
1
 62
     2
100
AcDbTrace
 10
216.5796716106121
 20
111.8107405160554
 30
0.0
 11
217.5012390937239
 21
111.8107405160554
 31
0.0
 12
217.040455352168
 22
108.3107405160554
 32
0.0
 13
217.040455352168
 23
108.3107405160554
 33
0.0
  0
MTEXT
  5
13E
330
138
100
AcDbEntity
  8
1
 62
     2
100
AcDbMText
 10
215.040455352168
 20
114.079000437275
 30
0.0
 40
3.5
 41
0.0
 71
     7
 72
     1
  1
18
  7
CONVERTER_11
 11
0.0
 21
1.0
 31
0.0
 73
     1
 44
0.60024009603842
  0
ENDBLK
  5
140
330
138
100
AcDbEntity
  8
0
100
AcDbBlockEnd
  0
BLOCK
  5
14C
330
143
100
AcDbEntity
  8
0
100
AcDbBlockBegin
  2
*D7
 70
     1
 71
     0
 10
0.0
 20
0.0
 30
0.0
  3
*D7
  1

  0
LINE
  5
144
330
143
100
AcDbEntity
  8
1
  6
Continuous
 62
     2
100
AcDbLine
 10
217.040455352168
 20
104.3107405161
 30
0.0
 11
217.040455352168
 21
97.31074051610001
 31
0.0
  0
LINE
  5
145
330
143
100
AcDbEntity
  8
1
  6
Continuous
 62
     2
100
AcDbLine
 10
217.040455352168
 20
108.3107405160554
 30
0.0
 11
217.040455352168
 21
104.3107405161
 31
0.0
  0
LINE
  5
146
330
143
100
AcDbEntity
  8
1
  6
Continuous
 62
     2
100
AcDbLine
 10
217.040455352168
 20
115.3107405160554
 30
0.0
 11
217.040455352168
 21
108.3107405160554
 31
0.0
  0
LINE
  5
147
330
143
100
AcDbEntity
  8
1
  6
Continuous
 62
     2
100
AcDbLine
 10
197.0119847742002
 20
104.3107405161
 30
0.0
 11
219.040455352168
 21
104.3107405161
 31
0.0
  0
LINE
  5
148
330
143
100
AcDbEntity
  8
1
  6
Continuous
 62
     2
100
AcDbLine
 10
162.014082223177
 20
108.3107405160554
 30
0.0
 11
219.040455352168
 21
108.3107405160554
 31
0.0
  0
SOLID
  5
149
330
143
100
AcDbEntity
  8
1
 62
     2
100
AcDbTrace
 10
216.5796716106121
 20
111.8107405160554
 30
0.0
 11
217.5012390937239
 21
111.8107405160554
 31
0.0
 12
217.040455352168
 22
108.3107405160554
 32
0.0
 13
217.040455352168
 23
108.3107405160554
 33
0.0
  0
SOLID
  5
14A
330
143
100
AcDbEntity
  8
1
 62
     2
100
AcDbTrace
 10
217.5012390937239
 20
100.8107405161
 30
0.0
 11
216.5796716106121
 21
100.8107405161
 31
0.0
 12
217.040455352168
 22
104.3107405161
 32
0.0
 13
217.040455352168
 23
104.3107405161
 33
0.0
  0
MTEXT
  5
14B
330
143
100
AcDbEntity
  8
1
 62
     2
100
AcDbMText
 10
215.040455352168
 20
105.2607405160777
 30
0.0
 40
3.5
 41
0.0
 71
     7
 72
     1
  1
4
  7
CONVERTER_11
 11
0.0
 21
1.0
 31
0.0
 73
     1
 44
0.60024009603842
  0
ENDBLK
  5
14D
330
143
100
AcDbEntity
  8
0
100
AcDbBlockEnd
  0
BLOCK
  5
157
330
150
100
AcDbEntity
  8
0
100
AcDbBlockBegin
  2
*D8
 70
     1
 71
     0
 10
0.0
 20
0.0
 30
0.0
  3
*D8
  1

  0
LINE
  5
151
330
150
100
AcDbEntity
  8
1
  6
Continuous
 62
     2
100
AcDbLine
 10
86.2972633575118
 20
128.3107405160554
 30
0.0
 11
86.2972633575118
 21
107.3107405160554
 31
0.0
  0
LINE
  5
152
330
150
100
AcDbEntity
  8
1
  6
Continuous
 62
     2
100
AcDbLine
 10
125.0119847729802
 20
128.3107405160554
 30
0.0
 11
84.2972633575118
 21
128.3107405160554
 31
0.0
  0
LINE
  5
153
330
150
100
AcDbEntity
  8
1
  6
Continuous
 62
     2
100
AcDbLine
 10
140.9104942381382
 20
107.3107405160554
 30
0.0
 11
84.2972633575118
 21
107.3107405160554
 31
0.0
  0
SOLID
  5
154
330
150
100
AcDbEntity
  8
1
 62
     2
100
AcDbTrace
 10
86.75804709906768
 20
124.8107405160554
 30
0.0
 11
85.83647961595591
 21
124.8107405160554
 31
0.0
 12
86.2972633575118
 22
128.3107405160554
 32
0.0
 13
86.2972633575118
 23
128.3107405160554
 33
0.0
  0
SOLID
  5
155
330
150
100
AcDbEntity
  8
1
 62
     2
100
AcDbTrace
 10
85.83647961595591
 20
110.8107405160554
 30
0.0
 11
86.75804709906768
 21
110.8107405160554
 31
0.0
 12
86.2972633575118
 22
107.3107405160554
 32
0.0
 13
86.2972633575118
 23
107.3107405160554
 33
0.0
  0
MTEXT
  5
156
330
150
100
AcDbEntity
  8
1
 62
     2
100
AcDbMText
 10
84.2972633575118
 20
116.20361476238
 30
0.0
 40
3.5
 41
0.0
 71
     7
 72
     1
  1
21
  7
CONVERTER_11
 11
0.0
 21
1.0
 31
0.0
 73
     1
 44
0.60024009603842
  0
ENDBLK
  5
158
330
150
100
AcDbEntity
  8
0
100
AcDbBlockEnd
  0
BLOCK
  5
164
330
15B
100
AcDbEntity
  8
0
100
AcDbBlockBegin
  2
*D9
 70
     1
 71
     0
 10
0.0
 20
0.0
 30
0.0
  3
*D9
  1

  0
LINE
  5
15C
330
15B
100
AcDbEntity
  8
1
  6
Continuous
 62
     2
100
AcDbLine
 10
86.2972633575118
 20
114.3107405160554
 30
0.0
 11
86.2972633575118
 21
107.3107405160554
 31
0.0
  0
LINE
  5
15D
330
15B
100
AcDbEntity
  8
1
  6
Continuous
 62
     2
100
AcDbLine
 10
86.2972633575118
 20
107.3107405160554
 30
0.0
 11
86.2972633575118
 21
104.3107405161
 31
0.0
  0
LINE
  5
15E
330
15B
100
AcDbEntity
  8
1
  6
Continuous
 62
     2
100
AcDbLine
 10
86.2972633575118
 20
104.3107405161
 30
0.0
 11
86.2972633575118
 21
97.3107405161
 31
0.0
  0
LINE
  5
15F
330
15B
100
AcDbEntity
  8
1
  6
Continuous
 62
     2
100
AcDbLine
 10
140.9104942381382
 20
107.3107405160554
 30
0.0
 11
84.2972633575118
 21
107.3107405160554
 31
0.0
  0
LINE
  5
160
330
15B
100
AcDbEntity
  8
1
  6
Continuous
 62
     2
100
AcDbLine
 10
149.0119847742
 20
104.3107405161
 30
0.0
 11
84.2972633575118
 21
104.3107405161
 31
0.0
  0
SOLID
  5
161
330
15B
100
AcDbEntity
  8
1
 62
     2
100
AcDbTrace
 10
85.83647961595591
 20
110.8107405160554
 30
0.0
 11
86.75804709906768
 21
110.8107405160554
 31
0.0
 12
86.2972633575118
 22
107.3107405160554
 32
0.0
 13
86.2972633575118
 23
107.3107405160554
 33
0.0
  0
SOLID
  5
162
330
15B
100
AcDbEntity
  8
1
 62
     2
100
AcDbTrace
 10
86.75804709906768
 20
100.8107405161
 30
0.0
 11
85.83647961595591
 21
100.8107405161
 31
0.0
 12
86.2972633575118
 22
104.3107405161
 32
0.0
 13
86.2972633575118
 23
104.3107405161
 33
0.0
  0
MTEXT
  5
163
330
15B
100
AcDbEntity
  8
1
 62
     2
100
AcDbMText
 10
84.2972633575118
 20
104.7607405160777
 30
0.0
 40
3.5
 41
0.0
 71
     7
 72
     1
  1
3
  7
CONVERTER_11
 11
0.0
 21
1.0
 31
0.0
 73
     1
 44
0.60024009603842
  0
ENDBLK
  5
165
330
15B
100
AcDbEntity
  8
0
100
AcDbBlockEnd
  0
ENDSEC
  0
SECTION
  2
ENTITIES
  0
POINT
  5
32
330
1F
100
AcDbEntity
  8
1
 62
     3
 60
     1
100
AcDbPoint
 10
152.0119847742002
 20
128.3107405161
 30
0.0
  0
POINT
  5
33
330
1F
100
AcDbEntity
  8
1
 62
     3
 60
     1
100
AcDbPoint
 10
161.5119847742003
 20
128.3107405161
 30
0.0
  0
POINT
  5
34
330
1F
100
AcDbEntity
  8
1
 62
     3
 60
     1
100
AcDbPoint
 10
165.0119847742003
 20
128.3107405161
 30
0.0
  0
POINT
  5
35
330
1F
100
AcDbEntity
  8
1
 62
     3
 60
     1
100
AcDbPoint
 10
165.0119847742003
 20
144.3107405161
 30
0.0
  0
LINE
  5
36
330
1F
100
AcDbEntity
  8
1
  6
DOT_CENTER
 62
     2
100
AcDbLine
 10
131.0119847742
 20
123.3107402013895
 30
0.0
 11
131.0119847742
 21
113.7107408308105
 31
0.0
  0
LINE
  5
37
330
1F
100
AcDbEntity
  8
1
  6
DOT_CENTER
 62
     2
100
AcDbLine
 10
135.8119844594895
 20
118.5107405161
 30
0.0
 11
126.2119850889105
 21
118.5107405161
 31
0.0
  0
LINE
  5
38
330
1F
100
AcDbEntity
  8
1
  6
DOT_CENTER
 62
     2
100
AcDbLine
 10
155.5119847742
 20
116.3107405161
 30
0.0
 11
155.5119847742
 21
106.7107405161
 31
0.0
  0
LINE
  5
39
330
1F
100
AcDbEntity
  8
1
  6
DOT_CENTER
 62
     2
100
AcDbLine
 10
160.3119847742
 20
111.5107405161
 30
0.0
 11
150.7119847742
 21
111.5107405161
 31
0.0
  0
LINE
  5
3A
330
1F
100
AcDbEntity
  8
1
  6
DOT_CENTER
 62
     2
100
AcDbLine
 10
145.5119847742
 20
116.3107405161
 30
0.0
 11
145.5119847742
 21
106.7107405161
 31
0.0
  0
LINE
  5
3B
330
1F
100
AcDbEntity
  8
1
  6
DOT_CENTER
 62
     2
100
AcDbLine
 10
150.3119847742
 20
111.5107405161
 30
0.0
 11
140.7119847742
 21
111.5107405161
 31
0.0
  0
LINE
  5
3C
330
1F
100
AcDbEntity
  8
1
  6
DOT_CENTER
 62
     2
100
AcDbLine
 10
170.0119847742
 20
123.310740201406
 30
0.0
 11
170.0119847742
 21
113.710740830794
 31
0.0
  0
LINE
  5
3D
330
1F
100
AcDbEntity
  8
1
  6
DOT_CENTER
 62
     2
100
AcDbLine
 10
174.811984459506
 20
118.5107405161
 30
0.0
 11
165.211985088894
 21
118.5107405161
 31
0.0
  0
LINE
  5
3E
330
1F
100
AcDbEntity
  8
1
  6
DOT_CENTER
 62
     2
100
AcDbLine
 10
150.5119847742
 20
129.4107405804366
 30
0.0
 11
150.5119847742
 21
117.6107404517635
 31
0.0
  0
LINE
  5
3F
330
1F
100
AcDbEntity
  8
1
  6
DOT_CENTER
 62
     2
100
AcDbLine
 10
156.4119848385365
 20
123.5107405161
 30
0.0
 11
144.6119847098634
 21
123.5107405161
 31
0.0
  0
LINE
  5
40
330
1F
100
AcDbEntity
  8
0
  6
Continuous
 62
     7
100
AcDbLine
 10
162.014082223177
 20
110.3107405160554
 30
0.0
 11
177.0189224928618
 21
110.3107405160554
 31
0.0
  0
LINE
  5
41
330
1F
100
AcDbEntity
  8
1
  6
Continuous
 62
     7
100
AcDbLine
 10
179.0115678608418
 20
111.0359805680346
 30
0.0
 11
179.0115678608418
 21
110.3107405160554
 31
0.0
  0
LINE
  5
42
330
1F
100
AcDbEntity
  8
1
  6
Continuous
 62
     7
100
AcDbLine
 10
179.0115678608418
 20
125.0150967598893
 30
0.0
 11
179.0115678608418
 21
126.3107405160554
 31
0.0
  0
LINE
  5
43
330
1F
100
AcDbEntity
  8
1
  6
Continuous
 62
     7
100
AcDbLine
 10
177.0189224928618
 20
110.3107405160554
 30
0.0
 11
179.0115678608418
 21
110.3107405160554
 31
0.0
  0
LINE
  5
44
330
1F
100
AcDbEntity
  8
1
  6
Continuous
 62
     7
100
AcDbLine
 10
176.2186765521765
 20
126.3107405160554
 30
0.0
 11
179.0115678608418
 21
126.3107405160554
 31
0.0
  0
LINE
  5
45
330
1F
100
AcDbEntity
  8
1
  6
Continuous
 62
     7
100
AcDbLine
 10
153.0111780613661
 20
108.3107405160554
 30
0.0
 11
153.0111780613661
 21
109.8536449270323
 31
0.0
  0
LINE
  5
46
330
1F
100
AcDbEntity
  8
0
  6
Continuous
 62
     7
100
AcDbLine
 10
179.0115678608418
 20
111.0359805680346
 30
0.0
 11
179.0115678608418
 21
125.0150967598893
 31
0.0
  0
LINE
  5
47
330
1F
100
AcDbEntity
  8
0
  6
Continuous
 62
     7
100
AcDbLine
 10
174.0179544389248
 20
125.765338774072
 30
0.0
 11
177.0189224928618
 21
125.765338774072
 31
0.0
  0
LINE
  5
48
330
1F
100
AcDbEntity
  8
0
  6
Continuous
 62
     7
100
AcDbLine
 10
157.0124687999487
 20
125.5107405160088
 30
0.0
 11
157.0124687999487
 21
126.3107405160554
 31
0.0
  0
LINE
  5
49
330
1F
100
AcDbEntity
  8
0
  6
Continuous
 62
     7
100
AcDbLine
 10
168.3404527083039
 20
125.0150967598893
 30
0.0
 11
170.0166637003422
 21
125.0150967598893
 31
0.0
  0
LINE
  5
4A
330
1F
100
AcDbEntity
  8
0
  6
Continuous
 62
     7
100
AcDbLine
 10
152.0119847742
 20
126.3107405160554
 30
0.0
 11
176.2186765521765
 21
126.3107405160554
 31
0.0
  0
LINE
  5
4B
330
1F
100
AcDbEntity
  8
0
  6
Continuous
 62
     7
100
AcDbLine
 10
179.0115678608418
 20
125.0150967598893
 30
0.0
 11
177.0189224928618
 21
125.765338774072
 31
0.0
  0
LINE
  5
4C
330
1F
100
AcDbEntity
  8
0
  6
Continuous
 62
     7
100
AcDbLine
 10
174.0179544389248
 20
125.165139056975
 30
0.0
 11
178.1112835481763
 21
123.666570940055
 31
0.0
  0
LINE
  5
4D
330
1F
100
AcDbEntity
  8
0
  6
Continuous
 62
     7
100
AcDbLine
 10
178.1112835481763
 20
123.666570940055
 30
0.0
 11
178.1112835481763
 21
113.759093076922
 31
0.0
  0
LINE
  5
4E
330
1F
100
AcDbEntity
  8
0
  6
Continuous
 62
     7
100
AcDbLine
 10
176.2186765521765
 20
125.765338774072
 30
0.0
 11
176.2186765521765
 21
126.3107405160554
 31
0.0
  0
LINE
  5
4F
330
1F
100
AcDbEntity
  8
0
  6
Continuous
 62
     7
100
AcDbLine
 10
174.0179544389248
 20
125.765338774072
 30
0.0
 11
174.0179544389248
 21
125.165139056975
 31
0.0
  0
LINE
  5
50
330
1F
100
AcDbEntity
  8
0
  6
Continuous
 62
     7
100
AcDbLine
 10
162.014082223177
 20
110.3107405160554
 30
0.0
 11
162.014082223177
 21
108.3107405160554
 31
0.0
  0
LINE
  5
51
330
1F
100
AcDbEntity
  8
0
  6
Continuous
 62
     7
100
AcDbLine
 10
161.5139208808541
 20
110.3107405160554
 30
0.0
 11
161.5139208808541
 21
111.1606214710046
 31
0.0
  0
LINE
  5
52
330
1F
100
AcDbEntity
  8
0
  6
Continuous
 62
     7
100
AcDbLine
 10
153.0111780613661
 20
126.3107405160554
 30
0.0
 11
153.0111780613661
 21
125.5744572749827
 31
0.0
  0
LINE
  5
53
330
1F
100
AcDbEntity
  8
0
  6
Continuous
 62
     7
100
AcDbLine
 10
179.0115678608418
 20
111.0359805680346
 30
0.0
 11
177.0189224928618
 21
110.3107405160554
 31
0.0
  0
LINE
  5
54
330
1F
100
AcDbEntity
  8
0
  6
Continuous
 62
     7
100
AcDbLine
 10
178.1112835481763
 20
113.759093076922
 30
0.0
 11
172.891373872757
 21
111.860844298033
 31
0.0
  0
LINE
  5
55
330
1F
100
AcDbEntity
  8
0
  6
Continuous
 62
     7
100
AcDbLine
 10
175.0182771235704
 20
114.2116087118629
 30
0.0
 11
169.5165023580194
 21
112.0109018590301
 31
0.0
  0
LINE
  5
56
330
1F
100
AcDbEntity
  8
0
  6
Continuous
 62
     7
100
AcDbLine
 10
172.891373872757
 20
111.860844298033
 30
0.0
 11
162.2141589745879
 21
111.860844298033
 31
0.0
  0
LINE
  5
57
330
1F
100
AcDbEntity
  8
0
  6
Continuous
 62
     7
100
AcDbLine
 10
169.5165023580194
 20
112.0109018590301
 30
0.0
 11
159.5119847729802
 21
112.0109018590301
 31
0.0
  0
LINE
  5
58
330
1F
100
AcDbEntity
  8
0
  6
Continuous
 62
     7
100
AcDbLine
 10
174.0179544389248
 20
125.165139056975
 30
0.0
 11
167.9966499730945
 21
125.165139056975
 31
0.0
  0
LINE
  5
59
330
1F
100
AcDbEntity
  8
0
  6
Continuous
 62
     7
100
AcDbLine
 10
157.0124687999487
 20
125.765338774072
 30
0.0
 11
174.0179544389248
 21
125.765338774072
 31
0.0
  0
LINE
  5
5A
330
1F
100
AcDbEntity
  8
0
  6
Continuous
 62
     7
100
AcDbLine
 10
170.0166637003422
 20
125.0150967598893
 30
0.0
 11
175.0182771235704
 21
123.0144513910636
 31
0.0
  0
LINE
  5
5B
330
1F
100
AcDbEntity
  8
0
  6
Continuous
 62
     7
100
AcDbLine
 10
175.0182771235704
 20
123.0144513910636
 30
0.0
 11
175.0182771235704
 21
114.2116087118629
 31
0.0
  0
LINE
  5
5C
330
1F
100
AcDbEntity
  8
0
  6
Continuous
 62
     7
100
AcDbLine
 10
161.5139208808541
 20
110.3107405160554
 30
0.0
 11
162.014082223177
 21
110.3107405160554
 31
0.0
  0
LINE
  5
5D
330
1F
100
AcDbEntity
  8
1
  6
Continuous
 62
     7
100
AcDbLine
 10
158.5119847729802
 20
108.3107405160554
 30
0.0
 11
158.5119847729802
 21
111.0109018590301
 31
0.0
  0
LINE
  5
5E
330
1F
100
AcDbEntity
  8
0
  6
Continuous
 62
     7
100
AcDbLine
 10
162.014082223177
 20
108.3107405160554
 30
0.0
 11
152.0119847742
 21
108.3107405160554
 31
0.0
  0
LINE
  5
5F
330
1F
100
AcDbEntity
  8
0
  6
Continuous
 62
     7
100
AcDbLine
 10
152.0119847729802
 20
126.1010758099146
 30
0.0
 11
152.0119847729802
 21
126.3107405160554
 31
0.0
  0
LINE
  5
60
330
1F
100
AcDbEntity
  8
1
  6
DASHED
 62
     2
100
AcDbLine
 10
155.4489894136787
 20
116.5945421769284
 30
0.0
 11
156.8676979243755
 21
120.3949485199992
 31
0.0
  0
LINE
  5
61
330
1F
100
AcDbEntity
  8
0
  6
Continuous
 62
     7
100
AcDbLine
 10
173.4989166706801
 20
117.7480573109351
 30
0.0
 11
172.0752977207303
 21
121.5616176410113
 31
0.0
  0
LINE
  5
62
330
1F
100
AcDbEntity
  8
0
  6
Continuous
 62
     7
100
AcDbLine
 10
152.0119847729802
 20
108.3107405160554
 30
0.0
 11
152.0119847729802
 21
119.3616297109984
 31
0.0
  0
LINE
  5
63
330
1F
100
AcDbEntity
  8
0
  6
Continuous
 62
     7
100
AcDbLine
 10
147.5119847742
 20
125.5107405161
 30
0.0
 11
134.8539487742
 21
125.5107405161
 31
0.0
  0
LINE
  5
64
330
1F
100
AcDbEntity
  8
0
  6
Continuous
 62
     7
100
AcDbLine
 10
130.7572192889531
 20
123.3772379475852
 30
0.0
 11
128.5545287823
 21
120.2314695277
 31
0.0
  0
LINE
  5
65
330
1F
100
AcDbEntity
  8
0
  6
Continuous
 62
     7
100
AcDbLine
 10
133.966407767986
 20
119.031684905825
 30
0.0
 11
133.7315828389
 21
120.3634441494
 31
0.0
  0
LINE
  5
66
330
1F
100
AcDbEntity
  8
0
  6
Continuous
 62
     7
100
AcDbLine
 10
135.7011987742
 20
122.7107405161
 30
0.0
 11
145.2063606840611
 21
122.7107405161
 31
0.0
  0
LINE
  5
67
330
1F
100
AcDbEntity
  8
0
  6
Continuous
 62
     7
100
AcDbLine
 10
136.6119847742
 20
122.7107405161
 30
0.0
 11
139.4119847742
 21
125.5107405161
 31
0.0
  0
LINE
  5
68
330
1F
100
AcDbEntity
  8
0
  6
Continuous
 62
     7
100
AcDbLine
 10
151.5495219815
 20
119.476934607
 30
0.0
 11
153.107578357
 21
119.0884676202
 31
0.0
  0
LINE
  5
69
330
1F
100
AcDbEntity
  8
0
  6
Continuous
 62
     7
100
AcDbLine
 10
154.4363508225
 20
116.3026396197
 30
0.0
 11
152.7935651026205
 21
112.7796749072999
 31
0.0
  0
LINE
  5
6A
330
1F
100
AcDbEntity
  8
0
  6
Continuous
 62
     7
100
AcDbLine
 10
157.342832555
 20
120.9144647356
 30
0.0
 11
155.5656591498086
 21
122.6946834540882
 31
0.0
  0
LINE
  5
6B
330
1F
100
AcDbEntity
  8
1
  6
Continuous
 62
     7
100
AcDbLine
 10
158.5119847742
 20
112.5107405161
 30
0.0
 11
154.5176291167676
 21
116.5050961735324
 31
0.0
  0
LINE
  5
6C
330
1F
100
AcDbEntity
  8
0
  6
Continuous
 62
     7
100
AcDbLine
 10
158.5119847742
 20
111.5107405161
 30
0.0
 11
158.5119847742
 21
118.0884595161
 31
0.0
  0
LINE
  5
6D
330
1F
100
AcDbEntity
  8
0
  6
DASHED
 62
     2
100
AcDbLine
 10
155.5656591498086
 20
122.6946834540882
 30
0.0
 11
152.6351202348413
 21
125.6302440563587
 31
0.0
  0
LINE
  5
6E
330
1F
100
AcDbEntity
  8
0
  6
Continuous
 62
     7
100
AcDbLine
 10
146.5876187259
 20
116.3026396197
 30
0.0
 11
148.2314113181847
 21
112.7775156626321
 31
0.0
  0
LINE
  5
6F
330
1F
100
AcDbEntity
  8
0
  6
Continuous
 62
     7
100
AcDbLine
 10
143.6811369933
 20
120.9144647356
 30
0.0
 11
148.7119991791125
 21
125.9107512034471
 31
0.0
  0
LINE
  5
70
330
1F
100
AcDbEntity
  8
0
  6
Continuous
 62
     7
100
AcDbLine
 10
153.5119847742
 20
125.5107405161
 30
0.0
 11
166.1700207742
 21
125.5107405161
 31
0.0
  0
LINE
  5
71
330
1F
100
AcDbEntity
  8
0
  6
DASHED
 62
     2
100
AcDbLine
 10
161.6119847742
 20
125.5107405161
 30
0.0
 11
164.4119847741999
 21
122.7107405161
 31
0.0
  0
LINE
  5
72
330
1F
100
AcDbEntity
  8
0
  6
Continuous
 62
     7
100
AcDbLine
 10
165.3227707742
 20
122.7107405161
 30
0.0
 11
155.8195608207354
 21
122.7107405161
 31
0.0
  0
LINE
  5
73
330
1F
100
AcDbEntity
  8
0
  6
Continuous
 62
     7
100
AcDbLine
 10
170.2667502590569
 20
123.3772379481422
 30
0.0
 11
172.4694407661
 21
120.2314695277
 31
0.0
  0
LINE
  5
74
330
1F
100
AcDbEntity
  8
0
  6
Continuous
 62
     7
100
AcDbLine
 10
167.05756167
 20
119.0316849253
 30
0.0
 11
167.2923867095
 21
120.3634441494
 31
0.0
  0
LINE
  5
75
330
1F
100
AcDbEntity
  8
0
  6
Continuous
 62
     7
100
AcDbLine
 10
149.4744475669
 20
119.476934607
 30
0.0
 11
147.9163911914
 21
119.0884676202
 31
0.0
  0
LINE
  5
76
330
1F
100
AcDbEntity
  8
0
  6
Continuous
 62
     7
100
AcDbLine
 10
142.5119847742
 20
118.0884595161
 30
0.0
 11
142.5119847742
 21
111.5107405161
 31
0.0
  0
LINE
  5
77
330
1F
100
AcDbEntity
  8
1
  6
Continuous
 62
     7
100
AcDbLine
 10
140.9104942381382
 20
107.3107405160554
 30
0.0
 11
139.0098873227835
 21
107.3107405160554
 31
0.0
  0
LINE
  5
78
330
1F
100
AcDbEntity
  8
1
  6
Continuous
 62
     7
100
AcDbLine
 10
139.0098873227835
 20
109.4114167559892
 30
0.0
 11
139.0098873227835
 21
107.3107405160554
 31
0.0
  0
LINE
  5
79
330
1F
100
AcDbEntity
  8
0
  6
Continuous
 62
     7
100
AcDbLine
 10
142.5110167190433
 20
111.310678856913
 30
0.0
 11
142.5110167190433
 21
111.3106790320016
 31
0.0
  0
LINE
  5
7A
330
1F
100
AcDbEntity
  8
1
  6
Continuous
 62
     7
100
AcDbLine
 10
125.0119847729802
 20
111.1606406578794
 30
0.0
 11
125.0119847729802
 21
110.310375533998
 31
0.0
  0
LINE
  5
7B
330
1F
100
AcDbEntity
  8
1
  6
Continuous
 62
     7
100
AcDbLine
 10
131.0073058381677
 20
110.310375533998
 30
0.0
 11
125.0119847729802
 21
110.310375533998
 31
0.0
  0
LINE
  5
7C
330
1F
100
AcDbEntity
  8
1
  6
DASHED
 62
     2
100
AcDbLine
 10
144.1562716215849
 20
120.3949485199992
 30
0.0
 11
145.5749801322818
 21
116.5945421769284
 31
0.0
  0
LINE
  5
7D
330
1F
100
AcDbEntity
  8
0
  6
Continuous
 62
     7
100
AcDbLine
 10
149.0119847729802
 20
107.3107405160554
 30
0.0
 11
149.0119847729802
 21
119.3616297109984
 31
0.0
  0
LINE
  5
7E
330
1F
100
AcDbEntity
  8
0
  6
Continuous
 62
     7
100
AcDbLine
 10
149.0119847729802
 20
128.3107405160554
 30
0.0
 11
149.0119847729802
 21
126.1010758099146
 31
0.0
  0
LINE
  5
7F
330
1F
100
AcDbEntity
  8
0
  6
Continuous
 62
     7
100
AcDbLine
 10
128.9486718326807
 20
121.5616176410113
 30
0.0
 11
127.5250528678298
 21
117.7480573109351
 31
0.0
  0
LINE
  5
80
330
1F
100
AcDbEntity
  8
1
  6
Continuous
 62
     7
100
AcDbLine
 10
125.0119847729802
 20
127.4607496708632
 30
0.0
 11
125.0119847729802
 21
128.3107405160554
 31
0.0
  0
LINE
  5
81
330
1F
100
AcDbEntity
  8
1
  6
Continuous
 62
     7
100
AcDbLine
 10
125.0119847729802
 20
128.3107405160554
 30
0.0
 11
131.0098873227835
 21
128.3107405160554
 31
0.0
  0
LINE
  5
82
330
1F
100
AcDbEntity
  8
0
  6
Continuous
 62
     7
100
AcDbLine
 10
148.0127914845944
 20
108.3097109780647
 30
0.0
 11
142.5110167190433
 21
108.3097109780647
 31
0.0
  0
LINE
  5
83
330
1F
100
AcDbEntity
  8
1
  6
Continuous
 62
     7
100
AcDbLine
 10
148.0127914845944
 20
107.3107405160554
 30
0.0
 11
149.0119847742
 21
107.3107405160554
 31
0.0
  0
LINE
  5
84
330
1F
100
AcDbEntity
  8
1
  6
Continuous
 62
     7
100
AcDbLine
 10
140.9104942381382
 20
107.3107405160554
 30
0.0
 11
148.0127914845944
 21
107.3107405160554
 31
0.0
  0
LINE
  5
85
330
1F
100
AcDbEntity
  8
1
  6
Continuous
 62
     7
100
AcDbLine
 10
148.0127914845944
 20
128.3107405160554
 30
0.0
 11
149.0119847742
 21
128.3107405160554
 31
0.0
  0
LINE
  5
86
330
1F
100
AcDbEntity
  8
1
  6
Continuous
 62
     7
100
AcDbLine
 10
147.0098873227835
 20
128.3107405160554
 30
0.0
 11
148.0127914845944
 21
128.3107405160554
 31
0.0
  0
LINE
  5
87
330
1F
100
AcDbEntity
  8
0
  6
Continuous
 62
     7
100
AcDbLine
 10
149.01311416924
 20
108.3097109780647
 30
0.0
 11
148.0127914845944
 21
108.3097109780647
 31
0.0
  0
LINE
  5
88
330
1F
100
AcDbEntity
  8
0
  6
Continuous
 62
     7
100
AcDbLine
 10
131.0073058381677
 20
110.310375533998
 30
0.0
 11
139.0098873227835
 21
110.310375533998
 31
0.0
  0
LINE
  5
89
330
1F
100
AcDbEntity
  8
0
  6
Continuous
 62
     7
100
AcDbLine
 10
141.5106940343976
 20
112.3110017159488
 30
0.0
 11
139.0098873227835
 21
112.3110017159488
 31
0.0
  0
LINE
  5
8A
330
1F
100
AcDbEntity
  8
0
  6
Continuous
 62
     7
100
AcDbLine
 10
131.0073058381677
 20
110.310375533998
 30
0.0
 11
125.0119847729802
 21
111.1606406578794
 31
0.0
  0
LINE
  5
8B
330
1F
100
AcDbEntity
  8
0
  6
Continuous
 62
     7
100
AcDbLine
 10
131.5074671879411
 20
112.3110017159488
 30
0.0
 11
126.5101347640157
 21
113.6602875709068
 31
0.0
  0
LINE
  5
8C
330
1F
100
AcDbEntity
  8
0
  6
Continuous
 62
     7
100
AcDbLine
 10
129.0066604688764
 20
124.4149046749808
 30
0.0
 11
131.7302487045527
 21
124.4149046749808
 31
0.0
  0
LINE
  5
8D
330
1F
100
AcDbEntity
  8
0
  6
Continuous
 62
     7
100
AcDbLine
 10
126.5098873227835
 20
123.5909649620298
 30
0.0
 11
129.0066604688764
 21
124.4149046749808
 31
0.0
  0
LINE
  5
8E
330
1F
100
AcDbEntity
  8
0
  6
Continuous
 62
     7
100
AcDbLine
 10
125.0119847729802
 20
127.4607496708632
 30
0.0
 11
131.0098873227835
 21
128.3107405160554
 31
0.0
  0
LINE
  5
8F
330
1F
100
AcDbEntity
  8
0
  6
Continuous
 62
     7
100
AcDbLine
 10
148.0127914845944
 20
107.3107405160554
 30
0.0
 11
148.0127914845944
 21
108.3097109780647
 31
0.0
  0
LINE
  5
90
330
1F
100
AcDbEntity
  8
0
  6
Continuous
 62
     7
100
AcDbLine
 10
142.5110167190433
 20
108.3097109780647
 30
0.0
 11
142.5110167190433
 21
111.310678856913
 31
0.0
  0
LINE
  5
91
330
1F
100
AcDbEntity
  8
0
  6
Continuous
 62
     7
100
AcDbLine
 10
139.0098873227835
 20
109.4114167559892
 30
0.0
 11
139.0098873227835
 21
110.310375533998
 31
0.0
  0
LINE
  5
92
330
1F
100
AcDbEntity
  8
0
  6
Continuous
 62
     7
100
AcDbLine
 10
139.0098873227835
 20
110.310375533998
 30
0.0
 11
139.0098873227835
 21
111.2607435658574
 31
0.0
  0
LINE
  5
93
330
1F
100
AcDbEntity
  8
0
  6
Continuous
 62
     7
100
AcDbLine
 10
148.0127914845944
 20
125.5744587108493
 30
0.0
 11
148.0127914845944
 21
128.3107405160554
 31
0.0
  0
LINE
  5
94
330
1F
100
AcDbEntity
  8
0
  6
Continuous
 62
     7
100
AcDbLine
 10
139.0098873227835
 20
125.5107405160088
 30
0.0
 11
139.0098873227835
 21
125.8107405160554
 31
0.0
  0
LINE
  5
95
330
1F
100
AcDbEntity
  8
0
  6
Continuous
 62
     7
100
AcDbLine
 10
133.9473873227835
 20
127.3107405160554
 30
0.0
 11
145.1473842710257
 21
127.3107405160554
 31
0.0
  0
LINE
  5
96
330
1F
100
AcDbEntity
  8
0
  6
Continuous
 62
     7
100
AcDbLine
 10
145.1473842710257
 20
127.3107405160554
 30
0.0
 11
147.0098873227835
 21
127.8107405160554
 31
0.0
  0
LINE
  5
97
330
1F
100
AcDbEntity
  8
0
  6
Continuous
 62
     7
100
AcDbLine
 10
147.0098873227835
 20
127.8107405160554
 30
0.0
 11
147.0098873227835
 21
128.3107405160554
 31
0.0
  0
LINE
  5
98
330
1F
100
AcDbEntity
  8
0
  6
Continuous
 62
     7
100
AcDbLine
 10
129.089900188148
 20
126.6239497070201
 30
0.0
 11
133.9473873227835
 21
127.3107405160554
 31
0.0
  0
LINE
  5
99
330
1F
100
AcDbEntity
  8
0
  6
Continuous
 62
     7
100
AcDbLine
 10
126.5098873227835
 20
122.2732431369368
 30
0.0
 11
126.5098873227835
 21
123.5909649620298
 31
0.0
  0
LINE
  5
9A
330
1F
100
AcDbEntity
  8
0
  6
Continuous
 62
     7
100
AcDbLine
 10
126.5098873227835
 20
113.6917470030021
 30
0.0
 11
126.5098873227835
 21
116.3482440039516
 31
0.0
  0
LINE
  5
9B
330
1F
100
AcDbEntity
  8
0
  6
Continuous
 62
     7
100
AcDbLine
 10
131.4348827376962
 20
111.2607435658574
 30
0.0
 11
128.2313792482019
 21
111.7112336240243
 31
0.0
  0
LINE
  5
9C
330
1F
100
AcDbEntity
  8
0
  6
Continuous
 62
     7
100
AcDbLine
 10
139.0098873227835
 20
111.2607435658574
 30
0.0
 11
131.4348827376962
 21
111.2607435658574
 31
0.0
  0
LINE
  5
9D
330
1F
100
AcDbEntity
  8
1
  6
Continuous
 62
     7
100
AcDbLine
 10
126.5098873227835
 20
122.2732431369368
 30
0.0
 11
126.5098873227835
 21
116.3482440039516
 31
0.0
  0
LINE
  5
9E
330
1F
100
AcDbEntity
  8
0
  6
Continuous
 62
     7
100
AcDbLine
 10
139.0098873227835
 20
111.2607435658574
 30
0.0
 11
139.0098873227835
 21
112.3110017159488
 31
0.0
  0
LINE
  5
9F
330
1F
100
AcDbEntity
  8
0
  6
Continuous
 62
     7
100
AcDbLine
 10
126.5098873227835
 20
123.5909649620298
 30
0.0
 11
126.5098873227835
 21
123.6534933750518
 31
0.0
  0
LINE
  5
A0
330
1F
100
AcDbEntity
  8
0
  6
Continuous
 62
     7
100
AcDbLine
 10
139.0098873227835
 20
112.3110017159488
 30
0.0
 11
131.5074671879411
 21
112.3110017159488
 31
0.0
  0
LINE
  5
A1
330
1F
100
AcDbEntity
  8
0
  6
Continuous
 62
     7
100
AcDbLine
 10
125.0119847729802
 20
127.4607496708632
 30
0.0
 11
125.0119847729802
 21
111.1606406578794
 31
0.0
  0
LINE
  5
A2
330
1F
100
AcDbEntity
  8
0
  6
Continuous
 62
     7
100
AcDbLine
 10
131.0098873227835
 20
128.3107405160554
 30
0.0
 11
147.0098873227835
 21
128.3107405160554
 31
0.0
  0
LINE
  5
A3
330
1F
100
AcDbEntity
  8
1
  6
Continuous
 62
     7
100
AcDbLine
 10
152.0119847742
 20
126.3107405160554
 30
0.0
 11
152.0119847742002
 21
128.3107405161
 31
0.0
  0
LINE
  5
A4
330
1F
100
AcDbEntity
  8
1
  6
Continuous
 62
     7
100
AcDbLine
 10
152.0119847742002
 20
128.3107405161
 30
0.0
 11
159.7799339666314
 21
128.3107405161
 31
0.0
  0
LINE
  5
A5
330
1F
100
AcDbEntity
  8
1
  6
Continuous
 62
     7
100
AcDbLine
 10
149.0119847742
 20
133.3107405161001
 30
0.0
 11
149.0119847742
 21
128.2607405161
 31
0.0
  0
LINE
  5
A6
330
1F
100
AcDbEntity
  8
1
  6
Continuous
 62
     7
100
AcDbLine
 10
149.0119847742
 20
104.3107405161
 30
0.0
 11
105.5119847742003
 21
104.3107405161
 31
0.0
  0
LINE
  5
A7
330
1F
100
AcDbEntity
  8
1
  6
DOT_CENTER
 62
     2
100
AcDbLine
 10
161.5119847742003
 20
165.876257280423
 30
0.0
 11
105.5119847742003
 21
165.876257280423
 31
0.0
  0
LINE
  5
A8
330
1F
100
AcDbEntity
  8
1
  6
Continuous
 62
     7
100
AcDbLine
 10
161.5119847742003
 20
133.3107405161001
 30
0.0
 11
161.5119847742003
 21
165.876257280423
 31
0.0
  0
LINE
  5
A9
330
1F
100
AcDbEntity
  8
1
  6
Continuous
 62
     7
100
AcDbLine
 10
149.0119847742
 20
133.3107405161001
 30
0.0
 11
161.5119847742003
 21
133.3107405161001
 31
0.0
  0
LINE
  5
AA
330
1F
100
AcDbEntity
  8
1
  6
Continuous
 62
     7
100
AcDbLine
 10
149.0119847742
 20
104.3107405161
 30
0.0
 11
149.0119847742
 21
107.3607405161
 31
0.0
  0
LINE
  5
AB
330
1F
100
AcDbEntity
  8
1
  6
Continuous
 62
     7
100
AcDbLine
 10
105.5119847742003
 20
165.876257280423
 30
0.0
 11
105.5119847742003
 21
104.3107405161
 31
0.0
  0
LINE
  5
AC
330
1F
100
AcDbEntity
  8
1
  6
Continuous
 62
     7
100
AcDbLine
 10
150.0119847742
 20
131.5786897085311
 30
0.0
 11
150.0119847742
 21
132.3107405161
 31
0.0
  0
LINE
  5
AD
330
1F
100
AcDbEntity
  8
1
  6
Continuous
 62
     7
100
AcDbLine
 10
151.3213858509584
 20
129.3107405161
 30
0.0
 11
150.0119847742
 21
131.5786897085311
 31
0.0
  0
LINE
  5
AE
330
1F
100
AcDbEntity
  8
1
  6
Continuous
 62
     7
100
AcDbLine
 10
159.2025836974418
 20
129.3107405161
 30
0.0
 11
151.3213858509584
 21
129.3107405161
 31
0.0
  0
LINE
  5
AF
330
1F
100
AcDbEntity
  8
1
  6
Continuous
 62
     7
100
AcDbLine
 10
160.5119847742003
 20
131.5786897085311
 30
0.0
 11
159.2025836974418
 21
129.3107405161
 31
0.0
  0
LINE
  5
B0
330
1F
100
AcDbEntity
  8
1
  6
Continuous
 62
     7
100
AcDbLine
 10
160.5119847742003
 20
132.3107405161
 30
0.0
 11
160.5119847742003
 21
131.5786897085311
 31
0.0
  0
LINE
  5
B1
330
1F
100
AcDbEntity
  8
1
  6
Continuous
 62
     7
100
AcDbLine
 10
150.0119847742
 20
132.3107405161
 30
0.0
 11
160.5119847742003
 21
132.3107405161
 31
0.0
  0
LINE
  5
B2
330
1F
100
AcDbEntity
  8
1
  6
Continuous
 62
     7
100
AcDbLine
 10
161.5119847742003
 20
131.3107405161
 30
0.0
 11
161.5119847742003
 21
133.3107405161001
 31
0.0
  0
LINE
  5
B3
330
1F
100
AcDbEntity
  8
1
  6
Continuous
 62
     7
100
AcDbLine
 10
159.7799339666314
 20
128.3107405161
 30
0.0
 11
161.5119847742003
 21
131.3107405161
 31
0.0
  0
LINE
  5
B4
330
1F
100
AcDbEntity
  8
1
  6
Continuous
 62
     7
100
AcDbLine
 10
150.7440355817687
 20
128.3107405161
 30
0.0
 11
152.0119847742002
 21
128.3107405161
 31
0.0
  0
LINE
  5
B5
330
1F
100
AcDbEntity
  8
1
  6
Continuous
 62
     7
100
AcDbLine
 10
149.0119847742
 20
131.3107405161
 30
0.0
 11
150.7440355817687
 21
128.3107405161
 31
0.0
  0
LINE
  5
B6
330
1F
100
AcDbEntity
  8
1
  6
DOT_CENTER
 62
     2
100
AcDbLine
 10
105.5119847742003
 20
165.876257280423
 30
0.0
 11
101.0437162379752
 21
165.876257280423
 31
0.0
  0
LINE
  5
B7
330
1F
100
AcDbEntity
  8
1
  6
DOT_CENTER
 62
     2
100
AcDbLine
 10
161.5119847742003
 20
165.876257280423
 30
0.0
 11
168.5264579913312
 21
165.876257280423
 31
0.0
  0
LINE
  5
B8
330
1F
100
AcDbEntity
  8
1
  6
PHANTOM
 62
     2
100
AcDbLine
 10
197.0119847742002
 20
144.3107405161
 30
0.0
 11
197.0119847742002
 21
147.3535288202014
 31
0.0
  0
LINE
  5
B9
330
1F
100
AcDbEntity
  8
1
  6
Continuous
 62
     7
100
AcDbLine
 10
165.0119847742003
 20
144.3107405161
 30
0.0
 11
197.0119847742002
 21
144.3107405161
 31
0.0
  0
LINE
  5
BA
330
1F
100
AcDbEntity
  8
1
  6
Continuous
 62
     7
100
AcDbLine
 10
165.0119847742003
 20
128.3107405161
 30
0.0
 11
165.0119847742003
 21
144.3107405161
 31
0.0
  0
LINE
  5
BB
330
1F
100
AcDbEntity
  8
1
  6
Continuous
 62
     7
100
AcDbLine
 10
161.5119847742003
 20
128.3107405161
 30
0.0
 11
165.0119847742003
 21
128.3107405161
 31
0.0
  0
LINE
  5
BC
330
1F
100
AcDbEntity
  8
1
  6
Continuous
 62
     7
100
AcDbLine
 10
152.0119847742002
 20
128.3107405161
 30
0.0
 11
161.5119847742003
 21
128.3107405161
 31
0.0
  0
LINE
  5
BD
330
1F
100
AcDbEntity
  8
1
  6
PHANTOM
 62
     2
100
AcDbLine
 10
197.0119847742002
 20
102.5350099089965
 30
0.0
 11
197.0119847742002
 21
104.3107405161
 31
0.0
  0
LINE
  5
BE
330
1F
100
AcDbEntity
  8
1
  6
PHANTOM
 62
     2
100
AcDbLine
 10
197.0119847742002
 20
104.3107405161
 30
0.0
 11
197.0119847742002
 21
144.3107405161
 31
0.0
  0
LINE
  5
BF
330
1F
100
AcDbEntity
  8
1
  6
Continuous
 62
     7
100
AcDbLine
 10
152.0119847742
 20
104.3107405161
 30
0.0
 11
152.0119847742
 21
108.4107405161
 31
0.0
  0
LINE
  5
C0
330
1F
100
AcDbEntity
  8
1
  6
Continuous
 62
     7
100
AcDbLine
 10
197.0119847742002
 20
104.3107405161
 30
0.0
 11
152.0119847742
 21
104.3107405161
 31
0.0
  0
LINE
  5
C1
330
1F
100
AcDbEntity
  8
0
  6
Continuous
 62
     7
100
AcDbLine
 10
152.0119847742
 20
108.4107405161
 30
0.0
 11
152.0119847742
 21
119.3616297115
 31
0.0
  0
LINE
  5
C2
330
1F
100
AcDbEntity
  8
0
  6
Continuous
 62
     7
100
AcDbLine
 10
149.0119847742
 20
107.3607405161
 30
0.0
 11
149.0119847742
 21
119.3616297115
 31
0.0
  0
LINE
  5
C3
330
1F
100
AcDbEntity
  8
0
  6
Continuous
 62
     7
100
AcDbLine
 10
149.0119847742
 20
128.2607405161
 30
0.0
 11
149.0119847742
 21
126.1010758104
 31
0.0
  0
ARC
  5
C4
330
1F
100
AcDbEntity
  8
0
  6
Continuous
 62
     7
100
AcDbCircle
 10
162.214151341152
 20
111.1606138377351
 30
0.0
 40
0.7002304603394812
100
AcDbArc
 50
89.99937540040744
 51
179.9993754140249
  0
ARC
  5
C5
330
1F
100
AcDbEntity
  8
0
  6
Continuous
 62
     7
100
AcDbCircle
 10
163.017376841802
 20
137.2477482778164
 30
0.0
 40
16.9749999997643
100
AcDbArc
 50
-106.8582175785752
 51
-75.32764302039294
  0
ARC
  5
C6
330
1F
100
AcDbEntity
  8
0
  6
Continuous
 62
     7
100
AcDbCircle
 10
157.8045483137927
 20
120.045218123431
 30
0.0
 40
0.9999999995393277
100
AcDbArc
 50
73.14178252001665
 51
118.0103407897203
  0
ARC
  5
C7
330
1F
100
AcDbEntity
  8
1
  6
DASHED
 62
     2
100
AcDbCircle
 10
157.6772048397554
 20
120.1316357237264
 30
0.0
 40
0.851254999826025
100
AcDbArc
 50
113.12912269059
 51
161.9815606735497
  0
ARC
  5
C8
330
1F
100
AcDbEntity
  8
1
  6
DOT_CENTER
 62
     2
100
AcDbCircle
 10
163.0173768376038
 20
137.2477482776261
 30
0.0
 40
20.00000000054517
100
AcDbArc
 50
-112.8847335666417
 51
-56.98750613962275
  0
ARC
  5
C9
330
1F
100
AcDbEntity
  8
1
  6
DASHED
 62
     2
100
AcDbCircle
 10
163.0173768717141
 20
137.2477482697301
 30
0.0
 40
23.02500000027797
100
AcDbArc
 50
-107.5231641396265
 51
-101.2941944748651
  0
ARC
  5
CA
330
1F
100
AcDbEntity
  8
0
  6
Continuous
 62
     7
100
AcDbCircle
 10
163.0173768395074
 20
137.247748277772
 30
0.0
 40
23.02500000185651
100
AcDbArc
 50
-101.2941943923541
 51
-64.31920237957222
  0
ARC
  5
CB
330
1F
100
AcDbEntity
  8
1
  6
DASHED
 62
     2
100
AcDbCircle
 10
163.0173768376924
 20
137.2477482759988
 30
0.0
 40
16.97499999904694
100
AcDbArc
 50
-75.32764300542051
 51
-63.14089444347281
  0
ARC
  5
CC
330
1F
100
AcDbEntity
  8
1
  6
DASHED
 62
     2
100
AcDbCircle
 10
171.1384473278949
 20
121.2118872425701
 30
0.0
 40
1.000000000682554
100
AcDbArc
 50
92.93306094982948
 51
116.8591055193416
  0
ARC
  5
CD
330
1F
100
AcDbEntity
  8
0
  6
Continuous
 62
     7
100
AcDbCircle
 10
171.1384473320661
 20
121.2118872421524
 30
0.0
 40
1.00000000131312
100
AcDbArc
 50
20.47082596759868
 51
92.93306118728391
  0
ARC
  5
CE
330
1F
100
AcDbEntity
  8
0
  6
Continuous
 62
     7
100
AcDbCircle
 10
172.5620662795577
 20
117.3983269145707
 30
0.0
 40
1.000000002743737
100
AcDbArc
 50
-64.31920209638268
 51
20.47082578444277
  0
ARC
  5
CF
330
1F
100
AcDbEntity
  8
0
  6
Continuous
 62
     7
100
AcDbCircle
 10
134.8539487742
 20
120.5107405161
 30
0.0
 40
5.0
100
AcDbArc
 50
90.0
 51
145.0193690436597
  0
ARC
  5
D0
330
1F
100
AcDbEntity
  8
0
  6
Continuous
 62
     7
100
AcDbCircle
 10
131.0119847742
 20
118.5107405161
 30
0.0
 40
2.9999997139145
100
AcDbArc
 50
145.0000031093278
 51
9.99999818489204
  0
ARC
  5
D1
330
1F
100
AcDbEntity
  8
0
  6
Continuous
 62
     7
100
AcDbCircle
 10
135.7011985960108
 20
120.7107403037321
 30
0.0
 40
2.000000212367916
100
AcDbArc
 50
89.99999489525608
 51
-170.0000069198623
  0
ARC
  5
D2
330
1F
100
AcDbEntity
  8
0
  6
DASHED
 62
     2
100
AcDbCircle
 10
145.2053847742
 20
120.7107405161
 30
0.0
 40
2.000000238166696
100
AcDbArc
 50
27.8181377897726
 51
82.73476168625622
  0
ARC
  5
D3
330
1F
100
AcDbEntity
  8
0
  6
Continuous
 62
     7
100
AcDbCircle
 10
145.2053847742
 20
120.7107405161
 30
0.0
 40
2.000000238100009
100
AcDbArc
 50
82.73476168625622
 51
89.9720422441059
  0
ARC
  5
D4
330
1F
100
AcDbEntity
  8
0
  6
DASHED
 62
     2
100
AcDbCircle
 10
150.5119847742
 20
123.5107405161
 30
0.0
 40
4.00000005849994
100
AcDbArc
 50
-152.1818622100986
 51
-84.70508283183062
  0
ARC
  5
D5
330
1F
100
AcDbEntity
  8
0
  6
Continuous
 62
     7
100
AcDbCircle
 10
152.6237347742
 20
117.1478765161
 30
0.0
 40
2.000000587397579
100
AcDbArc
 50
-25.00000394086439
 51
76.0000033786014
  0
ARC
  5
D6
330
1F
100
AcDbEntity
  8
0
  6
Continuous
 62
     7
100
AcDbCircle
 10
151.0656783048
 20
117.5363431259
 30
0.0
 40
2.000000000000114
100
AcDbArc
 50
76.00000338058315
 51
95.29491716761318
  0
ARC
  5
D7
330
1F
100
AcDbEntity
  8
0
  6
Continuous
 62
     7
100
AcDbCircle
 10
155.5119847742
 20
111.5107405161
 30
0.0
 40
3.00000000000003
100
AcDbArc
 50
154.9772473927505
 51
0.0
  0
ARC
  5
D8
330
1F
100
AcDbEntity
  8
0
  6
Continuous
 62
     7
100
AcDbCircle
 10
154.5119847742
 20
118.0884595161
 30
0.0
 40
4.0
100
AcDbArc
 50
0.0
 51
44.95095183510362
  0
ARC
  5
D9
330
1F
100
AcDbEntity
  8
0
  6
Continuous
 62
     7
100
AcDbCircle
 10
147.5119759456346
 20
127.5107674671443
 30
0.0
 40
2.00002695106379
100
AcDbArc
 50
-89.99974708363993
 51
-53.1298494378358
  0
ARC
  5
DA
330
1F
100
AcDbEntity
  8
0
  6
DASHED
 62
     2
100
AcDbCircle
 10
150.5119847742
 20
123.5107405161
 30
0.0
 40
2.999999906900302
100
AcDbArc
 50
44.95095183479546
 51
126.8695550870058
  0
ARC
  5
DB
330
1F
100
AcDbEntity
  8
0
  6
Continuous
 62
     7
100
AcDbCircle
 10
145.5119847742
 20
111.5107405161
 30
0.0
 40
3.0
100
AcDbArc
 50
180.0
 51
24.97725091595671
  0
ARC
  5
DC
330
1F
100
AcDbEntity
  8
0
  6
Continuous
 62
     7
100
AcDbCircle
 10
146.5119847742
 20
118.0884595161
 30
0.0
 40
4.000000000000149
100
AcDbArc
 50
135.0489633727966
 51
180.0
  0
ARC
  5
DD
330
1F
100
AcDbEntity
  8
0
  6
Continuous
 62
     7
100
AcDbCircle
 10
153.5119846202585
 20
127.5107405200207
 30
0.0
 40
2.000000003920773
100
AcDbArc
 50
-126.8704078886125
 51
-89.9999955899009
  0
ARC
  5
DE
330
1F
100
AcDbEntity
  8
0
  6
Continuous
 62
     7
100
AcDbCircle
 10
166.1700207742
 20
120.5107405161
 30
0.0
 40
5.000000000000033
100
AcDbArc
 50
34.9806309641321
 51
90.0
  0
ARC
  5
DF
330
1F
100
AcDbEntity
  8
0
  6
Continuous
 62
     7
100
AcDbCircle
 10
165.3227707742
 20
120.7107405161
 30
0.0
 40
2.000000000000325
100
AcDbArc
 50
-9.9999981848844
 51
90.0
  0
ARC
  5
E0
330
1F
100
AcDbEntity
  8
0
  6
Continuous
 62
     7
100
AcDbCircle
 10
170.0119847742
 20
118.5107405161
 30
0.0
 40
2.999999713899534
100
AcDbArc
 50
170.0000018151079
 51
34.99999689067191
  0
ARC
  5
E1
330
1F
100
AcDbEntity
  8
0
  6
Continuous
 62
     7
100
AcDbCircle
 10
155.8185847742
 20
120.7107405161
 30
0.0
 40
2.000000238166696
100
AcDbArc
 50
89.97203832867608
 51
152.1818622102274
  0
ARC
  5
E2
330
1F
100
AcDbEntity
  8
0
  6
Continuous
 62
     7
100
AcDbCircle
 10
150.5119847742
 20
123.5107405161
 30
0.0
 40
4.000000058487769
100
AcDbArc
 50
-95.29491716816896
 51
-27.81813778990117
  0
ARC
  5
E3
330
1F
100
AcDbEntity
  8
0
  6
Continuous
 62
     7
100
AcDbCircle
 10
149.9582912436
 20
117.5363431259
 30
0.0
 40
2.000000000000298
100
AcDbArc
 50
84.70508283238682
 51
103.9999966194169
  0
ARC
  5
E4
330
1F
100
AcDbEntity
  8
0
  6
Continuous
 62
     7
100
AcDbCircle
 10
148.4002347742
 20
117.1478765161
 30
0.0
 40
2.000000587400079
100
AcDbArc
 50
104.0002493777103
 51
-154.9999960591353
  0
ARC
  5
E5
330
1F
100
AcDbEntity
  8
1
  6
Continuous
 62
     7
100
AcDbCircle
 10
150.5119847742
 20
123.5107405161
 30
0.0
 40
2.999999906983815
100
AcDbArc
 50
53.13044491299377
 51
126.8695550870058
  0
ARC
  5
E6
330
1F
100
AcDbEntity
  8
1
  6
DOT_CENTER
 62
     2
100
AcDbCircle
 10
138.0065927087797
 20
137.2477482761238
 30
0.0
 40
19.99999999826912
100
AcDbArc
 50
-121.766769139177
 51
-66.97291285317132
  0
ARC
  5
E7
330
1F
100
AcDbEntity
  8
1
  6
DASHED
 62
     2
100
AcDbCircle
 10
138.0065927067868
 20
137.2477482800045
 30
0.0
 40
23.02500000252127
100
AcDbArc
 50
-78.70580562772945
 51
-72.47683592760811
  0
ARC
  5
E8
330
1F
100
AcDbEntity
  8
1
  6
DASHED
 62
     2
100
AcDbCircle
 10
143.3467647045361
 20
120.1316357174046
 30
0.0
 40
0.8512550033686069
100
AcDbArc
 50
18.01843969633826
 51
66.87087783441721
  0
ARC
  5
E9
330
1F
100
AcDbEntity
  8
1
  6
DASHED
 62
     2
100
AcDbCircle
 10
138.0065927073315
 20
137.2477482735289
 30
0.0
 40
16.97499999642029
100
AcDbArc
 50
-116.8591055574736
 51
-104.6723569936329
  0
ARC
  5
EA
330
1F
100
AcDbEntity
  8
1
  6
DASHED
 62
     2
100
AcDbCircle
 10
129.8855222166845
 20
121.2118872409556
 30
0.0
 40
1.000000002746881
100
AcDbArc
 50
63.14089445185967
 51
87.06693854955395
  0
ARC
  5
EB
330
1F
100
AcDbEntity
  8
0
  6
Continuous
 62
     7
100
AcDbCircle
 10
128.4619032571642
 20
117.3983269190131
 30
0.0
 40
0.9999999995149252
100
AcDbArc
 50
159.5291744181837
 51
-115.6807969315476
  0
ARC
  5
EC
330
1F
100
AcDbEntity
  8
0
  6
Continuous
 62
     7
100
AcDbCircle
 10
129.8855222168538
 20
121.21188724899
 30
0.0
 40
0.9999999947143127
100
AcDbArc
 50
87.06693853568507
 51
159.5291743094328
  0
ARC
  5
ED
330
1F
100
AcDbEntity
  8
0
  6
Continuous
 62
     7
100
AcDbCircle
 10
138.0065927001802
 20
137.2477482778826
 30
0.0
 40
16.97499999882071
100
AcDbArc
 50
-104.6723569665601
 51
-73.14178243270621
  0
ARC
  5
EE
330
1F
100
AcDbEntity
  8
0
  6
Continuous
 62
     7
100
AcDbCircle
 10
143.2194212300255
 20
120.0452181236402
 30
0.0
 40
1.000000000878646
100
AcDbArc
 50
61.98969150827953
 51
106.8582177745355
  0
ARC
  5
EF
330
1F
100
AcDbEntity
  8
0
  6
Continuous
 62
     7
100
AcDbCircle
 10
138.0065927091046
 20
137.247748276497
 30
0.0
 40
23.02499999862775
100
AcDbArc
 50
-115.6807976110402
 51
-78.70580563167599
  0
ARC
  5
F0
330
1F
100
AcDbEntity
  8
0
  6
Continuous
 62
     7
100
AcDbCircle
 10
141.5106940347469
 20
111.3106790316523
 30
0.0
 40
1.000322684296451
100
AcDbArc
 50
-0.00001000859715
 51
90.0000000200055
  0
ARC
  5
F1
330
1F
100
AcDbEntity
  8
0
  6
Continuous
 62
     7
100
AcDbCircle
 10
141.0105326919578
 20
109.3113855241228
 30
0.0
 40
2.00314456306765
100
AcDbArc
 50
177.1376243864599
 51
-92.8625824405387
  0
ARC
  5
F2
330
1F
100
AcDbEntity
  8
0
  6
Continuous
 62
     7
100
AcDbCircle
 10
140.5098873227835
 20
125.8107405160554
 30
0.0
 40
1.500000000000024
100
AcDbArc
 50
89.99998975471624
 51
180.0
  0
ARC
  5
F3
330
1F
100
AcDbEntity
  8
0
  6
Continuous
 62
     7
100
AcDbCircle
 10
135.0098873227835
 20
119.3107435704442
 30
0.0
 40
9.001466751672686
100
AcDbArc
 50
160.7850540294024
 51
-160.7850540294024
  0
CIRCLE
  5
F4
330
1F
100
AcDbEntity
  8
0
  6
Continuous
 62
     7
100
AcDbCircle
 10
155.5119847742
 20
111.5107405161
 30
0.0
 40
1.700000000000017
  0
CIRCLE
  5
F5
330
1F
100
AcDbEntity
  8
0
  6
Continuous
 62
     7
100
AcDbCircle
 10
131.0119847742
 20
118.5107405161
 30
0.0
 40
1.950000000000017
  0
CIRCLE
  5
F6
330
1F
100
AcDbEntity
  8
0
  6
Continuous
 62
     7
100
AcDbCircle
 10
145.5119847742
 20
111.5107405161
 30
0.0
 40
1.700000000000017
  0
CIRCLE
  5
F7
330
1F
100
AcDbEntity
  8
0
  6
Continuous
 62
     7
100
AcDbCircle
 10
170.0119847742
 20
118.5107405161
 30
0.0
 40
1.950000000000017
  0
CIRCLE
  5
F8
330
1F
100
AcDbEntity
  8
0
  6
Continuous
 62
     7
100
AcDbCircle
 10
150.5119847742
 20
123.5107405161
 30
0.0
 40
1.700000000000017
  0
ARC
  5
F9
330
1F
100
AcDbEntity
  8
1
  6
Continuous
 62
     7
100
AcDbCircle
 10
159.5119847729802
 20
111.0109018590301
 30
0.0
 40
1.0
100
AcDbArc
 50
90.0
 51
180.0
  0
ARC
  5
FA
330
1F
100
AcDbEntity
  8
1
  6
DASHED
 62
     2
100
AcDbCircle
 10
156.3858397975564
 20
116.2448117800523
 30
0.0
 40
0.9999999961354508
100
AcDbArc
 50
159.5291740429194
 51
-107.5231635698306
  0
ARC
  5
FB
330
1F
100
AcDbEntity
  8
1
  6
DASHED
 62
     2
100
AcDbCircle
 10
144.638129748404
 20
116.2448117800523
 30
0.0
 40
0.9999999989942512
100
AcDbArc
 50
-72.47683602308439
 51
20.4708259570784
  0
ARC
  5
FC
330
1F
100
AcDbEntity
  8
1
  6
Continuous
 62
     7
100
AcDbCircle
 10
129.5098873227835
 20
123.6534933750518
 30
0.0
 40
3.000000002231659
100
AcDbArc
 50
98.04759808705201
 51
180.0
  0
ARC
  5
FD
330
1F
100
AcDbEntity
  8
1
  6
Continuous
 62
     7
100
AcDbCircle
 10
128.5098873227835
 20
113.6917470030021
 30
0.0
 40
2.0
100
AcDbArc
 50
180.0
 51
-98.00468291870348
  0
DIMENSION
  5
109
330
1F
100
AcDbEntity
  8
1
100
AcDbDimension
  2
*D1
 10
206.955044123684
 20
126.3107405160554
 30
0.0
 11
203.205044123684
 21
118.486679277691
 31
0.0
 70
    32
  1
<>
 71
     5
 42
-1.0
 53
90.0
  3
ME10_DIM_10
100
AcDbAlignedDimension
 13
177.0189224928618
 23
110.3107405160554
 33
0.0
 14
179.0115678608418
 24
126.3107405160554
 34
0.0
 50
90.0
100
AcDbRotatedDimension
  0
DIMENSION
  5
114
330
1F
100
AcDbEntity
  8
1
100
AcDbDimension
  2
*D2
 10
95.2452781236282
 20
128.3107405160554
 30
0.0
 11
91.4952781236282
 21
118.614768487633
 31
0.0
 70
    32
  1
<>
 71
     5
 42
-1.0
 53
90.0
  3
ME10_DIM_11
100
AcDbAlignedDimension
 13
125.0119847729802
 23
110.310375533998
 33
0.0
 14
125.0119847729802
 24
128.3107405160554
 34
0.0
 50
90.0
100
AcDbRotatedDimension
  0
DIMENSION
  5
11F
330
1F
100
AcDbEntity
  8
1
100
AcDbDimension
  2
*D3
 10
152.0119847742
 20
94.2710949141387
 30
0.0
 11
165.474135876456
 21
98.0210949141387
 31
0.0
 70
    32
  1
<>
 71
     5
 42
-1.0
 53
0.00013888888889
  3
ME10_DIM_12
100
AcDbAlignedDimension
 13
179.0115678608418
 23
111.0359805680346
 33
0.0
 14
152.0119847742
 24
104.3107405161
 34
0.0
100
AcDbRotatedDimension
  0
DIMENSION
  5
12A
330
1F
100
AcDbEntity
  8
1
100
AcDbDimension
  2
*D4
 10
125.0119847729802
 20
94.2710949141387
 30
0.0
 11
138.184735821977
 21
98.0210949141387
 31
0.0
 70
    32
  1
<>
 71
     5
 42
-1.0
 53
0.00013888888889
  3
ME10_DIM_13
100
AcDbAlignedDimension
 13
149.0119847742
 23
104.3107405161
 33
0.0
 14
125.0119847729802
 24
111.1606406578794
 34
0.0
100
AcDbRotatedDimension
  0
DIMENSION
  5
137
330
1F
100
AcDbEntity
  8
1
100
AcDbDimension
  2
*D5
 10
149.0119847742
 20
94.2710949141387
 30
0.0
 11
150.575608872757
 21
98.0210949141387
 31
0.0
 70
    32
  1
<>
 71
     5
 42
-1.0
 53
0.00013888888889
  3
ME10_DIM_14
100
AcDbAlignedDimension
 13
152.0119847742
 23
104.3107405161
 33
0.0
 14
149.0119847742
 24
104.3107405161
 34
0.0
100
AcDbRotatedDimension
  0
DIMENSION
  5
142
330
1F
100
AcDbEntity
  8
1
100
AcDbDimension
  2
*D6
 10
217.040455352168
 20
126.3107405160554
 30
0.0
 11
213.290455352168
 21
116.179000437275
 31
0.0
 70
    32
  1
<>
 71
     5
 42
-1.0
 53
90.0
  3
ME10_DIM_15
100
AcDbAlignedDimension
 13
162.014082223177
 23
108.3107405160554
 33
0.0
 14
176.2186765521765
 24
126.3107405160554
 34
0.0
 50
90.0
100
AcDbRotatedDimension
  0
DIMENSION
  5
14F
330
1F
100
AcDbEntity
  8
1
100
AcDbDimension
  2
*D7
 10
217.040455352168
 20
108.3107405160554
 30
0.0
 11
213.290455352168
 21
106.3107405160777
 31
0.0
 70
    32
  1
<>
 71
     5
 42
-1.0
 53
90.0
  3
ME10_DIM_16
100
AcDbAlignedDimension
 13
197.0119847742002
 23
104.3107405161
 33
0.0
 14
162.014082223177
 24
108.3107405160554
 34
0.0
 50
90.0
100
AcDbRotatedDimension
  0
DIMENSION
  5
15A
330
1F
100
AcDbEntity
  8
1
100
AcDbDimension
  2
*D8
 10
86.2972633575118
 20
128.3107405160554
 30
0.0
 11
82.5472633575118
 21
118.30361476238
 31
0.0
 70
    32
  1
<>
 71
     5
 42
-1.0
 53
90.0
  3
ME10_DIM_17
100
AcDbAlignedDimension
 13
140.9104942381382
 23
107.3107405160554
 33
0.0
 14
125.0119847729802
 24
128.3107405160554
 34
0.0
 50
90.0
100
AcDbRotatedDimension
  0
DIMENSION
  5
167
330
1F
100
AcDbEntity
  8
1
100
AcDbDimension
  2
*D9
 10
86.2972633575118
 20
107.3107405160554
 30
0.0
 11
82.5472633575118
 21
105.8107405160777
 31
0.0
 70
    32
  1
<>
 71
     5
 42
-1.0
 53
90.0
  3
ME10_DIM_18
100
AcDbAlignedDimension
 13
149.0119847742
 23
104.3107405161
 33
0.0
 14
140.9104942381382
 24
107.3107405160554
 34
0.0
 50
90.0
100
AcDbRotatedDimension
  0
ENDSEC
  0
SECTION
  2
OBJECTS
  0
DICTIONARY
  5
C
330
0
100
AcDbDictionary
281
     1
  3
ACAD_GROUP
350
D
  3
ACAD_LAYOUT
350
1A
  3
ACAD_MLINESTYLE
350
17
  3
ACAD_PLOTSETTINGS
350
19
  3
ACAD_PLOTSTYLENAME
350
E
  0
DICTIONARY
  5
D
102
{ACAD_REACTORS
330
C
102
}
330
C
100
AcDbDictionary
281
     1
  0
DICTIONARY
  5
1A
102
{ACAD_REACTORS
330
C
102
}
330
C
100
AcDbDictionary
281
     1
  3
Layout1
350
1E
  3
Layout2
350
26
  3
Model
350
22
  0
DICTIONARY
  5
17
102
{ACAD_REACTORS
330
C
102
}
330
C
100
AcDbDictionary
281
     1
  3
Standard
350
18
  0
DICTIONARY
  5
19
102
{ACAD_REACTORS
330
C
102
}
330
C
100
AcDbDictionary
281
     1
  0
ACDBDICTIONARYWDFLT
  5
E
102
{ACAD_REACTORS
330
C
102
}
330
C
100
AcDbDictionary
281
     1
  3
Normal
350
F
100
AcDbDictionaryWithDefault
340
F
  0
LAYOUT
  5
1E
102
{ACAD_REACTORS
330
1A
102
}
330
1A
100
AcDbPlotSettings
  1

  2

  4

  6

 40
0.0
 41
0.0
 42
0.0
 43
0.0
 44
0.0
 45
0.0
 46
0.0
 47
0.0
 48
0.0
 49
0.0
140
0.0
141
0.0
142
1.0
143
1.0
 70
   688
 72
     0
 73
     0
 74
     5
  7

 75
    16
 76
     0
 77
     2
 78
   300
147
1.0
148
0.0
149
0.0
100
AcDbLayout
  1
Layout1
 70
     1
 71
     1
 10
0.0
 20
0.0
 11
0.0
 21
0.0
 12
0.0
 22
0.0
 32
0.0
 14
0.0
 24
0.0
 34
0.0
 15
0.0
 25
0.0
 35
0.0
146
0.0
 13
0.0
 23
0.0
 33
0.0
 16
1.0
 26
0.0
 36
0.0
 17
0.0
 27
1.0
 37
0.0
 76
     0
330
1B
  0
LAYOUT
  5
26
102
{ACAD_REACTORS
330
1A
102
}
330
1A
100
AcDbPlotSettings
  1

  2

  4

  6

 40
0.0
 41
0.0
 42
0.0
 43
0.0
 44
0.0
 45
0.0
 46
0.0
 47
0.0
 48
0.0
 49
0.0
140
0.0
141
0.0
142
1.0
143
1.0
 70
   688
 72
     0
 73
     0
 74
     5
  7

 75
    16
 76
     0
 77
     2
 78
   300
147
1.0
148
0.0
149
0.0
100
AcDbLayout
  1
Layout2
 70
     1
 71
     2
 10
0.0
 20
0.0
 11
0.0
 21
0.0
 12
0.0
 22
0.0
 32
0.0
 14
0.0
 24
0.0
 34
0.0
 15
0.0
 25
0.0
 35
0.0
146
0.0
 13
0.0
 23
0.0
 33
0.0
 16
1.0
 26
0.0
 36
0.0
 17
0.0
 27
1.0
 37
0.0
 76
     0
330
23
  0
LAYOUT
  5
22
102
{ACAD_REACTORS
330
1A
102
}
330
1A
100
AcDbPlotSettings
  1

  2

  4

  6

 40
0.0
 41
0.0
 42
0.0
 43
0.0
 44
0.0
 45
0.0
 46
0.0
 47
0.0
 48
0.0
 49
0.0
140
0.0
141
0.0
142
1.0
143
1.0
 70
  1712
 72
     0
 73
     0
 74
     0
  7

 75
     0
 76
     0
 77
     2
 78
   300
147
1.0
148
0.0
149
0.0
100
AcDbLayout
  1
Model
 70
     1
 71
     0
 10
0.0
 20
0.0
 11
0.0
 21
0.0
 12
0.0
 22
0.0
 32
0.0
 14
80.7972633575118
 24
92.2710949141387
 34
0.0
 15
219.040455352168
 25
165.876257280423
 35
0.0
146
0.0
 13
0.0
 23
0.0
 33
0.0
 16
1.0
 26
0.0
 36
0.0
 17
0.0
 27
1.0
 37
0.0
 76
     0
330
1F
  0
MLINESTYLE
  5
18
102
{ACAD_REACTORS
330
17
102
}
330
17
100
AcDbMlineStyle
  2
Standard
 70
     0
  3

 62
   256
 51
90.0
 52
90.0
 71
     2
 49
0.5
 62
   256
  6
BYLAYER
 49
-0.5
 62
   256
  6
BYLAYER
  0
ACDBPLACEHOLDER
  5
F
102
{ACAD_REACTORS
330
E
102
}
330
E
  0
ENDSEC
  0
EOF
