  0
SECTION
  2
HEADER
  9
$ACADVER
  1
AC1018
  9
$ACADMAINTVER
 70
     0
  9
$DWGCODEPAGE
  3
ANSI_1252
  9
$INSBASE
 10
0.0
 20
0.0
 30
0.0
  9
$EXTMIN
 10
476.691796099637
 20
344.249945670982
 30
0.0
  9
$EXTMAX
 10
551.931872835995
 20
497.1663549603027
 30
0.0
  9
$LIMMIN
 10
0.0
 20
0.0
  9
$LIMMAX
 10
12.0
 20
9.0
  9
$ORTHOMODE
 70
     0
  9
$REGENMODE
 70
     1
  9
$FILLMODE
 70
     1
  9
$QTEXTMODE
 70
     0
  9
$MIRRTEXT
 70
     1
  9
$LTSCALE
 40
1.0
  9
$ATTMODE
 70
     1
  9
$TEXTSIZE
 40
0.2
  9
$TRACEWID
 40
0.05
  9
$TEXTSTYLE
  7
Standard
  9
$CLAYER
  8
0
  9
$CELTYPE
  6
ByLayer
  9
$CECOLOR
 62
   256
  9
$CELTSCALE
 40
1.0
  9
$DISPSILH
 70
     0
  9
$DIMSCALE
 40
1.0
  9
$DIMASZ
 40
0.18
  9
$DIMEXO
 40
0.0625
  9
$DIMDLI
 40
0.38
  9
$DIMRND
 40
0.0
  9
$DIMDLE
 40
0.0
  9
$DIMEXE
 40
0.18
  9
$DIMTP
 40
0.0
  9
$DIMTM
 40
0.0
  9
$DIMTXT
 40
0.18
  9
$DIMCEN
 40
0.09
  9
$DIMTSZ
 40
0.0
  9
$DIMTOL
 70
     0
  9
$DIMLIM
 70
     0
  9
$DIMTIH
 70
     1
  9
$DIMTOH
 70
     1
  9
$DIMSE1
 70
     0
  9
$DIMSE2
 70
     0
  9
$DIMTAD
 70
     0
  9
$DIMZIN
 70
     0
  9
$DIMBLK
  1

  9
$DIMASO
 70
     1
  9
$DIMSHO
 70
     1
  9
$DIMPOST
  1

  9
$DIMAPOST
  1

  9
$DIMALT
 70
     0
  9
$DIMALTD
 70
     2
  9
$DIMALTF
 40
25.4
  9
$DIMLFAC
 40
1.0
  9
$DIMTOFL
 70
     0
  9
$DIMTVP
 40
0.0
  9
$DIMTIX
 70
     0
  9
$DIMSOXD
 70
     0
  9
$DIMSAH
 70
     0
  9
$DIMBLK1
  1

  9
$DIMBLK2
  1

  9
$DIMSTYLE
  2
Standard
  9
$DIMCLRD
 70
     0
  9
$DIMCLRE
 70
     0
  9
$DIMCLRT
 70
     0
  9
$DIMTFAC
 40
1.0
  9
$DIMGAP
 40
0.09
  9
$DIMJUST
 70
     0
  9
$DIMSD1
 70
     0
  9
$DIMSD2
 70
     0
  9
$DIMTOLJ
 70
     1
  9
$DIMTZIN
 70
     0
  9
$DIMALTZ
 70
     0
  9
$DIMALTTZ
 70
     0
  9
$DIMUPT
 70
     0
  9
$DIMDEC
 70
     4
  9
$DIMTDEC
 70
     4
  9
$DIMALTU
 70
     2
  9
$DIMALTTD
 70
     2
  9
$DIMTXSTY
  7
Standard
  9
$DIMAUNIT
 70
     0
  9
$DIMADEC
 70
     0
  9
$DIMALTRND
 40
0.0
  9
$DIMAZIN
 70
     0
  9
$DIMDSEP
 70
    46
  9
$DIMATFIT
 70
     3
  9
$DIMFRAC
 70
     0
  9
$DIMLDRBLK
  1

  9
$DIMLUNIT
 70
     2
  9
$DIMLWD
 70
    -2
  9
$DIMLWE
 70
    -2
  9
$DIMTMOVE
 70
     0
  9
$LUNITS
 70
     2
  9
$LUPREC
 70
     4
  9
$SKETCHINC
 40
0.1
  9
$FILLETRAD
 40
0.5
  9
$AUNITS
 70
     0
  9
$AUPREC
 70
     0
  9
$MENU
  1
.
  9
$ELEVATION
 40
0.0
  9
$PELEVATION
 40
0.0
  9
$THICKNESS
 40
0.0
  9
$LIMCHECK
 70
     0
  9
$CHAMFERA
 40
0.5
  9
$CHAMFERB
 40
0.5
  9
$CHAMFERC
 40
1.0
  9
$CHAMFERD
 40
0.0
  9
$SKPOLY
 70
     0
  9
$TDCREATE
 40
2456966.483528449
  9
$TDUCREATE
 40
2456966.441861782
  9
$TDUPDATE
 40
2456966.483528461
  9
$TDUUPDATE
 40
2456966.441861794
  9
$TDINDWG
 40
0.0000000116
  9
$TDUSRTIMER
 40
0.0000000116
  9
$USRTIMER
 70
     1
  9
$ANGBASE
 50
0.0
  9
$ANGDIR
 70
     0
  9
$PDMODE
 70
     0
  9
$PDSIZE
 40
0.0
  9
$PLINEWID
 40
0.0
  9
$SPLFRAME
 70
     0
  9
$SPLINETYPE
 70
     6
  9
$SPLINESEGS
 70
     8
  9
$HANDSEED
  5
1D5
  9
$SURFTAB1
 70
     6
  9
$SURFTAB2
 70
     6
  9
$SURFTYPE
 70
     6
  9
$SURFU
 70
     6
  9
$SURFV
 70
     6
  9
$UCSBASE
  2

  9
$UCSNAME
  2

  9
$UCSORG
 10
0.0
 20
0.0
 30
0.0
  9
$UCSXDIR
 10
1.0
 20
0.0
 30
0.0
  9
$UCSYDIR
 10
0.0
 20
1.0
 30
0.0
  9
$UCSORTHOREF
  2

  9
$UCSORTHOVIEW
 70
     0
  9
$UCSORGTOP
 10
0.0
 20
0.0
 30
0.0
  9
$UCSORGBOTTOM
 10
0.0
 20
0.0
 30
0.0
  9
$UCSORGLEFT
 10
0.0
 20
0.0
 30
0.0
  9
$UCSORGRIGHT
 10
0.0
 20
0.0
 30
0.0
  9
$UCSORGFRONT
 10
0.0
 20
0.0
 30
0.0
  9
$UCSORGBACK
 10
0.0
 20
0.0
 30
0.0
  9
$PUCSBASE
  2

  9
$PUCSNAME
  2

  9
$PUCSORG
 10
0.0
 20
0.0
 30
0.0
  9
$PUCSXDIR
 10
1.0
 20
0.0
 30
0.0
  9
$PUCSYDIR
 10
0.0
 20
1.0
 30
0.0
  9
$PUCSORTHOREF
  2

  9
$PUCSORTHOVIEW
 70
     0
  9
$PUCSORGTOP
 10
0.0
 20
0.0
 30
0.0
  9
$PUCSORGBOTTOM
 10
0.0
 20
0.0
 30
0.0
  9
$PUCSORGLEFT
 10
0.0
 20
0.0
 30
0.0
  9
$PUCSORGRIGHT
 10
0.0
 20
0.0
 30
0.0
  9
$PUCSORGFRONT
 10
0.0
 20
0.0
 30
0.0
  9
$PUCSORGBACK
 10
0.0
 20
0.0
 30
0.0
  9
$USERI1
 70
     0
  9
$USERI2
 70
     0
  9
$USERI3
 70
     0
  9
$USERI4
 70
     0
  9
$USERI5
 70
     0
  9
$USERR1
 40
14.5
  9
$USERR2
 40
0.0
  9
$USERR3
 40
0.0
  9
$USERR4
 40
0.0
  9
$USERR5
 40
0.0
  9
$WORLDVIEW
 70
     1
  9
$SHADEDGE
 70
     3
  9
$SHADEDIF
 70
    70
  9
$TILEMODE
 70
     1
  9
$MAXACTVP
 70
    64
  9
$PINSBASE
 10
0.0
 20
0.0
 30
0.0
  9
$PLIMCHECK
 70
     0
  9
$PEXTMIN
 10
1.00000000000000E+20
 20
1.00000000000000E+20
 30
1.00000000000000E+20
  9
$PEXTMAX
 10
-1.00000000000000E+20
 20
-1.00000000000000E+20
 30
-1.00000000000000E+20
  9
$PLIMMIN
 10
0.0
 20
0.0
  9
$PLIMMAX
 10
12.0
 20
9.0
  9
$UNITMODE
 70
     0
  9
$VISRETAIN
 70
     1
  9
$PLINEGEN
 70
     0
  9
$PSLTSCALE
 70
     1
  9
$TREEDEPTH
 70
  3020
  9
$CMLSTYLE
  2
Standard
  9
$CMLJUST
 70
     0
  9
$CMLSCALE
 40
1.0
  9
$PROXYGRAPHICS
 70
     1
  9
$MEASUREMENT
 70
     1
  9
$CELWEIGHT
370
    -1
  9
$ENDCAPS
280
     0
  9
$JOINSTYLE
280
     0
  9
$LWDISPLAY
290
     0
  9
$INSUNITS
 70
     1
  9
$HYPERLINKBASE
  1

  9
$STYLESHEET
  1

  9
$XEDIT
290
     1
  9
$CEPSNTYPE
380
     0
  9
$PSTYLEMODE
290
     1
  9
$FINGERPRINTGUID
  2
{CC3170A1-C9EC-4A14-B623-52FE33B34A88}
  9
$VERSIONGUID
  2
{FAEB1C32-E019-11D5-929B-00C0DF256EC4}
  9
$EXTNAMES
290
     1
  9
$PSVPSCALE
 40
0.0
  9
$OLESTARTUP
290
     0
  9
$SORTENTS
280
   127
  9
$INDEXCTL
280
     0
  9
$HIDETEXT
280
     1
  9
$XCLIPFRAME
290
     0
  9
$HALOGAP
280
     0
  9
$OBSCOLOR
 70
   257
  9
$OBSLTYPE
280
     0
  9
$INTERSECTIONDISPLAY
280
     0
  9
$INTERSECTIONCOLOR
 70
   257
  9
$DIMASSOC
280
     2
  9
$PROJECTNAME
  1

  0
ENDSEC
  0
SECTION
  2
CLASSES
  0
CLASS
  1
ACDBDICTIONARYWDFLT
  2
AcDbDictionaryWithDefault
  3
ObjectDBX Classes
 90
        0
 91
        3
280
     0
281
     0
  0
CLASS
  1

  2
exOdDbCircle
  3

 90
        0
 91
        3
280
     0
281
     1
  0
ENDSEC
  0
SECTION
  2
TABLES
  0
TABLE
  2
VPORT
  5
8
330
0
100
AcDbSymbolTable
 70
     1
  0
VPORT
  5
29
330
8
100
AcDbSymbolTableRecord
100
AcDbViewportTableRecord
  2
*Active
 70
     0
 10
0.0
 20
0.0
 11
1.0
 21
1.0
 12
514.311834467816
 22
420.7081503156423
 13
0.0
 23
0.0
 14
0.5
 24
0.5
 15
0.5
 25
0.5
 16
0.0
 26
0.0
 36
1.0
 17
0.0
 27
0.0
 37
0.0
 40
168.2080502182528
 41
1.60267857142857
 42
50.0
 43
0.0
 44
0.0
 50
0.0
 51
0.0
 71
     0
 72
   100
 73
     1
 74
     3
 75
     0
 76
     0
 77
     0
 78
     0
281
     0
 65
     1
110
0.0
120
0.0
130
0.0
111
1.0
121
0.0
131
0.0
112
0.0
122
1.0
132
0.0
 79
     0
146
0.0
  0
ENDTAB
  0
TABLE
  2
LTYPE
  5
5
330
0
100
AcDbSymbolTable
 70
     8
  0
LTYPE
  5
14
330
5
100
AcDbSymbolTableRecord
100
AcDbLinetypeTableRecord
  2
ByBlock
 70
     0
  3

 72
    65
 73
     0
 40
0.0
  0
LTYPE
  5
15
330
5
100
AcDbSymbolTableRecord
100
AcDbLinetypeTableRecord
  2
ByLayer
 70
     0
  3

 72
    65
 73
     0
 40
0.0
  0
LTYPE
  5
16
330
5
100
AcDbSymbolTableRecord
100
AcDbLinetypeTableRecord
  2
Continuous
 70
     0
  3
Solid line
 72
    65
 73
     0
 40
0.0
  0
LTYPE
  5
2A
330
5
100
AcDbSymbolTableRecord
100
AcDbLinetypeTableRecord
  2
DASHED
 70
     0
  3
Dashed
 72
    65
 73
     2
 40
15.0
 49
7.0
 74
     0
 49
-8.0
 74
     0
  0
LTYPE
  5
2B
330
5
100
AcDbSymbolTableRecord
100
AcDbLinetypeTableRecord
  2
DOTTED
 70
     0
  3
Dotted
 72
    65
 73
     2
 40
1.0
 49
0.0
 74
     0
 49
-1.0
 74
     0
  0
LTYPE
  5
2C
330
5
100
AcDbSymbolTableRecord
100
AcDbLinetypeTableRecord
  2
DOT_CENTER
 70
     0
  3
Dot_Center
 72
    65
 73
     4
 40
14.0
 49
12.0
 74
     0
 49
-1.0
 74
     0
 49
0.0
 74
     0
 49
-1.0
 74
     0
  0
LTYPE
  5
2D
330
5
100
AcDbSymbolTableRecord
100
AcDbLinetypeTableRecord
  2
LONG_DASHED
 70
     0
  3
Long_Dashed
 72
    65
 73
     2
 40
15.0
 49
10.0
 74
     0
 49
-5.0
 74
     0
  0
LTYPE
  5
2E
330
5
100
AcDbSymbolTableRecord
100
AcDbLinetypeTableRecord
  2
DASH_CENTER
 70
     0
  3
Dash_Center
 72
    65
 73
     4
 40
14.0
 49
11.0
 74
     0
 49
-1.0
 74
     0
 49
1.0
 74
     0
 49
-1.0
 74
     0
  0
LTYPE
  5
2F
330
5
100
AcDbSymbolTableRecord
100
AcDbLinetypeTableRecord
  2
PHANTOM
 70
     0
  3
Phantom
 72
    65
 73
     6
 40
13.0
 49
10.0
 74
     0
 49
-1.0
 74
     0
 49
0.0
 74
     0
 49
-1.0
 74
     0
 49
0.0
 74
     0
 49
-1.0
 74
     0
  0
LTYPE
  5
30
330
5
100
AcDbSymbolTableRecord
100
AcDbLinetypeTableRecord
  2
CENTER_DASH_DASH
 70
     0
  3
Center_Dash_Dash
 72
    65
 73
     6
 40
14.0
 49
9.0
 74
     0
 49
-1.0
 74
     0
 49
1.0
 74
     0
 49
-1.0
 74
     0
 49
1.0
 74
     0
 49
-1.0
 74
     0
  0
ENDTAB
  0
TABLE
  2
LAYER
  5
2
330
0
100
AcDbSymbolTable
 70
     2
  0
LAYER
  5
10
330
2
100
AcDbSymbolTableRecord
100
AcDbLayerTableRecord
  2
0
 70
     0
 62
     7
  6
Continuous
370
    -3
390
F
  0
LAYER
  5
31
330
2
100
AcDbSymbolTableRecord
100
AcDbLayerTableRecord
  2
1
 70
     0
 62
     7
  6
Continuous
370
    -3
390
F
  0
ENDTAB
  0
TABLE
  2
STYLE
  5
3
330
0
100
AcDbSymbolTable
 70
     2
  0
STYLE
  5
11
330
3
100
AcDbSymbolTableRecord
100
AcDbTextStyleTableRecord
  2
Standard
 70
     0
 40
0.0
 41
1.0
 50
0.0
 71
     0
 42
0.2
  3
txt
  4

  0
STYLE
  5
1A7
330
3
100
AcDbSymbolTableRecord
100
AcDbTextStyleTableRecord
  2
CONVERTER_11
 70
     0
 40
0.0
 41
0.9
 50
0.0
 71
     0
 42
0.2
  3
txt.shx
  4

  0
ENDTAB
  0
TABLE
  2
VIEW
  5
6
330
0
100
AcDbSymbolTable
 70
     0
  0
ENDTAB
  0
TABLE
  2
UCS
  5
7
330
0
100
AcDbSymbolTable
 70
     0
  0
ENDTAB
  0
TABLE
  2
APPID
  5
9
330
0
100
AcDbSymbolTable
 70
     1
  0
APPID
  5
12
330
9
100
AcDbSymbolTableRecord
100
AcDbRegAppTableRecord
  2
ACAD
 70
     0
  0
ENDTAB
  0
TABLE
  2
DIMSTYLE
  5
A
330
0
100
AcDbSymbolTable
 70
     5
100
AcDbDimStyleTable
  0
DIMSTYLE
105
27
330
A
100
AcDbSymbolTableRecord
100
AcDbDimStyleTableRecord
  2
Standard
 70
     0
340
11
  0
DIMSTYLE
105
1B2
102
{ACAD_REACTORS
330
1B3
102
}
330
A
100
AcDbSymbolTableRecord
100
AcDbDimStyleTableRecord
  2
ME10_DIM_10
 70
     0
 41
3.5
 42
0.0
 44
2.0
 73
     0
 74
     0
 77
     1
 78
     8
140
3.5
147
2.0
172
     1
173
     1
176
     2
177
     2
178
     2
271
     3
340
1A7
  0
DIMSTYLE
105
1BD
102
{ACAD_REACTORS
330
1BE
102
}
330
A
100
AcDbSymbolTableRecord
100
AcDbDimStyleTableRecord
  2
ME10_DIM_11
 70
     0
 41
3.5
 42
0.0
 44
2.0
 73
     0
 74
     0
 77
     1
 78
     8
140
3.5
147
2.0
172
     1
173
     1
176
     2
177
     2
178
     2
271
     3
340
1A7
  0
DIMSTYLE
105
1C8
102
{ACAD_REACTORS
330
1C9
102
}
330
A
100
AcDbSymbolTableRecord
100
AcDbDimStyleTableRecord
  2
ME10_DIM_12
 70
     0
 41
3.5
 42
0.0
 44
2.0
 73
     0
 74
     0
 77
     1
 78
     8
140
3.5
147
2.0
172
     1
173
     1
176
     2
177
     2
178
     2
271
     3
340
1A7
  0
DIMSTYLE
105
1D3
102
{ACAD_REACTORS
330
1D4
102
}
330
A
100
AcDbSymbolTableRecord
100
AcDbDimStyleTableRecord
  2
ME10_DIM_13
 70
     0
 41
3.5
 42
0.0
 44
2.0
 73
     0
 74
     0
 77
     1
 78
     1
140
3.5
147
2.0
172
     1
173
     1
176
     2
177
     2
178
     2
271
     1
340
1A7
  0
ENDTAB
  0
TABLE
  2
BLOCK_RECORD
  5
1
330
0
100
AcDbSymbolTable
 70
     5
  0
BLOCK_RECORD
  5
1F
330
1
100
AcDbSymbolTableRecord
100
AcDbBlockTableRecord
  2
*Model_Space
340
22
  0
BLOCK_RECORD
  5
1B
330
1
100
AcDbSymbolTableRecord
100
AcDbBlockTableRecord
  2
*Paper_Space
340
1E
  0
BLOCK_RECORD
  5
23
330
1
100
AcDbSymbolTableRecord
100
AcDbBlockTableRecord
  2
*Paper_Space0
340
26
  0
BLOCK_RECORD
  5
1A9
330
1
100
AcDbSymbolTableRecord
100
AcDbBlockTableRecord
  2
*D1
340
0
  0
BLOCK_RECORD
  5
1B4
330
1
100
AcDbSymbolTableRecord
100
AcDbBlockTableRecord
  2
*D2
340
0
  0
BLOCK_RECORD
  5
1BF
330
1
100
AcDbSymbolTableRecord
100
AcDbBlockTableRecord
  2
*D3
340
0
  0
BLOCK_RECORD
  5
1CA
330
1
100
AcDbSymbolTableRecord
100
AcDbBlockTableRecord
  2
*D4
340
0
  0
ENDTAB
  0
ENDSEC
  0
SECTION
  2
BLOCKS
  0
BLOCK
  5
20
330
1F
100
AcDbEntity
  8
0
100
AcDbBlockBegin
  2
*Model_Space
 70
     0
 71
     0
 10
0.0
 20
0.0
 30
0.0
  3
*Model_Space
  1

  0
ENDBLK
  5
21
330
1F
100
AcDbEntity
  8
0
100
AcDbBlockEnd
  0
BLOCK
  5
1C
330
1B
100
AcDbEntity
 67
     1
  8
0
100
AcDbBlockBegin
  2
*Paper_Space
 70
     0
 71
     0
 10
0.0
 20
0.0
 30
0.0
  3
*Paper_Space
  1

  0
ENDBLK
  5
1D
330
1B
100
AcDbEntity
 67
     1
  8
0
100
AcDbBlockEnd
  0
BLOCK
  5
24
330
23
100
AcDbEntity
  8
0
100
AcDbBlockBegin
  2
*Paper_Space0
 70
     0
 71
     0
 10
0.0
 20
0.0
 30
0.0
  3
*Paper_Space0
  1

  0
ENDBLK
  5
25
330
23
100
AcDbEntity
  8
0
100
AcDbBlockEnd
  0
BLOCK
  5
1B0
330
1A9
100
AcDbEntity
  8
0
100
AcDbBlockBegin
  2
*D1
 70
     1
 71
     0
 10
0.0
 20
0.0
 30
0.0
  3
*D1
  1

  0
LINE
  5
1AA
330
1A9
100
AcDbEntity
  8
1
  6
Continuous
 62
     2
100
AcDbLine
 10
482.191796099637
 20
497.1663549603027
 30
0.0
 11
482.191796099637
 21
357.1663549603026
 31
0.0
  0
LINE
  5
1AB
330
1A9
100
AcDbEntity
  8
1
  6
Continuous
 62
     2
100
AcDbLine
 10
500.7019480935046
 20
497.1663549603027
 30
0.0
 11
480.191796099637
 21
497.1663549603027
 31
0.0
  0
LINE
  5
1AC
330
1A9
100
AcDbEntity
  8
1
  6
Continuous
 62
     2
100
AcDbLine
 10
500.7019480935046
 20
357.1663549603026
 30
0.0
 11
480.191796099637
 21
357.1663549603026
 31
0.0
  0
SOLID
  5
1AD
330
1A9
100
AcDbEntity
  8
1
 62
     2
100
AcDbTrace
 10
482.6525798411928
 20
493.6663549603027
 30
0.0
 11
481.7310123580811
 21
493.6663549603027
 31
0.0
 12
482.191796099637
 22
497.1663549603027
 32
0.0
 13
482.191796099637
 23
497.1663549603027
 33
0.0
  0
SOLID
  5
1AE
330
1A9
100
AcDbEntity
  8
1
 62
     2
100
AcDbTrace
 10
481.7310123580811
 20
360.6663549603026
 30
0.0
 11
482.6525798411928
 21
360.6663549603026
 31
0.0
 12
482.191796099637
 22
357.1663549603026
 32
0.0
 13
482.191796099637
 23
357.1663549603026
 33
0.0
  0
MTEXT
  5
1AF
330
1A9
100
AcDbEntity
  8
1
 62
     2
100
AcDbMText
 10
480.191796099637
 20
424.316175153667
 30
0.0
 40
3.5
 41
0.0
 71
     7
 72
     1
  1
140
  7
CONVERTER_11
 11
0.0
 21
1.0
 31
0.0
 73
     1
 44
0.60024009603842
  0
ENDBLK
  5
1B1
330
1A9
100
AcDbEntity
  8
0
100
AcDbBlockEnd
  0
BLOCK
  5
1BB
330
1B4
100
AcDbEntity
  8
0
100
AcDbBlockBegin
  2
*D2
 70
     1
 71
     0
 10
0.0
 20
0.0
 30
0.0
  3
*D2
  1

  0
LINE
  5
1B5
330
1B4
100
AcDbEntity
  8
1
  6
Continuous
 62
     2
100
AcDbLine
 10
520.7833156885208
 20
346.546490269776
 30
0.0
 11
541.7833156885208
 21
346.546490269776
 31
0.0
  0
LINE
  5
1B6
330
1B4
100
AcDbEntity
  8
1
  6
Continuous
 62
     2
100
AcDbLine
 10
520.7833156885208
 20
370.1663549603026
 30
0.0
 11
520.7833156885208
 21
344.546490269776
 31
0.0
  0
LINE
  5
1B7
330
1B4
100
AcDbEntity
  8
1
  6
Continuous
 62
     2
100
AcDbLine
 10
541.7833156885208
 20
370.1663549603026
 30
0.0
 11
541.7833156885208
 21
344.546490269776
 31
0.0
  0
SOLID
  5
1B8
330
1B4
100
AcDbEntity
  8
1
 62
     2
100
AcDbTrace
 10
524.2833156885208
 20
347.0072740113318
 30
0.0
 11
524.2833156885208
 21
346.0857065282201
 31
0.0
 12
520.7833156885208
 22
346.546490269776
 32
0.0
 13
520.7833156885208
 23
346.546490269776
 33
0.0
  0
SOLID
  5
1B9
330
1B4
100
AcDbEntity
  8
1
 62
     2
100
AcDbTrace
 10
538.2833156885208
 20
346.0857065282201
 30
0.0
 11
538.2833156885208
 21
347.0072740113318
 31
0.0
 12
541.7833156885208
 22
346.546490269776
 32
0.0
 13
541.7833156885208
 23
346.546490269776
 33
0.0
  0
MTEXT
  5
1BA
330
1B4
100
AcDbEntity
  8
1
 62
     2
100
AcDbMText
 10
528.5336454872889
 20
348.546490269776
 30
0.0
 40
3.5
 41
0.0
 71
     7
 72
     1
  1
21
  7
CONVERTER_11
 11
0.9999999999970621
 21
2.424068405545307E-6
 31
0.0
 73
     1
 44
0.60024009603842
  0
ENDBLK
  5
1BC
330
1B4
100
AcDbEntity
  8
0
100
AcDbBlockEnd
  0
BLOCK
  5
1C6
330
1BF
100
AcDbEntity
  8
0
100
AcDbBlockBegin
  2
*D3
 70
     1
 71
     0
 10
0.0
 20
0.0
 30
0.0
  3
*D3
  1

  0
LINE
  5
1C0
330
1BF
100
AcDbEntity
  8
1
  6
Continuous
 62
     2
100
AcDbLine
 10
491.7019480935046
 20
346.249945670982
 30
0.0
 11
509.7019480935046
 21
346.249945670982
 31
0.0
  0
LINE
  5
1C1
330
1BF
100
AcDbEntity
  8
1
  6
Continuous
 62
     2
100
AcDbLine
 10
491.7019480935046
 20
366.1663549603026
 30
0.0
 11
491.7019480935046
 21
344.249945670982
 31
0.0
  0
LINE
  5
1C2
330
1BF
100
AcDbEntity
  8
1
  6
Continuous
 62
     2
100
AcDbLine
 10
509.7019480935046
 20
366.1663549603026
 30
0.0
 11
509.7019480935046
 21
344.249945670982
 31
0.0
  0
SOLID
  5
1C3
330
1BF
100
AcDbEntity
  8
1
 62
     2
100
AcDbTrace
 10
495.2019480935046
 20
346.7107294125379
 30
0.0
 11
495.2019480935046
 21
345.7891619294261
 31
0.0
 12
491.7019480935046
 22
346.249945670982
 32
0.0
 13
491.7019480935046
 23
346.249945670982
 33
0.0
  0
SOLID
  5
1C4
330
1BF
100
AcDbEntity
  8
1
 62
     2
100
AcDbTrace
 10
506.2019480935046
 20
345.7891619294261
 30
0.0
 11
506.2019480935046
 21
346.7107294125379
 31
0.0
 12
509.7019480935046
 22
346.249945670982
 32
0.0
 13
509.7019480935046
 23
346.249945670982
 33
0.0
  0
MTEXT
  5
1C5
330
1BF
100
AcDbEntity
  8
1
 62
     2
100
AcDbMText
 10
498.582641009148
 20
348.249945670982
 30
0.0
 40
3.5
 41
0.0
 71
     7
 72
     1
  1
18
  7
CONVERTER_11
 11
0.9999999999970621
 21
2.424068405545307E-6
 31
0.0
 73
     1
 44
0.60024009603842
  0
ENDBLK
  5
1C7
330
1BF
100
AcDbEntity
  8
0
100
AcDbBlockEnd
  0
BLOCK
  5
1D1
330
1CA
100
AcDbEntity
  8
0
100
AcDbBlockBegin
  2
*D4
 70
     1
 71
     0
 10
0.0
 20
0.0
 30
0.0
  3
*D4
  1

  0
LINE
  5
1CB
330
1CA
100
AcDbEntity
  8
1
  6
Continuous
 62
     2
100
AcDbLine
 10
509.7019480935046
 20
346.249945670982
 30
0.0
 11
520.7833156885208
 21
346.249945670982
 31
0.0
  0
LINE
  5
1CC
330
1CA
100
AcDbEntity
  8
1
  6
Continuous
 62
     2
100
AcDbLine
 10
509.7019480935046
 20
366.1663549603026
 30
0.0
 11
509.7019480935046
 21
344.249945670982
 31
0.0
  0
LINE
  5
1CD
330
1CA
100
AcDbEntity
  8
1
  6
Continuous
 62
     2
100
AcDbLine
 10
520.7833156885208
 20
370.1663549603026
 30
0.0
 11
520.7833156885208
 21
344.249945670982
 31
0.0
  0
SOLID
  5
1CE
330
1CA
100
AcDbEntity
  8
1
 62
     2
100
AcDbTrace
 10
513.2019480935046
 20
346.7107294125379
 30
0.0
 11
513.2019480935046
 21
345.7891619294261
 31
0.0
 12
509.7019480935046
 22
346.249945670982
 32
0.0
 13
509.7019480935046
 23
346.249945670982
 33
0.0
  0
SOLID
  5
1CF
330
1CA
100
AcDbEntity
  8
1
 62
     2
100
AcDbTrace
 10
517.2833156885208
 20
345.7891619294261
 30
0.0
 11
517.2833156885208
 21
346.7107294125379
 31
0.0
 12
520.7833156885208
 22
346.249945670982
 32
0.0
 13
520.7833156885208
 23
346.249945670982
 33
0.0
  0
MTEXT
  5
1D0
330
1CA
100
AcDbEntity
  8
1
 62
     2
100
AcDbMText
 10
511.608518505675
 20
348.249945670982
 30
0.0
 40
3.5
 41
0.0
 71
     7
 72
     1
  1
11.1
  7
CONVERTER_11
 11
0.9999999999970621
 21
2.424068405545307E-6
 31
0.0
 73
     1
 44
0.60024009603842
  0
ENDBLK
  5
1D2
330
1CA
100
AcDbEntity
  8
0
100
AcDbBlockEnd
  0
ENDSEC
  0
SECTION
  2
ENTITIES
  0
POINT
  5
32
330
1F
100
AcDbEntity
  8
1
 62
     3
 60
     1
100
AcDbPoint
 10
551.931872835995
 20
427.1663549603026
 30
0.0
  0
POINT
  5
33
330
1F
100
AcDbEntity
  8
1
 62
     3
 60
     1
100
AcDbPoint
 10
488.931872835995
 20
427.1663549603026
 30
0.0
  0
POINT
  5
34
330
1F
100
AcDbEntity
  8
1
 62
     3
 60
     1
100
AcDbPoint
 10
520.7833156885208
 20
394.6663549603025
 30
0.0
  0
POINT
  5
35
330
1F
100
AcDbEntity
  8
1
 62
     3
 60
     1
100
AcDbPoint
 10
541.7833156885208
 20
394.6663549603025
 30
0.0
  0
POINT
  5
36
330
1F
100
AcDbEntity
  8
1
 62
     3
 60
     1
100
AcDbPoint
 10
541.7833156885208
 20
459.6663549603027
 30
0.0
  0
POINT
  5
37
330
1F
100
AcDbEntity
  8
1
 62
     3
 60
     1
100
AcDbPoint
 10
520.7833156885208
 20
459.6663549603027
 30
0.0
  0
POINT
  5
38
330
1F
100
AcDbEntity
  8
1
 62
     3
 60
     1
100
AcDbPoint
 10
500.7019480935046
 20
382.5213914827342
 30
0.0
  0
POINT
  5
39
330
1F
100
AcDbEntity
  8
1
 62
     3
 60
     1
100
AcDbPoint
 10
500.7019480935046
 20
381.5213914827342
 30
0.0
  0
POINT
  5
3A
330
1F
100
AcDbEntity
  8
1
 62
     3
 60
     1
100
AcDbPoint
 10
535.252256282441
 20
486.1663549603026
 30
0.0
  0
POINT
  5
3B
330
1F
100
AcDbEntity
  8
1
 62
     3
 60
     1
100
AcDbPoint
 10
527.252256282441
 20
486.1663549603026
 30
0.0
  0
POINT
  5
3C
330
1F
100
AcDbEntity
  8
1
 62
     3
 60
     1
100
AcDbPoint
 10
531.2833156885208
 20
471.981873927088
 30
0.0
  0
POINT
  5
3D
330
1F
100
AcDbEntity
  8
1
 62
     3
 60
     1
100
AcDbPoint
 10
531.2833156885208
 20
492.981873927088
 30
0.0
  0
POINT
  5
3E
330
1F
100
AcDbEntity
  8
1
 62
     3
 60
     1
100
AcDbPoint
 10
541.7833156885208
 20
457.1663549603026
 30
0.0
  0
POINT
  5
3F
330
1F
100
AcDbEntity
  8
1
 62
     3
 60
     1
100
AcDbPoint
 10
541.7833156885208
 20
397.1663549603026
 30
0.0
  0
POINT
  5
40
330
1F
100
AcDbEntity
  8
1
 62
     3
 60
     1
100
AcDbPoint
 10
531.2833156885208
 20
362.074153115474
 30
0.0
  0
POINT
  5
41
330
1F
100
AcDbEntity
  8
1
 62
     3
 60
     1
100
AcDbPoint
 10
531.2833156885208
 20
382.074153115474
 30
0.0
  0
LINE
  5
42
330
1F
100
AcDbEntity
  8
1
  6
DOT_CENTER
 62
     7
100
AcDbLine
 10
488.931872835995
 20
427.1663549603026
 30
0.0
 11
551.931872835995
 21
427.1663549603026
 31
0.0
  0
LINE
  5
43
330
1F
100
AcDbEntity
  8
1
  6
Continuous
 62
     7
100
AcDbLine
 10
539.0333156885208
 20
397.1663549603026
 30
0.0
 11
526.0333156885208
 21
397.1663549603026
 31
0.0
  0
LINE
  5
44
330
1F
100
AcDbEntity
  8
1
  6
Continuous
 62
     7
100
AcDbLine
 10
540.5333156885208
 20
394.6663549603025
 30
0.0
 11
540.5333156885208
 21
397.1663549603026
 31
0.0
  0
LINE
  5
45
330
1F
100
AcDbEntity
  8
1
  6
Continuous
 62
     7
100
AcDbLine
 10
539.0333156885208
 20
397.1663549603026
 30
0.0
 11
539.0333156885208
 21
394.6663549603025
 31
0.0
  0
LINE
  5
46
330
1F
100
AcDbEntity
  8
1
  6
Continuous
 62
     7
100
AcDbLine
 10
534.6833156885207
 20
395.1663549603026
 30
0.0
 11
531.8833156885208
 21
395.1663549603026
 31
0.0
  0
LINE
  5
47
330
1F
100
AcDbEntity
  8
1
  6
Continuous
 62
     7
100
AcDbLine
 10
526.0333156885208
 20
397.1663549603026
 30
0.0
 11
524.7833156885208
 21
397.1663549603026
 31
0.0
  0
LINE
  5
48
330
1F
100
AcDbEntity
  8
1
  6
Continuous
 62
     7
100
AcDbLine
 10
539.0333156885208
 20
397.1663549603026
 30
0.0
 11
526.0333156885208
 21
397.1663549603026
 31
0.0
  0
LINE
  5
49
330
1F
100
AcDbEntity
  8
1
  6
Continuous
 62
     7
100
AcDbLine
 10
526.0333156885208
 20
394.6663549603025
 30
0.0
 11
526.0333156885208
 21
397.1663549603026
 31
0.0
  0
LINE
  5
4A
330
1F
100
AcDbEntity
  8
1
  6
Continuous
 62
     7
100
AcDbLine
 10
526.0333156885208
 20
457.1663549603026
 30
0.0
 11
526.0333156885208
 21
459.6663549603027
 31
0.0
  0
LINE
  5
4B
330
1F
100
AcDbEntity
  8
1
  6
Continuous
 62
     7
100
AcDbLine
 10
539.0333156885208
 20
459.6663549603027
 30
0.0
 11
539.0333156885208
 21
457.1663549603026
 31
0.0
  0
LINE
  5
4C
330
1F
100
AcDbEntity
  8
1
  6
Continuous
 62
     7
100
AcDbLine
 10
520.7833156885208
 20
394.6663549603025
 30
0.0
 11
541.7833156885208
 21
394.6663549603025
 31
0.0
  0
LINE
  5
4D
330
1F
100
AcDbEntity
  8
1
  6
Continuous
 62
     7
100
AcDbLine
 10
520.7833156885208
 20
394.6663549603025
 30
0.0
 11
520.7833156885208
 21
396.1663549603026
 31
0.0
  0
LINE
  5
4E
330
1F
100
AcDbEntity
  8
1
  6
Continuous
 62
     7
100
AcDbLine
 10
541.7833156885208
 20
394.6663549603025
 30
0.0
 11
541.7833156885208
 21
397.1663549603026
 31
0.0
  0
LINE
  5
4F
330
1F
100
AcDbEntity
  8
1
  6
Continuous
 62
     7
100
AcDbLine
 10
541.7833156885208
 20
459.6663549603027
 30
0.0
 11
520.7833156885208
 21
459.6663549603027
 31
0.0
  0
LINE
  5
50
330
1F
100
AcDbEntity
  8
1
  6
Continuous
 62
     7
100
AcDbLine
 10
531.8833156885208
 20
459.1663549603026
 30
0.0
 11
534.6833156885207
 21
459.1663549603026
 31
0.0
  0
LINE
  5
51
330
1F
100
AcDbEntity
  8
1
  6
Continuous
 62
     7
100
AcDbLine
 10
540.5333156885208
 20
457.1663549603026
 30
0.0
 11
540.5333156885208
 21
459.6663549603027
 31
0.0
  0
LINE
  5
52
330
1F
100
AcDbEntity
  8
1
  6
DOT_CENTER
 62
     2
100
AcDbLine
 10
500.7019480935046
 20
381.5213914827342
 30
0.0
 11
500.7019480935046
 21
382.5213914827342
 31
0.0
  0
LINE
  5
53
330
1F
100
AcDbEntity
  8
1
  6
DOT_CENTER
 62
     2
100
AcDbLine
 10
500.7019480935046
 20
354.7663549603026
 30
0.0
 11
500.7019480935046
 21
381.5213914827342
 31
0.0
  0
LINE
  5
54
330
1F
100
AcDbEntity
  8
1
  6
DOT_CENTER
 62
     2
100
AcDbLine
 10
489.3019480935046
 20
366.1663549603026
 30
0.0
 11
512.1019480935047
 21
366.1663549603026
 31
0.0
  0
LINE
  5
55
330
1F
100
AcDbEntity
  8
1
  6
Continuous
 62
     7
100
AcDbLine
 10
491.7019480935046
 20
457.1663549603026
 30
0.0
 11
493.2019480935046
 21
457.1663549603026
 31
0.0
  0
LINE
  5
56
330
1F
100
AcDbEntity
  8
1
  6
Continuous
 62
     7
100
AcDbLine
 10
491.7019480935046
 20
457.1663549603026
 30
0.0
 11
491.7019480935046
 21
427.1663549603026
 31
0.0
  0
LINE
  5
57
330
1F
100
AcDbEntity
  8
1
  6
Continuous
 62
     7
100
AcDbLine
 10
493.2019480935046
 20
427.1663549603026
 30
0.0
 11
493.2019480935046
 21
450.9163549603026
 31
0.0
  0
LINE
  5
58
330
1F
100
AcDbEntity
  8
1
  6
Continuous
 62
     7
100
AcDbLine
 10
491.7019480935046
 20
488.1663549603026
 30
0.0
 11
491.7019480935046
 21
457.1663549603026
 31
0.0
  0
LINE
  5
59
330
1F
100
AcDbEntity
  8
1
  6
Continuous
 62
     7
100
AcDbLine
 10
509.7019480935046
 20
488.1663549603026
 30
0.0
 11
509.7019480935046
 21
457.1663549603026
 31
0.0
  0
LINE
  5
5A
330
1F
100
AcDbEntity
  8
1
  6
Continuous
 62
     7
100
AcDbLine
 10
507.7019480935046
 20
457.1663549603026
 30
0.0
 11
509.7019480935046
 21
457.1663549603026
 31
0.0
  0
LINE
  5
5B
330
1F
100
AcDbEntity
  8
1
  6
Continuous
 62
     7
100
AcDbLine
 10
493.2019480935046
 20
457.1663549603026
 30
0.0
 11
506.2019480935046
 21
457.1663549603026
 31
0.0
  0
LINE
  5
5C
330
1F
100
AcDbEntity
  8
1
  6
Continuous
 62
     7
100
AcDbLine
 10
491.7019480935046
 20
397.1663549603026
 30
0.0
 11
491.7019480935046
 21
387.1663549603026
 31
0.0
  0
LINE
  5
5D
330
1F
100
AcDbEntity
  8
1
  6
Continuous
 62
     7
100
AcDbLine
 10
509.7019480935046
 20
397.1663549603026
 30
0.0
 11
509.7019480935046
 21
366.1663549603026
 31
0.0
  0
LINE
  5
5E
330
1F
100
AcDbEntity
  8
1
  6
Continuous
 62
     7
100
AcDbLine
 10
491.7019480935046
 20
387.1663549603026
 30
0.0
 11
491.7019480935046
 21
366.1663549603026
 31
0.0
  0
LINE
  5
5F
330
1F
100
AcDbEntity
  8
1
  6
Continuous
 62
     7
100
AcDbLine
 10
509.7019480935046
 20
397.1663549603026
 30
0.0
 11
507.7019480935046
 21
397.1663549603026
 31
0.0
  0
LINE
  5
60
330
1F
100
AcDbEntity
  8
1
  6
Continuous
 62
     7
100
AcDbLine
 10
507.7019480935046
 20
397.1663549603026
 30
0.0
 11
506.2019480935046
 21
397.1663549603026
 31
0.0
  0
LINE
  5
61
330
1F
100
AcDbEntity
  8
1
  6
Continuous
 62
     7
100
AcDbLine
 10
491.7019480935046
 20
427.1663549603026
 30
0.0
 11
491.7019480935046
 21
397.1663549603026
 31
0.0
  0
LINE
  5
62
330
1F
100
AcDbEntity
  8
1
  6
Continuous
 62
     7
100
AcDbLine
 10
493.2019480935046
 20
397.1663549603026
 30
0.0
 11
491.7019480935046
 21
397.1663549603026
 31
0.0
  0
LINE
  5
63
330
1F
100
AcDbEntity
  8
1
  6
Continuous
 62
     7
100
AcDbLine
 10
506.2019480935046
 20
397.1663549603026
 30
0.0
 11
493.2019480935046
 21
397.1663549603026
 31
0.0
  0
LINE
  5
64
330
1F
100
AcDbEntity
  8
1
  6
Continuous
 62
     7
100
AcDbLine
 10
506.2019480935046
 20
457.1663549603026
 30
0.0
 11
507.7019480935046
 21
457.1663549603026
 31
0.0
  0
LINE
  5
65
330
1F
100
AcDbEntity
  8
1
  6
DOT_CENTER
 62
     2
100
AcDbLine
 10
503.5769480935046
 20
364.1663549603026
 30
0.0
 11
490.8269480935046
 21
364.1663549603026
 31
0.0
  0
LINE
  5
66
330
1F
100
AcDbEntity
  8
1
  6
DOT_CENTER
 62
     2
100
AcDbLine
 10
497.2019480935046
 20
370.5413549603026
 30
0.0
 11
497.2019480935046
 21
357.7913549603026
 31
0.0
  0
LINE
  5
67
330
1F
100
AcDbEntity
  8
1
  6
DOT_CENTER
 62
     2
100
AcDbLine
 10
510.5769480935046
 20
371.1663549603026
 30
0.0
 11
497.8269480935046
 21
371.1663549603026
 31
0.0
  0
LINE
  5
68
330
1F
100
AcDbEntity
  8
1
  6
DOT_CENTER
 62
     2
100
AcDbLine
 10
504.2019480935046
 20
377.5413549603026
 30
0.0
 11
504.2019480935046
 21
364.7913549603026
 31
0.0
  0
LINE
  5
69
330
1F
100
AcDbEntity
  8
1
  6
DOT_CENTER
 62
     2
100
AcDbLine
 10
510.5769480935046
 20
483.1663549603026
 30
0.0
 11
497.8269480935046
 21
483.1663549603026
 31
0.0
  0
LINE
  5
6A
330
1F
100
AcDbEntity
  8
1
  6
DOT_CENTER
 62
     2
100
AcDbLine
 10
504.2019480935046
 20
489.5413549603026
 30
0.0
 11
504.2019480935046
 21
476.7913549603026
 31
0.0
  0
LINE
  5
6B
330
1F
100
AcDbEntity
  8
1
  6
DOT_CENTER
 62
     2
100
AcDbLine
 10
503.5769480935046
 20
490.1663549603026
 30
0.0
 11
490.8269480935046
 21
490.1663549603026
 31
0.0
  0
LINE
  5
6C
330
1F
100
AcDbEntity
  8
1
  6
DOT_CENTER
 62
     2
100
AcDbLine
 10
497.2019480935046
 20
496.5413549603027
 30
0.0
 11
497.2019480935046
 21
483.7913549603026
 31
0.0
  0
LINE
  5
6D
330
1F
100
AcDbEntity
  8
1
  6
Continuous
 62
     7
100
AcDbLine
 10
493.2019480935046
 20
403.4163549603026
 30
0.0
 11
493.2019480935046
 21
427.1663549603026
 31
0.0
  0
LINE
  5
6E
330
1F
100
AcDbEntity
  8
1
  6
DOT_CENTER
 62
     2
100
AcDbLine
 10
525.3472476852264
 20
477.7663549603026
 30
0.0
 11
537.021101832748
 21
477.7663549603026
 31
0.0
  0
LINE
  5
6F
330
1F
100
AcDbEntity
  8
1
  6
DASHED
 62
     2
100
AcDbLine
 10
535.7833156885208
 20
477.7663549603026
 30
0.0
 11
535.7833156885208
 21
482.5934032481089
 31
0.0
  0
LINE
  5
70
330
1F
100
AcDbEntity
  8
1
  6
DASHED
 62
     2
100
AcDbLine
 10
526.7833156885208
 20
477.7663549603026
 30
0.0
 11
526.7833156885208
 21
482.5934032481089
 31
0.0
  0
LINE
  5
71
330
1F
100
AcDbEntity
  8
1
  6
DOT_CENTER
 62
     2
100
AcDbLine
 10
525.3472476852264
 20
482.5934032481089
 30
0.0
 11
537.021101832748
 21
482.5934032481089
 31
0.0
  0
LINE
  5
72
330
1F
100
AcDbEntity
  8
1
  6
DOT_CENTER
 62
     2
100
AcDbLine
 10
534.7813052095169
 20
489.0663549603026
 30
0.0
 11
527.9723381008516
 21
489.0663549603026
 31
0.0
  0
LINE
  5
73
330
1F
100
AcDbEntity
  8
1
  6
DASHED
 62
     2
100
AcDbLine
 10
528.6833156885207
 20
477.7663549603026
 30
0.0
 11
528.6833156885207
 21
489.0663549603026
 31
0.0
  0
LINE
  5
74
330
1F
100
AcDbEntity
  8
1
  6
DASHED
 62
     2
100
AcDbLine
 10
533.8833156885207
 20
489.0663549603026
 30
0.0
 11
533.8833156885207
 21
477.7663549603026
 31
0.0
  0
LINE
  5
75
330
1F
100
AcDbEntity
  8
1
  6
DASHED
 62
     2
100
AcDbLine
 10
533.8833156885207
 20
368.066433138055
 30
0.0
 11
533.8833156885207
 21
365.2663549603026
 31
0.0
  0
LINE
  5
76
330
1F
100
AcDbEntity
  8
1
  6
DASHED
 62
     2
100
AcDbLine
 10
528.6833156885207
 20
368.066433138055
 30
0.0
 11
528.6833156885207
 21
376.5663549603026
 31
0.0
  0
LINE
  5
77
330
1F
100
AcDbEntity
  8
1
  6
DOT_CENTER
 62
     2
100
AcDbLine
 10
527.9723381008516
 20
365.2663549603026
 30
0.0
 11
534.7813052095169
 21
365.2663549603026
 31
0.0
  0
LINE
  5
78
330
1F
100
AcDbEntity
  8
1
  6
DASHED
 62
     2
100
AcDbLine
 10
533.8833156885207
 20
376.5663549603026
 30
0.0
 11
533.8833156885207
 21
368.066433138055
 31
0.0
  0
LINE
  5
79
330
1F
100
AcDbEntity
  8
1
  6
DASHED
 62
     2
100
AcDbLine
 10
528.6833156885207
 20
365.2663549603026
 30
0.0
 11
528.6833156885207
 21
368.066433138055
 31
0.0
  0
LINE
  5
7A
330
1F
100
AcDbEntity
  8
1
  6
Continuous
 62
     7
100
AcDbLine
 10
541.7833156885208
 20
403.6663549603026
 30
0.0
 11
541.7833156885208
 21
427.1663549603026
 31
0.0
  0
LINE
  5
7B
330
1F
100
AcDbEntity
  8
1
  6
Continuous
 62
     7
100
AcDbLine
 10
540.5333156885208
 20
403.6663549603026
 30
0.0
 11
541.7833156885208
 21
403.6663549603026
 31
0.0
  0
LINE
  5
7C
330
1F
100
AcDbEntity
  8
1
  6
Continuous
 62
     7
100
AcDbLine
 10
541.7833156885208
 20
450.6663549603026
 30
0.0
 11
541.7833156885208
 21
457.1663549603026
 31
0.0
  0
LINE
  5
7D
330
1F
100
AcDbEntity
  8
1
  6
Continuous
 62
     7
100
AcDbLine
 10
540.5333156885208
 20
450.6663549603026
 30
0.0
 11
540.5333156885208
 21
427.1663549603026
 31
0.0
  0
LINE
  5
7E
330
1F
100
AcDbEntity
  8
1
  6
Continuous
 62
     7
100
AcDbLine
 10
540.5333156885208
 20
450.6663549603026
 30
0.0
 11
541.7833156885208
 21
450.6663549603026
 31
0.0
  0
LINE
  5
7F
330
1F
100
AcDbEntity
  8
1
  6
DOT_CENTER
 62
     2
100
AcDbLine
 10
537.021101832748
 20
371.7393066724963
 30
0.0
 11
525.3472476852264
 21
371.7393066724963
 31
0.0
  0
LINE
  5
80
330
1F
100
AcDbEntity
  8
1
  6
DASHED
 62
     2
100
AcDbLine
 10
526.7833156885208
 20
371.7393066724963
 30
0.0
 11
526.7833156885208
 21
376.5663549603026
 31
0.0
  0
LINE
  5
81
330
1F
100
AcDbEntity
  8
1
  6
DASHED
 62
     2
100
AcDbLine
 10
535.7833156885208
 20
371.7393066724963
 30
0.0
 11
535.7833156885208
 21
376.5663549603026
 31
0.0
  0
LINE
  5
82
330
1F
100
AcDbEntity
  8
1
  6
DOT_CENTER
 62
     2
100
AcDbLine
 10
537.021101832748
 20
376.5663549603026
 30
0.0
 11
525.3472476852264
 21
376.5663549603026
 31
0.0
  0
LINE
  5
83
330
1F
100
AcDbEntity
  8
1
  6
Continuous
 62
     7
100
AcDbLine
 10
520.7833156885208
 20
458.1663549603026
 30
0.0
 11
520.7833156885208
 21
484.1663549603026
 31
0.0
  0
LINE
  5
84
330
1F
100
AcDbEntity
  8
1
  6
Continuous
 62
     7
100
AcDbLine
 10
541.7833156885208
 20
427.1663549603026
 30
0.0
 11
541.7833156885208
 21
450.6663549603026
 31
0.0
  0
LINE
  5
85
330
1F
100
AcDbEntity
  8
1
  6
Continuous
 62
     7
100
AcDbLine
 10
521.7833156885208
 20
457.1663549603026
 30
0.0
 11
524.7833156885208
 21
457.1663549603026
 31
0.0
  0
LINE
  5
86
330
1F
100
AcDbEntity
  8
1
  6
Continuous
 62
     7
100
AcDbLine
 10
526.0333156885208
 20
457.1663549603026
 30
0.0
 11
539.0333156885208
 21
457.1663549603026
 31
0.0
  0
LINE
  5
87
330
1F
100
AcDbEntity
  8
1
  6
Continuous
 62
     7
100
AcDbLine
 10
524.7833156885208
 20
457.1663549603026
 30
0.0
 11
526.0333156885208
 21
457.1663549603026
 31
0.0
  0
LINE
  5
88
330
1F
100
AcDbEntity
  8
1
  6
Continuous
 62
     7
100
AcDbLine
 10
541.7833156885208
 20
370.1663549603026
 30
0.0
 11
541.7833156885208
 21
389.1663549603026
 31
0.0
  0
LINE
  5
89
330
1F
100
AcDbEntity
  8
1
  6
Continuous
 62
     7
100
AcDbLine
 10
526.0333156885208
 20
397.1663549603026
 30
0.0
 11
524.7833156885208
 21
397.1663549603026
 31
0.0
  0
LINE
  5
8A
330
1F
100
AcDbEntity
  8
1
  6
Continuous
 62
     7
100
AcDbLine
 10
540.5333156885208
 20
427.1663549603026
 30
0.0
 11
540.5333156885208
 21
403.6663549603026
 31
0.0
  0
LINE
  5
8B
330
1F
100
AcDbEntity
  8
1
  6
Continuous
 62
     7
100
AcDbLine
 10
524.7833156885208
 20
397.1663549603026
 30
0.0
 11
521.7833156885208
 21
397.1663549603026
 31
0.0
  0
LINE
  5
8C
330
1F
100
AcDbEntity
  8
1
  6
Continuous
 62
     7
100
AcDbLine
 10
520.7833156885208
 20
370.1663549603026
 30
0.0
 11
520.7833156885208
 21
394.6663549603025
 31
0.0
  0
LINE
  5
8D
330
1F
100
AcDbEntity
  8
1
  6
Continuous
 62
     7
100
AcDbLine
 10
540.5333156885208
 20
450.6663549603026
 30
0.0
 11
540.5333156885208
 21
457.1663549603026
 31
0.0
  0
LINE
  5
8E
330
1F
100
AcDbEntity
  8
1
  6
Continuous
 62
     7
100
AcDbLine
 10
540.5333156885208
 20
403.6663549603026
 30
0.0
 11
540.5333156885208
 21
397.1663549603026
 31
0.0
  0
LINE
  5
8F
330
1F
100
AcDbEntity
  8
1
  6
Continuous
 62
     7
100
AcDbLine
 10
541.7833156885208
 20
465.1663549603026
 30
0.0
 11
541.7833156885208
 21
484.1663549603026
 31
0.0
  0
LINE
  5
90
330
1F
100
AcDbEntity
  8
1
  6
Continuous
 62
     7
100
AcDbLine
 10
541.7833156885208
 20
389.1663549603026
 30
0.0
 11
541.7833156885208
 21
394.6663549603025
 31
0.0
  0
LINE
  5
91
330
1F
100
AcDbEntity
  8
1
  6
Continuous
 62
     7
100
AcDbLine
 10
522.5333156885208
 20
457.1663549603026
 30
0.0
 11
527.5333156885208
 21
457.1663549603026
 31
0.0
  0
LINE
  5
92
330
1F
100
AcDbEntity
  8
1
  6
Continuous
 62
     7
100
AcDbLine
 10
528.4333156885207
 20
450.9163549603026
 30
0.0
 11
522.5333156885208
 21
450.9163549603026
 31
0.0
  0
LINE
  5
93
330
1F
100
AcDbEntity
  8
1
  6
Continuous
 62
     7
100
AcDbLine
 10
534.5333156885208
 20
450.9163549603026
 30
0.0
 11
528.4333156885207
 21
450.9163549603026
 31
0.0
  0
LINE
  5
94
330
1F
100
AcDbEntity
  8
1
  6
Continuous
 62
     7
100
AcDbLine
 10
539.0333156885208
 20
455.8163549603026
 30
0.0
 11
539.0333156885208
 21
450.9163549603026
 31
0.0
  0
LINE
  5
95
330
1F
100
AcDbEntity
  8
1
  6
Continuous
 62
     7
100
AcDbLine
 10
539.0333156885208
 20
457.1663549603026
 30
0.0
 11
539.0333156885208
 21
455.8163549603026
 31
0.0
  0
LINE
  5
96
330
1F
100
AcDbEntity
  8
1
  6
Continuous
 62
     7
100
AcDbLine
 10
527.5333156885208
 20
457.1663549603026
 30
0.0
 11
539.0333156885208
 21
457.1663549603026
 31
0.0
  0
LINE
  5
97
330
1F
100
AcDbEntity
  8
1
  6
Continuous
 62
     7
100
AcDbLine
 10
522.5333156885208
 20
450.9163549603026
 30
0.0
 11
522.5333156885208
 21
457.1663549603026
 31
0.0
  0
LINE
  5
98
330
1F
100
AcDbEntity
  8
1
  6
Continuous
 62
     7
100
AcDbLine
 10
539.0333156885208
 20
450.9163549603026
 30
0.0
 11
534.5333156885208
 21
450.9163549603026
 31
0.0
  0
LINE
  5
99
330
1F
100
AcDbEntity
  8
1
  6
DOT_CENTER
 62
     2
100
AcDbLine
 10
531.4833156885206
 20
398.020819948893
 30
0.0
 11
531.4833156885206
 21
404.6663549603026
 31
0.0
  0
LINE
  5
9A
330
1F
100
AcDbEntity
  8
1
  6
DOT_CENTER
 62
     2
100
AcDbLine
 10
531.4833156885206
 20
449.6663549603027
 30
0.0
 11
531.4833156885206
 21
456.39189950741
 31
0.0
  0
LINE
  5
9B
330
1F
100
AcDbEntity
  8
1
  6
Continuous
 62
     7
100
AcDbLine
 10
509.5019480935046
 20
404.6663549603026
 30
0.0
 11
509.5019480935046
 21
403.4163549603026
 31
0.0
  0
LINE
  5
9C
330
1F
100
AcDbEntity
  8
0
  6
Continuous
 62
     7
100
AcDbLine
 10
509.5019480935046
 20
403.4163549603026
 30
0.0
 11
503.5019480935048
 21
403.4163549603026
 31
0.0
  0
LINE
  5
9D
330
1F
100
AcDbEntity
  8
1
  6
Continuous
 62
     7
100
AcDbLine
 10
503.5019480935048
 20
403.4163549603026
 30
0.0
 11
503.5019480935048
 21
404.6663549603026
 31
0.0
  0
LINE
  5
9E
330
1F
100
AcDbEntity
  8
1
  6
Continuous
 62
     7
100
AcDbLine
 10
513.1182229676363
 20
415.6663549603026
 30
0.0
 11
513.1182229676363
 21
416.9163549603026
 31
0.0
  0
LINE
  5
9F
330
1F
100
AcDbEntity
  8
0
  6
Continuous
 62
     7
100
AcDbLine
 10
519.118222967636
 20
415.6663549603026
 30
0.0
 11
513.1182229676363
 21
415.6663549603026
 31
0.0
  0
LINE
  5
A0
330
1F
100
AcDbEntity
  8
1
  6
Continuous
 62
     7
100
AcDbLine
 10
519.118222967636
 20
416.9163549603026
 30
0.0
 11
519.118222967636
 21
415.6663549603026
 31
0.0
  0
LINE
  5
A1
330
1F
100
AcDbEntity
  8
1
  6
Continuous
 62
     7
100
AcDbLine
 10
519.118222967636
 20
438.6663549603026
 30
0.0
 11
519.118222967636
 21
437.4163549603026
 31
0.0
  0
LINE
  5
A2
330
1F
100
AcDbEntity
  8
0
  6
Continuous
 62
     7
100
AcDbLine
 10
513.1182229676363
 20
438.6663549603026
 30
0.0
 11
519.118222967636
 21
438.6663549603026
 31
0.0
  0
LINE
  5
A3
330
1F
100
AcDbEntity
  8
1
  6
Continuous
 62
     7
100
AcDbLine
 10
513.1182229676363
 20
437.4163549603026
 30
0.0
 11
513.1182229676363
 21
438.6663549603026
 31
0.0
  0
LINE
  5
A4
330
1F
100
AcDbEntity
  8
1
  6
Continuous
 62
     7
100
AcDbLine
 10
503.5019480935048
 20
449.6663549603026
 30
0.0
 11
503.5019480935048
 21
450.9163549603026
 31
0.0
  0
LINE
  5
A5
330
1F
100
AcDbEntity
  8
0
  6
Continuous
 62
     7
100
AcDbLine
 10
503.5019480935048
 20
450.9163549603026
 30
0.0
 11
509.5019480935046
 21
450.9163549603026
 31
0.0
  0
LINE
  5
A6
330
1F
100
AcDbEntity
  8
1
  6
Continuous
 62
     7
100
AcDbLine
 10
509.5019480935046
 20
450.9163549603026
 30
0.0
 11
509.5019480935046
 21
449.6663549603026
 31
0.0
  0
LINE
  5
A7
330
1F
100
AcDbEntity
  8
1
  6
Continuous
 62
     7
100
AcDbLine
 10
528.0943666621549
 20
449.6663549603026
 30
0.0
 11
528.0943666621549
 21
437.4163549603026
 31
0.0
  0
LINE
  5
A8
330
1F
100
AcDbEntity
  8
1
  6
Continuous
 62
     7
100
AcDbLine
 10
528.7333156885206
 20
449.6663549603026
 30
0.0
 11
528.0943666621549
 21
449.6663549603026
 31
0.0
  0
LINE
  5
A9
330
1F
100
AcDbEntity
  8
1
  6
Continuous
 62
     7
100
AcDbLine
 10
528.7333156885206
 20
404.6663549603026
 30
0.0
 11
528.9833156885206
 21
404.6663549603026
 31
0.0
  0
LINE
  5
AA
330
1F
100
AcDbEntity
  8
1
  6
Continuous
 62
     7
100
AcDbLine
 10
528.0943666621549
 20
404.6663549603026
 30
0.0
 11
528.4833156885206
 21
404.6663549603026
 31
0.0
  0
LINE
  5
AB
330
1F
100
AcDbEntity
  8
1
  6
Continuous
 62
     7
100
AcDbLine
 10
528.0943666621549
 20
416.9163549603026
 30
0.0
 11
528.0943666621549
 21
404.6663549603026
 31
0.0
  0
LINE
  5
AC
330
1F
100
AcDbEntity
  8
1
  6
Continuous
 62
     7
100
AcDbLine
 10
509.5019480935046
 20
437.4163549603026
 30
0.0
 11
509.5019480935046
 21
438.9163549603026
 31
0.0
  0
LINE
  5
AD
330
1F
100
AcDbEntity
  8
1
  6
Continuous
 62
     7
100
AcDbLine
 10
528.0943666621549
 20
437.4163549603026
 30
0.0
 11
509.5019480935046
 21
437.4163549603026
 31
0.0
  0
LINE
  5
AE
330
1F
100
AcDbEntity
  8
1
  6
Continuous
 62
     7
100
AcDbLine
 10
534.4833156885206
 20
449.6663549603026
 30
0.0
 11
528.7333156885206
 21
449.6663549603026
 31
0.0
  0
LINE
  5
AF
330
1F
100
AcDbEntity
  8
1
  6
DOT_CENTER
 62
     2
100
AcDbLine
 10
531.4833156885206
 20
449.6663549603027
 30
0.0
 11
531.4833156885206
 21
404.6663549603026
 31
0.0
  0
LINE
  5
B0
330
1F
100
AcDbEntity
  8
1
  6
DOT_CENTER
 62
     2
100
AcDbLine
 10
506.5019480935046
 20
450.9163549603026
 30
0.0
 11
506.5019480935046
 21
403.4163549603026
 31
0.0
  0
LINE
  5
B1
330
1F
100
AcDbEntity
  8
1
  6
Continuous
 62
     7
100
AcDbLine
 10
504.5019480935046
 20
437.4163549603026
 30
0.0
 11
509.5019480935046
 21
437.4163549603026
 31
0.0
  0
LINE
  5
B2
330
1F
100
AcDbEntity
  8
1
  6
Continuous
 62
     7
100
AcDbLine
 10
504.4884329417619
 20
416.9163549603026
 30
0.0
 11
509.5019480935046
 21
416.9163549603026
 31
0.0
  0
LINE
  5
B3
330
1F
100
AcDbEntity
  8
1
  6
DOT_CENTER
 62
     2
100
AcDbLine
 10
516.1182229676363
 20
439.5858592145606
 30
0.0
 11
516.1182229676363
 21
415.0918556186326
 31
0.0
  0
LINE
  5
B4
330
1F
100
AcDbEntity
  8
1
  6
Continuous
 62
     7
100
AcDbLine
 10
533.9833156885206
 20
404.6663549603026
 30
0.0
 11
534.4833156885206
 21
404.6663549603026
 31
0.0
  0
LINE
  5
B5
330
1F
100
AcDbEntity
  8
1
  6
Continuous
 62
     7
100
AcDbLine
 10
534.4833156885206
 20
404.6663549603026
 30
0.0
 11
534.4833156885206
 21
449.6663549603026
 31
0.0
  0
LINE
  5
B6
330
1F
100
AcDbEntity
  8
1
  6
Continuous
 62
     7
100
AcDbLine
 10
528.9833156885206
 20
404.6663549603026
 30
0.0
 11
529.0410605999007
 21
404.6663549603026
 31
0.0
  0
LINE
  5
B7
330
1F
100
AcDbEntity
  8
1
  6
Continuous
 62
     7
100
AcDbLine
 10
528.4833156885206
 20
404.6663549603026
 30
0.0
 11
528.7333156885206
 21
404.6663549603026
 31
0.0
  0
LINE
  5
B8
330
1F
100
AcDbEntity
  8
1
  6
Continuous
 62
     7
100
AcDbLine
 10
509.5019480935046
 20
416.9163549603026
 30
0.0
 11
528.0943666621549
 21
416.9163549603026
 31
0.0
  0
LINE
  5
B9
330
1F
100
AcDbEntity
  8
1
  6
Continuous
 62
     7
100
AcDbLine
 10
504.4884329417619
 20
416.9163549603026
 30
0.0
 11
504.4884329417619
 21
415.9572573281542
 31
0.0
  0
LINE
  5
BA
330
1F
100
AcDbEntity
  8
1
  6
Continuous
 62
     7
100
AcDbLine
 10
529.0410605999007
 20
404.6663549603026
 30
0.0
 11
533.9833156885206
 21
404.6663549603026
 31
0.0
  0
LINE
  5
BB
330
1F
100
AcDbEntity
  8
1
  6
Continuous
 62
     7
100
AcDbLine
 10
509.5019480935046
 20
415.4163549603026
 30
0.0
 11
509.5019480935046
 21
416.9163549603026
 31
0.0
  0
LINE
  5
BC
330
1F
100
AcDbEntity
  8
1
  6
Continuous
 62
     7
100
AcDbLine
 10
504.5019480935046
 20
438.3914754754702
 30
0.0
 11
504.5019480935046
 21
437.4163549603026
 31
0.0
  0
LINE
  5
BD
330
1F
100
AcDbEntity
  8
1
  6
Continuous
 62
     7
100
AcDbLine
 10
503.5019480935048
 20
404.6663549603026
 30
0.0
 11
522.7333156885206
 21
404.6663549603026
 31
0.0
  0
LINE
  5
BE
330
1F
100
AcDbEntity
  8
1
  6
Continuous
 62
     7
100
AcDbLine
 10
522.7333156885206
 20
404.6663549603026
 30
0.0
 11
522.9833156885206
 21
404.6663549603026
 31
0.0
  0
LINE
  5
BF
330
1F
100
AcDbEntity
  8
1
  6
Continuous
 62
     7
100
AcDbLine
 10
522.9833156885206
 20
404.6663549603026
 30
0.0
 11
528.0943666621549
 21
404.6663549603026
 31
0.0
  0
LINE
  5
C0
330
1F
100
AcDbEntity
  8
1
  6
DOT_CENTER
 62
     2
100
AcDbLine
 10
525.7333156885206
 20
403.4163549603026
 30
0.0
 11
525.7333156885206
 21
416.9163549603026
 31
0.0
  0
LINE
  5
C1
330
1F
100
AcDbEntity
  8
1
  6
DOT_CENTER
 62
     2
100
AcDbLine
 10
516.1182229676363
 20
403.1717459628425
 30
0.0
 11
516.1182229676363
 21
417.4163549603026
 31
0.0
  0
LINE
  5
C2
330
1F
100
AcDbEntity
  8
1
  6
DOT_CENTER
 62
     2
100
AcDbLine
 10
516.1182229676363
 20
436.9163549603026
 30
0.0
 11
516.1182229676363
 21
451.2584959059145
 31
0.0
  0
LINE
  5
C3
330
1F
100
AcDbEntity
  8
1
  6
DASHED
 62
     2
100
AcDbLine
 10
528.4833156885206
 20
404.6663549603026
 30
0.0
 11
528.7333156885206
 21
404.6663549603026
 31
0.0
  0
LINE
  5
C4
330
1F
100
AcDbEntity
  8
1
  6
Continuous
 62
     7
100
AcDbLine
 10
503.7513311946532
 20
449.6663549603025
 30
0.0
 11
497.7513311946532
 21
449.6663549603026
 31
0.0
  0
LINE
  5
C5
330
1F
100
AcDbEntity
  8
1
  6
DOT_CENTER
 62
     2
100
AcDbLine
 10
500.7513311946532
 20
404.6663549603026
 30
0.0
 11
500.7513311946532
 21
449.6663549603025
 31
0.0
  0
LINE
  5
C6
330
1F
100
AcDbEntity
  8
1
  6
DOT_CENTER
 62
     2
100
AcDbLine
 10
525.7333156885206
 20
437.4163549603026
 30
0.0
 11
525.7333156885206
 21
450.9163549603026
 31
0.0
  0
LINE
  5
C7
330
1F
100
AcDbEntity
  8
1
  6
Continuous
 62
     7
100
AcDbLine
 10
497.7513311946532
 20
404.6663549603026
 30
0.0
 11
498.2513311946532
 21
404.6663549603026
 31
0.0
  0
LINE
  5
C8
330
1F
100
AcDbEntity
  8
1
  6
Continuous
 62
     7
100
AcDbLine
 10
504.1417463128835
 20
416.9163549603026
 30
0.0
 11
504.1417463128835
 21
437.4163549603026
 31
0.0
  0
LINE
  5
C9
330
1F
100
AcDbEntity
  8
1
  6
Continuous
 62
     7
100
AcDbLine
 10
527.7333156885206
 20
415.4163549603026
 30
0.0
 11
523.7333156885206
 21
415.4163549603026
 31
0.0
  0
LINE
  5
CA
330
1F
100
AcDbEntity
  8
1
  6
Continuous
 62
     7
100
AcDbLine
 10
523.7333156885206
 20
415.4163549603026
 30
0.0
 11
522.7333156885206
 21
415.4163549603026
 31
0.0
  0
LINE
  5
CB
330
1F
100
AcDbEntity
  8
1
  6
Continuous
 62
     7
100
AcDbLine
 10
497.7513311946532
 20
449.6663549603026
 30
0.0
 11
497.7513311946532
 21
404.6663549603026
 31
0.0
  0
LINE
  5
CC
330
1F
100
AcDbEntity
  8
1
  6
Continuous
 62
     7
100
AcDbLine
 10
498.2513311946532
 20
404.6663549603026
 30
0.0
 11
503.2513311946532
 21
404.6663549603026
 31
0.0
  0
LINE
  5
CD
330
1F
100
AcDbEntity
  8
1
  6
Continuous
 62
     7
100
AcDbLine
 10
522.7333156885206
 20
415.4163549603026
 30
0.0
 11
505.6417463128835
 21
415.4163549603026
 31
0.0
  0
LINE
  5
CE
330
1F
100
AcDbEntity
  8
1
  6
Continuous
 62
     7
100
AcDbLine
 10
528.0943666621549
 20
438.9163549603026
 30
0.0
 11
505.6417463128835
 21
438.9163549603026
 31
0.0
  0
LINE
  5
CF
330
1F
100
AcDbEntity
  8
1
  6
Continuous
 62
     7
100
AcDbLine
 10
528.0943666621549
 20
415.4163549603026
 30
0.0
 11
527.7333156885206
 21
415.4163549603026
 31
0.0
  0
LINE
  5
D0
330
1F
100
AcDbEntity
  8
1
  6
DASHED
 62
     2
100
AcDbLine
 10
528.0943666621549
 20
404.6663549603026
 30
0.0
 11
528.4833156885206
 21
404.6663549603026
 31
0.0
  0
LINE
  5
D1
330
1F
100
AcDbEntity
  8
1
  6
Continuous
 62
     7
100
AcDbLine
 10
528.7333156885206
 20
404.6663549603026
 30
0.0
 11
528.7333156885206
 21
403.4163549603026
 31
0.0
  0
LINE
  5
D2
330
1F
100
AcDbEntity
  8
0
  6
Continuous
 62
     7
100
AcDbLine
 10
528.7333156885206
 20
403.4163549603026
 30
0.0
 11
522.7333156885206
 21
403.4163549603026
 31
0.0
  0
LINE
  5
D3
330
1F
100
AcDbEntity
  8
1
  6
Continuous
 62
     7
100
AcDbLine
 10
522.7333156885206
 20
403.4163549603026
 30
0.0
 11
522.7333156885206
 21
404.6663549603026
 31
0.0
  0
LINE
  5
D4
330
1F
100
AcDbEntity
  8
1
  6
Continuous
 62
     7
100
AcDbLine
 10
522.7333156885206
 20
449.6663549603026
 30
0.0
 11
522.7333156885206
 21
450.9163549603026
 31
0.0
  0
LINE
  5
D5
330
1F
100
AcDbEntity
  8
0
  6
Continuous
 62
     7
100
AcDbLine
 10
522.7333156885206
 20
450.9163549603026
 30
0.0
 11
528.7333156885206
 21
450.9163549603026
 31
0.0
  0
LINE
  5
D6
330
1F
100
AcDbEntity
  8
1
  6
Continuous
 62
     7
100
AcDbLine
 10
528.7333156885206
 20
450.9163549603026
 30
0.0
 11
528.7333156885206
 21
449.6663549603026
 31
0.0
  0
LINE
  5
D7
330
1F
100
AcDbEntity
  8
1
  6
DOT_CENTER
 62
     2
100
AcDbLine
 10
500.7513311946532
 20
397.9462430278787
 30
0.0
 11
500.7513311946532
 21
404.6663549603026
 31
0.0
  0
LINE
  5
D8
330
1F
100
AcDbEntity
  8
1
  6
DOT_CENTER
 62
     2
100
AcDbLine
 10
500.7513311946532
 20
449.6663549603025
 30
0.0
 11
500.7513311946532
 21
456.39189950741
 31
0.0
  0
LINE
  5
D9
330
1F
100
AcDbEntity
  8
1
  6
DOT_CENTER
 62
     2
100
AcDbLine
 10
525.7333156885206
 20
397.2601279432838
 30
0.0
 11
525.7333156885206
 21
403.4163549603026
 31
0.0
  0
LINE
  5
DA
330
1F
100
AcDbEntity
  8
1
  6
DOT_CENTER
 62
     2
100
AcDbLine
 10
525.7333156885206
 20
450.9163549603026
 30
0.0
 11
525.7333156885206
 21
457.1979591547805
 31
0.0
  0
LINE
  5
DB
330
1F
100
AcDbEntity
  8
1
  6
DOT_CENTER
 62
     2
100
AcDbLine
 10
506.5019480935046
 20
450.9163549603026
 30
0.0
 11
506.5019480935046
 21
457.1979591547805
 31
0.0
  0
LINE
  5
DC
330
1F
100
AcDbEntity
  8
1
  6
Continuous
 62
     7
100
AcDbLine
 10
522.7333156885206
 20
416.9163549603026
 30
0.0
 11
522.7333156885206
 21
415.4163549603026
 31
0.0
  0
LINE
  5
DD
330
1F
100
AcDbEntity
  8
1
  6
DOT_CENTER
 62
     2
100
AcDbLine
 10
525.7333156885206
 20
415.4163549603026
 30
0.0
 11
525.7333156885206
 21
438.9163549603026
 31
0.0
  0
LINE
  5
DE
330
1F
100
AcDbEntity
  8
1
  6
Continuous
 62
     7
100
AcDbLine
 10
522.7333156885206
 20
438.9163549603026
 30
0.0
 11
522.7333156885206
 21
437.4163549603026
 31
0.0
  0
LINE
  5
DF
330
1F
100
AcDbEntity
  8
1
  6
Continuous
 62
     7
100
AcDbLine
 10
534.5333156885208
 20
403.4163549603026
 30
0.0
 11
539.0333156885208
 21
403.4163549603026
 31
0.0
  0
LINE
  5
E0
330
1F
100
AcDbEntity
  8
1
  6
Continuous
 62
     7
100
AcDbLine
 10
522.5333156885208
 20
397.1663549603026
 30
0.0
 11
522.5333156885208
 21
403.4163549603026
 31
0.0
  0
LINE
  5
E1
330
1F
100
AcDbEntity
  8
1
  6
Continuous
 62
     7
100
AcDbLine
 10
539.0333156885208
 20
397.1663549603026
 30
0.0
 11
527.5333156885208
 21
397.1663549603026
 31
0.0
  0
LINE
  5
E2
330
1F
100
AcDbEntity
  8
1
  6
Continuous
 62
     7
100
AcDbLine
 10
539.0333156885208
 20
398.5163549603026
 30
0.0
 11
539.0333156885208
 21
397.1663549603026
 31
0.0
  0
LINE
  5
E3
330
1F
100
AcDbEntity
  8
1
  6
Continuous
 62
     7
100
AcDbLine
 10
539.0333156885208
 20
403.4163549603026
 30
0.0
 11
539.0333156885208
 21
398.5163549603026
 31
0.0
  0
LINE
  5
E4
330
1F
100
AcDbEntity
  8
1
  6
Continuous
 62
     7
100
AcDbLine
 10
528.4333156885207
 20
403.4163549603026
 30
0.0
 11
534.5333156885208
 21
403.4163549603026
 31
0.0
  0
LINE
  5
E5
330
1F
100
AcDbEntity
  8
1
  6
Continuous
 62
     7
100
AcDbLine
 10
522.5333156885208
 20
403.4163549603026
 30
0.0
 11
528.4333156885207
 21
403.4163549603026
 31
0.0
  0
LINE
  5
E6
330
1F
100
AcDbEntity
  8
1
  6
Continuous
 62
     7
100
AcDbLine
 10
527.5333156885208
 20
397.1663549603026
 30
0.0
 11
522.5333156885208
 21
397.1663549603026
 31
0.0
  0
LINE
  5
E7
330
1F
100
AcDbEntity
  8
1
  6
Continuous
 62
     7
100
AcDbLine
 10
503.5031302467519
 20
449.6663549603026
 30
0.0
 11
497.0031302467518
 21
449.6663549603026
 31
0.0
  0
LINE
  5
E8
330
1F
100
AcDbEntity
  8
0
  6
Continuous
 62
     7
100
AcDbLine
 10
497.0031302467518
 20
450.9163549603026
 30
0.0
 11
497.0031302467518
 21
449.6663549603026
 31
0.0
  0
LINE
  5
E9
330
1F
100
AcDbEntity
  8
0
  6
Continuous
 62
     7
100
AcDbLine
 10
497.0031302467518
 20
404.6663549603026
 30
0.0
 11
497.0031302467518
 21
403.4163549603026
 31
0.0
  0
LINE
  5
EA
330
1F
100
AcDbEntity
  8
1
  6
Continuous
 62
     7
100
AcDbLine
 10
497.0031302467518
 20
404.6663549603026
 30
0.0
 11
503.5031302467519
 21
404.6663549603026
 31
0.0
  0
LINE
  5
EB
330
1F
100
AcDbEntity
  8
0
  6
Continuous
 62
     7
100
AcDbLine
 10
535.2333156885207
 20
449.6663549603026
 30
0.0
 11
535.2333156885206
 21
450.9163549603026
 31
0.0
  0
LINE
  5
EC
330
1F
100
AcDbEntity
  8
1
  6
Continuous
 62
     7
100
AcDbLine
 10
535.2333156885207
 20
449.6663549603026
 30
0.0
 11
528.7333156885206
 21
449.6663549603026
 31
0.0
  0
LINE
  5
ED
330
1F
100
AcDbEntity
  8
1
  6
Continuous
 62
     7
100
AcDbLine
 10
528.7333156885206
 20
404.6663549603026
 30
0.0
 11
535.2333156885206
 21
404.6663549603026
 31
0.0
  0
LINE
  5
EE
330
1F
100
AcDbEntity
  8
0
  6
Continuous
 62
     7
100
AcDbLine
 10
535.2333156885206
 20
403.4163549603026
 30
0.0
 11
535.2333156885206
 21
404.6663549603026
 31
0.0
  0
LINE
  5
EF
330
1F
100
AcDbEntity
  8
1
  6
DASHED
 62
     2
100
AcDbLine
 10
527.7333156885206
 20
404.6663549603026
 30
0.0
 11
528.7333156885206
 21
404.6663549603026
 31
0.0
  0
LINE
  5
F0
330
1F
100
AcDbEntity
  8
1
  6
Continuous
 62
     7
100
AcDbLine
 10
506.1019480935047
 20
397.1663549603026
 30
0.0
 11
493.3019480935046
 21
397.1663549603026
 31
0.0
  0
LINE
  5
F1
330
1F
100
AcDbEntity
  8
1
  6
Continuous
 62
     7
100
AcDbLine
 10
493.3019480935046
 20
403.4163549603026
 30
0.0
 11
491.7019480935046
 21
403.4163549603026
 31
0.0
  0
LINE
  5
F2
330
1F
100
AcDbEntity
  8
1
  6
Continuous
 62
     7
100
AcDbLine
 10
491.7019480935046
 20
403.4163549603026
 30
0.0
 11
491.7019480935046
 21
397.1663549603026
 31
0.0
  0
LINE
  5
F3
330
1F
100
AcDbEntity
  8
1
  6
Continuous
 62
     7
100
AcDbLine
 10
509.7019480935046
 20
397.1663549603026
 30
0.0
 11
509.7019480935046
 21
403.4163549603026
 31
0.0
  0
LINE
  5
F4
330
1F
100
AcDbEntity
  8
1
  6
Continuous
 62
     7
100
AcDbLine
 10
506.1019480935047
 20
397.1663549603026
 30
0.0
 11
509.7019480935046
 21
397.1663549603026
 31
0.0
  0
LINE
  5
F5
330
1F
100
AcDbEntity
  8
1
  6
Continuous
 62
     7
100
AcDbLine
 10
509.7019480935046
 20
403.4163549603026
 30
0.0
 11
506.1019480935047
 21
403.4163549603026
 31
0.0
  0
LINE
  5
F6
330
1F
100
AcDbEntity
  8
1
  6
DOT_CENTER
 62
     2
100
AcDbLine
 10
506.5019480935046
 20
396.4243666266986
 30
0.0
 11
506.5019480935046
 21
404.2748831853576
 31
0.0
  0
LINE
  5
F7
330
1F
100
AcDbEntity
  8
1
  6
Continuous
 62
     7
100
AcDbLine
 10
493.3019480935046
 20
397.1663549603026
 30
0.0
 11
491.7019480935046
 21
397.1663549603026
 31
0.0
  0
LINE
  5
F8
330
1F
100
AcDbEntity
  8
1
  6
Continuous
 62
     7
100
AcDbLine
 10
497.7019480935046
 20
403.4163549603026
 30
0.0
 11
493.3019480935046
 21
403.4163549603026
 31
0.0
  0
LINE
  5
F9
330
1F
100
AcDbEntity
  8
1
  6
Continuous
 62
     7
100
AcDbLine
 10
506.1019480935047
 20
403.4163549603026
 30
0.0
 11
503.8019480935047
 21
403.4163549603026
 31
0.0
  0
LINE
  5
FA
330
1F
100
AcDbEntity
  8
1
  6
Continuous
 62
     7
100
AcDbLine
 10
503.8019480935047
 20
403.4163549603026
 30
0.0
 11
497.7019480935046
 21
403.4163549603026
 31
0.0
  0
LINE
  5
FB
330
1F
100
AcDbEntity
  8
1
  6
Continuous
 62
     7
100
AcDbLine
 10
493.3019480935046
 20
457.1663549603026
 30
0.0
 11
506.1019480935047
 21
457.1663549603026
 31
0.0
  0
LINE
  5
FC
330
1F
100
AcDbEntity
  8
1
  6
Continuous
 62
     7
100
AcDbLine
 10
491.7019480935046
 20
450.9163549603026
 30
0.0
 11
493.3019480935046
 21
450.9163549603026
 31
0.0
  0
LINE
  5
FD
330
1F
100
AcDbEntity
  8
1
  6
Continuous
 62
     7
100
AcDbLine
 10
491.7019480935046
 20
457.1663549603026
 30
0.0
 11
491.7019480935046
 21
450.9163549603026
 31
0.0
  0
LINE
  5
FE
330
1F
100
AcDbEntity
  8
1
  6
Continuous
 62
     7
100
AcDbLine
 10
509.7019480935046
 20
450.9163549603026
 30
0.0
 11
509.7019480935046
 21
457.1663549603026
 31
0.0
  0
LINE
  5
FF
330
1F
100
AcDbEntity
  8
1
  6
Continuous
 62
     7
100
AcDbLine
 10
509.7019480935046
 20
457.1663549603026
 30
0.0
 11
506.1019480935047
 21
457.1663549603026
 31
0.0
  0
LINE
  5
100
330
1F
100
AcDbEntity
  8
1
  6
Continuous
 62
     7
100
AcDbLine
 10
506.1019480935047
 20
450.9163549603026
 30
0.0
 11
509.7019480935046
 21
450.9163549603026
 31
0.0
  0
LINE
  5
101
330
1F
100
AcDbEntity
  8
1
  6
DOT_CENTER
 62
     2
100
AcDbLine
 10
506.5019480935046
 20
450.0578267352476
 30
0.0
 11
506.5019480935046
 21
457.9083432939066
 31
0.0
  0
LINE
  5
102
330
1F
100
AcDbEntity
  8
1
  6
Continuous
 62
     7
100
AcDbLine
 10
491.7019480935046
 20
457.1663549603026
 30
0.0
 11
493.3019480935046
 21
457.1663549603026
 31
0.0
  0
LINE
  5
103
330
1F
100
AcDbEntity
  8
1
  6
Continuous
 62
     7
100
AcDbLine
 10
493.3019480935046
 20
450.9163549603026
 30
0.0
 11
497.7019480935046
 21
450.9163549603026
 31
0.0
  0
LINE
  5
104
330
1F
100
AcDbEntity
  8
1
  6
Continuous
 62
     7
100
AcDbLine
 10
503.8019480935047
 20
450.9163549603026
 30
0.0
 11
506.1019480935047
 21
450.9163549603026
 31
0.0
  0
LINE
  5
105
330
1F
100
AcDbEntity
  8
1
  6
Continuous
 62
     7
100
AcDbLine
 10
497.7019480935046
 20
450.9163549603026
 30
0.0
 11
503.8019480935047
 21
450.9163549603026
 31
0.0
  0
LINE
  5
106
330
1F
100
AcDbEntity
  8
1
  6
Continuous
 62
     7
100
AcDbLine
 10
501.4519480935046
 20
475.4163549603026
 30
0.0
 11
501.2019480935046
 21
475.1663549603026
 31
0.0
  0
LINE
  5
107
330
1F
100
AcDbEntity
  8
1
  6
Continuous
 62
     2
100
AcDbLine
 10
501.4519480935046
 20
475.4163549603026
 30
0.0
 11
502.2929383511743
 21
474.5753647026327
 31
0.0
  0
LINE
  5
108
330
1F
100
AcDbEntity
  8
1
  6
Continuous
 62
     7
100
AcDbLine
 10
499.9519480935046
 20
475.4163549603026
 30
0.0
 11
499.7019480935046
 21
475.6663549603026
 31
0.0
  0
LINE
  5
109
330
1F
100
AcDbEntity
  8
1
  6
Continuous
 62
     2
100
AcDbLine
 10
499.9519480935046
 20
475.4163549603026
 30
0.0
 11
499.1109578358349
 21
474.5753647026327
 31
0.0
  0
LINE
  5
10A
330
1F
100
AcDbEntity
  8
1
  6
Continuous
 62
     7
100
AcDbLine
 10
499.9519480935046
 20
476.9163549603026
 30
0.0
 11
499.7019480935046
 21
476.6663549603026
 31
0.0
  0
LINE
  5
10B
330
1F
100
AcDbEntity
  8
1
  6
Continuous
 62
     2
100
AcDbLine
 10
499.9519480935046
 20
476.9163549603026
 30
0.0
 11
499.1109578358349
 21
477.7573452179722
 31
0.0
  0
LINE
  5
10C
330
1F
100
AcDbEntity
  8
1
  6
Continuous
 62
     7
100
AcDbLine
 10
501.4519480935046
 20
476.9163549603026
 30
0.0
 11
501.7019480935046
 21
476.6663549603026
 31
0.0
  0
LINE
  5
10D
330
1F
100
AcDbEntity
  8
1
  6
Continuous
 62
     2
100
AcDbLine
 10
501.4519480935046
 20
476.9163549603026
 30
0.0
 11
502.2929383511743
 21
477.7573452179722
 31
0.0
  0
LINE
  5
10E
330
1F
100
AcDbEntity
  8
1
  6
Continuous
 62
     7
100
AcDbLine
 10
500.2019480935046
 20
475.1663549603026
 30
0.0
 11
499.9519480935046
 21
475.4163549603026
 31
0.0
  0
LINE
  5
10F
330
1F
100
AcDbEntity
  8
1
  6
Continuous
 62
     7
100
AcDbLine
 10
501.7019480935046
 20
475.6663549603026
 30
0.0
 11
501.4519480935046
 21
475.4163549603026
 31
0.0
  0
LINE
  5
110
330
1F
100
AcDbEntity
  8
1
  6
Continuous
 62
     7
100
AcDbLine
 10
501.2019480935046
 20
477.1663549603026
 30
0.0
 11
501.4519480935046
 21
476.9163549603026
 31
0.0
  0
LINE
  5
111
330
1F
100
AcDbEntity
  8
1
  6
Continuous
 62
     7
100
AcDbLine
 10
500.2019480935046
 20
477.1663549603026
 30
0.0
 11
499.9519480935046
 21
476.9163549603026
 31
0.0
  0
LINE
  5
112
330
1F
100
AcDbEntity
  8
1
  6
Continuous
 62
     7
100
AcDbLine
 10
500.2019480935046
 20
477.1663549603026
 30
0.0
 11
500.2019480935046
 21
478.4163549603026
 31
0.0
  0
LINE
  5
113
330
1F
100
AcDbEntity
  8
1
  6
Continuous
 62
     7
100
AcDbLine
 10
498.4519480935046
 20
476.6663549603026
 30
0.0
 11
499.7019480935046
 21
476.6663549603026
 31
0.0
  0
LINE
  5
114
330
1F
100
AcDbEntity
  8
1
  6
Continuous
 62
     7
100
AcDbLine
 10
498.4519480935046
 20
475.6663549603026
 30
0.0
 11
498.4519480935046
 21
476.6663549603026
 31
0.0
  0
LINE
  5
115
330
1F
100
AcDbEntity
  8
1
  6
Continuous
 62
     7
100
AcDbLine
 10
499.7019480935046
 20
475.6663549603026
 30
0.0
 11
498.4519480935046
 21
475.6663549603026
 31
0.0
  0
LINE
  5
116
330
1F
100
AcDbEntity
  8
1
  6
Continuous
 62
     7
100
AcDbLine
 10
500.2019480935046
 20
473.9163549603026
 30
0.0
 11
500.2019480935046
 21
475.1663549603026
 31
0.0
  0
LINE
  5
117
330
1F
100
AcDbEntity
  8
1
  6
Continuous
 62
     7
100
AcDbLine
 10
501.2019480935046
 20
473.9163549603026
 30
0.0
 11
500.2019480935046
 21
473.9163549603026
 31
0.0
  0
LINE
  5
118
330
1F
100
AcDbEntity
  8
1
  6
Continuous
 62
     7
100
AcDbLine
 10
501.2019480935046
 20
475.1663549603026
 30
0.0
 11
501.2019480935046
 21
473.9163549603026
 31
0.0
  0
LINE
  5
119
330
1F
100
AcDbEntity
  8
1
  6
Continuous
 62
     7
100
AcDbLine
 10
502.9519480935046
 20
475.6663549603026
 30
0.0
 11
501.7019480935046
 21
475.6663549603026
 31
0.0
  0
LINE
  5
11A
330
1F
100
AcDbEntity
  8
1
  6
Continuous
 62
     7
100
AcDbLine
 10
502.9519480935046
 20
476.6663549603026
 30
0.0
 11
502.9519480935046
 21
475.6663549603026
 31
0.0
  0
LINE
  5
11B
330
1F
100
AcDbEntity
  8
1
  6
Continuous
 62
     7
100
AcDbLine
 10
501.7019480935046
 20
476.6663549603026
 30
0.0
 11
502.9519480935046
 21
476.6663549603026
 31
0.0
  0
LINE
  5
11C
330
1F
100
AcDbEntity
  8
1
  6
Continuous
 62
     7
100
AcDbLine
 10
501.2019480935046
 20
478.4163549603026
 30
0.0
 11
501.2019480935046
 21
477.1663549603026
 31
0.0
  0
LINE
  5
11D
330
1F
100
AcDbEntity
  8
1
  6
Continuous
 62
     7
100
AcDbLine
 10
500.2019480935046
 20
478.4163549603026
 30
0.0
 11
501.2019480935046
 21
478.4163549603026
 31
0.0
  0
LINE
  5
11E
330
1F
100
AcDbEntity
  8
1
  6
DOT_CENTER
 62
     2
100
AcDbLine
 10
495.0047694976153
 20
476.1663549603027
 30
0.0
 11
507.1281448407195
 21
476.1663549603026
 31
0.0
  0
LINE
  5
11F
330
1F
100
AcDbEntity
  8
1
  6
DOT_CENTER
 62
     2
100
AcDbLine
 10
500.7019480935046
 20
482.0438349199609
 30
0.0
 11
500.7019480935046
 21
470.501309834077
 31
0.0
  0
LINE
  5
120
330
1F
100
AcDbEntity
  8
1
  6
Continuous
 62
     7
100
AcDbLine
 10
501.2019480935046
 20
375.9163549603027
 30
0.0
 11
500.2019480935046
 21
375.9163549603027
 31
0.0
  0
LINE
  5
121
330
1F
100
AcDbEntity
  8
1
  6
Continuous
 62
     7
100
AcDbLine
 10
501.2019480935046
 20
377.1663549603027
 30
0.0
 11
501.2019480935046
 21
375.9163549603027
 31
0.0
  0
LINE
  5
122
330
1F
100
AcDbEntity
  8
1
  6
Continuous
 62
     7
100
AcDbLine
 10
502.9519480935046
 20
377.6663549603027
 30
0.0
 11
501.7019480935046
 21
377.6663549603027
 31
0.0
  0
LINE
  5
123
330
1F
100
AcDbEntity
  8
1
  6
Continuous
 62
     7
100
AcDbLine
 10
502.9519480935046
 20
378.6663549603027
 30
0.0
 11
502.9519480935046
 21
377.6663549603027
 31
0.0
  0
LINE
  5
124
330
1F
100
AcDbEntity
  8
1
  6
Continuous
 62
     7
100
AcDbLine
 10
501.7019480935046
 20
378.6663549603027
 30
0.0
 11
502.9519480935046
 21
378.6663549603027
 31
0.0
  0
LINE
  5
125
330
1F
100
AcDbEntity
  8
1
  6
Continuous
 62
     7
100
AcDbLine
 10
501.2019480935046
 20
380.4163549603027
 30
0.0
 11
501.2019480935046
 21
379.1663549603027
 31
0.0
  0
LINE
  5
126
330
1F
100
AcDbEntity
  8
1
  6
Continuous
 62
     7
100
AcDbLine
 10
500.2019480935046
 20
380.4163549603027
 30
0.0
 11
501.2019480935046
 21
380.4163549603027
 31
0.0
  0
LINE
  5
127
330
1F
100
AcDbEntity
  8
1
  6
Continuous
 62
     7
100
AcDbLine
 10
500.2019480935046
 20
379.1663549603027
 30
0.0
 11
500.2019480935046
 21
380.4163549603027
 31
0.0
  0
LINE
  5
128
330
1F
100
AcDbEntity
  8
1
  6
Continuous
 62
     7
100
AcDbLine
 10
498.4519480935046
 20
378.6663549603027
 30
0.0
 11
499.7019480935046
 21
378.6663549603027
 31
0.0
  0
LINE
  5
129
330
1F
100
AcDbEntity
  8
1
  6
Continuous
 62
     7
100
AcDbLine
 10
498.4519480935046
 20
377.6663549603027
 30
0.0
 11
498.4519480935046
 21
378.6663549603027
 31
0.0
  0
LINE
  5
12A
330
1F
100
AcDbEntity
  8
1
  6
Continuous
 62
     7
100
AcDbLine
 10
499.7019480935046
 20
377.6663549603027
 30
0.0
 11
498.4519480935046
 21
377.6663549603027
 31
0.0
  0
LINE
  5
12B
330
1F
100
AcDbEntity
  8
1
  6
Continuous
 62
     7
100
AcDbLine
 10
500.2019480935046
 20
375.9163549603027
 30
0.0
 11
500.2019480935046
 21
377.1663549603027
 31
0.0
  0
LINE
  5
12C
330
1F
100
AcDbEntity
  8
1
  6
Continuous
 62
     7
100
AcDbLine
 10
499.9519480935046
 20
377.4163549603027
 30
0.0
 11
500.2019480935046
 21
377.1663549603027
 31
0.0
  0
LINE
  5
12D
330
1F
100
AcDbEntity
  8
1
  6
Continuous
 62
     7
100
AcDbLine
 10
501.4519480935046
 20
377.4163549603027
 30
0.0
 11
501.2019480935046
 21
377.1663549603027
 31
0.0
  0
LINE
  5
12E
330
1F
100
AcDbEntity
  8
1
  6
Continuous
 62
     7
100
AcDbLine
 10
501.4519480935046
 20
378.9163549603027
 30
0.0
 11
501.7019480935046
 21
378.6663549603027
 31
0.0
  0
LINE
  5
12F
330
1F
100
AcDbEntity
  8
1
  6
Continuous
 62
     7
100
AcDbLine
 10
499.9519480935046
 20
378.9163549603027
 30
0.0
 11
500.2019480935046
 21
379.1663549603027
 31
0.0
  0
LINE
  5
130
330
1F
100
AcDbEntity
  8
1
  6
Continuous
 62
     2
100
AcDbLine
 10
502.2929383511743
 20
376.5753647026331
 30
0.0
 11
501.4519480935046
 21
377.4163549603027
 31
0.0
  0
LINE
  5
131
330
1F
100
AcDbEntity
  8
1
  6
Continuous
 62
     7
100
AcDbLine
 10
501.7019480935046
 20
377.6663549603027
 30
0.0
 11
501.4519480935046
 21
377.4163549603027
 31
0.0
  0
LINE
  5
132
330
1F
100
AcDbEntity
  8
1
  6
Continuous
 62
     2
100
AcDbLine
 10
499.1109578358349
 20
376.5753647026331
 30
0.0
 11
499.9519480935046
 21
377.4163549603027
 31
0.0
  0
LINE
  5
133
330
1F
100
AcDbEntity
  8
1
  6
Continuous
 62
     7
100
AcDbLine
 10
499.7019480935046
 20
377.6663549603027
 30
0.0
 11
499.9519480935046
 21
377.4163549603027
 31
0.0
  0
LINE
  5
134
330
1F
100
AcDbEntity
  8
1
  6
Continuous
 62
     2
100
AcDbLine
 10
499.1109578358349
 20
379.7573452179725
 30
0.0
 11
499.9519480935046
 21
378.9163549603027
 31
0.0
  0
LINE
  5
135
330
1F
100
AcDbEntity
  8
1
  6
Continuous
 62
     7
100
AcDbLine
 10
499.7019480935046
 20
378.6663549603027
 30
0.0
 11
499.9519480935046
 21
378.9163549603027
 31
0.0
  0
LINE
  5
136
330
1F
100
AcDbEntity
  8
1
  6
Continuous
 62
     2
100
AcDbLine
 10
502.2929383511743
 20
379.7573452179725
 30
0.0
 11
501.4519480935046
 21
378.9163549603027
 31
0.0
  0
LINE
  5
137
330
1F
100
AcDbEntity
  8
1
  6
Continuous
 62
     7
100
AcDbLine
 10
501.2019480935046
 20
379.1663549603027
 30
0.0
 11
501.4519480935046
 21
378.9163549603027
 31
0.0
  0
LINE
  5
138
330
1F
100
AcDbEntity
  8
1
  6
DOT_CENTER
 62
     2
100
AcDbLine
 10
507.1281448407195
 20
378.1663549603027
 30
0.0
 11
495.0047694976153
 21
378.1663549603026
 31
0.0
  0
LINE
  5
139
330
1F
100
AcDbEntity
  8
1
  6
DOT_CENTER
 62
     2
100
AcDbLine
 10
531.2833156885208
 20
382.074153115474
 30
0.0
 11
531.2833156885208
 21
362.074153115474
 31
0.0
  0
LINE
  5
13A
330
1F
100
AcDbEntity
  8
1
  6
DOT_CENTER
 62
     2
100
AcDbLine
 10
526.2357034474759
 20
368.1663549603025
 30
0.0
 11
536.4156303078669
 21
368.1663549603025
 31
0.0
  0
LINE
  5
13B
330
1F
100
AcDbEntity
  8
1
  6
Continuous
 62
     7
100
AcDbLine
 10
530.2833156885208
 20
367.6663549603025
 30
0.0
 11
529.0333156885208
 21
367.6663549603025
 31
0.0
  0
LINE
  5
13C
330
1F
100
AcDbEntity
  8
1
  6
Continuous
 62
     7
100
AcDbLine
 10
529.0333156885208
 20
368.6663549603025
 30
0.0
 11
530.2833156885208
 21
368.6663549603025
 31
0.0
  0
LINE
  5
13D
330
1F
100
AcDbEntity
  8
1
  6
Continuous
 62
     7
100
AcDbLine
 10
529.0333156885208
 20
367.6663549603025
 30
0.0
 11
529.0333156885208
 21
368.6663549603025
 31
0.0
  0
LINE
  5
13E
330
1F
100
AcDbEntity
  8
1
  6
Continuous
 62
     2
100
AcDbLine
 10
530.5333156885208
 20
368.9163549603025
 30
0.0
 11
529.6923254308513
 21
369.7573452179721
 31
0.0
  0
LINE
  5
13F
330
1F
100
AcDbEntity
  8
1
  6
Continuous
 62
     7
100
AcDbLine
 10
530.7833156885208
 20
369.1663549603025
 30
0.0
 11
530.5333156885208
 21
368.9163549603025
 31
0.0
  0
LINE
  5
140
330
1F
100
AcDbEntity
  8
1
  6
Continuous
 62
     7
100
AcDbLine
 10
530.7833156885208
 20
369.1663549603025
 30
0.0
 11
530.7833156885208
 21
370.4163549603024
 31
0.0
  0
LINE
  5
141
330
1F
100
AcDbEntity
  8
1
  6
Continuous
 62
     7
100
AcDbLine
 10
530.7833156885208
 20
370.4163549603024
 30
0.0
 11
531.7833156885208
 21
370.4163549603024
 31
0.0
  0
LINE
  5
142
330
1F
100
AcDbEntity
  8
1
  6
Continuous
 62
     7
100
AcDbLine
 10
531.7833156885208
 20
370.4163549603024
 30
0.0
 11
531.7833156885208
 21
369.1663549603025
 31
0.0
  0
LINE
  5
143
330
1F
100
AcDbEntity
  8
1
  6
Continuous
 62
     2
100
AcDbLine
 10
532.0333156885208
 20
368.9163549603025
 30
0.0
 11
532.8743059461906
 21
369.7573452179721
 31
0.0
  0
LINE
  5
144
330
1F
100
AcDbEntity
  8
1
  6
Continuous
 62
     7
100
AcDbLine
 10
532.0333156885208
 20
368.9163549603025
 30
0.0
 11
532.2833156885208
 21
368.6663549603025
 31
0.0
  0
LINE
  5
145
330
1F
100
AcDbEntity
  8
1
  6
Continuous
 62
     7
100
AcDbLine
 10
531.7833156885208
 20
369.1663549603025
 30
0.0
 11
532.0333156885208
 21
368.9163549603025
 31
0.0
  0
LINE
  5
146
330
1F
100
AcDbEntity
  8
1
  6
Continuous
 62
     7
100
AcDbLine
 10
532.2833156885208
 20
368.6663549603025
 30
0.0
 11
533.5333156885208
 21
368.6663549603025
 31
0.0
  0
LINE
  5
147
330
1F
100
AcDbEntity
  8
1
  6
Continuous
 62
     7
100
AcDbLine
 10
533.5333156885208
 20
368.6663549603025
 30
0.0
 11
533.5333156885208
 21
367.6663549603025
 31
0.0
  0
LINE
  5
148
330
1F
100
AcDbEntity
  8
1
  6
Continuous
 62
     7
100
AcDbLine
 10
533.5333156885208
 20
367.6663549603025
 30
0.0
 11
532.2833156885208
 21
367.6663549603025
 31
0.0
  0
LINE
  5
149
330
1F
100
AcDbEntity
  8
1
  6
Continuous
 62
     7
100
AcDbLine
 10
532.2833156885208
 20
367.6663549603025
 30
0.0
 11
532.0333156885208
 21
367.4163549603025
 31
0.0
  0
LINE
  5
14A
330
1F
100
AcDbEntity
  8
1
  6
Continuous
 62
     2
100
AcDbLine
 10
532.0333156885208
 20
367.4163549603025
 30
0.0
 11
532.8743059461906
 21
366.5753647026327
 31
0.0
  0
LINE
  5
14B
330
1F
100
AcDbEntity
  8
1
  6
Continuous
 62
     7
100
AcDbLine
 10
532.0333156885208
 20
367.4163549603025
 30
0.0
 11
531.7833156885208
 21
367.1663549603025
 31
0.0
  0
LINE
  5
14C
330
1F
100
AcDbEntity
  8
1
  6
Continuous
 62
     7
100
AcDbLine
 10
531.7833156885208
 20
367.1663549603025
 30
0.0
 11
531.7833156885208
 21
365.9163549603026
 31
0.0
  0
LINE
  5
14D
330
1F
100
AcDbEntity
  8
1
  6
Continuous
 62
     7
100
AcDbLine
 10
531.7833156885208
 20
365.9163549603026
 30
0.0
 11
530.7833156885208
 21
365.9163549603025
 31
0.0
  0
LINE
  5
14E
330
1F
100
AcDbEntity
  8
1
  6
Continuous
 62
     7
100
AcDbLine
 10
530.7833156885208
 20
365.9163549603025
 30
0.0
 11
530.7833156885208
 21
367.1663549603025
 31
0.0
  0
LINE
  5
14F
330
1F
100
AcDbEntity
  8
1
  6
Continuous
 62
     7
100
AcDbLine
 10
530.7833156885208
 20
367.1663549603025
 30
0.0
 11
530.5333156885208
 21
367.4163549603025
 31
0.0
  0
LINE
  5
150
330
1F
100
AcDbEntity
  8
1
  6
Continuous
 62
     7
100
AcDbLine
 10
530.5333156885208
 20
367.4163549603025
 30
0.0
 11
530.2833156885208
 21
367.6663549603025
 31
0.0
  0
LINE
  5
151
330
1F
100
AcDbEntity
  8
1
  6
Continuous
 62
     2
100
AcDbLine
 10
530.5333156885208
 20
367.4163549603025
 30
0.0
 11
529.6923254308513
 21
366.5753647026327
 31
0.0
  0
LINE
  5
152
330
1F
100
AcDbEntity
  8
1
  6
Continuous
 62
     7
100
AcDbLine
 10
541.7833156885208
 20
397.1663549603026
 30
0.0
 11
541.7833156885208
 21
403.6663549603026
 31
0.0
  0
LINE
  5
153
330
1F
100
AcDbEntity
  8
1
  6
Continuous
 62
     7
100
AcDbLine
 10
541.7833156885208
 20
457.1663549603026
 30
0.0
 11
541.7833156885208
 21
465.1663549603026
 31
0.0
  0
LINE
  5
154
330
1F
100
AcDbEntity
  8
1
  6
Continuous
 62
     7
100
AcDbLine
 10
520.7833156885208
 20
367.6663549603025
 30
0.0
 11
520.7833156885208
 21
370.1663549603026
 31
0.0
  0
LINE
  5
155
330
1F
100
AcDbEntity
  8
1
  6
Continuous
 62
     7
100
AcDbLine
 10
541.7833156885208
 20
367.6663549603025
 30
0.0
 11
541.7833156885208
 21
370.1663549603026
 31
0.0
  0
LINE
  5
156
330
1F
100
AcDbEntity
  8
1
  6
DOT_CENTER
 62
     2
100
AcDbLine
 10
531.2833156885208
 20
492.981873927088
 30
0.0
 11
531.2833156885208
 21
471.981873927088
 31
0.0
  0
LINE
  5
157
330
1F
100
AcDbEntity
  8
1
  6
Continuous
 62
     2
100
AcDbLine
 10
530.5333156885208
 20
485.4163549603026
 30
0.0
 11
529.6923254308513
 21
484.5753647026328
 31
0.0
  0
LINE
  5
158
330
1F
100
AcDbEntity
  8
1
  6
Continuous
 62
     7
100
AcDbLine
 10
530.5333156885208
 20
485.4163549603026
 30
0.0
 11
530.2833156885208
 21
485.6663549603026
 31
0.0
  0
LINE
  5
159
330
1F
100
AcDbEntity
  8
1
  6
Continuous
 62
     7
100
AcDbLine
 10
530.2833156885208
 20
485.6663549603026
 30
0.0
 11
529.0333156885208
 21
485.6663549603026
 31
0.0
  0
LINE
  5
15A
330
1F
100
AcDbEntity
  8
1
  6
Continuous
 62
     7
100
AcDbLine
 10
529.0333156885208
 20
486.6663549603026
 30
0.0
 11
530.2833156885208
 21
486.6663549603026
 31
0.0
  0
LINE
  5
15B
330
1F
100
AcDbEntity
  8
1
  6
Continuous
 62
     2
100
AcDbLine
 10
530.5333156885208
 20
486.9163549603026
 30
0.0
 11
529.6923254308513
 21
487.7573452179722
 31
0.0
  0
LINE
  5
15C
330
1F
100
AcDbEntity
  8
1
  6
Continuous
 62
     7
100
AcDbLine
 10
530.7833156885208
 20
487.1663549603026
 30
0.0
 11
530.7833156885208
 21
488.4163549603026
 31
0.0
  0
LINE
  5
15D
330
1F
100
AcDbEntity
  8
1
  6
Continuous
 62
     7
100
AcDbLine
 10
530.7833156885208
 20
487.1663549603026
 30
0.0
 11
530.5333156885208
 21
486.9163549603026
 31
0.0
  0
LINE
  5
15E
330
1F
100
AcDbEntity
  8
1
  6
Continuous
 62
     7
100
AcDbLine
 10
530.5333156885208
 20
486.9163549603026
 30
0.0
 11
530.2833156885208
 21
486.6663549603026
 31
0.0
  0
LINE
  5
15F
330
1F
100
AcDbEntity
  8
1
  6
Continuous
 62
     7
100
AcDbLine
 10
530.7833156885208
 20
488.4163549603026
 30
0.0
 11
531.7833156885208
 21
488.4163549603026
 31
0.0
  0
LINE
  5
160
330
1F
100
AcDbEntity
  8
1
  6
Continuous
 62
     7
100
AcDbLine
 10
531.7833156885208
 20
488.4163549603026
 30
0.0
 11
531.7833156885208
 21
487.1663549603026
 31
0.0
  0
LINE
  5
161
330
1F
100
AcDbEntity
  8
1
  6
Continuous
 62
     2
100
AcDbLine
 10
532.0333156885208
 20
486.9163549603026
 30
0.0
 11
532.8743059461906
 21
487.7573452179722
 31
0.0
  0
LINE
  5
162
330
1F
100
AcDbEntity
  8
1
  6
Continuous
 62
     7
100
AcDbLine
 10
532.2833156885208
 20
486.6663549603026
 30
0.0
 11
533.5333156885208
 21
486.6663549603026
 31
0.0
  0
LINE
  5
163
330
1F
100
AcDbEntity
  8
1
  6
Continuous
 62
     7
100
AcDbLine
 10
532.0333156885208
 20
486.9163549603026
 30
0.0
 11
532.2833156885208
 21
486.6663549603026
 31
0.0
  0
LINE
  5
164
330
1F
100
AcDbEntity
  8
1
  6
Continuous
 62
     7
100
AcDbLine
 10
531.7833156885208
 20
487.1663549603026
 30
0.0
 11
532.0333156885208
 21
486.9163549603026
 31
0.0
  0
LINE
  5
165
330
1F
100
AcDbEntity
  8
1
  6
Continuous
 62
     7
100
AcDbLine
 10
533.5333156885208
 20
485.6663549603026
 30
0.0
 11
532.2833156885208
 21
485.6663549603026
 31
0.0
  0
LINE
  5
166
330
1F
100
AcDbEntity
  8
1
  6
Continuous
 62
     7
100
AcDbLine
 10
533.5333156885208
 20
486.6663549603026
 30
0.0
 11
533.5333156885208
 21
485.6663549603026
 31
0.0
  0
LINE
  5
167
330
1F
100
AcDbEntity
  8
1
  6
Continuous
 62
     7
100
AcDbLine
 10
532.2833156885208
 20
485.6663549603026
 30
0.0
 11
532.0333156885208
 21
485.4163549603026
 31
0.0
  0
LINE
  5
168
330
1F
100
AcDbEntity
  8
1
  6
Continuous
 62
     2
100
AcDbLine
 10
532.0333156885208
 20
485.4163549603026
 30
0.0
 11
532.8743059461906
 21
484.5753647026328
 31
0.0
  0
LINE
  5
169
330
1F
100
AcDbEntity
  8
1
  6
Continuous
 62
     7
100
AcDbLine
 10
531.7833156885208
 20
485.1663549603026
 30
0.0
 11
531.7833156885208
 21
483.9163549603026
 31
0.0
  0
LINE
  5
16A
330
1F
100
AcDbEntity
  8
1
  6
Continuous
 62
     7
100
AcDbLine
 10
532.0333156885208
 20
485.4163549603026
 30
0.0
 11
531.7833156885208
 21
485.1663549603026
 31
0.0
  0
LINE
  5
16B
330
1F
100
AcDbEntity
  8
1
  6
Continuous
 62
     7
100
AcDbLine
 10
530.7833156885208
 20
483.9163549603026
 30
0.0
 11
530.7833156885208
 21
485.1663549603026
 31
0.0
  0
LINE
  5
16C
330
1F
100
AcDbEntity
  8
1
  6
Continuous
 62
     7
100
AcDbLine
 10
530.7833156885208
 20
485.1663549603026
 30
0.0
 11
530.5333156885208
 21
485.4163549603026
 31
0.0
  0
LINE
  5
16D
330
1F
100
AcDbEntity
  8
1
  6
Continuous
 62
     7
100
AcDbLine
 10
531.7833156885208
 20
483.9163549603026
 30
0.0
 11
530.7833156885208
 21
483.9163549603026
 31
0.0
  0
LINE
  5
16E
330
1F
100
AcDbEntity
  8
1
  6
DOT_CENTER
 62
     2
100
AcDbLine
 10
527.252256282441
 20
486.1663549603026
 30
0.0
 11
535.252256282441
 21
486.1663549603026
 31
0.0
  0
LINE
  5
16F
330
1F
100
AcDbEntity
  8
1
  6
Continuous
 62
     7
100
AcDbLine
 10
520.7833156885208
 20
486.6663549603026
 30
0.0
 11
520.7833156885208
 21
484.1663549603026
 31
0.0
  0
LINE
  5
170
330
1F
100
AcDbEntity
  8
1
  6
Continuous
 62
     7
100
AcDbLine
 10
541.7833156885208
 20
486.6663549603026
 30
0.0
 11
541.7833156885208
 21
484.1663549603026
 31
0.0
  0
LINE
  5
171
330
1F
100
AcDbEntity
  8
1
  6
Continuous
 62
     7
100
AcDbLine
 10
528.0943666621549
 20
449.6663549603026
 30
0.0
 11
503.7513311946532
 21
449.6663549603025
 31
0.0
  0
LINE
  5
172
330
1F
100
AcDbEntity
  8
1
  6
Continuous
 62
     7
100
AcDbLine
 10
529.0333156885208
 20
485.6663549603026
 30
0.0
 11
529.0333156885208
 21
486.6663549603026
 31
0.0
  0
LINE
  5
173
330
1F
100
AcDbEntity
  8
1
  6
Continuous
 62
     7
100
AcDbLine
 10
530.5333156885208
 20
368.9163549603025
 30
0.0
 11
530.2833156885208
 21
368.6663549603025
 31
0.0
  0
ARC
  5
174
330
1F
100
AcDbEntity
  8
1
  6
Continuous
 62
     7
100
AcDbCircle
 10
531.8833156885208
 20
390.6663549603026
 30
0.0
 40
4.5
100
AcDbArc
 50
90.0
 51
117.266044450736
  0
ARC
  5
175
330
1F
100
AcDbEntity
  8
1
  6
Continuous
 62
     7
100
AcDbCircle
 10
534.6833156885207
 20
390.6663549603026
 30
0.0
 40
4.500000000000053
100
AcDbArc
 50
62.73395554926269
 51
90.0
  0
ARC
  5
176
330
1F
100
AcDbEntity
  8
1
  6
Continuous
 62
     7
100
AcDbCircle
 10
534.6833156885207
 20
463.6663549603026
 30
0.0
 40
4.5
100
AcDbArc
 50
-90.0
 51
-62.73395554926269
  0
ARC
  5
177
330
1F
100
AcDbEntity
  8
1
  6
Continuous
 62
     7
100
AcDbCircle
 10
531.8833156885208
 20
463.6663549603026
 30
0.0
 40
4.500000000000002
100
AcDbArc
 50
-117.266044450736
 51
-90.0
  0
ARC
  5
178
330
1F
100
AcDbEntity
  8
1
  6
Continuous
 62
     7
100
AcDbCircle
 10
500.7019480935046
 20
488.1663549603026
 30
0.0
 40
9.000000000000114
100
AcDbArc
 50
90.0
 51
180.0
  0
ARC
  5
179
330
1F
100
AcDbEntity
  8
1
  6
Continuous
 62
     7
100
AcDbCircle
 10
500.7019480935046
 20
366.1663549603026
 30
0.0
 40
9.0
100
AcDbArc
 50
-90.0
 51
0.0
  0
ARC
  5
17A
330
1F
100
AcDbEntity
  8
1
  6
Continuous
 62
     7
100
AcDbCircle
 10
500.7019480935046
 20
488.1663549603026
 30
0.0
 40
9.0
100
AcDbArc
 50
0.0
 51
90.0
  0
ARC
  5
17B
330
1F
100
AcDbEntity
  8
1
  6
Continuous
 62
     7
100
AcDbCircle
 10
500.7019480935046
 20
366.1663549603026
 30
0.0
 40
9.0
100
AcDbArc
 50
180.0
 51
-90.0
  0
ARC
  5
17C
330
1F
100
AcDbEntity
  8
1
  6
DASHED
 62
     2
100
AcDbCircle
 10
531.2833156885208
 20
376.5663549603026
 30
0.0
 40
2.599999999999909
100
AcDbArc
 50
0.0
 51
90.0
  0
ARC
  5
17D
330
1F
100
AcDbEntity
  8
1
  6
DASHED
 62
     2
100
AcDbCircle
 10
531.2833156885208
 20
365.2663549603026
 30
0.0
 40
2.600000000000136
100
AcDbArc
 50
180.0
 51
-90.0
  0
ARC
  5
17E
330
1F
100
AcDbEntity
  8
1
  6
DASHED
 62
     2
100
AcDbCircle
 10
531.2833156885208
 20
482.5934032481089
 30
0.0
 40
4.5
100
AcDbArc
 50
0.0
 51
54.7056053233405
  0
ARC
  5
17F
330
1F
100
AcDbEntity
  8
1
  6
DASHED
 62
     2
100
AcDbCircle
 10
531.2833156885208
 20
482.5934032481089
 30
0.0
 40
4.500000000000045
100
AcDbArc
 50
125.2943946766619
 51
180.0
  0
ARC
  5
180
330
1F
100
AcDbEntity
  8
1
  6
DASHED
 62
     2
100
AcDbCircle
 10
531.2833156885208
 20
477.7663549603026
 30
0.0
 40
4.5
100
AcDbArc
 50
180.0
 51
0.0
  0
ARC
  5
181
330
1F
100
AcDbEntity
  8
1
  6
DASHED
 62
     2
100
AcDbCircle
 10
531.2833156885208
 20
477.7663549603026
 30
0.0
 40
2.600000000000136
100
AcDbArc
 50
180.0
 51
0.0
  0
ARC
  5
182
330
1F
100
AcDbEntity
  8
1
  6
DASHED
 62
     2
100
AcDbCircle
 10
531.2833156885208
 20
489.0663549603026
 30
0.0
 40
2.599999999999909
100
AcDbArc
 50
0.0
 51
180.0
  0
ARC
  5
183
330
1F
100
AcDbEntity
  8
1
  6
DASHED
 62
     2
100
AcDbCircle
 10
531.2833156885208
 20
365.2663549603026
 30
0.0
 40
2.599999999999966
100
AcDbArc
 50
-90.0
 51
0.0
  0
ARC
  5
184
330
1F
100
AcDbEntity
  8
1
  6
DASHED
 62
     2
100
AcDbCircle
 10
531.2833156885208
 20
376.5663549603026
 30
0.0
 40
2.600000000000023
100
AcDbArc
 50
90.0
 51
180.0
  0
ARC
  5
185
330
1F
100
AcDbEntity
  8
1
  6
DASHED
 62
     2
100
AcDbCircle
 10
531.2833156885208
 20
376.5663549603026
 30
0.0
 40
4.5
100
AcDbArc
 50
0.0
 51
90.0
  0
ARC
  5
186
330
1F
100
AcDbEntity
  8
1
  6
DASHED
 62
     2
100
AcDbCircle
 10
531.2833156885208
 20
371.7393066724963
 30
0.0
 40
4.5
100
AcDbArc
 50
180.0
 51
-125.2943946766623
  0
ARC
  5
187
330
1F
100
AcDbEntity
  8
1
  6
DASHED
 62
     2
100
AcDbCircle
 10
531.2833156885208
 20
371.7393066724963
 30
0.0
 40
4.499999999999868
100
AcDbArc
 50
-54.70560532334008
 51
0.0
  0
ARC
  5
188
330
1F
100
AcDbEntity
  8
1
  6
DASHED
 62
     2
100
AcDbCircle
 10
531.2833156885208
 20
376.5663549603026
 30
0.0
 40
4.5
100
AcDbArc
 50
90.0
 51
180.0
  0
CIRCLE
  5
189
330
1F
100
AcDbEntity
  8
1
  6
DASHED
 62
     2
100
AcDbCircle
 10
497.2019480935046
 20
364.1663549603026
 30
0.0
 40
4.25
  0
CIRCLE
  5
18A
330
1F
100
AcDbEntity
  8
1
  6
DASHED
 62
     2
100
AcDbCircle
 10
497.2019480935046
 20
364.1663549603026
 30
0.0
 40
2.25
  0
CIRCLE
  5
18B
330
1F
100
AcDbEntity
  8
1
  6
DASHED
 62
     2
100
AcDbCircle
 10
504.2019480935046
 20
371.1663549603026
 30
0.0
 40
4.25
  0
CIRCLE
  5
18C
330
1F
100
AcDbEntity
  8
1
  6
DASHED
 62
     2
100
AcDbCircle
 10
504.2019480935046
 20
371.1663549603026
 30
0.0
 40
2.25
  0
CIRCLE
  5
18D
330
1F
100
AcDbEntity
  8
1
  6
DASHED
 62
     2
100
AcDbCircle
 10
504.2019480935046
 20
483.1663549603026
 30
0.0
 40
4.25
  0
CIRCLE
  5
18E
330
1F
100
AcDbEntity
  8
1
  6
DASHED
 62
     2
100
AcDbCircle
 10
504.2019480935046
 20
483.1663549603026
 30
0.0
 40
2.25
  0
CIRCLE
  5
18F
330
1F
100
AcDbEntity
  8
1
  6
DASHED
 62
     2
100
AcDbCircle
 10
497.2019480935046
 20
490.1663549603026
 30
0.0
 40
4.25
  0
CIRCLE
  5
190
330
1F
100
AcDbEntity
  8
1
  6
DASHED
 62
     2
100
AcDbCircle
 10
497.2019480935046
 20
490.1663549603026
 30
0.0
 40
2.25
  0
CIRCLE
  5
191
330
1F
100
AcDbEntity
  8
1
  6
Continuous
 62
     7
100
AcDbCircle
 10
500.7019480935046
 20
476.1663549603026
 30
0.0
 40
3.500000000000114
  0
CIRCLE
  5
192
330
1F
100
AcDbEntity
  8
1
  6
Continuous
 62
     7
100
AcDbCircle
 10
500.7019480935046
 20
378.1663549603026
 30
0.0
 40
3.5
  0
CIRCLE
  5
193
330
1F
100
AcDbEntity
  8
1
  6
Continuous
 62
     7
100
AcDbCircle
 10
531.2833156885208
 20
368.1663549603025
 30
0.0
 40
3.499999999999886
  0
CIRCLE
  5
194
330
1F
100
AcDbEntity
  8
1
  6
Continuous
 62
     7
100
AcDbCircle
 10
531.2833156885208
 20
486.1663549603026
 30
0.0
 40
3.500000000000114
  0
XLINE
  5
195
330
1F
100
AcDbEntity
  8
1
  6
DOT_CENTER
 62
     3
 60
     1
100
AcDbXline
 10
520.334748590349
 20
427.1663549603026
 30
0.0
 11
1.0
 21
0.0
 31
0.0
  0
XLINE
  5
196
330
1F
100
AcDbEntity
  8
1
  6
DOT_CENTER
 62
     3
 60
     1
100
AcDbXline
 10
541.7833156885208
 20
394.6663549603025
 30
0.0
 11
0.0
 21
1.0
 31
0.0
  0
XLINE
  5
197
330
1F
100
AcDbEntity
  8
1
  6
DOT_CENTER
 62
     3
 60
     1
100
AcDbXline
 10
545.4865401022967
 20
427.1663549603026
 30
0.0
 11
1.0
 21
0.0
 31
0.0
  0
XLINE
  5
198
330
1F
100
AcDbEntity
  8
1
  6
DOT_CENTER
 62
     3
 60
     1
100
AcDbXline
 10
541.7833156885208
 20
459.6663549603027
 30
0.0
 11
0.0
 21
-1.0
 31
0.0
  0
ARC
  5
199
330
1F
100
AcDbEntity
  8
1
  6
Continuous
 62
     7
100
AcDbCircle
 10
521.7833156885208
 20
396.1663549603026
 30
0.0
 40
1.0
100
AcDbArc
 50
90.0
 51
180.0
  0
ARC
  5
19A
330
1F
100
AcDbEntity
  8
1
  6
Continuous
 62
     7
100
AcDbCircle
 10
521.7833156885208
 20
458.1663549603026
 30
0.0
 40
1.0
100
AcDbArc
 50
180.0
 51
-90.0
  0
ARC
  5
19B
330
1F
100
AcDbEntity
  8
1
  6
DASHED
 62
     2
100
AcDbCircle
 10
531.2833156885208
 20
484.1663549603026
 30
0.0
 40
10.50000000000011
100
AcDbArc
 50
90.0
 51
180.0
  0
ARC
  5
19C
330
1F
100
AcDbEntity
  8
1
  6
DASHED
 62
     2
100
AcDbCircle
 10
531.2833156885208
 20
370.1663549603026
 30
0.0
 40
10.5
100
AcDbArc
 50
-90.0
 51
0.0
  0
ARC
  5
19D
330
1F
100
AcDbEntity
  8
1
  6
DASHED
 62
     2
100
AcDbCircle
 10
531.2833156885208
 20
370.1663549603026
 30
0.0
 40
10.5
100
AcDbArc
 50
180.0
 51
-90.0
  0
ARC
  5
19E
330
1F
100
AcDbEntity
  8
1
  6
DASHED
 62
     2
100
AcDbCircle
 10
531.2833156885208
 20
484.1663549603026
 30
0.0
 40
10.5
100
AcDbArc
 50
0.0
 51
90.0
  0
ARC
  5
19F
330
1F
100
AcDbEntity
  8
1
  6
Continuous
 62
     7
100
AcDbCircle
 10
505.6417463128835
 20
437.4163549603026
 30
0.0
 40
1.500000000000018
100
AcDbArc
 50
139.4523403014449
 51
180.0
  0
ARC
  5
1A0
330
1F
100
AcDbEntity
  8
1
  6
Continuous
 62
     7
100
AcDbCircle
 10
505.6417463128832
 20
416.9163549603026
 30
0.0
 40
1.499999999999944
100
AcDbArc
 50
-140.2530240850843
 51
-89.99999999998697
  0
ARC
  5
1A1
330
1F
100
AcDbEntity
  8
1
  6
Continuous
 62
     7
100
AcDbCircle
 10
531.2833156885208
 20
367.6663549603025
 30
0.0
 40
10.5
100
AcDbArc
 50
180.0
 51
-90.0
  0
ARC
  5
1A2
330
1F
100
AcDbEntity
  8
1
  6
Continuous
 62
     7
100
AcDbCircle
 10
531.2833156885208
 20
367.6663549603025
 30
0.0
 40
10.5
100
AcDbArc
 50
-90.0
 51
0.0
  0
ARC
  5
1A3
330
1F
100
AcDbEntity
  8
1
  6
Continuous
 62
     7
100
AcDbCircle
 10
531.2833156885208
 20
486.6663549603026
 30
0.0
 40
10.5
100
AcDbArc
 50
90.0
 51
180.0
  0
ARC
  5
1A4
330
1F
100
AcDbEntity
  8
1
  6
Continuous
 62
     7
100
AcDbCircle
 10
531.2833156885208
 20
486.6663549603026
 30
0.0
 40
10.5
100
AcDbArc
 50
0.0
 51
90.0
  0
ARC
  5
1A5
330
1F
100
AcDbEntity
  8
1
  6
Continuous
 62
     7
100
AcDbCircle
 10
505.6417463128835
 20
437.4163549603026
 30
0.0
 40
1.5
100
AcDbArc
 50
90.0
 51
139.4523403014449
  0
ARC
  5
1A6
330
1F
100
AcDbEntity
  8
1
  6
Continuous
 62
     7
100
AcDbCircle
 10
505.6417463128832
 20
416.9163549603026
 30
0.0
 40
1.499999999999659
100
AcDbArc
 50
180.0
 51
-140.2530240850843
  0
MTEXT
  5
1A8
330
1F
100
AcDbEntity
  8
1
 62
     2
100
AcDbMText
 10
547.835196168956
 20
429.347818684221
 30
0.0
 40
2.5
 41
0.0
 71
     5
 72
     1
  1
BBL
  7
CONVERTER_11
 73
     1
 44
1.32052821128451
  0
DIMENSION
  5
1B3
330
1F
100
AcDbEntity
  8
1
100
AcDbDimension
  2
*D1
 10
482.191796099637
 20
497.1663549603027
 30
0.0
 11
478.441796099637
 21
427.991175153667
 31
0.0
 70
    32
  1
<>
 71
     5
 42
-1.0
 53
90.0
  3
ME10_DIM_10
100
AcDbAlignedDimension
 13
500.7019480935046
 23
357.1663549603026
 33
0.0
 14
500.7019480935046
 24
497.1663549603027
 34
0.0
 50
90.0
100
AcDbRotatedDimension
  0
DIMENSION
  5
1BE
330
1F
100
AcDbEntity
  8
1
100
AcDbDimension
  2
*D2
 10
520.7833156885208
 20
346.546490269776
 30
0.0
 11
530.633645487289
 21
350.296490269776
 31
0.0
 70
    32
  1
<>
 71
     5
 42
-1.0
 53
0.00013888888889
  3
ME10_DIM_11
100
AcDbAlignedDimension
 13
541.7833156885208
 23
370.1663549603026
 33
0.0
 14
520.7833156885208
 24
370.1663549603026
 34
0.0
100
AcDbRotatedDimension
  0
DIMENSION
  5
1C9
330
1F
100
AcDbEntity
  8
1
100
AcDbDimension
  2
*D3
 10
491.7019480935046
 20
346.249945670982
 30
0.0
 11
500.682641009148
 21
349.999945670982
 31
0.0
 70
    32
  1
<>
 71
     5
 42
-1.0
 53
0.00013888888889
  3
ME10_DIM_12
100
AcDbAlignedDimension
 13
509.7019480935046
 23
366.1663549603026
 33
0.0
 14
491.7019480935046
 24
366.1663549603026
 34
0.0
100
AcDbRotatedDimension
  0
DIMENSION
  5
1D4
330
1F
100
AcDbEntity
  8
1
100
AcDbDimension
  2
*D4
 10
509.7019480935046
 20
346.249945670982
 30
0.0
 11
514.802268505675
 21
349.999945670982
 31
0.0
 70
    32
  1
<>
 71
     5
 42
-1.0
 53
0.00013888888889
  3
ME10_DIM_13
100
AcDbAlignedDimension
 13
520.7833156885208
 23
370.1663549603026
 33
0.0
 14
509.7019480935046
 24
366.1663549603026
 34
0.0
100
AcDbRotatedDimension
  0
ENDSEC
  0
SECTION
  2
OBJECTS
  0
DICTIONARY
  5
C
330
0
100
AcDbDictionary
281
     1
  3
ACAD_GROUP
350
D
  3
ACAD_LAYOUT
350
1A
  3
ACAD_MLINESTYLE
350
17
  3
ACAD_PLOTSETTINGS
350
19
  3
ACAD_PLOTSTYLENAME
350
E
  0
DICTIONARY
  5
D
102
{ACAD_REACTORS
330
C
102
}
330
C
100
AcDbDictionary
281
     1
  0
DICTIONARY
  5
1A
102
{ACAD_REACTORS
330
C
102
}
330
C
100
AcDbDictionary
281
     1
  3
Layout1
350
1E
  3
Layout2
350
26
  3
Model
350
22
  0
DICTIONARY
  5
17
102
{ACAD_REACTORS
330
C
102
}
330
C
100
AcDbDictionary
281
     1
  3
Standard
350
18
  0
DICTIONARY
  5
19
102
{ACAD_REACTORS
330
C
102
}
330
C
100
AcDbDictionary
281
     1
  0
ACDBDICTIONARYWDFLT
  5
E
102
{ACAD_REACTORS
330
C
102
}
330
C
100
AcDbDictionary
281
     1
  3
Normal
350
F
100
AcDbDictionaryWithDefault
340
F
  0
LAYOUT
  5
1E
102
{ACAD_REACTORS
330
1A
102
}
330
1A
100
AcDbPlotSettings
  1

  2

  4

  6

 40
0.0
 41
0.0
 42
0.0
 43
0.0
 44
0.0
 45
0.0
 46
0.0
 47
0.0
 48
0.0
 49
0.0
140
0.0
141
0.0
142
1.0
143
1.0
 70
   688
 72
     0
 73
     0
 74
     5
  7

 75
    16
 76
     0
 77
     2
 78
   300
147
1.0
148
0.0
149
0.0
100
AcDbLayout
  1
Layout1
 70
     1
 71
     1
 10
0.0
 20
0.0
 11
0.0
 21
0.0
 12
0.0
 22
0.0
 32
0.0
 14
0.0
 24
0.0
 34
0.0
 15
0.0
 25
0.0
 35
0.0
146
0.0
 13
0.0
 23
0.0
 33
0.0
 16
1.0
 26
0.0
 36
0.0
 17
0.0
 27
1.0
 37
0.0
 76
     0
330
1B
  0
LAYOUT
  5
26
102
{ACAD_REACTORS
330
1A
102
}
330
1A
100
AcDbPlotSettings
  1

  2

  4

  6

 40
0.0
 41
0.0
 42
0.0
 43
0.0
 44
0.0
 45
0.0
 46
0.0
 47
0.0
 48
0.0
 49
0.0
140
0.0
141
0.0
142
1.0
143
1.0
 70
   688
 72
     0
 73
     0
 74
     5
  7

 75
    16
 76
     0
 77
     2
 78
   300
147
1.0
148
0.0
149
0.0
100
AcDbLayout
  1
Layout2
 70
     1
 71
     2
 10
0.0
 20
0.0
 11
0.0
 21
0.0
 12
0.0
 22
0.0
 32
0.0
 14
0.0
 24
0.0
 34
0.0
 15
0.0
 25
0.0
 35
0.0
146
0.0
 13
0.0
 23
0.0
 33
0.0
 16
1.0
 26
0.0
 36
0.0
 17
0.0
 27
1.0
 37
0.0
 76
     0
330
23
  0
LAYOUT
  5
22
102
{ACAD_REACTORS
330
1A
102
}
330
1A
100
AcDbPlotSettings
  1

  2

  4

  6

 40
0.0
 41
0.0
 42
0.0
 43
0.0
 44
0.0
 45
0.0
 46
0.0
 47
0.0
 48
0.0
 49
0.0
140
0.0
141
0.0
142
1.0
143
1.0
 70
  1712
 72
     0
 73
     0
 74
     0
  7

 75
     0
 76
     0
 77
     2
 78
   300
147
1.0
148
0.0
149
0.0
100
AcDbLayout
  1
Model
 70
     1
 71
     0
 10
0.0
 20
0.0
 11
0.0
 21
0.0
 12
0.0
 22
0.0
 32
0.0
 14
476.691796099637
 24
344.249945670982
 34
0.0
 15
551.931872835995
 25
497.1663549603027
 35
0.0
146
0.0
 13
0.0
 23
0.0
 33
0.0
 16
1.0
 26
0.0
 36
0.0
 17
0.0
 27
1.0
 37
0.0
 76
     0
330
1F
  0
MLINESTYLE
  5
18
102
{ACAD_REACTORS
330
17
102
}
330
17
100
AcDbMlineStyle
  2
Standard
 70
     0
  3

 62
   256
 51
90.0
 52
90.0
 71
     2
 49
0.5
 62
   256
  6
BYLAYER
 49
-0.5
 62
   256
  6
BYLAYER
  0
ACDBPLACEHOLDER
  5
F
102
{ACAD_REACTORS
330
E
102
}
330
E
  0
ENDSEC
  0
EOF
