  0
SECTION
  2
HEADER
  9
$ACADVER
  1
AC1018
  9
$ACADMAINTVER
 70
     0
  9
$DWGCODEPAGE
  3
ANSI_1252
  9
$INSBASE
 10
0.0
 20
0.0
 30
0.0
  9
$EXTMIN
 10
-157.509811363987
 20
-165.6627659563957
 30
0.0
  9
$EXTMAX
 10
198.2648245450632
 20
67.01413350441774
 30
0.0
  9
$LIMMIN
 10
0.0
 20
0.0
  9
$LIMMAX
 10
12.0
 20
9.0
  9
$ORTHOMODE
 70
     0
  9
$REGENMODE
 70
     1
  9
$FILLMODE
 70
     1
  9
$QTEXTMODE
 70
     0
  9
$MIRRTEXT
 70
     1
  9
$LTSCALE
 40
1.0
  9
$ATTMODE
 70
     1
  9
$TEXTSIZE
 40
0.2
  9
$TRACEWID
 40
0.05
  9
$TEXTSTYLE
  7
Standard
  9
$CLAYER
  8
0
  9
$CELTYPE
  6
ByLayer
  9
$CECOLOR
 62
   256
  9
$CELTSCALE
 40
1.0
  9
$DISPSILH
 70
     0
  9
$DIMSCALE
 40
1.0
  9
$DIMASZ
 40
0.18
  9
$DIMEXO
 40
0.0625
  9
$DIMDLI
 40
0.38
  9
$DIMRND
 40
0.0
  9
$DIMDLE
 40
0.0
  9
$DIMEXE
 40
0.18
  9
$DIMTP
 40
0.0
  9
$DIMTM
 40
0.0
  9
$DIMTXT
 40
0.18
  9
$DIMCEN
 40
0.09
  9
$DIMTSZ
 40
0.0
  9
$DIMTOL
 70
     0
  9
$DIMLIM
 70
     0
  9
$DIMTIH
 70
     1
  9
$DIMTOH
 70
     1
  9
$DIMSE1
 70
     0
  9
$DIMSE2
 70
     0
  9
$DIMTAD
 70
     0
  9
$DIMZIN
 70
     0
  9
$DIMBLK
  1

  9
$DIMASO
 70
     1
  9
$DIMSHO
 70
     1
  9
$DIMPOST
  1

  9
$DIMAPOST
  1

  9
$DIMALT
 70
     0
  9
$DIMALTD
 70
     2
  9
$DIMALTF
 40
25.4
  9
$DIMLFAC
 40
1.0
  9
$DIMTOFL
 70
     0
  9
$DIMTVP
 40
0.0
  9
$DIMTIX
 70
     0
  9
$DIMSOXD
 70
     0
  9
$DIMSAH
 70
     0
  9
$DIMBLK1
  1

  9
$DIMBLK2
  1

  9
$DIMSTYLE
  2
Standard
  9
$DIMCLRD
 70
     0
  9
$DIMCLRE
 70
     0
  9
$DIMCLRT
 70
     0
  9
$DIMTFAC
 40
1.0
  9
$DIMGAP
 40
0.09
  9
$DIMJUST
 70
     0
  9
$DIMSD1
 70
     0
  9
$DIMSD2
 70
     0
  9
$DIMTOLJ
 70
     1
  9
$DIMTZIN
 70
     0
  9
$DIMALTZ
 70
     0
  9
$DIMALTTZ
 70
     0
  9
$DIMUPT
 70
     0
  9
$DIMDEC
 70
     4
  9
$DIMTDEC
 70
     4
  9
$DIMALTU
 70
     2
  9
$DIMALTTD
 70
     2
  9
$DIMTXSTY
  7
Standard
  9
$DIMAUNIT
 70
     0
  9
$DIMADEC
 70
     0
  9
$DIMALTRND
 40
0.0
  9
$DIMAZIN
 70
     0
  9
$DIMDSEP
 70
    46
  9
$DIMATFIT
 70
     3
  9
$DIMFRAC
 70
     0
  9
$DIMLDRBLK
  1

  9
$DIMLUNIT
 70
     2
  9
$DIMLWD
 70
    -2
  9
$DIMLWE
 70
    -2
  9
$DIMTMOVE
 70
     0
  9
$LUNITS
 70
     2
  9
$LUPREC
 70
     4
  9
$SKETCHINC
 40
0.1
  9
$FILLETRAD
 40
0.5
  9
$AUNITS
 70
     0
  9
$AUPREC
 70
     0
  9
$MENU
  1
.
  9
$ELEVATION
 40
0.0
  9
$PELEVATION
 40
0.0
  9
$THICKNESS
 40
0.0
  9
$LIMCHECK
 70
     0
  9
$CHAMFERA
 40
0.5
  9
$CHAMFERB
 40
0.5
  9
$CHAMFERC
 40
1.0
  9
$CHAMFERD
 40
0.0
  9
$SKPOLY
 70
     0
  9
$TDCREATE
 40
2454623.419790683
  9
$TDUCREATE
 40
2454623.336457349
  9
$TDUPDATE
 40
2454623.419790694
  9
$TDUUPDATE
 40
2454623.336457361
  9
$TDINDWG
 40
0.0000000116
  9
$TDUSRTIMER
 40
0.0000000116
  9
$USRTIMER
 70
     1
  9
$ANGBASE
 50
0.0
  9
$ANGDIR
 70
     0
  9
$PDMODE
 70
     0
  9
$PDSIZE
 40
0.0
  9
$PLINEWID
 40
0.0
  9
$SPLFRAME
 70
     0
  9
$SPLINETYPE
 70
     6
  9
$SPLINESEGS
 70
     8
  9
$HANDSEED
  5
232
  9
$SURFTAB1
 70
     6
  9
$SURFTAB2
 70
     6
  9
$SURFTYPE
 70
     6
  9
$SURFU
 70
     6
  9
$SURFV
 70
     6
  9
$UCSBASE
  2

  9
$UCSNAME
  2

  9
$UCSORG
 10
0.0
 20
0.0
 30
0.0
  9
$UCSXDIR
 10
1.0
 20
0.0
 30
0.0
  9
$UCSYDIR
 10
0.0
 20
1.0
 30
0.0
  9
$UCSORTHOREF
  2

  9
$UCSORTHOVIEW
 70
     0
  9
$UCSORGTOP
 10
0.0
 20
0.0
 30
0.0
  9
$UCSORGBOTTOM
 10
0.0
 20
0.0
 30
0.0
  9
$UCSORGLEFT
 10
0.0
 20
0.0
 30
0.0
  9
$UCSORGRIGHT
 10
0.0
 20
0.0
 30
0.0
  9
$UCSORGFRONT
 10
0.0
 20
0.0
 30
0.0
  9
$UCSORGBACK
 10
0.0
 20
0.0
 30
0.0
  9
$PUCSBASE
  2

  9
$PUCSNAME
  2

  9
$PUCSORG
 10
0.0
 20
0.0
 30
0.0
  9
$PUCSXDIR
 10
1.0
 20
0.0
 30
0.0
  9
$PUCSYDIR
 10
0.0
 20
1.0
 30
0.0
  9
$PUCSORTHOREF
  2

  9
$PUCSORTHOVIEW
 70
     0
  9
$PUCSORGTOP
 10
0.0
 20
0.0
 30
0.0
  9
$PUCSORGBOTTOM
 10
0.0
 20
0.0
 30
0.0
  9
$PUCSORGLEFT
 10
0.0
 20
0.0
 30
0.0
  9
$PUCSORGRIGHT
 10
0.0
 20
0.0
 30
0.0
  9
$PUCSORGFRONT
 10
0.0
 20
0.0
 30
0.0
  9
$PUCSORGBACK
 10
0.0
 20
0.0
 30
0.0
  9
$USERI1
 70
     0
  9
$USERI2
 70
     0
  9
$USERI3
 70
     0
  9
$USERI4
 70
     0
  9
$USERI5
 70
     0
  9
$USERR1
 40
14.5
  9
$USERR2
 40
0.0
  9
$USERR3
 40
0.0
  9
$USERR4
 40
0.0
  9
$USERR5
 40
0.0
  9
$WORLDVIEW
 70
     1
  9
$SHADEDGE
 70
     3
  9
$SHADEDIF
 70
    70
  9
$TILEMODE
 70
     1
  9
$MAXACTVP
 70
    64
  9
$PINSBASE
 10
0.0
 20
0.0
 30
0.0
  9
$PLIMCHECK
 70
     0
  9
$PEXTMIN
 10
1.00000000000000E+20
 20
1.00000000000000E+20
 30
1.00000000000000E+20
  9
$PEXTMAX
 10
-1.00000000000000E+20
 20
-1.00000000000000E+20
 30
-1.00000000000000E+20
  9
$PLIMMIN
 10
0.0
 20
0.0
  9
$PLIMMAX
 10
12.0
 20
9.0
  9
$UNITMODE
 70
     0
  9
$VISRETAIN
 70
     1
  9
$PLINEGEN
 70
     0
  9
$PSLTSCALE
 70
     1
  9
$TREEDEPTH
 70
  3020
  9
$CMLSTYLE
  2
Standard
  9
$CMLJUST
 70
     0
  9
$CMLSCALE
 40
1.0
  9
$PROXYGRAPHICS
 70
     1
  9
$MEASUREMENT
 70
     1
  9
$CELWEIGHT
370
    -1
  9
$ENDCAPS
280
     0
  9
$JOINSTYLE
280
     0
  9
$LWDISPLAY
290
     0
  9
$INSUNITS
 70
     1
  9
$HYPERLINKBASE
  1

  9
$STYLESHEET
  1

  9
$XEDIT
290
     1
  9
$CEPSNTYPE
380
     0
  9
$PSTYLEMODE
290
     1
  9
$FINGERPRINTGUID
  2
{1838BDA6-FA73-465B-B901-145BA528CB94}
  9
$VERSIONGUID
  2
{FAEB1C32-E019-11D5-929B-00C0DF256EC4}
  9
$EXTNAMES
290
     1
  9
$PSVPSCALE
 40
0.0
  9
$OLESTARTUP
290
     0
  9
$SORTENTS
280
   127
  9
$INDEXCTL
280
     0
  9
$HIDETEXT
280
     1
  9
$XCLIPFRAME
290
     0
  9
$HALOGAP
280
     0
  9
$OBSCOLOR
 70
   257
  9
$OBSLTYPE
280
     0
  9
$INTERSECTIONDISPLAY
280
     0
  9
$INTERSECTIONCOLOR
 70
   257
  9
$DIMASSOC
280
     2
  9
$PROJECTNAME
  1

  0
ENDSEC
  0
SECTION
  2
CLASSES
  0
CLASS
  1
ACDBDICTIONARYWDFLT
  2
AcDbDictionaryWithDefault
  3
ObjectDBX Classes
 90
        0
 91
        3
280
     0
281
     0
  0
CLASS
  1

  2
exOdDbCircle
  3

 90
        0
 91
        3
280
     0
281
     1
  0
CLASS
  1

  2
exOdDbSpline
  3

 90
        0
 91
        3
280
     0
281
     1
  0
CLASS
  1

  2
exOdDbPolyline
  3

 90
        0
 91
        3
280
     0
281
     1
  0
ENDSEC
  0
SECTION
  2
TABLES
  0
TABLE
  2
VPORT
  5
8
330
0
100
AcDbSymbolTable
 70
     1
  0
VPORT
  5
29
330
8
100
AcDbSymbolTableRecord
100
AcDbViewportTableRecord
  2
*Active
 70
     0
 10
0.0
 20
0.0
 11
1.0
 21
1.0
 12
20.37750659053809
 22
-49.32431622598898
 13
0.0
 23
0.0
 14
0.5
 24
0.5
 15
0.5
 25
0.5
 16
0.0
 26
0.0
 36
1.0
 17
0.0
 27
0.0
 37
0.0
 40
255.9445894068948
 41
1.60267857142857
 42
50.0
 43
0.0
 44
0.0
 50
0.0
 51
0.0
 71
     0
 72
   100
 73
     1
 74
     3
 75
     0
 76
     0
 77
     0
 78
     0
281
     0
 65
     1
110
0.0
120
0.0
130
0.0
111
1.0
121
0.0
131
0.0
112
0.0
122
1.0
132
0.0
 79
     0
146
0.0
  0
ENDTAB
  0
TABLE
  2
LTYPE
  5
5
330
0
100
AcDbSymbolTable
 70
     8
  0
LTYPE
  5
14
330
5
100
AcDbSymbolTableRecord
100
AcDbLinetypeTableRecord
  2
ByBlock
 70
     0
  3

 72
    65
 73
     0
 40
0.0
  0
LTYPE
  5
15
330
5
100
AcDbSymbolTableRecord
100
AcDbLinetypeTableRecord
  2
ByLayer
 70
     0
  3

 72
    65
 73
     0
 40
0.0
  0
LTYPE
  5
16
330
5
100
AcDbSymbolTableRecord
100
AcDbLinetypeTableRecord
  2
Continuous
 70
     0
  3
Solid line
 72
    65
 73
     0
 40
0.0
  0
LTYPE
  5
2A
330
5
100
AcDbSymbolTableRecord
100
AcDbLinetypeTableRecord
  2
DASHED
 70
     0
  3
Dashed
 72
    65
 73
     2
 40
15.0
 49
7.0
 74
     0
 49
-8.0
 74
     0
  0
LTYPE
  5
2B
330
5
100
AcDbSymbolTableRecord
100
AcDbLinetypeTableRecord
  2
DOTTED
 70
     0
  3
Dotted
 72
    65
 73
     2
 40
1.0
 49
0.0
 74
     0
 49
-1.0
 74
     0
  0
LTYPE
  5
2C
330
5
100
AcDbSymbolTableRecord
100
AcDbLinetypeTableRecord
  2
DOT_CENTER
 70
     0
  3
Dot_Center
 72
    65
 73
     4
 40
14.0
 49
12.0
 74
     0
 49
-1.0
 74
     0
 49
0.0
 74
     0
 49
-1.0
 74
     0
  0
LTYPE
  5
2D
330
5
100
AcDbSymbolTableRecord
100
AcDbLinetypeTableRecord
  2
LONG_DASHED
 70
     0
  3
Long_Dashed
 72
    65
 73
     2
 40
15.0
 49
10.0
 74
     0
 49
-5.0
 74
     0
  0
LTYPE
  5
2E
330
5
100
AcDbSymbolTableRecord
100
AcDbLinetypeTableRecord
  2
DASH_CENTER
 70
     0
  3
Dash_Center
 72
    65
 73
     4
 40
14.0
 49
11.0
 74
     0
 49
-1.0
 74
     0
 49
1.0
 74
     0
 49
-1.0
 74
     0
  0
LTYPE
  5
2F
330
5
100
AcDbSymbolTableRecord
100
AcDbLinetypeTableRecord
  2
PHANTOM
 70
     0
  3
Phantom
 72
    65
 73
     6
 40
13.0
 49
10.0
 74
     0
 49
-1.0
 74
     0
 49
0.0
 74
     0
 49
-1.0
 74
     0
 49
0.0
 74
     0
 49
-1.0
 74
     0
  0
LTYPE
  5
30
330
5
100
AcDbSymbolTableRecord
100
AcDbLinetypeTableRecord
  2
CENTER_DASH_DASH
 70
     0
  3
Center_Dash_Dash
 72
    65
 73
     6
 40
14.0
 49
9.0
 74
     0
 49
-1.0
 74
     0
 49
1.0
 74
     0
 49
-1.0
 74
     0
 49
1.0
 74
     0
 49
-1.0
 74
     0
  0
ENDTAB
  0
TABLE
  2
LAYER
  5
2
330
0
100
AcDbSymbolTable
 70
     2
  0
LAYER
  5
10
330
2
100
AcDbSymbolTableRecord
100
AcDbLayerTableRecord
  2
0
 70
     0
 62
     7
  6
Continuous
370
    -3
390
F
  0
LAYER
  5
31
330
2
100
AcDbSymbolTableRecord
100
AcDbLayerTableRecord
  2
1
 70
     0
 62
     7
  6
Continuous
370
    -3
390
F
  0
ENDTAB
  0
TABLE
  2
STYLE
  5
3
330
0
100
AcDbSymbolTable
 70
     2
  0
STYLE
  5
11
330
3
100
AcDbSymbolTableRecord
100
AcDbTextStyleTableRecord
  2
Standard
 70
     0
 40
0.0
 41
1.0
 50
0.0
 71
     0
 42
0.2
  3
txt
  4

  0
STYLE
  5
130
330
3
100
AcDbSymbolTableRecord
100
AcDbTextStyleTableRecord
  2
CONVERTER_11
 70
     0
 40
0.0
 41
0.9
 50
0.0
 71
     0
 42
0.2
  3
txt.shx
  4

  0
ENDTAB
  0
TABLE
  2
VIEW
  5
6
330
0
100
AcDbSymbolTable
 70
     0
  0
ENDTAB
  0
TABLE
  2
UCS
  5
7
330
0
100
AcDbSymbolTable
 70
     0
  0
ENDTAB
  0
TABLE
  2
APPID
  5
9
330
0
100
AcDbSymbolTable
 70
     1
  0
APPID
  5
12
330
9
100
AcDbSymbolTableRecord
100
AcDbRegAppTableRecord
  2
ACAD
 70
     0
  0
ENDTAB
  0
TABLE
  2
DIMSTYLE
  5
A
330
0
100
AcDbSymbolTable
 70
    21
100
AcDbDimStyleTable
  0
DIMSTYLE
105
27
330
A
100
AcDbSymbolTableRecord
100
AcDbDimStyleTableRecord
  2
Standard
 70
     0
340
11
  0
DIMSTYLE
105
13F
102
{ACAD_REACTORS
330
140
102
}
330
A
100
AcDbSymbolTableRecord
100
AcDbDimStyleTableRecord
  2
ME10_DIM_10
 70
     0
 41
3.5
 42
0.0
 44
2.0
 73
     0
 74
     0
 77
     1
 78
     8
140
3.5
147
2.0
172
     1
173
     1
176
     2
177
     2
178
     2
271
     3
340
130
  0
DIMSTYLE
105
14A
102
{ACAD_REACTORS
330
14B
102
}
330
A
100
AcDbSymbolTableRecord
100
AcDbDimStyleTableRecord
  2
ME10_DIM_11
 70
     0
 41
3.5
 42
0.0
 44
2.0
 73
     0
 74
     0
 77
     1
 78
     8
140
3.5
147
2.0
172
     1
173
     1
176
     2
177
     2
178
     2
271
     3
340
130
  0
DIMSTYLE
105
155
102
{ACAD_REACTORS
330
156
102
}
330
A
100
AcDbSymbolTableRecord
100
AcDbDimStyleTableRecord
  2
ME10_DIM_12
 70
     0
 41
3.5
 42
0.0
 44
2.0
 73
     0
 74
     0
 77
     1
 78
     8
140
3.5
147
2.0
172
     1
173
     1
176
     2
177
     2
178
     2
271
     3
340
130
  0
DIMSTYLE
105
160
102
{ACAD_REACTORS
330
161
102
}
330
A
100
AcDbSymbolTableRecord
100
AcDbDimStyleTableRecord
  2
ME10_DIM_13
 70
     0
  3
min.<>
 41
3.5
 42
0.0
 44
2.0
 73
     0
 74
     0
 77
     1
 78
     8
140
3.5
147
2.0
172
     1
173
     1
176
     2
177
     2
178
     2
271
     2
340
130
  0
DIMSTYLE
105
16B
102
{ACAD_REACTORS
330
16C
102
}
330
A
100
AcDbSymbolTableRecord
100
AcDbDimStyleTableRecord
  2
ME10_DIM_14
 70
     0
 41
3.5
 42
0.0
 44
2.0
 73
     0
 74
     0
 77
     1
 78
     8
140
3.5
147
2.0
172
     1
173
     1
176
     2
177
     2
178
     2
271
     2
340
130
  0
DIMSTYLE
105
176
102
{ACAD_REACTORS
330
177
102
}
330
A
100
AcDbSymbolTableRecord
100
AcDbDimStyleTableRecord
  2
ME10_DIM_15
 70
     0
 41
3.5
 42
0.0
 44
2.0
 73
     0
 74
     0
 77
     1
 78
     8
140
3.5
147
2.0
172
     1
173
     1
176
     2
177
     2
178
     2
271
     2
340
130
  0
DIMSTYLE
105
183
102
{ACAD_REACTORS
330
184
102
}
330
A
100
AcDbSymbolTableRecord
100
AcDbDimStyleTableRecord
  2
ME10_DIM_16
 70
     0
 41
3.5
 42
0.0
 44
2.0
 73
     0
 74
     0
 77
     1
 78
     8
140
3.5
147
2.0
172
     1
173
     1
176
     2
177
     2
178
     2
271
     3
340
130
  0
DIMSTYLE
105
18E
102
{ACAD_REACTORS
330
18F
102
}
330
A
100
AcDbSymbolTableRecord
100
AcDbDimStyleTableRecord
  2
ME10_DIM_17
 70
     0
 41
3.5
 42
0.0
 44
2.0
 73
     0
 74
     0
 77
     1
 78
     8
140
3.5
147
2.0
172
     1
173
     1
176
     2
177
     2
178
     2
271
     2
340
130
  0
DIMSTYLE
105
199
102
{ACAD_REACTORS
330
19A
102
}
330
A
100
AcDbSymbolTableRecord
100
AcDbDimStyleTableRecord
  2
ME10_DIM_18
 70
     0
 41
3.5
 42
0.0
 44
2.0
 73
     0
 74
     0
 77
     1
 78
     8
140
3.5
147
2.0
172
     1
173
     1
176
     2
177
     2
178
     2
271
     2
340
130
  0
DIMSTYLE
105
1A4
102
{ACAD_REACTORS
330
1A5
102
}
330
A
100
AcDbSymbolTableRecord
100
AcDbDimStyleTableRecord
  2
ME10_DIM_19
 70
     0
 41
3.5
 42
0.0
 44
2.0
 73
     0
 74
     0
 77
     1
 78
     8
140
3.5
147
2.0
172
     1
173
     1
176
     2
177
     2
178
     2
271
     3
340
130
  0
DIMSTYLE
105
1AF
102
{ACAD_REACTORS
330
1B0
102
}
330
A
100
AcDbSymbolTableRecord
100
AcDbDimStyleTableRecord
  2
ME10_DIM_20
 70
     0
 41
3.5
 42
0.0
 44
2.0
 73
     0
 74
     0
 77
     1
 78
     8
140
3.5
147
2.0
172
     1
173
     1
176
     2
177
     2
178
     2
271
     3
340
130
  0
DIMSTYLE
105
1BA
102
{ACAD_REACTORS
330
1BB
102
}
330
A
100
AcDbSymbolTableRecord
100
AcDbDimStyleTableRecord
  2
ME10_DIM_21
 70
     0
 41
3.5
 42
0.0
 44
2.0
 73
     0
 74
     0
 77
     1
 78
     8
140
3.5
147
2.0
172
     1
173
     1
176
     2
177
     2
178
     2
271
     3
340
130
  0
DIMSTYLE
105
1C5
102
{ACAD_REACTORS
330
1C6
102
}
330
A
100
AcDbSymbolTableRecord
100
AcDbDimStyleTableRecord
  2
ME10_DIM_22
 70
     0
 41
3.5
 42
0.0
 44
2.0
 73
     0
 74
     0
 77
     1
 78
     8
140
3.5
147
2.0
172
     1
173
     1
176
     2
177
     2
178
     2
271
     3
340
130
  0
DIMSTYLE
105
1D2
102
{ACAD_REACTORS
330
1D3
102
}
330
A
100
AcDbSymbolTableRecord
100
AcDbDimStyleTableRecord
  2
ME10_DIM_23
 70
     0
 41
3.5
 42
0.0
 44
2.0
 73
     0
 74
     0
 77
     1
 78
     8
140
3.5
147
2.0
172
     1
173
     1
176
     2
177
     2
178
     2
271
     3
340
130
  0
DIMSTYLE
105
1DD
102
{ACAD_REACTORS
330
1DE
102
}
330
A
100
AcDbSymbolTableRecord
100
AcDbDimStyleTableRecord
  2
ME10_DIM_24
 70
     0
 41
3.5
 42
0.0
 44
2.0
 73
     0
 74
     0
 77
     1
 78
     8
140
3.5
147
2.0
172
     1
173
     1
176
     2
177
     2
178
     2
271
     3
340
130
  0
DIMSTYLE
105
1E8
102
{ACAD_REACTORS
330
1E9
102
}
330
A
100
AcDbSymbolTableRecord
100
AcDbDimStyleTableRecord
  2
ME10_DIM_25
 70
     0
 41
3.5
 42
0.0
 44
2.0
 73
     0
 74
     0
 77
     1
 78
     8
140
3.5
147
2.0
172
     1
173
     1
176
     2
177
     2
178
     2
271
     3
340
130
  0
DIMSTYLE
105
1F3
102
{ACAD_REACTORS
330
1F4
102
}
330
A
100
AcDbSymbolTableRecord
100
AcDbDimStyleTableRecord
  2
ME10_DIM_26
 70
     0
 41
3.5
 42
0.0
 44
2.0
 73
     0
 74
     0
 77
     1
 78
     8
140
3.5
147
2.0
172
     1
173
     1
176
     2
177
     2
178
     2
271
     3
340
130
  0
DIMSTYLE
105
200
102
{ACAD_REACTORS
330
201
102
}
330
A
100
AcDbSymbolTableRecord
100
AcDbDimStyleTableRecord
  2
ME10_DIM_27
 70
     0
 41
3.5
 42
0.0
 44
2.0
 73
     0
 74
     0
 77
     1
 78
     8
140
3.5
147
2.0
172
     1
173
     1
176
     2
177
     2
178
     2
271
     2
340
130
  0
DIMSTYLE
105
212
102
{ACAD_REACTORS
330
213
102
}
330
A
100
AcDbSymbolTableRecord
100
AcDbDimStyleTableRecord
  2
ME10_DIM_28
 70
     0
 41
3.5
 42
0.0
 44
2.0
 73
     0
 74
     0
 77
     1
 78
     8
140
3.5
147
2.0
172
     1
173
     1
176
     2
177
     2
178
     2
271
     3
340
130
343
20D
  0
DIMSTYLE
105
21F
102
{ACAD_REACTORS
330
220
102
}
330
A
100
AcDbSymbolTableRecord
100
AcDbDimStyleTableRecord
  2
ME10_DIM_29
 70
     0
 41
1.5
 42
0.0
 44
2.0
 73
     0
 74
     0
 77
     1
 78
     8
140
3.5
147
2.0
172
     1
173
     1
176
     2
177
     2
178
     2
271
     3
340
130
344
20D
  0
ENDTAB
  0
TABLE
  2
BLOCK_RECORD
  5
1
330
0
100
AcDbSymbolTable
 70
    24
  0
BLOCK_RECORD
  5
1F
330
1
100
AcDbSymbolTableRecord
100
AcDbBlockTableRecord
  2
*Model_Space
340
22
  0
BLOCK_RECORD
  5
1B
330
1
100
AcDbSymbolTableRecord
100
AcDbBlockTableRecord
  2
*Paper_Space
340
1E
  0
BLOCK_RECORD
  5
23
330
1
100
AcDbSymbolTableRecord
100
AcDbBlockTableRecord
  2
*Paper_Space0
340
26
  0
BLOCK_RECORD
  5
134
330
1
100
AcDbSymbolTableRecord
100
AcDbBlockTableRecord
  2
*D1
340
0
  0
BLOCK_RECORD
  5
141
330
1
100
AcDbSymbolTableRecord
100
AcDbBlockTableRecord
  2
*D2
340
0
  0
BLOCK_RECORD
  5
14C
330
1
100
AcDbSymbolTableRecord
100
AcDbBlockTableRecord
  2
*D3
340
0
  0
BLOCK_RECORD
  5
157
330
1
100
AcDbSymbolTableRecord
100
AcDbBlockTableRecord
  2
*D4
340
0
  0
BLOCK_RECORD
  5
162
330
1
100
AcDbSymbolTableRecord
100
AcDbBlockTableRecord
  2
*D5
340
0
  0
BLOCK_RECORD
  5
16D
330
1
100
AcDbSymbolTableRecord
100
AcDbBlockTableRecord
  2
*D6
340
0
  0
BLOCK_RECORD
  5
178
330
1
100
AcDbSymbolTableRecord
100
AcDbBlockTableRecord
  2
*D7
340
0
  0
BLOCK_RECORD
  5
185
330
1
100
AcDbSymbolTableRecord
100
AcDbBlockTableRecord
  2
*D8
340
0
  0
BLOCK_RECORD
  5
190
330
1
100
AcDbSymbolTableRecord
100
AcDbBlockTableRecord
  2
*D9
340
0
  0
BLOCK_RECORD
  5
19B
330
1
100
AcDbSymbolTableRecord
100
AcDbBlockTableRecord
  2
*D10
340
0
  0
BLOCK_RECORD
  5
1A6
330
1
100
AcDbSymbolTableRecord
100
AcDbBlockTableRecord
  2
*D11
340
0
  0
BLOCK_RECORD
  5
1B1
330
1
100
AcDbSymbolTableRecord
100
AcDbBlockTableRecord
  2
*D12
340
0
  0
BLOCK_RECORD
  5
1BC
330
1
100
AcDbSymbolTableRecord
100
AcDbBlockTableRecord
  2
*D13
340
0
  0
BLOCK_RECORD
  5
1C7
330
1
100
AcDbSymbolTableRecord
100
AcDbBlockTableRecord
  2
*D14
340
0
  0
BLOCK_RECORD
  5
1D4
330
1
100
AcDbSymbolTableRecord
100
AcDbBlockTableRecord
  2
*D15
340
0
  0
BLOCK_RECORD
  5
1DF
330
1
100
AcDbSymbolTableRecord
100
AcDbBlockTableRecord
  2
*D16
340
0
  0
BLOCK_RECORD
  5
1EA
330
1
100
AcDbSymbolTableRecord
100
AcDbBlockTableRecord
  2
*D17
340
0
  0
BLOCK_RECORD
  5
1F5
330
1
100
AcDbSymbolTableRecord
100
AcDbBlockTableRecord
  2
*D18
340
0
  0
BLOCK_RECORD
  5
202
330
1
100
AcDbSymbolTableRecord
100
AcDbBlockTableRecord
  2
*D19
340
0
  0
BLOCK_RECORD
  5
20D
330
1
100
AcDbSymbolTableRecord
100
AcDbBlockTableRecord
  2
_Dot
340
0
  0
BLOCK_RECORD
  5
214
330
1
100
AcDbSymbolTableRecord
100
AcDbBlockTableRecord
  2
*D21
340
0
  0
BLOCK_RECORD
  5
221
330
1
100
AcDbSymbolTableRecord
100
AcDbBlockTableRecord
  2
*D22
340
0
102
{BLKREFS
331
228
102
}
  0
BLOCK_RECORD
  5
229
330
1
100
AcDbSymbolTableRecord
100
AcDbBlockTableRecord
  2
*D23
340
0
102
{BLKREFS
331
231
102
}
  0
ENDTAB
  0
ENDSEC
  0
SECTION
  2
BLOCKS
  0
BLOCK
  5
20
330
1F
100
AcDbEntity
  8
0
100
AcDbBlockBegin
  2
*Model_Space
 70
     0
 71
     0
 10
0.0
 20
0.0
 30
0.0
  3
*Model_Space
  1

  0
ENDBLK
  5
21
330
1F
100
AcDbEntity
  8
0
100
AcDbBlockEnd
  0
BLOCK
  5
1C
330
1B
100
AcDbEntity
 67
     1
  8
0
100
AcDbBlockBegin
  2
*Paper_Space
 70
     0
 71
     0
 10
0.0
 20
0.0
 30
0.0
  3
*Paper_Space
  1

  0
ENDBLK
  5
1D
330
1B
100
AcDbEntity
 67
     1
  8
0
100
AcDbBlockEnd
  0
BLOCK
  5
24
330
23
100
AcDbEntity
  8
0
100
AcDbBlockBegin
  2
*Paper_Space0
 70
     0
 71
     0
 10
0.0
 20
0.0
 30
0.0
  3
*Paper_Space0
  1

  0
ENDBLK
  5
25
330
23
100
AcDbEntity
  8
0
100
AcDbBlockEnd
  0
BLOCK
  5
13D
330
134
100
AcDbEntity
  8
0
100
AcDbBlockBegin
  2
*D1
 70
     1
 71
     0
 10
0.0
 20
0.0
 30
0.0
  3
*D1
  1

  0
LINE
  5
135
330
134
100
AcDbEntity
  8
1
  6
Continuous
 62
     2
100
AcDbLine
 10
94.64252917474512
 20
41.333080342872
 30
0.0
 11
101.6425291747451
 21
41.333080342872
 31
0.0
  0
LINE
  5
136
330
134
100
AcDbEntity
  8
1
  6
Continuous
 62
     2
100
AcDbLine
 10
87.64252917474512
 20
41.333080342872
 30
0.0
 11
94.64252917474512
 21
41.333080342872
 31
0.0
  0
LINE
  5
137
330
134
100
AcDbEntity
  8
1
  6
Continuous
 62
     2
100
AcDbLine
 10
80.64252917474512
 20
41.333080342872
 30
0.0
 11
87.64252917474512
 21
41.333080342872
 31
0.0
  0
LINE
  5
138
330
134
100
AcDbEntity
  8
1
  6
Continuous
 62
     2
100
AcDbLine
 10
94.64252917474512
 20
21.2213336345968
 30
0.0
 11
94.64252917474512
 21
43.333080342872
 31
0.0
  0
LINE
  5
139
330
134
100
AcDbEntity
  8
1
  6
Continuous
 62
     2
100
AcDbLine
 10
87.64252917474512
 20
28.2213336345968
 30
0.0
 11
87.64252917474512
 21
43.333080342872
 31
0.0
  0
SOLID
  5
13A
330
134
100
AcDbEntity
  8
1
 62
     2
100
AcDbTrace
 10
84.14252917474512
 20
40.87229660131612
 30
0.0
 11
84.14252917474512
 21
41.79386408442789
 31
0.0
 12
87.64252917474512
 22
41.333080342872
 32
0.0
 13
87.64252917474512
 23
41.333080342872
 33
0.0
  0
SOLID
  5
13B
330
134
100
AcDbEntity
  8
1
 62
     2
100
AcDbTrace
 10
98.14252917474512
 20
41.79386408442789
 30
0.0
 11
98.14252917474512
 21
40.87229660131612
 31
0.0
 12
94.64252917474512
 22
41.333080342872
 32
0.0
 13
94.64252917474512
 23
41.333080342872
 33
0.0
  0
MTEXT
  5
13C
330
134
100
AcDbEntity
  8
1
 62
     2
100
AcDbMText
 10
90.3831637989124
 20
43.333080342872
 30
0.0
 40
3.5
 41
0.0
 71
     7
 72
     1
  1
7
  7
CONVERTER_11
 11
0.9999999999970621
 21
2.424068405545307E-6
 31
0.0
 73
     1
 44
0.60024009603842
  0
ENDBLK
  5
13E
330
134
100
AcDbEntity
  8
0
100
AcDbBlockEnd
  0
BLOCK
  5
148
330
141
100
AcDbEntity
  8
0
100
AcDbBlockBegin
  2
*D2
 70
     1
 71
     0
 10
0.0
 20
0.0
 30
0.0
  3
*D2
  1

  0
LINE
  5
142
330
141
100
AcDbEntity
  8
1
  6
Continuous
 62
     2
100
AcDbLine
 10
128.329870209166
 20
-100.0286663654032
 30
0.0
 11
128.329870209166
 21
25.9713336345968
 31
0.0
  0
LINE
  5
143
330
141
100
AcDbEntity
  8
1
  6
Continuous
 62
     2
100
AcDbLine
 10
89.89252917474512
 20
25.9713336345968
 30
0.0
 11
130.329870209166
 21
25.9713336345968
 31
0.0
  0
LINE
  5
144
330
141
100
AcDbEntity
  8
1
  6
Continuous
 62
     2
100
AcDbLine
 10
89.89252917474512
 20
-100.0286663654032
 30
0.0
 11
130.329870209166
 21
-100.0286663654032
 31
0.0
  0
SOLID
  5
145
330
141
100
AcDbEntity
  8
1
 62
     2
100
AcDbTrace
 10
127.8690864676101
 20
-96.52866636540321
 30
0.0
 11
128.7906539507219
 21
-96.52866636540321
 31
0.0
 12
128.329870209166
 22
-100.0286663654032
 32
0.0
 13
128.329870209166
 23
-100.0286663654032
 33
0.0
  0
SOLID
  5
146
330
141
100
AcDbEntity
  8
1
 62
     2
100
AcDbTrace
 10
128.7906539507219
 20
22.4713336345968
 30
0.0
 11
127.8690864676101
 21
22.4713336345968
 31
0.0
 12
128.329870209166
 22
25.9713336345968
 32
0.0
 13
128.329870209166
 23
25.9713336345968
 33
0.0
  0
MTEXT
  5
147
330
141
100
AcDbEntity
  8
1
 62
     2
100
AcDbMText
 10
126.329870209166
 20
-41.7025099153095
 30
0.0
 40
3.5
 41
0.0
 71
     7
 72
     1
  1
126
  7
CONVERTER_11
 11
0.0
 21
1.0
 31
0.0
 73
     1
 44
0.60024009603842
  0
ENDBLK
  5
149
330
141
100
AcDbEntity
  8
0
100
AcDbBlockEnd
  0
BLOCK
  5
153
330
14C
100
AcDbEntity
  8
0
100
AcDbBlockBegin
  2
*D3
 70
     1
 71
     0
 10
0.0
 20
0.0
 30
0.0
  3
*D3
  1

  0
LINE
  5
14D
330
14C
100
AcDbEntity
  8
1
  6
Continuous
 62
     2
100
AcDbLine
 10
120.803391923046
 20
-93.0286663654032
 30
0.0
 11
120.803391923046
 21
18.9713336345968
 31
0.0
  0
LINE
  5
14E
330
14C
100
AcDbEntity
  8
1
  6
Continuous
 62
     2
100
AcDbLine
 10
96.89252917474512
 20
18.9713336345968
 30
0.0
 11
122.803391923046
 21
18.9713336345968
 31
0.0
  0
LINE
  5
14F
330
14C
100
AcDbEntity
  8
1
  6
Continuous
 62
     2
100
AcDbLine
 10
96.89252917474512
 20
-93.0286663654032
 30
0.0
 11
122.803391923046
 21
-93.0286663654032
 31
0.0
  0
SOLID
  5
150
330
14C
100
AcDbEntity
  8
1
 62
     2
100
AcDbTrace
 10
121.2641756646019
 20
15.4713336345968
 30
0.0
 11
120.3426081814901
 21
15.4713336345968
 31
0.0
 12
120.803391923046
 22
18.9713336345968
 32
0.0
 13
120.803391923046
 23
18.9713336345968
 33
0.0
  0
SOLID
  5
151
330
14C
100
AcDbEntity
  8
1
 62
     2
100
AcDbTrace
 10
120.3426081814901
 20
-89.5286663654032
 30
0.0
 11
121.2641756646019
 21
-89.5286663654032
 31
0.0
 12
120.803391923046
 22
-93.0286663654032
 32
0.0
 13
120.803391923046
 23
-93.0286663654032
 33
0.0
  0
MTEXT
  5
152
330
14C
100
AcDbEntity
  8
1
 62
     2
100
AcDbMText
 10
118.803391923046
 20
-39.0270875478466
 30
0.0
 40
3.5
 41
0.0
 71
     7
 72
     1
  1
112
  7
CONVERTER_11
 11
0.0
 21
1.0
 31
0.0
 73
     1
 44
0.60024009603842
  0
ENDBLK
  5
154
330
14C
100
AcDbEntity
  8
0
100
AcDbBlockEnd
  0
BLOCK
  5
15E
330
157
100
AcDbEntity
  8
0
100
AcDbBlockBegin
  2
*D4
 70
     1
 71
     0
 10
0.0
 20
0.0
 30
0.0
  3
*D4
  1

  0
LINE
  5
158
330
157
100
AcDbEntity
  8
1
  6
Continuous
 62
     2
100
AcDbLine
 10
-38.16927749579934
 20
-123.1881483633788
 30
0.0
 11
-8.16927749579881
 21
-123.1881483633788
 31
0.0
  0
LINE
  5
159
330
157
100
AcDbEntity
  8
1
  6
Continuous
 62
     2
100
AcDbLine
 10
-38.16927749579934
 20
-109.6032064279778
 30
0.0
 11
-38.16927749579934
 21
-125.1881483633788
 31
0.0
  0
LINE
  5
15A
330
157
100
AcDbEntity
  8
1
  6
Continuous
 62
     2
100
AcDbLine
 10
-8.16927749579881
 20
-109.6032064279778
 30
0.0
 11
-8.16927749579881
 21
-125.1881483633788
 31
0.0
  0
SOLID
  5
15B
330
157
100
AcDbEntity
  8
1
 62
     2
100
AcDbTrace
 10
-34.66927749579934
 20
-122.7273646218229
 30
0.0
 11
-34.66927749579934
 21
-123.6489321049347
 31
0.0
 12
-38.16927749579934
 22
-123.1881483633788
 32
0.0
 13
-38.16927749579934
 23
-123.1881483633788
 33
0.0
  0
SOLID
  5
15C
330
157
100
AcDbEntity
  8
1
 62
     2
100
AcDbTrace
 10
-11.66927749579881
 20
-123.6489321049347
 30
0.0
 11
-11.66927749579881
 21
-122.7273646218229
 31
0.0
 12
-8.16927749579881
 22
-123.1881483633788
 32
0.0
 13
-8.16927749579881
 23
-123.1881483633788
 33
0.0
  0
MTEXT
  5
15D
330
157
100
AcDbEntity
  8
1
 62
     2
100
AcDbMText
 10
-31.08564668698339
 20
-121.1881761916841
 30
0.0
 40
3.5
 41
0.0
 71
     7
 72
     1
  1
\C2;min.\C2;30
  7
CONVERTER_11
 11
0.9999999999970621
 21
2.424068405545307E-6
 31
0.0
 73
     1
 44
0.60024009603842
  0
ENDBLK
  5
15F
330
157
100
AcDbEntity
  8
0
100
AcDbBlockEnd
  0
BLOCK
  5
169
330
162
100
AcDbEntity
  8
0
100
AcDbBlockBegin
  2
*D5
 70
     1
 71
     0
 10
0.0
 20
0.0
 30
0.0
  3
*D5
  1

  0
LINE
  5
163
330
162
100
AcDbEntity
  8
1
  6
Continuous
 62
     2
100
AcDbLine
 10
-55.83049283017282
 20
-112.1032064279778
 30
0.0
 11
-55.83049283017282
 21
-81.85320642797774
 31
0.0
  0
LINE
  5
164
330
162
100
AcDbEntity
  8
1
  6
Continuous
 62
     2
100
AcDbLine
 10
-32.16927749579881
 20
-81.85320642797774
 30
0.0
 11
-57.83049283017282
 21
-81.85320642797774
 31
0.0
  0
LINE
  5
165
330
162
100
AcDbEntity
  8
1
  6
Continuous
 62
     2
100
AcDbLine
 10
-35.66927749579932
 20
-112.1032064279778
 30
0.0
 11
-57.83049283017282
 21
-112.1032064279778
 31
0.0
  0
SOLID
  5
166
330
162
100
AcDbEntity
  8
1
 62
     2
100
AcDbTrace
 10
-56.29127657172871
 20
-108.6032064279778
 30
0.0
 11
-55.36970908861694
 21
-108.6032064279778
 31
0.0
 12
-55.83049283017282
 22
-112.1032064279778
 32
0.0
 13
-55.83049283017282
 23
-112.1032064279778
 33
0.0
  0
SOLID
  5
167
330
162
100
AcDbEntity
  8
1
 62
     2
100
AcDbTrace
 10
-55.36970908861694
 20
-85.35320642797774
 30
0.0
 11
-56.29127657172871
 21
-85.35320642797774
 31
0.0
 12
-55.83049283017282
 22
-81.85320642797774
 32
0.0
 13
-55.83049283017282
 23
-81.85320642797774
 33
0.0
  0
MTEXT
  5
168
330
162
100
AcDbEntity
  8
1
 62
     2
100
AcDbMText
 10
-57.83049283017282
 20
-102.0380845654049
 30
0.0
 40
3.5
 41
0.0
 71
     7
 72
     1
  1
30.25
  7
CONVERTER_11
 11
0.0
 21
1.0
 31
0.0
 73
     1
 44
0.60024009603842
  0
ENDBLK
  5
16A
330
162
100
AcDbEntity
  8
0
100
AcDbBlockEnd
  0
BLOCK
  5
174
330
16D
100
AcDbEntity
  8
0
100
AcDbBlockBegin
  2
*D6
 70
     1
 71
     0
 10
0.0
 20
0.0
 30
0.0
  3
*D6
  1

  0
LINE
  5
16E
330
16D
100
AcDbEntity
  8
1
  6
Continuous
 62
     2
100
AcDbLine
 10
-34.16927749579881
 20
-46.44854351831551
 30
0.0
 11
-9.66927749579881
 21
-46.44854351831551
 31
0.0
  0
LINE
  5
16F
330
16D
100
AcDbEntity
  8
1
  6
Continuous
 62
     2
100
AcDbLine
 10
-9.66927749579881
 20
-53.1032064279778
 30
0.0
 11
-9.66927749579881
 21
-44.44854351831551
 31
0.0
  0
LINE
  5
170
330
16D
100
AcDbEntity
  8
1
  6
Continuous
 62
     2
100
AcDbLine
 10
-34.16927749579881
 20
-83.85320642797774
 30
0.0
 11
-34.16927749579881
 21
-44.44854351831551
 31
0.0
  0
SOLID
  5
171
330
16D
100
AcDbEntity
  8
1
 62
     2
100
AcDbTrace
 10
-30.66927749579881
 20
-45.98775977675962
 30
0.0
 11
-30.66927749579881
 21
-46.9093272598714
 31
0.0
 12
-34.16927749579881
 22
-46.44854351831551
 32
0.0
 13
-34.16927749579881
 23
-46.44854351831551
 33
0.0
  0
SOLID
  5
172
330
16D
100
AcDbEntity
  8
1
 62
     2
100
AcDbTrace
 10
-13.16927749579881
 20
-46.9093272598714
 30
0.0
 11
-13.16927749579881
 21
-45.98775977675962
 31
0.0
 12
-9.66927749579881
 22
-46.44854351831551
 32
0.0
 13
-9.66927749579881
 23
-46.44854351831551
 33
0.0
  0
MTEXT
  5
173
330
16D
100
AcDbEntity
  8
1
 62
     2
100
AcDbMText
 10
-27.54345760376851
 20
-44.44854351831551
 30
0.0
 40
3.5
 41
0.0
 71
     7
 72
     1
  1
24.5
  7
CONVERTER_11
 11
0.9999999999970621
 21
2.424068405545307E-6
 31
0.0
 73
     1
 44
0.60024009603842
  0
ENDBLK
  5
175
330
16D
100
AcDbEntity
  8
0
100
AcDbBlockEnd
  0
BLOCK
  5
181
330
178
100
AcDbEntity
  8
0
100
AcDbBlockBegin
  2
*D7
 70
     1
 71
     0
 10
0.0
 20
0.0
 30
0.0
  3
*D7
  1

  0
LINE
  5
179
330
178
100
AcDbEntity
  8
1
  6
Continuous
 62
     2
100
AcDbLine
 10
-46.71860302029121
 20
-119.1032064279778
 30
0.0
 11
-46.71860302029121
 21
-112.1032064279778
 31
0.0
  0
LINE
  5
17A
330
178
100
AcDbEntity
  8
1
  6
Continuous
 62
     2
100
AcDbLine
 10
-46.71860302029121
 20
-112.1032064279778
 30
0.0
 11
-46.71860302029121
 21
-107.1032064279778
 31
0.0
  0
LINE
  5
17B
330
178
100
AcDbEntity
  8
1
  6
Continuous
 62
     2
100
AcDbLine
 10
-46.71860302029121
 20
-107.1032064279778
 30
0.0
 11
-46.71860302029121
 21
-100.1032064279778
 31
0.0
  0
LINE
  5
17C
330
178
100
AcDbEntity
  8
1
  6
Continuous
 62
     2
100
AcDbLine
 10
-35.66927749579934
 20
-112.1032064279778
 30
0.0
 11
-48.71860302029121
 21
-112.1032064279778
 31
0.0
  0
LINE
  5
17D
330
178
100
AcDbEntity
  8
1
  6
Continuous
 62
     2
100
AcDbLine
 10
-9.66927749579881
 20
-107.1032064279778
 30
0.0
 11
-48.71860302029121
 21
-107.1032064279778
 31
0.0
  0
SOLID
  5
17E
330
178
100
AcDbEntity
  8
1
 62
     2
100
AcDbTrace
 10
-46.25781927873533
 20
-115.6032064279778
 30
0.0
 11
-47.1793867618471
 21
-115.6032064279778
 31
0.0
 12
-46.71860302029121
 22
-112.1032064279778
 32
0.0
 13
-46.71860302029121
 23
-112.1032064279778
 33
0.0
  0
SOLID
  5
17F
330
178
100
AcDbEntity
  8
1
 62
     2
100
AcDbTrace
 10
-47.1793867618471
 20
-103.6032064279778
 30
0.0
 11
-46.25781927873533
 21
-103.6032064279778
 31
0.0
 12
-46.71860302029121
 22
-107.1032064279778
 32
0.0
 13
-46.71860302029121
 23
-107.1032064279778
 33
0.0
  0
MTEXT
  5
180
330
178
100
AcDbEntity
  8
1
 62
     2
100
AcDbMText
 10
-48.71860302029121
 20
-110.742184183219
 30
0.0
 40
3.5
 41
0.0
 71
     7
 72
     1
  1
5
  7
CONVERTER_11
 11
0.0
 21
1.0
 31
0.0
 73
     1
 44
0.60024009603842
  0
ENDBLK
  5
182
330
178
100
AcDbEntity
  8
0
100
AcDbBlockEnd
  0
BLOCK
  5
18C
330
185
100
AcDbEntity
  8
0
100
AcDbBlockBegin
  2
*D8
 70
     1
 71
     0
 10
0.0
 20
0.0
 30
0.0
  3
*D8
  1

  0
LINE
  5
186
330
185
100
AcDbEntity
  8
1
  6
Continuous
 62
     2
100
AcDbLine
 10
166.8558626684731
 20
-157.0282268852766
 30
0.0
 11
191.8558626684731
 21
-157.0282268852766
 31
0.0
  0
LINE
  5
187
330
185
100
AcDbEntity
  8
1
  6
Continuous
 62
     2
100
AcDbLine
 10
166.8558626684731
 20
-82.27866636540321
 30
0.0
 11
166.8558626684731
 21
-159.0282268852766
 31
0.0
  0
LINE
  5
188
330
185
100
AcDbEntity
  8
1
  6
Continuous
 62
     2
100
AcDbLine
 10
191.8558626684731
 20
-107.0286663654032
 30
0.0
 11
191.8558626684731
 21
-159.0282268852766
 31
0.0
  0
SOLID
  5
189
330
185
100
AcDbEntity
  8
1
 62
     2
100
AcDbTrace
 10
188.3558626684731
 20
-157.4890106268325
 30
0.0
 11
188.3558626684731
 21
-156.5674431437207
 31
0.0
 12
191.8558626684731
 22
-157.0282268852766
 32
0.0
 13
191.8558626684731
 23
-157.0282268852766
 33
0.0
  0
SOLID
  5
18A
330
185
100
AcDbEntity
  8
1
 62
     2
100
AcDbTrace
 10
170.3558626684731
 20
-156.5674431437207
 30
0.0
 11
170.3558626684731
 21
-157.4890106268325
 31
0.0
 12
166.8558626684731
 22
-157.0282268852766
 32
0.0
 13
166.8558626684731
 23
-157.0282268852766
 33
0.0
  0
MTEXT
  5
18B
330
185
100
AcDbEntity
  8
1
 62
     2
100
AcDbMText
 10
176.6914997049994
 20
-155.0282268852766
 30
0.0
 40
3.5
 41
0.0
 71
     7
 72
     1
  1
25
  7
CONVERTER_11
 11
0.9999999999970621
 21
2.424068405545307E-6
 31
0.0
 73
     1
 44
0.60024009603842
  0
ENDBLK
  5
18D
330
185
100
AcDbEntity
  8
0
100
AcDbBlockEnd
  0
BLOCK
  5
197
330
190
100
AcDbEntity
  8
0
100
AcDbBlockBegin
  2
*D9
 70
     1
 71
     0
 10
0.0
 20
0.0
 30
0.0
  3
*D9
  1

  0
LINE
  5
191
330
190
100
AcDbEntity
  8
1
  6
Continuous
 62
     2
100
AcDbLine
 10
181.8558626684731
 20
-146.1909364723596
 30
0.0
 11
191.8558626684731
 21
-146.1909364723596
 31
0.0
  0
LINE
  5
192
330
190
100
AcDbEntity
  8
1
  6
Continuous
 62
     2
100
AcDbLine
 10
181.8558626684731
 20
-107.0286663654032
 30
0.0
 11
181.8558626684731
 21
-148.1909364723596
 31
0.0
  0
LINE
  5
193
330
190
100
AcDbEntity
  8
1
  6
Continuous
 62
     2
100
AcDbLine
 10
191.8558626684731
 20
-137.0286663654032
 30
0.0
 11
191.8558626684731
 21
-148.1909364723596
 31
0.0
  0
SOLID
  5
194
330
190
100
AcDbEntity
  8
1
 62
     2
100
AcDbTrace
 10
185.3558626684731
 20
-145.7301527308037
 30
0.0
 11
185.3558626684731
 21
-146.6517202139155
 31
0.0
 12
181.8558626684731
 22
-146.1909364723596
 32
0.0
 13
181.8558626684731
 23
-146.1909364723596
 33
0.0
  0
SOLID
  5
195
330
190
100
AcDbEntity
  8
1
 62
     2
100
AcDbTrace
 10
188.3558626684731
 20
-146.6517202139155
 30
0.0
 11
188.3558626684731
 21
-145.7301527308037
 31
0.0
 12
191.8558626684731
 22
-146.1909364723596
 32
0.0
 13
191.8558626684731
 23
-146.1909364723596
 33
0.0
  0
MTEXT
  5
196
330
190
100
AcDbEntity
  8
1
 62
     2
100
AcDbMText
 10
184.2743510044829
 20
-144.1909364723596
 30
0.0
 40
3.5
 41
0.0
 71
     7
 72
     1
  1
10
  7
CONVERTER_11
 11
0.9999999999970621
 21
2.424068405545307E-6
 31
0.0
 73
     1
 44
0.60024009603842
  0
ENDBLK
  5
198
330
190
100
AcDbEntity
  8
0
100
AcDbBlockEnd
  0
BLOCK
  5
1A2
330
19B
100
AcDbEntity
  8
0
100
AcDbBlockBegin
  2
*D10
 70
     1
 71
     0
 10
0.0
 20
0.0
 30
0.0
  3
*D10
  1

  0
LINE
  5
19C
330
19B
100
AcDbEntity
  8
1
  6
Continuous
 62
     2
100
AcDbLine
 10
113.735685019818
 20
-82.27866636540321
 30
0.0
 11
113.735685019818
 21
8.2213336345968
 31
0.0
  0
LINE
  5
19D
330
19B
100
AcDbEntity
  8
1
  6
Continuous
 62
     2
100
AcDbLine
 10
90.14252917474512
 20
8.2213336345968
 30
0.0
 11
115.735685019818
 21
8.2213336345968
 31
0.0
  0
LINE
  5
19E
330
19B
100
AcDbEntity
  8
1
  6
Continuous
 62
     2
100
AcDbLine
 10
90.14252917474512
 20
-82.27866636540321
 30
0.0
 11
115.735685019818
 21
-82.27866636540321
 31
0.0
  0
SOLID
  5
19F
330
19B
100
AcDbEntity
  8
1
 62
     2
100
AcDbTrace
 10
114.1964687613739
 20
4.7213336345968
 30
0.0
 11
113.2749012782621
 21
4.7213336345968
 31
0.0
 12
113.735685019818
 22
8.2213336345968
 32
0.0
 13
113.735685019818
 23
8.2213336345968
 33
0.0
  0
SOLID
  5
1A0
330
19B
100
AcDbEntity
  8
1
 62
     2
100
AcDbTrace
 10
113.2749012782621
 20
-78.77866636540321
 30
0.0
 11
114.1964687613739
 21
-78.77866636540321
 31
0.0
 12
113.735685019818
 22
-82.27866636540321
 32
0.0
 13
113.735685019818
 23
-82.27866636540321
 33
0.0
  0
MTEXT
  5
1A1
330
19B
100
AcDbEntity
  8
1
 62
     2
100
AcDbMText
 10
111.735685019818
 20
-46.3265157621334
 30
0.0
 40
3.5
 41
0.0
 71
     7
 72
     1
  1
90.5
  7
CONVERTER_11
 11
0.0
 21
1.0
 31
0.0
 73
     1
 44
0.60024009603842
  0
ENDBLK
  5
1A3
330
19B
100
AcDbEntity
  8
0
100
AcDbBlockEnd
  0
BLOCK
  5
1AD
330
1A6
100
AcDbEntity
  8
0
100
AcDbBlockBegin
  2
*D11
 70
     1
 71
     0
 10
0.0
 20
0.0
 30
0.0
  3
*D11
  1

  0
LINE
  5
1A7
330
1A6
100
AcDbEntity
  8
1
  6
Continuous
 62
     2
100
AcDbLine
 10
136.035550359241
 20
-107.0286663654032
 30
0.0
 11
136.035550359241
 21
32.9713336345968
 31
0.0
  0
LINE
  5
1A8
330
1A6
100
AcDbEntity
  8
1
  6
Continuous
 62
     2
100
AcDbLine
 10
91.14252917474512
 20
32.9713336345968
 30
0.0
 11
138.035550359241
 21
32.9713336345968
 31
0.0
  0
LINE
  5
1A9
330
1A6
100
AcDbEntity
  8
1
  6
Continuous
 62
     2
100
AcDbLine
 10
91.14252917474512
 20
-107.0286663654032
 30
0.0
 11
138.035550359241
 21
-107.0286663654032
 31
0.0
  0
SOLID
  5
1AA
330
1A6
100
AcDbEntity
  8
1
 62
     2
100
AcDbTrace
 10
135.5747666176851
 20
-103.5286663654032
 30
0.0
 11
136.4963341007969
 21
-103.5286663654032
 31
0.0
 12
136.035550359241
 22
-107.0286663654032
 32
0.0
 13
136.035550359241
 23
-107.0286663654032
 33
0.0
  0
SOLID
  5
1AB
330
1A6
100
AcDbEntity
  8
1
 62
     2
100
AcDbTrace
 10
136.4963341007969
 20
29.4713336345968
 30
0.0
 11
135.5747666176851
 21
29.4713336345968
 31
0.0
 12
136.035550359241
 22
32.9713336345968
 32
0.0
 13
136.035550359241
 23
32.9713336345968
 33
0.0
  0
MTEXT
  5
1AC
330
1A6
100
AcDbEntity
  8
1
 62
     2
100
AcDbMText
 10
134.035550359241
 20
-39.014481955981
 30
0.0
 40
3.5
 41
0.0
 71
     7
 72
     1
  1
140
  7
CONVERTER_11
 11
0.0
 21
1.0
 31
0.0
 73
     1
 44
0.60024009603842
  0
ENDBLK
  5
1AE
330
1A6
100
AcDbEntity
  8
0
100
AcDbBlockEnd
  0
BLOCK
  5
1B8
330
1B1
100
AcDbEntity
  8
0
100
AcDbBlockBegin
  2
*D12
 70
     1
 71
     0
 10
0.0
 20
0.0
 30
0.0
  3
*D12
  1

  0
LINE
  5
1B2
330
1B1
100
AcDbEntity
  8
1
  6
Continuous
 62
     2
100
AcDbLine
 10
82.14252917474518
 20
-26.10044820959215
 30
0.0
 11
98.14252917474512
 21
-26.10044820959215
 31
0.0
  0
LINE
  5
1B3
330
1B1
100
AcDbEntity
  8
1
  6
Continuous
 62
     2
100
AcDbLine
 10
82.14252917474518
 20
-37.0286663654032
 30
0.0
 11
82.14252917474518
 21
-24.10044820959215
 31
0.0
  0
LINE
  5
1B4
330
1B1
100
AcDbEntity
  8
1
  6
Continuous
 62
     2
100
AcDbLine
 10
98.14252917474512
 20
-74.27866636540321
 30
0.0
 11
98.14252917474512
 21
-24.10044820959215
 31
0.0
  0
SOLID
  5
1B5
330
1B1
100
AcDbEntity
  8
1
 62
     2
100
AcDbTrace
 10
94.64252917474512
 20
-26.56123195114804
 30
0.0
 11
94.64252917474512
 21
-25.63966446803627
 31
0.0
 12
98.14252917474512
 22
-26.10044820959215
 32
0.0
 13
98.14252917474512
 23
-26.10044820959215
 33
0.0
  0
SOLID
  5
1B6
330
1B1
100
AcDbEntity
  8
1
 62
     2
100
AcDbTrace
 10
85.64252917474518
 20
-25.63966446803627
 30
0.0
 11
85.64252917474518
 21
-26.56123195114804
 31
0.0
 12
82.14252917474518
 22
-26.10044820959215
 32
0.0
 13
82.14252917474518
 23
-26.10044820959215
 33
0.0
  0
MTEXT
  5
1B7
330
1B1
100
AcDbEntity
  8
1
 62
     2
100
AcDbMText
 10
85.54600993806774
 20
-24.10044820959215
 30
0.0
 40
3.5
 41
0.0
 71
     7
 72
     1
  1
16
  7
CONVERTER_11
 11
0.9999999999970621
 21
2.424068405545307E-6
 31
0.0
 73
     1
 44
0.60024009603842
  0
ENDBLK
  5
1B9
330
1B1
100
AcDbEntity
  8
0
100
AcDbBlockEnd
  0
BLOCK
  5
1C3
330
1BC
100
AcDbEntity
  8
0
100
AcDbBlockBegin
  2
*D13
 70
     1
 71
     0
 10
0.0
 20
0.0
 30
0.0
  3
*D13
  1

  0
LINE
  5
1BD
330
1BC
100
AcDbEntity
  8
1
  6
Continuous
 62
     2
100
AcDbLine
 10
82.14252917474518
 20
-148.1868508015806
 30
0.0
 11
100.1425291747451
 21
-148.1868508015806
 31
0.0
  0
LINE
  5
1BE
330
1BC
100
AcDbEntity
  8
1
  6
Continuous
 62
     2
100
AcDbLine
 10
82.14252917474518
 20
-98.02866636540324
 30
0.0
 11
82.14252917474518
 21
-150.1868508015806
 31
0.0
  0
LINE
  5
1BF
330
1BC
100
AcDbEntity
  8
1
  6
Continuous
 62
     2
100
AcDbLine
 10
100.1425291747451
 20
-98.02866636540324
 30
0.0
 11
100.1425291747451
 21
-150.1868508015806
 31
0.0
  0
SOLID
  5
1C0
330
1BC
100
AcDbEntity
  8
1
 62
     2
100
AcDbTrace
 10
96.64252917474512
 20
-148.6476345431365
 30
0.0
 11
96.64252917474512
 21
-147.7260670600247
 31
0.0
 12
100.1425291747451
 22
-148.1868508015806
 32
0.0
 13
100.1425291747451
 23
-148.1868508015806
 33
0.0
  0
SOLID
  5
1C1
330
1BC
100
AcDbEntity
  8
1
 62
     2
100
AcDbTrace
 10
85.64252917474518
 20
-147.7260670600247
 30
0.0
 11
85.64252917474518
 21
-148.6476345431365
 31
0.0
 12
82.14252917474518
 22
-148.1868508015806
 32
0.0
 13
82.14252917474518
 23
-148.1868508015806
 33
0.0
  0
MTEXT
  5
1C2
330
1BC
100
AcDbEntity
  8
1
 62
     2
100
AcDbMText
 10
87.73479713236291
 20
-146.1868508015806
 30
0.0
 40
3.5
 41
0.0
 71
     7
 72
     1
  1
18
  7
CONVERTER_11
 11
0.9999999999970621
 21
2.424068405545307E-6
 31
0.0
 73
     1
 44
0.60024009603842
  0
ENDBLK
  5
1C4
330
1BC
100
AcDbEntity
  8
0
100
AcDbBlockEnd
  0
BLOCK
  5
1D0
330
1C7
100
AcDbEntity
  8
0
100
AcDbBlockBegin
  2
*D14
 70
     1
 71
     0
 10
0.0
 20
0.0
 30
0.0
  3
*D14
  1

  0
LINE
  5
1C8
330
1C7
100
AcDbEntity
  8
1
  6
Continuous
 62
     2
100
AcDbLine
 10
93.14252917474516
 20
-148.1868508015806
 30
0.0
 11
100.1425291747452
 21
-148.1868508015806
 31
0.0
  0
LINE
  5
1C9
330
1C7
100
AcDbEntity
  8
1
  6
Continuous
 62
     2
100
AcDbLine
 10
100.1425291747452
 20
-148.1868508015806
 30
0.0
 11
104.1425291747452
 21
-148.1868508015806
 31
0.0
  0
LINE
  5
1CA
330
1C7
100
AcDbEntity
  8
1
  6
Continuous
 62
     2
100
AcDbLine
 10
104.1425291747452
 20
-148.1868508015806
 30
0.0
 11
111.5844678667459
 21
-148.1868508015806
 31
0.0
  0
LINE
  5
1CB
330
1C7
100
AcDbEntity
  8
1
  6
Continuous
 62
     2
100
AcDbLine
 10
100.1425291747452
 20
-98.02866636540324
 30
0.0
 11
100.1425291747452
 21
-150.1868508015806
 31
0.0
  0
LINE
  5
1CC
330
1C7
100
AcDbEntity
  8
1
  6
Continuous
 62
     2
100
AcDbLine
 10
104.1425291747452
 20
-137.0286663654032
 30
0.0
 11
104.1425291747452
 21
-150.1868508015806
 31
0.0
  0
SOLID
  5
1CD
330
1C7
100
AcDbEntity
  8
1
 62
     2
100
AcDbTrace
 10
107.6425291747452
 20
-147.7260670600247
 30
0.0
 11
107.6425291747452
 21
-148.6476345431365
 31
0.0
 12
104.1425291747452
 22
-148.1868508015806
 32
0.0
 13
104.1425291747452
 23
-148.1868508015806
 33
0.0
  0
SOLID
  5
1CE
330
1C7
100
AcDbEntity
  8
1
 62
     2
100
AcDbTrace
 10
96.64252917474516
 20
-148.6476345431365
 30
0.0
 11
96.64252917474516
 21
-147.7260670600247
 31
0.0
 12
100.1425291747452
 22
-148.1868508015806
 32
0.0
 13
100.1425291747452
 23
-148.1868508015806
 33
0.0
  0
MTEXT
  5
1CF
330
1C7
100
AcDbEntity
  8
1
 62
     2
100
AcDbMText
 10
109.4844678667459
 20
-146.1868508015806
 30
0.0
 40
3.5
 41
0.0
 71
     7
 72
     1
  1
4
  7
CONVERTER_11
 11
0.9999999999970621
 21
2.424068405545307E-6
 31
0.0
 73
     1
 44
0.60024009603842
  0
ENDBLK
  5
1D1
330
1C7
100
AcDbEntity
  8
0
100
AcDbBlockEnd
  0
BLOCK
  5
1DB
330
1D4
100
AcDbEntity
  8
0
100
AcDbBlockBegin
  2
*D15
 70
     1
 71
     0
 10
0.0
 20
0.0
 30
0.0
  3
*D15
  1

  0
LINE
  5
1D5
330
1D4
100
AcDbEntity
  8
1
  6
Continuous
 62
     2
100
AcDbLine
 10
-138.0625570981649
 20
-150.4958297294258
 30
0.0
 11
-116.8625570981649
 21
-150.4958297294258
 31
0.0
  0
LINE
  5
1D6
330
1D4
100
AcDbEntity
  8
1
  6
Continuous
 62
     2
100
AcDbLine
 10
-138.0625570981649
 20
-96.4286663654032
 30
0.0
 11
-138.0625570981649
 21
-152.4958297294258
 31
0.0
  0
LINE
  5
1D7
330
1D4
100
AcDbEntity
  8
1
  6
Continuous
 62
     2
100
AcDbLine
 10
-116.8625570981649
 20
-96.42866636540322
 30
0.0
 11
-116.8625570981649
 21
-152.4958297294258
 31
0.0
  0
SOLID
  5
1D8
330
1D4
100
AcDbEntity
  8
1
 62
     2
100
AcDbTrace
 10
-134.5625570981649
 20
-150.0350459878699
 30
0.0
 11
-134.5625570981649
 21
-150.9566134709817
 31
0.0
 12
-138.0625570981649
 22
-150.4958297294258
 32
0.0
 13
-138.0625570981649
 23
-150.4958297294258
 33
0.0
  0
SOLID
  5
1D9
330
1D4
100
AcDbEntity
  8
1
 62
     2
100
AcDbTrace
 10
-120.3625570981649
 20
-150.9566134709817
 30
0.0
 11
-120.3625570981649
 21
-150.0350459878699
 31
0.0
 12
-116.8625570981649
 22
-150.4958297294258
 32
0.0
 13
-116.8625570981649
 23
-150.4958297294258
 33
0.0
  0
MTEXT
  5
1DA
330
1D4
100
AcDbEntity
  8
1
 62
     2
100
AcDbMText
 10
-132.741814200645
 20
-148.4958297294258
 30
0.0
 40
3.5
 41
0.0
 71
     7
 72
     1
  1
21.2
  7
CONVERTER_11
 11
0.9999999999970621
 21
2.424068405545307E-6
 31
0.0
 73
     1
 44
0.60024009603842
  0
ENDBLK
  5
1DC
330
1D4
100
AcDbEntity
  8
0
100
AcDbBlockEnd
  0
BLOCK
  5
1E6
330
1DF
100
AcDbEntity
  8
0
100
AcDbBlockBegin
  2
*D16
 70
     1
 71
     0
 10
0.0
 20
0.0
 30
0.0
  3
*D16
  1

  0
LINE
  5
1E0
330
1DF
100
AcDbEntity
  8
1
  6
Continuous
 62
     2
100
AcDbLine
 10
-152.009811363987
 20
-107.0286663654032
 30
0.0
 11
-152.009811363987
 21
32.9713336345968
 31
0.0
  0
LINE
  5
1E1
330
1DF
100
AcDbEntity
  8
1
  6
Continuous
 62
     2
100
AcDbLine
 10
-127.4625570981649
 20
-107.0286663654032
 30
0.0
 11
-154.009811363987
 21
-107.0286663654032
 31
0.0
  0
LINE
  5
1E2
330
1DF
100
AcDbEntity
  8
1
  6
Continuous
 62
     2
100
AcDbLine
 10
-127.4625570981649
 20
32.9713336345968
 30
0.0
 11
-154.009811363987
 21
32.9713336345968
 31
0.0
  0
SOLID
  5
1E3
330
1DF
100
AcDbEntity
  8
1
 62
     2
100
AcDbTrace
 10
-151.5490276224311
 20
29.4713336345968
 30
0.0
 11
-152.4705951055429
 21
29.4713336345968
 31
0.0
 12
-152.009811363987
 22
32.9713336345968
 32
0.0
 13
-152.009811363987
 23
32.9713336345968
 33
0.0
  0
SOLID
  5
1E4
330
1DF
100
AcDbEntity
  8
1
 62
     2
100
AcDbTrace
 10
-152.4705951055429
 20
-103.5286663654032
 30
0.0
 11
-151.5490276224311
 21
-103.5286663654032
 31
0.0
 12
-152.009811363987
 22
-107.0286663654032
 32
0.0
 13
-152.009811363987
 23
-107.0286663654032
 33
0.0
  0
MTEXT
  5
1E5
330
1DF
100
AcDbEntity
  8
1
 62
     2
100
AcDbMText
 10
-154.009811363987
 20
-41.39273598189418
 30
0.0
 40
3.5
 41
0.0
 71
     7
 72
     1
  1
140
  7
CONVERTER_11
 11
0.0
 21
1.0
 31
0.0
 73
     1
 44
0.60024009603842
  0
ENDBLK
  5
1E7
330
1DF
100
AcDbEntity
  8
0
100
AcDbBlockEnd
  0
BLOCK
  5
1F1
330
1EA
100
AcDbEntity
  8
0
100
AcDbBlockBegin
  2
*D17
 70
     1
 71
     0
 10
0.0
 20
0.0
 30
0.0
  3
*D17
  1

  0
LINE
  5
1EB
330
1EA
100
AcDbEntity
  8
1
  6
Continuous
 62
     2
100
AcDbLine
 10
74.7020129299399
 20
-86.02866636540321
 30
0.0
 11
74.7020129299399
 21
11.9713336345968
 31
0.0
  0
LINE
  5
1EC
330
1EA
100
AcDbEntity
  8
1
  6
Continuous
 62
     2
100
AcDbLine
 10
88.89252917474512
 20
-86.02866636540321
 30
0.0
 11
72.7020129299399
 21
-86.02866636540321
 31
0.0
  0
LINE
  5
1ED
330
1EA
100
AcDbEntity
  8
1
  6
Continuous
 62
     2
100
AcDbLine
 10
88.89252917474512
 20
11.9713336345968
 30
0.0
 11
72.7020129299399
 21
11.9713336345968
 31
0.0
  0
SOLID
  5
1EE
330
1EA
100
AcDbEntity
  8
1
 62
     2
100
AcDbTrace
 10
74.24122918838401
 20
-82.52866636540321
 30
0.0
 11
75.16279667149578
 21
-82.52866636540321
 31
0.0
 12
74.7020129299399
 22
-86.02866636540321
 32
0.0
 13
74.7020129299399
 23
-86.02866636540321
 33
0.0
  0
SOLID
  5
1EF
330
1EA
100
AcDbEntity
  8
1
 62
     2
100
AcDbTrace
 10
75.16279667149578
 20
8.4713336345968
 30
0.0
 11
74.24122918838401
 21
8.4713336345968
 31
0.0
 12
74.7020129299399
 22
11.9713336345968
 32
0.0
 13
74.7020129299399
 23
11.9713336345968
 33
0.0
  0
MTEXT
  5
1F0
330
1EA
100
AcDbEntity
  8
1
 62
     2
100
AcDbMText
 10
72.7020129299399
 20
-34.9756563695109
 30
0.0
 40
3.5
 41
0.0
 71
     7
 72
     1
  1
98
  7
CONVERTER_11
 11
0.0
 21
1.0
 31
0.0
 73
     1
 44
0.60024009603842
  0
ENDBLK
  5
1F2
330
1EA
100
AcDbEntity
  8
0
100
AcDbBlockEnd
  0
BLOCK
  5
1FE
330
1F5
100
AcDbEntity
  8
0
100
AcDbBlockBegin
  2
*D18
 70
     1
 71
     0
 10
0.0
 20
0.0
 30
0.0
  3
*D18
  1

  0
LINE
  5
1F6
330
1F5
100
AcDbEntity
  8
1
  6
Continuous
 62
     2
100
AcDbLine
 10
-153.5065530560971
 20
-150.6006407817546
 30
0.0
 11
-143.0625570981649
 21
-150.6006407817546
 31
0.0
  0
LINE
  5
1F7
330
1F5
100
AcDbEntity
  8
1
  6
Continuous
 62
     2
100
AcDbLine
 10
-143.0625570981649
 20
-150.6006407817546
 30
0.0
 11
-138.0625570981649
 21
-150.6006407817546
 31
0.0
  0
LINE
  5
1F8
330
1F5
100
AcDbEntity
  8
1
  6
Continuous
 62
     2
100
AcDbLine
 10
-138.0625570981649
 20
-150.6006407817546
 30
0.0
 11
-131.0625570981649
 21
-150.6006407817546
 31
0.0
  0
LINE
  5
1F9
330
1F5
100
AcDbEntity
  8
1
  6
Continuous
 62
     2
100
AcDbLine
 10
-138.0625570981649
 20
-96.42866636540322
 30
0.0
 11
-138.0625570981649
 21
-152.6006407817546
 31
0.0
  0
LINE
  5
1FA
330
1F5
100
AcDbEntity
  8
1
  6
Continuous
 62
     2
100
AcDbLine
 10
-143.0625570981649
 20
-137.0286663654032
 30
0.0
 11
-143.0625570981649
 21
-152.6006407817546
 31
0.0
  0
SOLID
  5
1FB
330
1F5
100
AcDbEntity
  8
1
 62
     2
100
AcDbTrace
 10
-146.5625570981649
 20
-151.0614245233105
 30
0.0
 11
-146.5625570981649
 21
-150.1398570401987
 31
0.0
 12
-143.0625570981649
 22
-150.6006407817546
 32
0.0
 13
-143.0625570981649
 23
-150.6006407817546
 33
0.0
  0
SOLID
  5
1FC
330
1F5
100
AcDbEntity
  8
1
 62
     2
100
AcDbTrace
 10
-134.5625570981649
 20
-150.1398570401987
 30
0.0
 11
-134.5625570981649
 21
-151.0614245233105
 31
0.0
 12
-138.0625570981649
 22
-150.6006407817546
 32
0.0
 13
-138.0625570981649
 23
-150.6006407817546
 33
0.0
  0
MTEXT
  5
1FD
330
1F5
100
AcDbEntity
  8
1
 62
     2
100
AcDbMText
 10
-153.5065530560971
 20
-148.6006407817546
 30
0.0
 40
3.5
 41
0.0
 71
     7
 72
     1
  1
5
  7
CONVERTER_11
 11
0.9999999999970621
 21
2.424068405545307E-6
 31
0.0
 73
     1
 44
0.60024009603842
  0
ENDBLK
  5
1FF
330
1F5
100
AcDbEntity
  8
0
100
AcDbBlockEnd
  0
BLOCK
  5
20B
330
202
100
AcDbEntity
  8
0
100
AcDbBlockBegin
  2
*D19
 70
     1
 71
     0
 10
0.0
 20
0.0
 30
0.0
  3
*D19
  1

  0
LINE
  5
203
330
202
100
AcDbEntity
  8
1
  6
Continuous
 62
     2
100
AcDbLine
 10
47.94742196536939
 20
-120.5502930067008
 30
0.0
 11
47.94742196536939
 21
-112.1032064279778
 31
0.0
  0
LINE
  5
204
330
202
100
AcDbEntity
  8
1
  6
Continuous
 62
     2
100
AcDbLine
 10
47.94742196536939
 20
-112.1032064279778
 30
0.0
 11
47.94742196536939
 21
-110.1032064279777
 31
0.0
  0
LINE
  5
205
330
202
100
AcDbEntity
  8
1
  6
Continuous
 62
     2
100
AcDbLine
 10
-4.66927749579947
 20
-110.1032064279777
 30
0.0
 11
49.94742196536939
 21
-110.1032064279777
 31
0.0
  0
LINE
  5
206
330
202
100
AcDbEntity
  8
1
  6
Continuous
 62
     2
100
AcDbLine
 10
-10.66927749579882
 20
-112.1032064279778
 30
0.0
 11
49.94742196536939
 21
-112.1032064279778
 31
0.0
  0
SOLID
  5
207
330
202
100
AcDbEntity
  8
1
 62
     2
100
AcDbTrace
 10
48.40820570692527
 20
-115.6032064279778
 30
0.0
 11
47.4866382238135
 21
-115.6032064279778
 31
0.0
 12
47.94742196536939
 22
-112.1032064279778
 32
0.0
 13
47.94742196536939
 23
-112.1032064279778
 33
0.0
  0
CIRCLE
  5
208
102
{ACAD_REACTORS
330
209
102
}
330
202
100
AcDbEntity
  8
1
 62
     2
100
AcDbCircle
 10
47.94742196536939
 20
-110.1032064279777
 30
0.0
 40
0.75
  0
HATCH
  5
209
330
202
100
AcDbEntity
  8
1
 62
     2
100
AcDbHatch
 10
0.0
 20
0.0
 30
0.0
210
0.0
220
0.0
230
1.0
  2
SOLID
 70
     1
 71
     1
 91
        1
 92
        1
 93
        1
 72
     2
 10
47.94742196536939
 20
-110.1032064279777
 40
0.75
 50
0.0
 51
360.0
 73
     1
 97
        1
330
208
 75
     0
 76
     1
 98
        0
  0
MTEXT
  5
20A
330
202
100
AcDbEntity
  8
1
 62
     2
100
AcDbMText
 10
45.94742196536939
 20
-120.5502930067008
 30
0.0
 40
3.5
 41
0.0
 71
     7
 72
     1
  1
2
  7
CONVERTER_11
 11
0.0
 21
1.0
 31
0.0
 73
     1
 44
0.60024009603842
  0
ENDBLK
  5
20C
330
202
100
AcDbEntity
  8
0
100
AcDbBlockEnd
  0
BLOCK
  5
20E
330
20D
100
AcDbEntity
  8
0
100
AcDbBlockBegin
  2
_Dot
 70
     0
 71
     0
 10
0.0
 20
0.0
 30
0.0
  3
_Dot
  1

  0
LWPOLYLINE
  5
210
330
20D
100
AcDbEntity
  8
0
  6
ByBlock
 62
     0
100
AcDbPolyline
 90
        2
 70
     1
 43
0.5
 10
-0.25
 20
0.0
 42
1.0
 10
0.25
 20
0.0
 42
1.0
  0
LINE
  5
211
330
20D
100
AcDbEntity
  8
0
  6
ByBlock
 62
     0
370
    -2
100
AcDbLine
 10
-0.5
 20
0.0
 30
0.0
 11
-1.0
 21
0.0
 31
0.0
  0
ENDBLK
  5
20F
330
20D
100
AcDbEntity
  8
0
100
AcDbBlockEnd
  0
BLOCK
  5
21D
330
214
100
AcDbEntity
  8
0
100
AcDbBlockBegin
  2
*D21
 70
     1
 71
     0
 10
0.0
 20
0.0
 30
0.0
  3
*D21
  1

  0
LINE
  5
215
330
214
100
AcDbEntity
  8
1
  6
Continuous
 62
     2
100
AcDbLine
 10
47.94742196536939
 20
-110.1032064279777
 30
0.0
 11
47.94742196536939
 21
-106.1032064279777
 31
0.0
  0
LINE
  5
216
330
214
100
AcDbEntity
  8
1
  6
Continuous
 62
     2
100
AcDbLine
 10
47.94742196536939
 20
-106.1032064279777
 30
0.0
 11
47.94742196536939
 21
-99.05513660569021
 31
0.0
  0
LINE
  5
217
330
214
100
AcDbEntity
  8
1
  6
Continuous
 62
     2
100
AcDbLine
 10
5.33072250420053
 20
-106.1032064279777
 30
0.0
 11
49.94742196536939
 21
-106.1032064279777
 31
0.0
  0
LINE
  5
218
330
214
100
AcDbEntity
  8
1
  6
Continuous
 62
     2
100
AcDbLine
 10
-4.66927749579947
 20
-110.1032064279777
 30
0.0
 11
49.94742196536939
 21
-110.1032064279777
 31
0.0
  0
CIRCLE
  5
219
102
{ACAD_REACTORS
330
21A
102
}
330
214
100
AcDbEntity
  8
1
 62
     2
100
AcDbCircle
 10
47.94742196536939
 20
-110.1032064279777
 30
0.0
 40
0.75
  0
HATCH
  5
21A
330
214
100
AcDbEntity
  8
1
 62
     2
100
AcDbHatch
 10
0.0
 20
0.0
 30
0.0
210
0.0
220
0.0
230
1.0
  2
SOLID
 70
     1
 71
     1
 91
        1
 92
        1
 93
        1
 72
     2
 10
47.94742196536939
 20
-110.1032064279777
 40
0.75
 50
0.0
 51
360.0
 73
     1
 97
        1
330
219
 75
     0
 76
     1
 98
        0
  0
SOLID
  5
21B
330
214
100
AcDbEntity
  8
1
 62
     2
100
AcDbTrace
 10
47.4866382238135
 20
-102.6032064279777
 30
0.0
 11
48.40820570692527
 21
-102.6032064279777
 31
0.0
 12
47.94742196536939
 22
-106.1032064279777
 32
0.0
 13
47.94742196536939
 23
-106.1032064279777
 33
0.0
  0
MTEXT
  5
21C
330
214
100
AcDbEntity
  8
1
 62
     2
100
AcDbMText
 10
45.94742196536939
 20
-101.1551366056902
 30
0.0
 40
3.5
 41
0.0
 71
     7
 72
     1
  1
4
  7
CONVERTER_11
 11
0.0
 21
1.0
 31
0.0
 73
     1
 44
0.60024009603842
  0
ENDBLK
  5
21E
330
214
100
AcDbEntity
  8
0
100
AcDbBlockEnd
  0
BLOCK
  5
226
330
221
100
AcDbEntity
  8
0
100
AcDbBlockBegin
  2
*D22
 70
     1
 71
     0
 10
0.0
 20
0.0
 30
0.0
  3
*D22
  1

  0
LINE
  5
222
330
221
100
AcDbEntity
  8
1
  6
Continuous
 62
     2
100
AcDbLine
 10
84.55995810649362
 20
-91.35954173987045
 30
0.0
 11
125.7496488942277
 21
-133.6382901175105
 31
0.0
  0
SOLID
  5
223
330
221
100
AcDbEntity
  8
1
 62
     2
100
AcDbTrace
 10
92.9526789925524
 20
-100.6344842078966
 30
0.0
 11
93.61277180872081
 21
-99.99139471181397
 31
0.0
 12
95.72510024299662
 22
-102.8198908214511
 32
0.0
 13
95.72510024299662
 23
-102.8198908214511
 33
0.0
  0
SOLID
  5
224
330
221
100
AcDbEntity
  8
1
 62
     2
100
AcDbTrace
 10
87.33237935693784
 20
-93.54494835342491
 30
0.0
 11
86.67228654076943
 21
-94.18803784950754
 31
0.0
 12
84.55995810649362
 22
-91.35954173987045
 32
0.0
 13
84.55995810649362
 23
-91.35954173987045
 33
0.0
  0
MTEXT
  5
225
330
221
100
AcDbEntity
  8
1
 62
     2
100
AcDbMText
 10
108.2293637527114
 20
-112.7887047844645
 30
0.0
 40
3.5
 41
0.0
 71
     7
 72
     1
  1
\C2;Fräser ø\C2;16
  7
CONVERTER_11
 11
0.6978213835314375
 21
-0.7162718175987873
 31
0.0
 73
     1
 44
0.60024009603842
  0
ENDBLK
  5
227
330
221
100
AcDbEntity
  8
0
100
AcDbBlockEnd
  0
BLOCK
  5
22F
330
229
100
AcDbEntity
  8
0
100
AcDbBlockBegin
  2
*D23
 70
     1
 71
     0
 10
0.0
 20
0.0
 30
0.0
  3
*D23
  1

  0
LINE
  5
22A
330
229
100
AcDbEntity
  8
1
  6
Continuous
 62
     2
100
AcDbLine
 10
72.1647828780666
 20
15.31395498546989
 30
0.0
 11
86.40707878398112
 21
25.12065018468075
 31
0.0
  0
LINE
  5
22B
330
229
100
AcDbEntity
  8
1
  6
Continuous
 62
     2
100
AcDbLine
 10
93.20205593318315
 20
29.79940915921901
 30
0.0
 11
88.87797956550912
 21
26.82201708451285
 31
0.0
  0
SOLID
  5
22C
330
229
100
AcDbEntity
  8
1
 62
     2
100
AcDbTrace
 10
83.78568194081976
 20
22.7562051658347
 30
0.0
 11
83.26304047024378
 21
23.51523910391859
 31
0.0
 12
86.40707878398112
 22
25.12065018468075
 32
0.0
 13
86.40707878398112
 23
25.12065018468075
 33
0.0
  0
SOLID
  5
22D
330
229
100
AcDbEntity
  8
1
 62
     2
100
AcDbTrace
 10
91.49937640867049
 20
29.1864621033589
 30
0.0
 11
92.02201787924646
 21
28.42742816527501
 31
0.0
 12
88.87797956550912
 22
26.82201708451285
 32
0.0
 13
88.87797956550912
 23
26.82201708451285
 33
0.0
  0
MTEXT
  5
22E
330
229
100
AcDbEntity
  8
1
 62
     2
100
AcDbMText
 10
72.1259709579893
 20
17.71549483208079
 30
0.0
 40
3.5
 41
0.0
 71
     7
 72
     1
  1
\C2;ø\C2;3
  7
CONVERTER_11
 11
0.82363359384267
 21
0.5671222999440313
 31
0.0
 73
     1
 44
0.60024009603842
  0
ENDBLK
  5
230
330
229
100
AcDbEntity
  8
0
100
AcDbBlockEnd
  0
ENDSEC
  0
SECTION
  2
ENTITIES
  0
POINT
  5
32
330
1F
100
AcDbEntity
  8
1
 62
     3
 60
     1
100
AcDbPoint
 10
77.47887501729345
 20
23.9713336345968
 30
0.0
  0
POINT
  5
33
330
1F
100
AcDbEntity
  8
1
 62
     3
 60
     1
100
AcDbPoint
 10
104.1425291747451
 20
23.9713336345968
 30
0.0
  0
POINT
  5
34
330
1F
100
AcDbEntity
  8
1
 62
     3
 60
     1
100
AcDbPoint
 10
91.14252917474512
 20
38.52815160288754
 30
0.0
  0
POINT
  5
35
330
1F
100
AcDbEntity
  8
1
 62
     3
 60
     1
100
AcDbPoint
 10
98.14252917474512
 20
-37.0286663654032
 30
0.0
  0
POINT
  5
36
330
1F
100
AcDbEntity
  8
1
 62
     3
 60
     1
100
AcDbPoint
 10
98.14252917474512
 20
-37.0286663654032
 30
0.0
  0
POINT
  5
37
330
1F
100
AcDbEntity
  8
1
 62
     3
 60
     1
100
AcDbPoint
 10
91.14252917474512
 20
-37.0286663654032
 30
0.0
  0
POINT
  5
38
330
1F
100
AcDbEntity
  8
1
 62
     3
 60
     1
100
AcDbPoint
 10
91.14252917474512
 20
-37.0286663654032
 30
0.0
  0
POINT
  5
39
330
1F
100
AcDbEntity
  8
1
 62
     3
 60
     1
100
AcDbPoint
 10
91.14252917474512
 20
-112.0286663654032
 30
0.0
  0
POINT
  5
3A
330
1F
100
AcDbEntity
  8
1
 62
     3
 60
     1
100
AcDbPoint
 10
104.1425291747451
 20
-98.02866636540321
 30
0.0
  0
POINT
  5
3B
330
1F
100
AcDbEntity
  8
1
 62
     3
 60
     1
100
AcDbPoint
 10
82.14252917474518
 20
0.2213336345968
 30
0.0
  0
POINT
  5
3C
330
1F
100
AcDbEntity
  8
1
 62
     3
 60
     1
100
AcDbPoint
 10
98.14252917474512
 20
0.2213336345968
 30
0.0
  0
LINE
  5
3D
330
1F
100
AcDbEntity
  8
1
  6
Continuous
 62
     2
100
AcDbLine
 10
-55.44132520801111
 20
-22.23178936283225
 30
0.0
 11
-34.42752714781641
 21
-84.00347380455025
 31
0.0
  0
LINE
  5
3E
330
1F
100
AcDbEntity
  8
1
  6
Continuous
 62
     2
100
AcDbLine
 10
-55.44132520801111
 20
-22.23178936283225
 30
0.0
 11
-5.89924630919771
 21
-22.23178936283225
 31
0.0
  0
LINE
  5
3F
330
1F
100
AcDbEntity
  8
1
  6
DOT_CENTER
 62
     2
100
AcDbLine
 10
87.64252917474512
 20
-102.2786663654032
 30
0.0
 11
87.64252917474512
 21
-97.7786663654032
 31
0.0
  0
LINE
  5
40
330
1F
100
AcDbEntity
  8
1
  6
DOT_CENTER
 62
     2
100
AcDbLine
 10
85.39252917474512
 20
-100.0286663654032
 30
0.0
 11
89.89252917474512
 21
-100.0286663654032
 31
0.0
  0
LINE
  5
41
330
1F
100
AcDbEntity
  8
1
  6
DOT_CENTER
 62
     2
100
AcDbLine
 10
94.64252917474512
 20
-95.2786663654032
 30
0.0
 11
94.64252917474512
 21
-90.7786663654032
 31
0.0
  0
LINE
  5
42
330
1F
100
AcDbEntity
  8
1
  6
DOT_CENTER
 62
     2
100
AcDbLine
 10
92.39252917474512
 20
-93.0286663654032
 30
0.0
 11
96.89252917474512
 21
-93.0286663654032
 31
0.0
  0
LINE
  5
43
330
1F
100
AcDbEntity
  8
1
  6
DOT_CENTER
 62
     2
100
AcDbLine
 10
94.64252917474512
 20
16.7213336345968
 30
0.0
 11
94.64252917474512
 21
21.2213336345968
 31
0.0
  0
LINE
  5
44
330
1F
100
AcDbEntity
  8
1
  6
DOT_CENTER
 62
     2
100
AcDbLine
 10
92.39252917474512
 20
18.9713336345968
 30
0.0
 11
96.89252917474512
 21
18.9713336345968
 31
0.0
  0
LINE
  5
45
330
1F
100
AcDbEntity
  8
1
  6
DOT_CENTER
 62
     2
100
AcDbLine
 10
87.64252917474512
 20
23.7213336345968
 30
0.0
 11
87.64252917474512
 21
28.2213336345968
 31
0.0
  0
LINE
  5
46
330
1F
100
AcDbEntity
  8
1
  6
DOT_CENTER
 62
     2
100
AcDbLine
 10
85.39252917474512
 20
25.9713336345968
 30
0.0
 11
89.89252917474512
 21
25.9713336345968
 31
0.0
  0
LINE
  5
47
330
1F
100
AcDbEntity
  8
1
  6
DOT_CENTER
 62
     2
100
AcDbLine
 10
90.14252917474515
 20
11.4478443037254
 30
0.0
 11
90.14252917474515
 21
-86.8029412607266
 31
0.0
  0
LINE
  5
48
330
1F
100
AcDbEntity
  8
1
  6
Continuous
 62
     7
100
AcDbLine
 10
-4.66927749579947
 20
-106.1032064279777
 30
0.0
 11
-4.6692774957993
 21
-88.10320642797771
 31
0.0
  0
LINE
  5
49
330
1F
100
AcDbEntity
  8
1
  6
Continuous
 62
     7
100
AcDbLine
 10
-4.6692774957993
 20
-88.10320642797771
 30
0.0
 11
-4.66927749579924
 21
-70.10320642797761
 31
0.0
  0
LINE
  5
4A
330
1F
100
AcDbEntity
  8
1
  6
Continuous
 62
     7
100
AcDbLine
 10
5.33072250420052
 20
-104.1032064279776
 30
0.0
 11
20.33072250420053
 21
-104.1032064279779
 31
0.0
  0
LINE
  5
4B
330
1F
100
AcDbEntity
  8
1
  6
Continuous
 62
     7
100
AcDbLine
 10
5.33072250420069
 20
-88.10320642797771
 30
0.0
 11
-4.6692774957993
 21
-88.10320642797771
 31
0.0
  0
LINE
  5
4C
330
1F
100
AcDbEntity
  8
1
  6
Continuous
 62
     7
100
AcDbLine
 10
5.33072250420069
 20
-88.10320642797771
 30
0.0
 11
5.33072250420052
 21
-104.1032064279776
 31
0.0
  0
LINE
  5
4D
330
1F
100
AcDbEntity
  8
1
  6
Continuous
 62
     7
100
AcDbLine
 10
40.33072250420074
 20
-110.1032064279777
 30
0.0
 11
-4.66927749579947
 21
-110.1032064279777
 31
0.0
  0
LINE
  5
4E
330
1F
100
AcDbEntity
  8
1
  6
PHANTOM
 62
     2
100
AcDbLine
 10
40.33072250420074
 20
-110.1032064279777
 30
0.0
 11
40.33072250420072
 21
-70.10320642797761
 31
0.0
  0
LINE
  5
4F
330
1F
100
AcDbEntity
  8
1
  6
Continuous
 62
     7
100
AcDbLine
 10
-4.66927749579947
 20
-106.1032064279777
 30
0.0
 11
5.33072250420052
 21
-106.1032064279777
 31
0.0
  0
LINE
  5
50
330
1F
100
AcDbEntity
  8
1
  6
Continuous
 62
     7
100
AcDbLine
 10
20.33072250420053
 20
-104.1032064279779
 30
0.0
 11
20.33072250420067
 21
-88.1032064279778
 31
0.0
  0
LINE
  5
51
330
1F
100
AcDbEntity
  8
1
  6
Continuous
 62
     7
100
AcDbLine
 10
20.33072250420067
 20
-88.1032064279778
 30
0.0
 11
5.33072250420069
 21
-88.10320642797771
 31
0.0
  0
LINE
  5
52
330
1F
100
AcDbEntity
  8
1
  6
Continuous
 62
     7
100
AcDbLine
 10
-4.66927749579947
 20
-110.1032064279777
 30
0.0
 11
-4.66927749579947
 21
-106.1032064279777
 31
0.0
  0
LINE
  5
53
330
1F
100
AcDbEntity
  8
1
  6
Continuous
 62
     7
100
AcDbLine
 10
-4.66927749579924
 20
-70.10320642797761
 30
0.0
 11
40.33072250420072
 21
-70.10320642797761
 31
0.0
  0
LINE
  5
54
330
1F
100
AcDbEntity
  8
1
  6
PHANTOM
 62
     2
100
AcDbLine
 10
40.33072250420072
 20
-70.10320642797761
 30
0.0
 11
40.33072250420074
 21
-64.77765974171493
 31
0.0
  0
LINE
  5
55
330
1F
100
AcDbEntity
  8
1
  6
PHANTOM
 62
     2
100
AcDbLine
 10
40.33072250420074
 20
-111.8789370350812
 30
0.0
 11
40.33072250420074
 21
-110.1032064279777
 31
0.0
  0
LINE
  5
56
330
1F
100
AcDbEntity
  8
1
  6
Continuous
 62
     7
100
AcDbLine
 10
5.33072250420052
 20
-104.1032064279776
 30
0.0
 11
5.33072250420052
 21
-106.1032064279777
 31
0.0
  0
LINE
  5
57
330
1F
100
AcDbEntity
  8
1
  6
DOT_CENTER
 62
     2
100
AcDbLine
 10
6.24946028064349
 20
-97.10320642797781
 30
0.0
 11
-5.70499656474179
 21
-97.10320642797781
 31
0.0
  0
LINE
  5
58
330
1F
100
AcDbEntity
  8
1
  6
DOT_CENTER
 62
     2
100
AcDbLine
 10
4.36191446295109
 20
-96.10320642797768
 30
0.0
 11
22.03144058968279
 21
-96.10320642797768
 31
0.0
  0
LINE
  5
59
330
1F
100
AcDbEntity
  8
1
  6
DOT_CENTER
 62
     2
100
AcDbLine
 10
64.14252917474519
 20
62.97133363459685
 30
0.0
 11
104.1425291747451
 21
62.97133363459685
 31
0.0
  0
LINE
  5
5A
330
1F
100
AcDbEntity
  8
1
  6
DOT_CENTER
 62
     2
100
AcDbLine
 10
64.14252917474519
 20
-137.0286663654032
 30
0.0
 11
104.1425291747451
 21
-137.0286663654032
 31
0.0
  0
LINE
  5
5B
330
1F
100
AcDbEntity
  8
1
  6
Continuous
 62
     7
100
AcDbLine
 10
64.14252917474519
 20
62.97133363459685
 30
0.0
 11
64.14252917474519
 21
-137.0286663654032
 31
0.0
  0
LINE
  5
5C
330
1F
100
AcDbEntity
  8
1
  6
DOT_CENTER
 62
     2
100
AcDbLine
 10
104.1425291747451
 20
-98.02866636540321
 30
0.0
 11
77.47887501729345
 21
-98.02866636540321
 31
0.0
  0
LINE
  5
5D
330
1F
100
AcDbEntity
  8
1
  6
DOT_CENTER
 62
     2
100
AcDbLine
 10
91.14252917474512
 20
-37.0286663654032
 30
0.0
 11
91.14252917474512
 21
-112.0286663654032
 31
0.0
  0
LINE
  5
5E
330
1F
100
AcDbEntity
  8
1
  6
Continuous
 62
     7
100
AcDbLine
 10
100.1425291747451
 20
-37.0286663654032
 30
0.0
 11
100.1425291747451
 21
-98.02866636540321
 31
0.0
  0
LINE
  5
5F
330
1F
100
AcDbEntity
  8
1
  6
Continuous
 62
     7
100
AcDbLine
 10
82.14252917474518
 20
-37.0286663654032
 30
0.0
 11
82.14252917474518
 21
-98.02866636540321
 31
0.0
  0
LINE
  5
60
330
1F
100
AcDbEntity
  8
1
  6
Continuous
 62
     7
100
AcDbLine
 10
98.14252917474512
 20
-37.0286663654032
 30
0.0
 11
98.14252917474512
 21
-74.27866636540321
 31
0.0
  0
LINE
  5
61
330
1F
100
AcDbEntity
  8
1
  6
Continuous
 62
     7
100
AcDbLine
 10
104.1425291747451
 20
-98.02866636540321
 30
0.0
 11
104.1425291747451
 21
62.97133363459685
 31
0.0
  0
LINE
  5
62
330
1F
100
AcDbEntity
  8
1
  6
DOT_CENTER
 62
     2
100
AcDbLine
 10
98.14252917474512
 20
-37.0286663654032
 30
0.0
 11
106.8252381172986
 21
-37.0286663654032
 31
0.0
  0
LINE
  5
63
330
1F
100
AcDbEntity
  8
1
  6
Continuous
 62
     7
100
AcDbLine
 10
98.14252917474512
 20
0.2213336345968
 30
0.0
 11
98.14252917474512
 21
-37.0286663654032
 31
0.0
  0
LINE
  5
64
330
1F
100
AcDbEntity
  8
1
  6
DOT_CENTER
 62
     2
100
AcDbLine
 10
91.14252917474512
 20
-37.0286663654032
 30
0.0
 11
98.14252917474512
 21
-37.0286663654032
 31
0.0
  0
LINE
  5
65
330
1F
100
AcDbEntity
  8
1
  6
DOT_CENTER
 62
     2
100
AcDbLine
 10
91.14252917474512
 20
38.52815160288754
 30
0.0
 11
91.14252917474512
 21
-37.0286663654032
 31
0.0
  0
LINE
  5
66
330
1F
100
AcDbEntity
  8
1
  6
Continuous
 62
     7
100
AcDbLine
 10
104.1425291747451
 20
23.9713336345968
 30
0.0
 11
104.1425291747451
 21
62.97133363459685
 31
0.0
  0
LINE
  5
67
330
1F
100
AcDbEntity
  8
1
  6
DOT_CENTER
 62
     2
100
AcDbLine
 10
77.47887501729345
 20
23.9713336345968
 30
0.0
 11
104.1425291747451
 21
23.9713336345968
 31
0.0
  0
LINE
  5
68
330
1F
100
AcDbEntity
  8
1
  6
Continuous
 62
     7
100
AcDbLine
 10
82.14252917474518
 20
23.9713336345968
 30
0.0
 11
82.14252917474518
 21
-37.0286663654032
 31
0.0
  0
LINE
  5
69
330
1F
100
AcDbEntity
  8
1
  6
DOT_CENTER
 62
     2
100
AcDbLine
 10
59.63404467116763
 20
62.97133363459685
 30
0.0
 11
64.14252917474519
 21
62.97133363459685
 31
0.0
  0
LINE
  5
6A
330
1F
100
AcDbEntity
  8
1
  6
DOT_CENTER
 62
     2
100
AcDbLine
 10
59.63404467116763
 20
-137.0286663654032
 30
0.0
 11
64.14252917474519
 21
-137.0286663654032
 31
0.0
  0
LINE
  5
6B
330
1F
100
AcDbEntity
  8
1
  6
Continuous
 62
     7
100
AcDbLine
 10
104.1425291747451
 20
-137.0286663654032
 30
0.0
 11
104.1425291747451
 21
23.9713336345968
 31
0.0
  0
LINE
  5
6C
330
1F
100
AcDbEntity
  8
1
  6
DOT_CENTER
 62
     2
100
AcDbLine
 10
104.1425291747451
 20
62.97133363459685
 30
0.0
 11
108.8252381172986
 21
62.97133363459685
 31
0.0
  0
LINE
  5
6D
330
1F
100
AcDbEntity
  8
1
  6
DOT_CENTER
 62
     2
100
AcDbLine
 10
104.1425291747451
 20
-137.0286663654032
 30
0.0
 11
108.8252381172986
 21
-137.0286663654032
 31
0.0
  0
LINE
  5
6E
330
1F
100
AcDbEntity
  8
1
  6
DOT_CENTER
 62
     2
100
AcDbLine
 10
62.00336676267952
 20
-37.0286663654032
 30
0.0
 11
91.14252917474512
 21
-37.0286663654032
 31
0.0
  0
LINE
  5
6F
330
1F
100
AcDbEntity
  8
1
  6
DOT_CENTER
 62
     2
100
AcDbLine
 10
143.7167002564074
 20
62.97133363459685
 30
0.0
 11
151.8558626684731
 21
62.97133363459685
 31
0.0
  0
LINE
  5
70
330
1F
100
AcDbEntity
  8
1
  6
DOT_CENTER
 62
     2
100
AcDbLine
 10
146.8558626684731
 20
62.97133363459685
 30
0.0
 11
191.8558626684731
 21
62.97133363459685
 31
0.0
  0
LINE
  5
71
330
1F
100
AcDbEntity
  8
1
  6
DOT_CENTER
 62
     2
100
AcDbLine
 10
191.8558626684731
 20
62.97133363459685
 30
0.0
 11
196.5385716110265
 21
62.97133363459685
 31
0.0
  0
LINE
  5
72
330
1F
100
AcDbEntity
  8
1
  6
DOT_CENTER
 62
     2
100
AcDbLine
 10
142.7167002564074
 20
-137.0286663654032
 30
0.0
 11
151.8558626684731
 21
-137.0286663654032
 31
0.0
  0
LINE
  5
73
330
1F
100
AcDbEntity
  8
1
  6
DOT_CENTER
 62
     2
100
AcDbLine
 10
146.8558626684731
 20
-137.0286663654032
 30
0.0
 11
191.8558626684731
 21
-137.0286663654032
 31
0.0
  0
LINE
  5
74
330
1F
100
AcDbEntity
  8
1
  6
DOT_CENTER
 62
     2
100
AcDbLine
 10
191.8558626684731
 20
-137.0286663654032
 30
0.0
 11
196.5385716110265
 21
-137.0286663654032
 31
0.0
  0
LINE
  5
75
330
1F
100
AcDbEntity
  8
1
  6
Continuous
 62
     7
100
AcDbLine
 10
191.8558626684731
 20
62.97133363459685
 30
0.0
 11
191.8558626684731
 21
32.97133363459678
 31
0.0
  0
LINE
  5
76
330
1F
100
AcDbEntity
  8
1
  6
Continuous
 62
     7
100
AcDbLine
 10
191.8558626684731
 20
32.97133363459678
 30
0.0
 11
181.8558626684731
 21
32.97133363459681
 31
0.0
  0
LINE
  5
77
330
1F
100
AcDbEntity
  8
1
  6
Continuous
 62
     7
100
AcDbLine
 10
191.8558626684731
 20
32.97133363459678
 30
0.0
 11
191.8558626684731
 21
-107.0286663654032
 31
0.0
  0
LINE
  5
78
330
1F
100
AcDbEntity
  8
1
  6
Continuous
 62
     7
100
AcDbLine
 10
181.8558626684731
 20
32.97133363459681
 30
0.0
 11
181.8558626684731
 21
8.2213336345968
 31
0.0
  0
LINE
  5
79
330
1F
100
AcDbEntity
  8
1
  6
Continuous
 62
     7
100
AcDbLine
 10
181.8558626684731
 20
8.2213336345968
 30
0.0
 11
166.8558626684731
 21
8.2213336345968
 31
0.0
  0
LINE
  5
7A
330
1F
100
AcDbEntity
  8
1
  6
Continuous
 62
     7
100
AcDbLine
 10
166.8558626684731
 20
8.2213336345968
 30
0.0
 11
166.8558626684731
 21
-82.27866636540321
 31
0.0
  0
LINE
  5
7B
330
1F
100
AcDbEntity
  8
1
  6
Continuous
 62
     7
100
AcDbLine
 10
166.8558626684731
 20
-82.27866636540321
 30
0.0
 11
181.8558626684731
 21
-82.27866636540321
 31
0.0
  0
LINE
  5
7C
330
1F
100
AcDbEntity
  8
1
  6
Continuous
 62
     7
100
AcDbLine
 10
181.8558626684731
 20
-82.27866636540321
 30
0.0
 11
181.8558626684731
 21
-107.0286663654032
 31
0.0
  0
LINE
  5
7D
330
1F
100
AcDbEntity
  8
1
  6
Continuous
 62
     7
100
AcDbLine
 10
181.8558626684731
 20
-107.0286663654032
 30
0.0
 11
191.8558626684731
 21
-107.0286663654032
 31
0.0
  0
LINE
  5
7E
330
1F
100
AcDbEntity
  8
1
  6
Continuous
 62
     7
100
AcDbLine
 10
191.8558626684731
 20
-107.0286663654032
 30
0.0
 11
191.8558626684731
 21
-137.0286663654032
 31
0.0
  0
LINE
  5
7F
330
1F
100
AcDbEntity
  8
1
  6
DOT_CENTER
 62
     2
100
AcDbLine
 10
146.8558626684731
 20
62.97133363459685
 30
0.0
 11
146.8558626684731
 21
-137.0286663654032
 31
0.0
  0
LINE
  5
80
330
1F
100
AcDbEntity
  8
1
  6
DOT_CENTER
 62
     2
100
AcDbLine
 10
146.8558626684731
 20
-137.0286663654032
 30
0.0
 11
146.8558626684731
 21
-142.5165559842933
 31
0.0
  0
LINE
  5
81
330
1F
100
AcDbEntity
  8
1
  6
DOT_CENTER
 62
     2
100
AcDbLine
 10
146.8558626684731
 20
62.97133363459685
 30
0.0
 11
146.8558626684731
 21
67.01413350441774
 31
0.0
  0
LINE
  5
82
330
1F
100
AcDbEntity
  8
1
  6
DOT_CENTER
 62
     2
100
AcDbLine
 10
142.7514030057237
 20
-37.0286663654032
 30
0.0
 11
198.2648245450632
 21
-37.0286663654032
 31
0.0
  0
LINE
  5
83
330
1F
100
AcDbEntity
  8
1
  6
Continuous
 62
     7
100
AcDbLine
 10
181.8558626684731
 20
8.2213336345968
 30
0.0
 11
181.8558626684731
 21
-82.27866636540321
 31
0.0
  0
LINE
  5
84
330
1F
100
AcDbEntity
  8
1
  6
Continuous
 62
     7
100
AcDbLine
 10
100.1425291747451
 20
23.9713336345968
 30
0.0
 11
100.1425291747451
 21
-37.0286663654032
 31
0.0
  0
LINE
  5
85
330
1F
100
AcDbEntity
  8
1
  6
DOT_CENTER
 62
     2
100
AcDbLine
 10
78.5518967234154
 20
0.2213336345968
 30
0.0
 11
100.1425291747451
 21
0.2213336345968
 31
0.0
  0
LINE
  5
86
330
1F
100
AcDbEntity
  8
1
  6
DOT_CENTER
 62
     2
100
AcDbLine
 10
79.1057530230382
 20
-74.27866636540321
 30
0.0
 11
100.1425291747451
 21
-74.27866636540321
 31
0.0
  0
LINE
  5
87
330
1F
100
AcDbEntity
  8
1
  6
DOT_CENTER
 62
     2
100
AcDbLine
 10
88.89252917474512
 20
11.9713336345968
 30
0.0
 11
93.39252917474512
 21
11.9713336345968
 31
0.0
  0
LINE
  5
88
330
1F
100
AcDbEntity
  8
1
  6
DOT_CENTER
 62
     2
100
AcDbLine
 10
88.89252917474512
 20
-86.0286663654032
 30
0.0
 11
93.39252917474512
 21
-86.0286663654032
 31
0.0
  0
LINE
  5
89
330
1F
100
AcDbEntity
  8
1
  6
DOT_CENTER
 62
     2
100
AcDbLine
 10
-16.66927749579881
 20
-96.60320642797774
 30
0.0
 11
-7.25041615743936
 21
-96.60320642797774
 31
0.0
  0
LINE
  5
8A
330
1F
100
AcDbEntity
  8
1
  6
DASHED
 62
     2
100
AcDbLine
 10
-132.5625570981649
 20
-105.7211364353039
 30
0.0
 11
-132.5625570981649
 21
-137.0286663654032
 31
0.0
  0
LINE
  5
8B
330
1F
100
AcDbEntity
  8
1
  6
Continuous
 62
     7
100
AcDbLine
 10
-9.66927749579881
 20
-85.90320642797775
 30
0.0
 11
-9.66927749579881
 21
-53.1032064279778
 31
0.0
  0
LINE
  5
8C
330
1F
100
AcDbEntity
  8
1
  6
Continuous
 62
     7
100
AcDbLine
 10
-8.16927749579881
 20
-107.1032064279777
 30
0.0
 11
-8.16927749579881
 21
-109.6032064279777
 31
0.0
  0
LINE
  5
8D
330
1F
100
AcDbEntity
  8
1
  6
Continuous
 62
     7
100
AcDbLine
 10
-9.66927749579881
 20
-107.1032064279777
 30
0.0
 11
-9.66927749579881
 21
-85.90320642797775
 31
0.0
  0
LINE
  5
8E
330
1F
100
AcDbEntity
  8
1
  6
Continuous
 62
     7
100
AcDbLine
 10
-8.16927749579881
 20
-85.90320642797772
 30
0.0
 11
-8.16927749579881
 21
-107.1032064279777
 31
0.0
  0
LINE
  5
8F
330
1F
100
AcDbEntity
  8
1
  6
DOT_CENTER
 62
     2
100
AcDbLine
 10
-141.5625570981649
 20
62.97133363459685
 30
0.0
 11
-70.89103489547385
 21
62.97133363459685
 31
0.0
  0
LINE
  5
90
330
1F
100
AcDbEntity
  8
1
  6
DOT_CENTER
 62
     2
100
AcDbLine
 10
-74.30110109962173
 20
-137.0286663654032
 30
0.0
 11
-74.30110109962173
 21
-140.9431657583019
 31
0.0
  0
LINE
  5
91
330
1F
100
AcDbEntity
  8
1
  6
DOT_CENTER
 62
     2
100
AcDbLine
 10
-74.30110109962173
 20
-137.0286663654032
 30
0.0
 11
-70.33120832775282
 21
-137.0286663654032
 31
0.0
  0
LINE
  5
92
330
1F
100
AcDbEntity
  8
1
  6
DOT_CENTER
 62
     2
100
AcDbLine
 10
-74.30110109962173
 20
62.97133363459685
 30
0.0
 11
-74.30110109962173
 21
-137.0286663654032
 31
0.0
  0
LINE
  5
93
330
1F
100
AcDbEntity
  8
1
  6
DOT_CENTER
 62
     2
100
AcDbLine
 10
-82.5625570981649
 20
-137.0286663654032
 30
0.0
 11
-74.30110109962173
 21
-137.0286663654032
 31
0.0
  0
LINE
  5
94
330
1F
100
AcDbEntity
  8
1
  6
DASHED
 62
     2
100
AcDbLine
 10
-82.5625570981649
 20
62.97133363459685
 30
0.0
 11
-82.5625570981649
 21
-137.0286663654032
 31
0.0
  0
LINE
  5
95
330
1F
100
AcDbEntity
  8
1
  6
DOT_CENTER
 62
     2
100
AcDbLine
 10
-84.0625570981649
 20
-137.0286663654032
 30
0.0
 11
-82.5625570981649
 21
-137.0286663654032
 31
0.0
  0
LINE
  5
96
330
1F
100
AcDbEntity
  8
1
  6
DASHED
 62
     2
100
AcDbLine
 10
-84.0625570981649
 20
62.97133363459685
 30
0.0
 11
-84.0625570981649
 21
-137.0286663654032
 31
0.0
  0
LINE
  5
97
330
1F
100
AcDbEntity
  8
1
  6
DOT_CENTER
 62
     2
100
AcDbLine
 10
-96.0625570981649
 20
-137.0286663654032
 30
0.0
 11
-84.0625570981649
 21
-137.0286663654032
 31
0.0
  0
LINE
  5
98
330
1F
100
AcDbEntity
  8
1
  6
DASHED
 62
     2
100
AcDbLine
 10
-96.0625570981649
 20
62.97133363459685
 30
0.0
 11
-96.0625570981649
 21
-137.0286663654032
 31
0.0
  0
LINE
  5
99
330
1F
100
AcDbEntity
  8
1
  6
DOT_CENTER
 62
     2
100
AcDbLine
 10
-141.5625570981649
 20
-137.0286663654032
 30
0.0
 11
-97.5625570981649
 21
-137.0286663654032
 31
0.0
  0
LINE
  5
9A
330
1F
100
AcDbEntity
  8
1
  6
DASHED
 62
     2
100
AcDbLine
 10
-141.5625570981649
 20
62.97133363459685
 30
0.0
 11
-141.5625570981649
 21
-137.0286663654032
 31
0.0
  0
LINE
  5
9B
330
1F
100
AcDbEntity
  8
1
  6
DOT_CENTER
 62
     2
100
AcDbLine
 10
-97.5625570981649
 20
-137.0286663654032
 30
0.0
 11
-96.0625570981649
 21
-137.0286663654032
 31
0.0
  0
LINE
  5
9C
330
1F
100
AcDbEntity
  8
1
  6
Continuous
 62
     7
100
AcDbLine
 10
-97.5625570981649
 20
62.97133363459685
 30
0.0
 11
-97.5625570981649
 21
-137.0286663654032
 31
0.0
  0
LINE
  5
9D
330
1F
100
AcDbEntity
  8
1
  6
DOT_CENTER
 62
     2
100
AcDbLine
 10
-143.0625570981649
 20
-137.0286663654032
 30
0.0
 11
-141.5625570981649
 21
-137.0286663654032
 31
0.0
  0
LINE
  5
9E
330
1F
100
AcDbEntity
  8
1
  6
DOT_CENTER
 62
     2
100
AcDbLine
 10
-143.0625570981649
 20
62.97133363459685
 30
0.0
 11
-141.5625570981649
 21
62.97133363459685
 31
0.0
  0
LINE
  5
9F
330
1F
100
AcDbEntity
  8
1
  6
Continuous
 62
     7
100
AcDbLine
 10
-143.0625570981649
 20
62.97133363459685
 30
0.0
 11
-143.0625570981649
 21
-137.0286663654032
 31
0.0
  0
LINE
  5
A0
330
1F
100
AcDbEntity
  8
1
  6
DOT_CENTER
 62
     2
100
AcDbLine
 10
-146.6390907423289
 20
-137.0286663654032
 30
0.0
 11
-143.0625570981649
 21
-137.0286663654032
 31
0.0
  0
LINE
  5
A1
330
1F
100
AcDbEntity
  8
1
  6
DOT_CENTER
 62
     2
100
AcDbLine
 10
-144.1390907423289
 20
-37.0286663654032
 30
0.0
 11
-70.33120832775282
 21
-37.0286663654032
 31
0.0
  0
LINE
  5
A2
330
1F
100
AcDbEntity
  8
1
  6
DOT_CENTER
 62
     2
100
AcDbLine
 10
-146.6390907423289
 20
62.97133363459685
 30
0.0
 11
-143.0625570981649
 21
62.97133363459685
 31
0.0
  0
LINE
  5
A3
330
1F
100
AcDbEntity
  8
1
  6
Continuous
 62
     7
100
AcDbLine
 10
5.33072250420119
 20
-64.1032064279778
 30
0.0
 11
5.33072250420119
 21
-43.51050359027726
 31
0.0
  0
LINE
  5
A4
330
1F
100
AcDbEntity
  8
1
  6
Continuous
 62
     7
100
AcDbLine
 10
6.83072250420119
 20
-64.6032064279778
 30
0.0
 11
6.83072250420119
 21
-43.51050359027726
 31
0.0
  0
LINE
  5
A5
330
1F
100
AcDbEntity
  8
1
  6
Continuous
 62
     7
100
AcDbLine
 10
2.81985915206351
 20
-66.6032064279778
 30
0.0
 11
4.83072250420113
 21
-66.60320642797781
 31
0.0
  0
LINE
  5
A6
330
1F
100
AcDbEntity
  8
1
  6
Continuous
 62
     7
100
AcDbLine
 10
3.47147183848417
 20
-65.1032064279778
 30
0.0
 11
4.33072250420119
 21
-65.1032064279778
 31
0.0
  0
LINE
  5
A7
330
1F
100
AcDbEntity
  8
1
  6
Continuous
 62
     7
100
AcDbLine
 10
5.27961124363488
 20
-53.49143499563161
 30
0.0
 11
2.50554601219502
 21
-63.84438738287524
 31
0.0
  0
LINE
  5
A8
330
1F
100
AcDbEntity
  8
1
  6
Continuous
 62
     7
100
AcDbLine
 10
-8.16927749579881
 20
-51.60320642797779
 30
0.0
 11
3.83072250420119
 21
-51.60320642797779
 31
0.0
  0
LINE
  5
A9
330
1F
100
AcDbEntity
  8
1
  6
Continuous
 62
     7
100
AcDbLine
 10
3.66207273092518
 20
-53.73261595052907
 30
0.0
 11
2.81882386454489
 21
-56.87966356328536
 31
0.0
  0
LINE
  5
AA
330
1F
100
AcDbEntity
  8
1
  6
Continuous
 62
     7
100
AcDbLine
 10
-7.66927749579881
 20
-53.1032064279778
 30
0.0
 11
-5.16927749579881
 21
-53.1032064279778
 31
0.0
  0
LINE
  5
AB
330
1F
100
AcDbEntity
  8
1
  6
Continuous
 62
     7
100
AcDbLine
 10
-8.16927749579881
 20
-67.60320642797774
 30
0.0
 11
-8.16927749579881
 21
-56.1032064279778
 31
0.0
  0
LINE
  5
AC
330
1F
100
AcDbEntity
  8
1
  6
Continuous
 62
     7
100
AcDbLine
 10
-6.16927749579881
 20
-70.10320642797757
 30
0.0
 11
1.63664319544361
 21
-70.10320642797761
 31
0.0
  0
LINE
  5
AD
330
1F
100
AcDbEntity
  8
1
  6
Continuous
 62
     7
100
AcDbLine
 10
-5.16927749579881
 20
-53.1032064279778
 30
0.0
 11
-0.07895361432228
 21
-53.1032064279778
 31
0.0
  0
LINE
  5
AE
330
1F
100
AcDbEntity
  8
1
  6
Continuous
 62
     7
100
AcDbLine
 10
-8.16927749579881
 20
-56.1032064279778
 30
0.0
 11
-8.16927749579881
 21
-53.6032064279778
 31
0.0
  0
LINE
  5
AF
330
1F
100
AcDbEntity
  8
1
  6
Continuous
 62
     7
100
AcDbLine
 10
-0.07895361432228
 20
-53.1032064279778
 30
0.0
 11
3.17910981778069
 21
-53.1032064279778
 31
0.0
  0
LINE
  5
B0
330
1F
100
AcDbEntity
  8
1
  6
Continuous
 62
     7
100
AcDbLine
 10
2.81882386454489
 20
-56.87966356328536
 30
0.0
 11
0.88800749948549
 21
-64.08556833777276
 31
0.0
  0
LINE
  5
B1
330
1F
100
AcDbEntity
  8
1
  6
Continuous
 62
     7
100
AcDbLine
 10
-6.16927749579881
 20
-69.10320642797757
 30
0.0
 11
1.63664319544361
 21
-69.10320642797757
 31
0.0
  0
LINE
  5
B2
330
1F
100
AcDbEntity
  8
1
  6
Continuous
 62
     7
100
AcDbLine
 10
-7.16927749579881
 20
-68.10320642797757
 30
0.0
 11
-7.16927749579881
 21
-56.1032064279778
 31
0.0
  0
LINE
  5
B3
330
1F
100
AcDbEntity
  8
1
  6
Continuous
 62
     7
100
AcDbLine
 10
-5.16927749579881
 20
-54.1032064279778
 30
0.0
 11
-0.07895361432228
 21
-54.1032064279778
 31
0.0
  0
LINE
  5
B4
330
1F
100
AcDbEntity
  8
1
  6
Continuous
 62
     7
100
AcDbLine
 10
1.8528980382558
 20
-56.62084451818281
 30
0.0
 11
-0.0779183268036
 21
-63.82674929267022
 31
0.0
  0
LINE
  5
B5
330
1F
100
AcDbEntity
  8
1
  6
Continuous
 62
     7
100
AcDbLine
 10
-36.66927749579932
 20
-102.1032064279778
 30
0.0
 11
-38.16927749579932
 21
-102.1032064279778
 31
0.0
  0
LINE
  5
B6
330
1F
100
AcDbEntity
  8
1
  6
Continuous
 62
     7
100
AcDbLine
 10
-38.16927749579932
 20
-102.1032064279778
 30
0.0
 11
-38.16927749579932
 21
-109.6032064279778
 31
0.0
  0
LINE
  5
B7
330
1F
100
AcDbEntity
  8
1
  6
Continuous
 62
     7
100
AcDbLine
 10
-35.66927749579932
 20
-112.1032064279778
 30
0.0
 11
-10.66927749579881
 21
-112.1032064279777
 31
0.0
  0
LINE
  5
B8
330
1F
100
AcDbEntity
  8
1
  6
Continuous
 62
     7
100
AcDbLine
 10
-8.16927749579881
 20
-85.90320642797772
 30
0.0
 11
-8.16927749579881
 21
-67.60320642797774
 31
0.0
  0
LINE
  5
B9
330
1F
100
AcDbEntity
  8
1
  6
Continuous
 62
     7
100
AcDbLine
 10
-10.66927749579881
 20
-110.6032064279777
 30
0.0
 11
-35.66927749579932
 21
-110.6032064279778
 31
0.0
  0
LINE
  5
BA
330
1F
100
AcDbEntity
  8
1
  6
Continuous
 62
     7
100
AcDbLine
 10
-36.66927749579932
 20
-109.6032064279778
 30
0.0
 11
-36.66927749579932
 21
-102.1032064279778
 31
0.0
  0
LINE
  5
BB
330
1F
100
AcDbEntity
  8
1
  6
Continuous
 62
     7
100
AcDbLine
 10
-9.66927749579881
 20
-109.6032064279777
 30
0.0
 11
-9.66927749579881
 21
-107.1032064279777
 31
0.0
  0
LINE
  5
BC
330
1F
100
AcDbEntity
  8
1
  6
Continuous
 62
     7
100
AcDbLine
 10
-8.16927749579881
 20
-107.1032064279777
 30
0.0
 11
-9.66927749579881
 21
-107.1032064279777
 31
0.0
  0
LINE
  5
BD
330
1F
100
AcDbEntity
  8
1
  6
Continuous
 62
     7
100
AcDbLine
 10
-9.66927749579881
 20
-85.90320642797775
 30
0.0
 11
-8.16927749579881
 21
-85.90320642797772
 31
0.0
  0
LINE
  5
BE
330
1F
100
AcDbEntity
  8
1
  6
Continuous
 62
     7
100
AcDbLine
 10
-138.0625570981649
 20
-96.4286663654032
 30
0.0
 11
-138.0625570981649
 21
22.3713336345968
 31
0.0
  0
LINE
  5
BF
330
1F
100
AcDbEntity
  8
1
  6
Continuous
 62
     7
100
AcDbLine
 10
-116.8625570981649
 20
22.3713336345968
 30
0.0
 11
-116.8625570981649
 21
-96.42866636540322
 31
0.0
  0
LINE
  5
C0
330
1F
100
AcDbEntity
  8
1
  6
DOT_CENTER
 62
     2
100
AcDbLine
 10
-127.4625570981649
 20
36.75468518357685
 30
0.0
 11
-127.4625570981649
 21
-112.5964919848623
 31
0.0
  0
LINE
  5
C1
330
1F
100
AcDbEntity
  8
1
  6
DOT_CENTER
 62
     2
100
AcDbLine
 10
-114.2116000724301
 20
22.3713336345968
 30
0.0
 11
-140.3648164811641
 21
22.3713336345968
 31
0.0
  0
LINE
  5
C2
330
1F
100
AcDbEntity
  8
1
  6
DOT_CENTER
 62
     2
100
AcDbLine
 10
-114.4183986318411
 20
-96.4286663654032
 30
0.0
 11
-140.3648164811641
 21
-96.4286663654032
 31
0.0
  0
LINE
  5
C3
330
1F
100
AcDbEntity
  8
1
  6
DASHED
 62
     2
100
AcDbLine
 10
-132.5625570981649
 20
62.97133363459685
 30
0.0
 11
-132.5625570981649
 21
31.66380370449749
 31
0.0
  0
LINE
  5
C4
330
1F
100
AcDbEntity
  8
1
  6
Continuous
 62
     7
100
AcDbLine
 10
-132.5625570981649
 20
31.66380370449749
 30
0.0
 11
-132.5625570981649
 21
-105.7211364353039
 31
0.0
  0
LINE
  5
C5
330
1F
100
AcDbEntity
  8
1
  6
DOT_CENTER
 62
     2
100
AcDbLine
 10
-16.66927749579881
 20
-96.60320642797774
 30
0.0
 11
-22.16927749579882
 21
-96.6032064279778
 31
0.0
  0
LINE
  5
C6
330
1F
100
AcDbEntity
  8
1
  6
DASHED
 62
     2
100
AcDbLine
 10
-18.16927749579882
 20
-98.6032064279778
 30
0.0
 11
-20.66927749579882
 21
-98.6032064279778
 31
0.0
  0
LINE
  5
C7
330
1F
100
AcDbEntity
  8
1
  6
DASHED
 62
     2
100
AcDbLine
 10
-18.16927749579882
 20
-94.6032064279778
 30
0.0
 11
-20.66927749579882
 21
-94.6032064279778
 31
0.0
  0
LINE
  5
C8
330
1F
100
AcDbEntity
  8
1
  6
DASHED
 62
     2
100
AcDbLine
 10
-20.66927749579882
 20
-98.20320642797776
 30
0.0
 11
-20.66927749579882
 21
-100.8532064279778
 31
0.0
  0
LINE
  5
C9
330
1F
100
AcDbEntity
  8
1
  6
DASHED
 62
     2
100
AcDbLine
 10
-18.16927749579882
 20
-98.20320642797775
 30
0.0
 11
-18.16927749579882
 21
-95.00320642797776
 31
0.0
  0
LINE
  5
CA
330
1F
100
AcDbEntity
  8
1
  6
DASHED
 62
     2
100
AcDbLine
 10
-18.16927749579882
 20
-98.20320642797775
 30
0.0
 11
-20.66927749579882
 21
-98.20320642797776
 31
0.0
  0
LINE
  5
CB
330
1F
100
AcDbEntity
  8
1
  6
DASHED
 62
     2
100
AcDbLine
 10
-20.66927749579882
 20
-95.00320642797774
 30
0.0
 11
-20.66927749579882
 21
-98.20320642797776
 31
0.0
  0
LINE
  5
CC
330
1F
100
AcDbEntity
  8
1
  6
DASHED
 62
     2
100
AcDbLine
 10
-18.16927749579882
 20
-95.00320642797776
 30
0.0
 11
-18.16927749579882
 21
-92.35320642797777
 31
0.0
  0
LINE
  5
CD
330
1F
100
AcDbEntity
  8
1
  6
DASHED
 62
     2
100
AcDbLine
 10
-18.16927749579882
 20
-95.00320642797776
 30
0.0
 11
-20.66927749579882
 21
-95.00320642797774
 31
0.0
  0
LINE
  5
CE
330
1F
100
AcDbEntity
  8
1
  6
DASHED
 62
     2
100
AcDbLine
 10
-20.66927749579882
 20
-88.35320642797777
 30
0.0
 11
-20.66927749579882
 21
-88.85320642797777
 31
0.0
  0
LINE
  5
CF
330
1F
100
AcDbEntity
  8
1
  6
DASHED
 62
     2
100
AcDbLine
 10
-18.16927749579882
 20
-88.35320642797777
 30
0.0
 11
-18.16927749579882
 21
-88.10320642797777
 31
0.0
  0
LINE
  5
D0
330
1F
100
AcDbEntity
  8
1
  6
DASHED
 62
     2
100
AcDbLine
 10
-20.66927749579882
 20
-100.3532064279778
 30
0.0
 11
-20.66927749579882
 21
-106.8532064279777
 31
0.0
  0
LINE
  5
D1
330
1F
100
AcDbEntity
  8
1
  6
DASHED
 62
     2
100
AcDbLine
 10
-18.16927749579882
 20
-106.8532064279777
 30
0.0
 11
-18.16927749579882
 21
-102.3532064279778
 31
0.0
  0
LINE
  5
D2
330
1F
100
AcDbEntity
  8
1
  6
DASHED
 62
     2
100
AcDbLine
 10
-18.16927749579882
 20
-88.35320642797777
 30
0.0
 11
-18.16927749579882
 21
-86.35320642797774
 31
0.0
  0
LINE
  5
D3
330
1F
100
AcDbEntity
  8
1
  6
DASHED
 62
     2
100
AcDbLine
 10
-20.66927749579882
 20
-88.10320642797777
 30
0.0
 11
-20.66927749579882
 21
-88.35320642797777
 31
0.0
  0
LINE
  5
D4
330
1F
100
AcDbEntity
  8
1
  6
DASHED
 62
     2
100
AcDbLine
 10
-18.16927749579882
 20
-88.35320642797777
 30
0.0
 11
-20.66927749579882
 21
-88.35320642797777
 31
0.0
  0
LINE
  5
D5
330
1F
100
AcDbEntity
  8
1
  6
DASHED
 62
     2
100
AcDbLine
 10
-18.16927749579882
 20
-92.35320642797777
 30
0.0
 11
-18.16927749579882
 21
-88.35320642797777
 31
0.0
  0
LINE
  5
D6
330
1F
100
AcDbEntity
  8
1
  6
DASHED
 62
     2
100
AcDbLine
 10
-20.66927749579882
 20
-92.35320642797777
 30
0.0
 11
-20.66927749579882
 21
-95.00320642797774
 31
0.0
  0
LINE
  5
D7
330
1F
100
AcDbEntity
  8
1
  6
DASHED
 62
     2
100
AcDbLine
 10
-18.16927749579882
 20
-92.35320642797777
 30
0.0
 11
-20.66927749579882
 21
-92.35320642797777
 31
0.0
  0
LINE
  5
D8
330
1F
100
AcDbEntity
  8
1
  6
DASHED
 62
     2
100
AcDbLine
 10
-18.16927749579882
 20
-100.8532064279778
 30
0.0
 11
-18.16927749579882
 21
-98.20320642797775
 31
0.0
  0
LINE
  5
D9
330
1F
100
AcDbEntity
  8
1
  6
DASHED
 62
     2
100
AcDbLine
 10
-20.66927749579882
 20
-100.8532064279778
 30
0.0
 11
-20.66927749579882
 21
-102.3532064279778
 31
0.0
  0
LINE
  5
DA
330
1F
100
AcDbEntity
  8
1
  6
DASHED
 62
     2
100
AcDbLine
 10
-18.16927749579882
 20
-100.8532064279778
 30
0.0
 11
-20.66927749579882
 21
-100.8532064279778
 31
0.0
  0
LINE
  5
DB
330
1F
100
AcDbEntity
  8
1
  6
DASHED
 62
     2
100
AcDbLine
 10
-17.66927749579882
 20
-85.85320642797774
 30
0.0
 11
-20.62731738734863
 21
-85.85320642797774
 31
0.0
  0
LINE
  5
DC
330
1F
100
AcDbEntity
  8
1
  6
DASHED
 62
     2
100
AcDbLine
 10
-17.66927749579882
 20
-85.85320642797774
 30
0.0
 11
-9.66927749579881
 21
-85.85320642797774
 31
0.0
  0
LINE
  5
DD
330
1F
100
AcDbEntity
  8
1
  6
DASHED
 62
     2
100
AcDbLine
 10
-21.16927749579882
 20
-107.3532064279777
 30
0.0
 11
-29.16927749579882
 21
-107.3532064279777
 31
0.0
  0
LINE
  5
DE
330
1F
100
AcDbEntity
  8
1
  6
DASHED
 62
     2
100
AcDbLine
 10
-29.16927749579882
 20
-107.3532064279777
 30
0.0
 11
-29.16927749579882
 21
-109.8532064279777
 31
0.0
  0
LINE
  5
DF
330
1F
100
AcDbEntity
  8
1
  6
DASHED
 62
     2
100
AcDbLine
 10
-20.66927749579882
 20
-86.35320642797777
 30
0.0
 11
-20.66927749579882
 21
-86.60320642797774
 31
0.0
  0
LINE
  5
E0
330
1F
100
AcDbEntity
  8
1
  6
DASHED
 62
     2
100
AcDbLine
 10
-20.66927749579882
 20
-88.85320642797777
 30
0.0
 11
-20.66927749579882
 21
-92.35320642797777
 31
0.0
  0
LINE
  5
E1
330
1F
100
AcDbEntity
  8
1
  6
DASHED
 62
     2
100
AcDbLine
 10
-21.16927749579882
 20
-107.3532064279777
 30
0.0
 11
-18.21123760424903
 21
-107.3532064279777
 31
0.0
  0
LINE
  5
E2
330
1F
100
AcDbEntity
  8
1
  6
DASHED
 62
     2
100
AcDbLine
 10
-20.66927749579882
 20
-102.3532064279778
 30
0.0
 11
-20.66927749579882
 21
-106.8532064279777
 31
0.0
  0
LINE
  5
E3
330
1F
100
AcDbEntity
  8
1
  6
DASHED
 62
     2
100
AcDbLine
 10
-18.16927749579882
 20
-102.3532064279778
 30
0.0
 11
-18.16927749579882
 21
-100.8532064279778
 31
0.0
  0
LINE
  5
E4
330
1F
100
AcDbEntity
  8
1
  6
DASHED
 62
     2
100
AcDbLine
 10
-18.16927749579882
 20
-106.8532064279777
 30
0.0
 11
-18.16927749579882
 21
-100.3532064279778
 31
0.0
  0
LINE
  5
E5
330
1F
100
AcDbEntity
  8
1
  6
DASHED
 62
     2
100
AcDbLine
 10
-20.66927749579882
 20
-86.60320642797774
 30
0.0
 11
-20.66927749579882
 21
-88.35320642797777
 31
0.0
  0
LINE
  5
E6
330
1F
100
AcDbEntity
  8
1
  6
Continuous
 62
     7
100
AcDbLine
 10
-20.96927749579891
 20
-105.1032064279778
 30
0.0
 11
-20.96927749579891
 21
-100.6032064279778
 31
0.0
  0
LINE
  5
E7
330
1F
100
AcDbEntity
  8
1
  6
Continuous
 62
     7
100
AcDbLine
 10
-18.16927749579882
 20
-100.6032064279778
 30
0.0
 11
-20.96927749579891
 21
-100.6032064279778
 31
0.0
  0
LINE
  5
E8
330
1F
100
AcDbEntity
  8
1
  6
Continuous
 62
     7
100
AcDbLine
 10
-18.16927749579882
 20
-88.10320642797777
 30
0.0
 11
-18.16927749579882
 21
-92.60320642797777
 31
0.0
  0
LINE
  5
E9
330
1F
100
AcDbEntity
  8
1
  6
Continuous
 62
     7
100
AcDbLine
 10
-18.16927749579882
 20
-92.60320642797777
 30
0.0
 11
-20.96927749579891
 21
-92.60320642797777
 31
0.0
  0
LINE
  5
EA
330
1F
100
AcDbEntity
  8
1
  6
Continuous
 62
     7
100
AcDbLine
 10
-9.66927749579881
 20
-107.3532064279777
 30
0.0
 11
-9.66927749579881
 21
-83.35320642797774
 31
0.0
  0
LINE
  5
EB
330
1F
100
AcDbEntity
  8
1
  6
DASHED
 62
     2
100
AcDbLine
 10
-9.66927749579881
 20
-83.35320642797774
 30
0.0
 11
-32.16927749579881
 21
-83.35320642797774
 31
0.0
  0
LINE
  5
EC
330
1F
100
AcDbEntity
  8
1
  6
Continuous
 62
     7
100
AcDbLine
 10
-34.16927749579881
 20
-109.8532064279777
 30
0.0
 11
-32.66927749579881
 21
-109.8532064279777
 31
0.0
  0
LINE
  5
ED
330
1F
100
AcDbEntity
  8
1
  6
DASHED
 62
     2
100
AcDbLine
 10
-32.66927749579881
 20
-83.85320642797774
 30
0.0
 11
-32.66927749579881
 21
-109.8532064279777
 31
0.0
  0
LINE
  5
EE
330
1F
100
AcDbEntity
  8
1
  6
Continuous
 62
     7
100
AcDbLine
 10
-9.66927749579881
 20
-81.85320642797774
 30
0.0
 11
-11.16927749579881
 21
-81.85320642797774
 31
0.0
  0
LINE
  5
EF
330
1F
100
AcDbEntity
  8
1
  6
Continuous
 62
     7
100
AcDbLine
 10
-11.16927749579881
 20
-81.85320642797774
 30
0.0
 11
-32.16927749579881
 21
-81.85320642797774
 31
0.0
  0
LINE
  5
F0
330
1F
100
AcDbEntity
  8
1
  6
Continuous
 62
     7
100
AcDbLine
 10
-34.16927749579881
 20
-83.85320642797774
 30
0.0
 11
-34.16927749579881
 21
-109.8532064279777
 31
0.0
  0
LINE
  5
F1
330
1F
100
AcDbEntity
  8
1
  6
Continuous
 62
     7
100
AcDbLine
 10
-9.66927749579881
 20
-83.35320642797774
 30
0.0
 11
-9.66927749579881
 21
-81.85320642797774
 31
0.0
  0
LINE
  5
F2
330
1F
100
AcDbEntity
  8
1
  6
Continuous
 62
     7
100
AcDbLine
 10
-11.16927749579881
 20
-107.3532064279777
 30
0.0
 11
-9.66927749579881
 21
-107.3532064279777
 31
0.0
  0
LINE
  5
F3
330
1F
100
AcDbEntity
  8
1
  6
Continuous
 62
     7
100
AcDbLine
 10
-11.16927749579881
 20
-81.85320642797774
 30
0.0
 11
-11.16927749579881
 21
-107.3532064279777
 31
0.0
  0
LINE
  5
F4
330
1F
100
AcDbEntity
  8
1
  6
Continuous
 62
     7
100
AcDbLine
 10
-12.16927749579881
 20
-107.3532064279777
 30
0.0
 11
-11.16927749579881
 21
-107.3532064279777
 31
0.0
  0
LINE
  5
F5
330
1F
100
AcDbEntity
  8
1
  6
Continuous
 62
     7
100
AcDbLine
 10
-12.16927749579881
 20
-109.8532064279777
 30
0.0
 11
-12.16927749579881
 21
-107.3532064279777
 31
0.0
  0
LINE
  5
F6
330
1F
100
AcDbEntity
  8
1
  6
Continuous
 62
     7
100
AcDbLine
 10
-32.66927749579881
 20
-109.8532064279777
 30
0.0
 11
-12.16927749579881
 21
-109.8532064279777
 31
0.0
  0
LINE
  5
F7
330
1F
100
AcDbEntity
  8
1
  6
Continuous
 62
     7
100
AcDbLine
 10
-20.96927749579891
 20
-92.60320642797777
 30
0.0
 11
-20.96927749579891
 21
-88.10320642797777
 31
0.0
  0
LINE
  5
F8
330
1F
100
AcDbEntity
  8
1
  6
Continuous
 62
     7
100
AcDbLine
 10
-18.16927749579882
 20
-105.1032064279778
 30
0.0
 11
-20.96927749579891
 21
-105.1032064279778
 31
0.0
  0
LINE
  5
F9
330
1F
100
AcDbEntity
  8
1
  6
Continuous
 62
     7
100
AcDbLine
 10
-18.16927749579882
 20
-100.6032064279778
 30
0.0
 11
-18.16927749579882
 21
-105.1032064279778
 31
0.0
  0
LINE
  5
FA
330
1F
100
AcDbEntity
  8
1
  6
Continuous
 62
     7
100
AcDbLine
 10
-20.96927749579891
 20
-88.10320642797777
 30
0.0
 11
-18.16927749579882
 21
-88.10320642797777
 31
0.0
  0
ARC
  5
FB
330
1F
100
AcDbEntity
  8
1
  6
Continuous
 62
     7
100
AcDbCircle
 10
90.14252917474512
 20
-74.27866636540321
 30
0.0
 40
7.999999999999943
100
AcDbArc
 50
180.0
 51
-90.0
  0
ARC
  5
FC
330
1F
100
AcDbEntity
  8
1
  6
Continuous
 62
     7
100
AcDbCircle
 10
90.14252917474512
 20
0.2213336345968
 30
0.0
 40
8.0
100
AcDbArc
 50
0.0
 51
90.0
  0
ARC
  5
FD
330
1F
100
AcDbEntity
  8
1
  6
Continuous
 62
     7
100
AcDbCircle
 10
91.14252917474512
 20
-98.02866636540321
 30
0.0
 40
8.999999999999943
100
AcDbArc
 50
180.0
 51
-90.0
  0
ARC
  5
FE
330
1F
100
AcDbEntity
  8
1
  6
Continuous
 62
     7
100
AcDbCircle
 10
91.14252917474512
 20
23.9713336345968
 30
0.0
 40
8.999999999999986
100
AcDbArc
 50
0.0
 51
90.0
  0
ARC
  5
FF
330
1F
100
AcDbEntity
  8
1
  6
Continuous
 62
     7
100
AcDbCircle
 10
91.14252917474512
 20
-98.02866636540321
 30
0.0
 40
8.999999999999986
100
AcDbArc
 50
-90.0
 51
0.0
  0
ARC
  5
100
330
1F
100
AcDbEntity
  8
1
  6
Continuous
 62
     7
100
AcDbCircle
 10
90.14252917474512
 20
-74.27866636540321
 30
0.0
 40
8.0
100
AcDbArc
 50
-90.0
 51
0.0
  0
ARC
  5
101
330
1F
100
AcDbEntity
  8
1
  6
Continuous
 62
     7
100
AcDbCircle
 10
90.14252917474512
 20
0.2213336345968
 30
0.0
 40
7.999999999999999
100
AcDbArc
 50
90.0
 51
180.0
  0
ARC
  5
102
330
1F
100
AcDbEntity
  8
1
  6
Continuous
 62
     7
100
AcDbCircle
 10
91.14252917474512
 20
23.9713336345968
 30
0.0
 40
9.000000000000004
100
AcDbArc
 50
90.0
 51
180.0
  0
ARC
  5
103
330
1F
100
AcDbEntity
  8
1
  6
Continuous
 62
     7
100
AcDbCircle
 10
-5.9192774957989
 20
-67.85320642797765
 30
0.0
 40
2.263846284534257
100
AcDbArc
 50
173.659808254092
 51
-96.34019174590792
  0
ARC
  5
104
330
1F
100
AcDbEntity
  8
1
  6
Continuous
 62
     7
100
AcDbCircle
 10
1.5943854827072
 20
-68.25320642797767
 30
0.0
 40
1.850482562545641
100
AcDbArc
 50
-88.69147695539228
 51
72.12038659088812
  0
ARC
  5
105
330
1F
100
AcDbEntity
  8
1
  6
Continuous
 62
     7
100
AcDbCircle
 10
-5.16927749579881
 20
-56.1032064279778
 30
0.0
 40
3.0
100
AcDbArc
 50
90.0
 51
180.0
  0
ARC
  5
106
330
1F
100
AcDbEntity
  8
1
  6
Continuous
 62
     7
100
AcDbCircle
 10
-0.07895361432228
 20
-56.1032064279778
 30
0.0
 40
2.999999999999965
100
AcDbArc
 50
-15.00000000000013
 51
90.0
  0
ARC
  5
107
330
1F
100
AcDbEntity
  8
1
  6
Continuous
 62
     7
100
AcDbCircle
 10
-6.16927749579881
 20
-68.10320642797757
 30
0.0
 40
1.0
100
AcDbArc
 50
180.0
 51
-90.0
  0
ARC
  5
108
330
1F
100
AcDbEntity
  8
1
  6
Continuous
 62
     7
100
AcDbCircle
 10
-5.16927749579881
 20
-56.1032064279778
 30
0.0
 40
2.0
100
AcDbArc
 50
90.0
 51
180.0
  0
ARC
  5
109
330
1F
100
AcDbEntity
  8
1
  6
Continuous
 62
     7
100
AcDbCircle
 10
-0.07895361432228
 20
-56.1032064279778
 30
0.0
 40
1.999999999999931
100
AcDbArc
 50
-14.99999999999942
 51
90.0
  0
ARC
  5
10A
330
1F
100
AcDbEntity
  8
1
  6
Continuous
 62
     7
100
AcDbCircle
 10
1.5943854827072
 20
-68.25320642797767
 30
0.0
 40
0.8510497719202643
100
AcDbArc
 50
-87.15388608633427
 51
73.65797745994936
  0
CIRCLE
  5
10B
330
1F
100
AcDbEntity
  8
1
  6
Continuous
 62
     7
100
AcDbCircle
 10
87.64252917474512
 20
-100.0286663654032
 30
0.0
 40
1.5
  0
CIRCLE
  5
10C
330
1F
100
AcDbEntity
  8
1
  6
Continuous
 62
     7
100
AcDbCircle
 10
94.64252917474512
 20
-93.0286663654032
 30
0.0
 40
1.5
  0
CIRCLE
  5
10D
330
1F
100
AcDbEntity
  8
1
  6
Continuous
 62
     7
100
AcDbCircle
 10
94.64252917474512
 20
18.9713336345968
 30
0.0
 40
1.5
  0
CIRCLE
  5
10E
330
1F
100
AcDbEntity
  8
1
  6
Continuous
 62
     7
100
AcDbCircle
 10
87.64252917474512
 20
25.9713336345968
 30
0.0
 40
1.5
  0
CIRCLE
  5
10F
330
1F
100
AcDbEntity
  8
1
  6
DOT_CENTER
 62
     2
100
AcDbCircle
 10
90.14252917474512
 20
-97.08971628066075
 30
0.0
 40
8.0
  0
CIRCLE
  5
110
330
1F
100
AcDbEntity
  8
1
  6
Continuous
 62
     7
100
AcDbCircle
 10
91.14252917474512
 20
11.9713336345968
 30
0.0
 40
1.5
  0
CIRCLE
  5
111
330
1F
100
AcDbEntity
  8
1
  6
Continuous
 62
     7
100
AcDbCircle
 10
91.14252917474512
 20
-86.0286663654032
 30
0.0
 40
1.5
  0
SPLINE
  5
112
330
1F
100
AcDbEntity
  8
1
  6
Continuous
 62
     2
100
AcDbSpline
210
0.0
220
0.0
230
1.0
 70
     8
 71
     3
 72
    12
 73
     8
 74
     6
 42
0.0000000001
 43
0.0000000001
 44
0.00000001
 40
0.0
 40
0.0
 40
0.0
 40
0.0
 40
0.2775291599796296
 40
0.5641738536599668
 40
0.8992522958634326
 40
1.297504019331646
 40
1.680834346735561
 40
1.680834346735561
 40
1.680834346735561
 40
1.680834346735561
 10
5.330722504201191
 20
-43.51050359027726
 30
0.0
 10
5.418666378152171
 20
-43.4413038835062
 30
0.0
 10
5.597442670619429
 20
-43.30063158354307
 30
0.0
 10
5.79859025423456
 20
-43.66537956223809
 30
0.0
 10
6.168173897542705
 20
-43.50122735413008
 30
0.0
 10
6.487021712968433
 20
-43.23644516033197
 30
0.0
 10
6.71762306488781
 20
-43.42032092105865
 30
0.0
 10
6.830722504201191
 20
-43.51050359027726
 30
0.0
 11
5.330722504201191
 21
-43.51050359027726
 31
0.0
 11
5.581830443742972
 21
-43.39232052322415
 31
0.0
 11
5.806081711793056
 21
-43.57086057249328
 31
0.0
 11
6.133523385703824
 21
-43.49973032143217
 31
0.0
 11
6.493211633584284
 21
-43.32876599889064
 31
0.0
 11
6.830722504201191
 21
-43.51050359027726
 31
0.0
  0
XLINE
  5
113
330
1F
100
AcDbEntity
  8
1
  6
DOT_CENTER
 62
     3
 60
     1
100
AcDbXline
 10
91.14252917474512
 20
-37.0286663654032
 30
0.0
 11
1.0
 21
0.0
 31
0.0
  0
XLINE
  5
114
330
1F
100
AcDbEntity
  8
1
  6
DOT_CENTER
 62
     3
 60
     1
100
AcDbXline
 10
91.14252917474512
 20
-37.0286663654032
 30
0.0
 11
1.0
 21
0.0
 31
0.0
  0
XLINE
  5
115
330
1F
100
AcDbEntity
  8
1
  6
DOT_CENTER
 62
     3
 60
     1
100
AcDbXline
 10
91.14252917474512
 20
-37.0286663654032
 30
0.0
 11
1.0
 21
0.0
 31
0.0
  0
ARC
  5
116
330
1F
100
AcDbEntity
  8
1
  6
Continuous
 62
     7
100
AcDbCircle
 10
-8.16927749579881
 20
-53.1032064279778
 30
0.0
 40
1.500000000000014
100
AcDbArc
 50
90.0
 51
180.0
  0
ARC
  5
117
330
1F
100
AcDbEntity
  8
1
  6
Continuous
 62
     7
100
AcDbCircle
 10
-7.66927749579881
 20
-53.6032064279778
 30
0.0
 40
0.5
100
AcDbArc
 50
90.0
 51
180.0
  0
ARC
  5
118
330
1F
100
AcDbEntity
  8
1
  6
Continuous
 62
     7
100
AcDbCircle
 10
4.83072250420119
 20
-64.6032064279778
 30
0.0
 40
2.000000000000014
100
AcDbArc
 50
-90.00000000000173
 51
0.0
  0
ARC
  5
119
330
1F
100
AcDbEntity
  8
1
  6
Continuous
 62
     7
100
AcDbCircle
 10
2.81985915206351
 20
-64.6032064279778
 30
0.0
 40
1.999999999999962
100
AcDbArc
 50
-109.1881364537218
 51
-90.0
  0
ARC
  5
11A
330
1F
100
AcDbEntity
  8
1
  6
Continuous
 62
     7
100
AcDbCircle
 10
4.33072250420119
 20
-64.1032064279778
 30
0.0
 40
1.0
100
AcDbArc
 50
-90.0
 51
0.0
  0
ARC
  5
11B
330
1F
100
AcDbEntity
  8
1
  6
Continuous
 62
     7
100
AcDbCircle
 10
3.47147183848417
 20
-64.1032064279778
 30
0.0
 40
1.000000000000087
100
AcDbArc
 50
164.9999999999993
 51
-90.0
  0
ARC
  5
11C
330
1F
100
AcDbEntity
  8
1
  6
Continuous
 62
     7
100
AcDbCircle
 10
3.83072250420119
 20
-53.1032064279778
 30
0.0
 40
1.50000000000009
100
AcDbArc
 50
-15.00000000000001
 51
90.0
  0
ARC
  5
11D
330
1F
100
AcDbEntity
  8
1
  6
Continuous
 62
     7
100
AcDbCircle
 10
3.17910981778069
 20
-53.6032064279778
 30
0.0
 40
0.4999999999999603
100
AcDbArc
 50
-15.00000000000243
 51
90.0
  0
ARC
  5
11E
330
1F
100
AcDbEntity
  8
1
  6
Continuous
 62
     7
100
AcDbCircle
 10
2.81985915206351
 20
-64.6032064279778
 30
0.0
 40
1.999999999999886
100
AcDbArc
 50
164.9999999999992
 51
-109.1881364537218
  0
ARC
  5
11F
330
1F
100
AcDbEntity
  8
1
  6
Continuous
 62
     7
100
AcDbCircle
 10
2.81985915206351
 20
-64.6032064279778
 30
0.0
 40
2.999999999999913
100
AcDbArc
 50
164.9999999999993
 51
-109.188136453722
  0
ARC
  5
120
330
1F
100
AcDbEntity
  8
1
  6
Continuous
 62
     7
100
AcDbCircle
 10
-35.66927749579932
 20
-109.6032064279778
 30
0.0
 40
1.0
100
AcDbArc
 50
180.0
 51
-90.0
  0
ARC
  5
121
330
1F
100
AcDbEntity
  8
1
  6
Continuous
 62
     7
100
AcDbCircle
 10
-35.66927749579932
 20
-109.6032064279778
 30
0.0
 40
2.5
100
AcDbArc
 50
180.0
 51
-90.0
  0
ARC
  5
122
330
1F
100
AcDbEntity
  8
1
  6
Continuous
 62
     7
100
AcDbCircle
 10
-10.66927749579881
 20
-109.6032064279777
 30
0.0
 40
2.5
100
AcDbArc
 50
-90.0
 51
0.0
  0
ARC
  5
123
330
1F
100
AcDbEntity
  8
1
  6
Continuous
 62
     7
100
AcDbCircle
 10
-10.66927749579881
 20
-109.6032064279777
 30
0.0
 40
1.0
100
AcDbArc
 50
-90.0
 51
0.0
  0
ARC
  5
124
330
1F
100
AcDbEntity
  8
1
  6
Continuous
 62
     7
100
AcDbCircle
 10
-127.4625570981649
 20
22.3713336345968
 30
0.0
 40
10.59999999999999
100
AcDbArc
 50
0.0
 51
90.0
  0
ARC
  5
125
330
1F
100
AcDbEntity
  8
1
  6
Continuous
 62
     7
100
AcDbCircle
 10
-127.4625570981649
 20
22.3713336345968
 30
0.0
 40
10.6
100
AcDbArc
 50
90.0
 51
180.0
  0
ARC
  5
126
330
1F
100
AcDbEntity
  8
1
  6
Continuous
 62
     7
100
AcDbCircle
 10
-127.4625570981649
 20
-96.4286663654032
 30
0.0
 40
10.59999999999999
100
AcDbArc
 50
-90.0
 51
-0.00000000000008
  0
ARC
  5
127
330
1F
100
AcDbEntity
  8
1
  6
Continuous
 62
     7
100
AcDbCircle
 10
-127.4625570981649
 20
-96.4286663654032
 30
0.0
 40
10.59999999999999
100
AcDbArc
 50
180.0
 51
-90.0
  0
ARC
  5
128
330
1F
100
AcDbEntity
  8
1
  6
DASHED
 62
     2
100
AcDbCircle
 10
-21.16927749579882
 20
-106.8532064279777
 30
0.0
 40
0.5
100
AcDbArc
 50
-90.0
 51
0.0
  0
ARC
  5
129
330
1F
100
AcDbEntity
  8
1
  6
DASHED
 62
     2
100
AcDbCircle
 10
-17.66927749579882
 20
-86.35320642797774
 30
0.0
 40
0.5
100
AcDbArc
 50
90.0
 51
180.0
  0
ARC
  5
12A
330
1F
100
AcDbEntity
  8
1
  6
DASHED
 62
     2
100
AcDbCircle
 10
-17.66927749579882
 20
-86.35320642797774
 30
0.0
 40
3.000000000000001
100
AcDbArc
 50
170.4059317731395
 51
-179.9999999999995
  0
ARC
  5
12B
330
1F
100
AcDbEntity
  8
1
  6
DASHED
 62
     2
100
AcDbCircle
 10
-21.16927749579882
 20
-106.8532064279777
 30
0.0
 40
3.0
100
AcDbArc
 50
-90.0
 51
-9.59406822686051
  0
ARC
  5
12C
330
1F
100
AcDbEntity
  8
1
  6
DASHED
 62
     2
100
AcDbCircle
 10
-17.66927749579882
 20
-86.35320642797774
 30
0.0
 40
3.0
100
AcDbArc
 50
90.0
 51
170.4059317731395
  0
ARC
  5
12D
330
1F
100
AcDbEntity
  8
1
  6
DASHED
 62
     2
100
AcDbCircle
 10
-21.16927749579882
 20
-106.8532064279777
 30
0.0
 40
2.999999999999984
100
AcDbArc
 50
-9.59406822686051
 51
0.0
  0
ARC
  5
12E
330
1F
100
AcDbEntity
  8
1
  6
Continuous
 62
     7
100
AcDbCircle
 10
-32.16927749579881
 20
-83.85320642797774
 30
0.0
 40
2.0
100
AcDbArc
 50
90.0
 51
180.0
  0
ARC
  5
12F
330
1F
100
AcDbEntity
  8
1
  6
DASHED
 62
     2
100
AcDbCircle
 10
-32.16927749579881
 20
-83.85320642797774
 30
0.0
 40
0.5
100
AcDbArc
 50
90.0
 51
180.0
  0
MTEXT
  5
131
330
1F
100
AcDbEntity
  8
1
 62
     3
100
AcDbMText
 10
7.34947871289319
 20
-146.1627659563957
 30
0.0
 40
5.0
 41
0.0
 71
     4
 72
     1
  1
Fräsbild\PFlügel
  7
CONVERTER_11
 73
     1
 44
1.32052821128451
  0
MTEXT
  5
132
330
1F
100
AcDbEntity
  8
1
 62
     3
100
AcDbMText
 10
-53.81680170425632
 20
-152.1627659563957
 30
0.0
 40
5.0
 41
0.0
 71
     4
 72
     1
  1
Fräsbild\PStahlzarge\PRahmen
  7
CONVERTER_11
 73
     1
 44
1.32052821128451
  0
MTEXT
  5
133
330
1F
100
AcDbEntity
  8
1
 62
     2
100
AcDbMText
 10
-54.76466115822712
 20
-21.96345626571409
 30
0.0
 40
3.5
 41
0.0
 71
     4
 72
     1
  1
Aufnahmeelement\PTE210-3D SZ
  7
CONVERTER_11
 73
     1
 44
1.32052821128451
  0
DIMENSION
  5
140
330
1F
100
AcDbEntity
  8
1
100
AcDbDimension
  2
*D1
 10
87.64252917474512
 20
41.333080342872
 30
0.0
 11
91.4331637989124
 21
45.083080342872
 31
0.0
 70
    32
  1
<>
 71
     5
 42
-1.0
 53
0.00013888888889
  3
ME10_DIM_10
100
AcDbAlignedDimension
 13
94.64252917474512
 23
21.2213336345968
 33
0.0
 14
87.64252917474512
 24
28.2213336345968
 34
0.0
100
AcDbRotatedDimension
  0
DIMENSION
  5
14B
330
1F
100
AcDbEntity
  8
1
100
AcDbDimension
  2
*D2
 10
128.329870209166
 20
-100.0286663654032
 30
0.0
 11
124.579870209166
 21
-38.0275099153095
 31
0.0
 70
    32
  1
<>
 71
     5
 42
-1.0
 53
90.0
  3
ME10_DIM_11
100
AcDbAlignedDimension
 13
89.89252917474512
 23
25.9713336345968
 33
0.0
 14
89.89252917474512
 24
-100.0286663654032
 34
0.0
 50
90.0
100
AcDbRotatedDimension
  0
DIMENSION
  5
156
330
1F
100
AcDbEntity
  8
1
100
AcDbDimension
  2
*D3
 10
120.803391923046
 20
18.9713336345968
 30
0.0
 11
117.053391923046
 21
-35.8770875478466
 31
0.0
 70
    32
  1
<>
 71
     5
 42
-1.0
 53
90.0
  3
ME10_DIM_12
100
AcDbAlignedDimension
 13
96.89252917474512
 23
-93.0286663654032
 33
0.0
 14
96.89252917474512
 24
18.9713336345968
 34
0.0
 50
90.0
100
AcDbRotatedDimension
  0
DIMENSION
  5
161
330
1F
100
AcDbEntity
  8
1
100
AcDbDimension
  2
*D4
 10
-38.16927749579934
 20
-123.1881483633788
 30
0.0
 11
-21.74939668701712
 21
-119.4381483633788
 31
0.0
 70
    32
  1
<>
 71
     5
 42
-1.0
 53
0.00013888888889
  3
ME10_DIM_13
100
AcDbAlignedDimension
 13
-8.16927749579881
 23
-109.6032064279777
 33
0.0
 14
-38.16927749579932
 24
-109.6032064279778
 34
0.0
100
AcDbRotatedDimension
  0
DIMENSION
  5
16C
330
1F
100
AcDbEntity
  8
1
100
AcDbDimension
  2
*D5
 10
-55.83049283017282
 20
-112.1032064279778
 30
0.0
 11
-59.58049283017282
 21
-95.69433456540492
 31
0.0
 70
    32
  1
<>
 71
     5
 42
-1.0
 53
90.0
  3
ME10_DIM_14
100
AcDbAlignedDimension
 13
-32.16927749579881
 23
-81.85320642797774
 33
0.0
 14
-35.66927749579932
 24
-112.1032064279778
 34
0.0
 50
90.0
100
AcDbRotatedDimension
  0
DIMENSION
  5
177
330
1F
100
AcDbEntity
  8
1
100
AcDbDimension
  2
*D6
 10
-34.16927749579881
 20
-46.44854351831551
 30
0.0
 11
-22.77470760376851
 21
-42.69854351831551
 31
0.0
 70
    32
  1
<>
 71
     5
 42
-1.0
 53
0.00013888888889
  3
ME10_DIM_15
100
AcDbAlignedDimension
 13
-9.66927749579881
 23
-53.1032064279778
 33
0.0
 14
-34.16927749579881
 24
-83.85320642797774
 34
0.0
100
AcDbRotatedDimension
  0
DIMENSION
  5
184
330
1F
100
AcDbEntity
  8
1
100
AcDbDimension
  2
*D7
 10
-46.71860302029121
 20
-112.1032064279778
 30
0.0
 11
-50.46860302029121
 21
-109.692184183219
 31
0.0
 70
    32
  1
<>
 71
     5
 42
-1.0
 53
90.0
  3
ME10_DIM_16
100
AcDbAlignedDimension
 13
-9.66927749579881
 23
-107.1032064279777
 33
0.0
 14
-35.66927749579932
 24
-112.1032064279778
 34
0.0
 50
90.0
100
AcDbRotatedDimension
  0
DIMENSION
  5
18F
330
1F
100
AcDbEntity
  8
1
100
AcDbDimension
  2
*D8
 10
191.8558626684731
 20
-157.0282268852766
 30
0.0
 11
179.3164997049994
 21
-153.2782268852766
 31
0.0
 70
    32
  1
<>
 71
     5
 42
-1.0
 53
0.00013888888889
  3
ME10_DIM_17
100
AcDbAlignedDimension
 13
166.8558626684731
 23
-82.27866636540321
 33
0.0
 14
191.8558626684731
 24
-107.0286663654032
 34
0.0
100
AcDbRotatedDimension
  0
DIMENSION
  5
19A
330
1F
100
AcDbEntity
  8
1
100
AcDbDimension
  2
*D9
 10
181.8558626684731
 20
-146.1909364723596
 30
0.0
 11
186.3743510044829
 21
-142.4409364723596
 31
0.0
 70
    32
  1
<>
 71
     5
 42
-1.0
 53
0.00013888888889
  3
ME10_DIM_18
100
AcDbAlignedDimension
 13
191.8558626684731
 23
-137.0286663654032
 33
0.0
 14
181.8558626684731
 24
-107.0286663654032
 34
0.0
100
AcDbRotatedDimension
  0
DIMENSION
  5
1A5
330
1F
100
AcDbEntity
  8
1
100
AcDbDimension
  2
*D10
 10
113.735685019818
 20
8.2213336345968
 30
0.0
 11
109.985685019818
 21
-41.5577657621334
 31
0.0
 70
    32
  1
<>
 71
     5
 42
-1.0
 53
90.0
  3
ME10_DIM_19
100
AcDbAlignedDimension
 13
90.14252917474512
 23
-82.27866636540321
 33
0.0
 14
90.14252917474512
 24
8.2213336345968
 34
0.0
 50
90.0
100
AcDbRotatedDimension
  0
DIMENSION
  5
1B0
330
1F
100
AcDbEntity
  8
1
100
AcDbDimension
  2
*D11
 10
136.035550359241
 20
-107.0286663654032
 30
0.0
 11
132.285550359241
 21
-35.339481955981
 31
0.0
 70
    32
  1
<>
 71
     5
 42
-1.0
 53
90.0
  3
ME10_DIM_20
100
AcDbAlignedDimension
 13
91.14252917474512
 23
32.9713336345968
 33
0.0
 14
91.14252917474512
 24
-107.0286663654032
 34
0.0
 50
90.0
100
AcDbRotatedDimension
  0
DIMENSION
  5
1BB
330
1F
100
AcDbEntity
  8
1
100
AcDbDimension
  2
*D12
 10
98.14252917474512
 20
-26.10044820959215
 30
0.0
 11
87.64600993806773
 21
-22.35044820959215
 31
0.0
 70
    32
  1
<>
 71
     5
 42
-1.0
 53
0.00013888888889
  3
ME10_DIM_21
100
AcDbAlignedDimension
 13
82.14252917474518
 23
-37.0286663654032
 33
0.0
 14
98.14252917474512
 24
-74.27866636540321
 34
0.0
100
AcDbRotatedDimension
  0
DIMENSION
  5
1C6
330
1F
100
AcDbEntity
  8
1
100
AcDbDimension
  2
*D13
 10
100.1425291747451
 20
-148.1868508015806
 30
0.0
 11
89.83479713236291
 21
-144.4368508015806
 31
0.0
 70
    32
  1
<>
 71
     5
 42
-1.0
 53
0.00013888888889
  3
ME10_DIM_22
100
AcDbAlignedDimension
 13
82.14252917474518
 23
-98.02866636540321
 33
0.0
 14
100.1425291747451
 24
-98.02866636540321
 34
0.0
100
AcDbRotatedDimension
  0
DIMENSION
  5
1D3
330
1F
100
AcDbEntity
  8
1
100
AcDbDimension
  2
*D14
 10
104.1425291747452
 20
-148.1868508015806
 30
0.0
 11
110.5344678667459
 21
-144.4368508015806
 31
0.0
 70
    32
  1
<>
 71
     5
 42
-1.0
 53
0.00013888888889
  3
ME10_DIM_23
100
AcDbAlignedDimension
 13
100.1425291747451
 23
-98.02866636540321
 33
0.0
 14
104.1425291747451
 24
-137.0286663654032
 34
0.0
100
AcDbRotatedDimension
  0
DIMENSION
  5
1DE
330
1F
100
AcDbEntity
  8
1
100
AcDbDimension
  2
*D15
 10
-138.0625570981649
 20
-150.4958297294258
 30
0.0
 11
-128.498064200645
 21
-146.7458297294258
 31
0.0
 70
    32
  1
<>
 71
     5
 42
-1.0
 53
0.00013888888889
  3
ME10_DIM_24
100
AcDbAlignedDimension
 13
-116.8625570981649
 23
-96.42866636540322
 33
0.0
 14
-138.0625570981649
 24
-96.4286663654032
 34
0.0
100
AcDbRotatedDimension
  0
DIMENSION
  5
1E9
330
1F
100
AcDbEntity
  8
1
100
AcDbDimension
  2
*D16
 10
-152.009811363987
 20
32.9713336345968
 30
0.0
 11
-155.759811363987
 21
-37.71773598189418
 31
0.0
 70
    32
  1
<>
 71
     5
 42
-1.0
 53
90.0
  3
ME10_DIM_25
100
AcDbAlignedDimension
 13
-127.4625570981649
 23
-107.0286663654032
 33
0.0
 14
-127.4625570981649
 24
32.9713336345968
 34
0.0
 50
90.0
100
AcDbRotatedDimension
  0
DIMENSION
  5
1F4
330
1F
100
AcDbEntity
  8
1
100
AcDbDimension
  2
*D17
 10
74.7020129299399
 20
-86.02866636540321
 30
0.0
 11
70.9520129299399
 21
-32.3506563695109
 31
0.0
 70
    32
  1
<>
 71
     5
 42
-1.0
 53
90.0
  3
ME10_DIM_26
100
AcDbAlignedDimension
 13
88.89252917474512
 23
11.9713336345968
 33
0.0
 14
88.89252917474512
 24
-86.0286663654032
 34
0.0
 50
90.0
100
AcDbRotatedDimension
  0
DIMENSION
  5
201
330
1F
100
AcDbEntity
  8
1
100
AcDbDimension
  2
*D18
 10
-143.0625570981649
 20
-150.6006407817546
 30
0.0
 11
-152.4565530560971
 21
-146.8506407817546
 31
0.0
 70
    32
  1
<>
 71
     5
 42
-1.0
 53
0.00013888888889
  3
ME10_DIM_27
100
AcDbAlignedDimension
 13
-138.0625570981649
 23
-96.4286663654032
 33
0.0
 14
-143.0625570981649
 24
-137.0286663654032
 34
0.0
100
AcDbRotatedDimension
  0
DIMENSION
  5
213
330
1F
100
AcDbEntity
  8
1
100
AcDbDimension
  2
*D19
 10
47.94742196536939
 20
-112.1032064279778
 30
0.0
 11
44.19742196536939
 21
-119.5002930067008
 31
0.0
 70
    32
  1
<>
 71
     5
 42
-1.0
 53
90.0
  3
ME10_DIM_28
100
AcDbAlignedDimension
 13
-4.66927749579947
 23
-110.1032064279777
 33
0.0
 14
-10.66927749579881
 24
-112.1032064279777
 34
0.0
 50
90.0
100
AcDbRotatedDimension
  0
DIMENSION
  5
220
330
1F
100
AcDbEntity
  8
1
100
AcDbDimension
  2
*D21
 10
47.94742196536939
 20
-110.1032064279777
 30
0.0
 11
44.19742196536939
 21
-100.1051366056902
 31
0.0
 70
    32
  1
<>
 71
     5
 42
-1.0
 53
90.0
  3
ME10_DIM_29
100
AcDbAlignedDimension
 13
5.33072250420052
 23
-106.1032064279777
 33
0.0
 14
-4.66927749579947
 24
-110.1032064279777
 34
0.0
 50
90.0
100
AcDbRotatedDimension
  0
INSERT
  5
228
330
1F
100
AcDbEntity
  8
1
100
AcDbBlockReference
  2
*D22
 10
0.0
 20
0.0
 30
0.0
  0
INSERT
  5
231
330
1F
100
AcDbEntity
  8
1
100
AcDbBlockReference
  2
*D23
 10
0.0
 20
0.0
 30
0.0
  0
ENDSEC
  0
SECTION
  2
OBJECTS
  0
DICTIONARY
  5
C
330
0
100
AcDbDictionary
281
     1
  3
ACAD_GROUP
350
D
  3
ACAD_LAYOUT
350
1A
  3
ACAD_MLINESTYLE
350
17
  3
ACAD_PLOTSETTINGS
350
19
  3
ACAD_PLOTSTYLENAME
350
E
  0
DICTIONARY
  5
D
102
{ACAD_REACTORS
330
C
102
}
330
C
100
AcDbDictionary
281
     1
  0
DICTIONARY
  5
1A
102
{ACAD_REACTORS
330
C
102
}
330
C
100
AcDbDictionary
281
     1
  3
Layout1
350
1E
  3
Layout2
350
26
  3
Model
350
22
  0
DICTIONARY
  5
17
102
{ACAD_REACTORS
330
C
102
}
330
C
100
AcDbDictionary
281
     1
  3
Standard
350
18
  0
DICTIONARY
  5
19
102
{ACAD_REACTORS
330
C
102
}
330
C
100
AcDbDictionary
281
     1
  0
ACDBDICTIONARYWDFLT
  5
E
102
{ACAD_REACTORS
330
C
102
}
330
C
100
AcDbDictionary
281
     1
  3
Normal
350
F
100
AcDbDictionaryWithDefault
340
F
  0
LAYOUT
  5
1E
102
{ACAD_REACTORS
330
1A
102
}
330
1A
100
AcDbPlotSettings
  1

  2

  4

  6

 40
0.0
 41
0.0
 42
0.0
 43
0.0
 44
0.0
 45
0.0
 46
0.0
 47
0.0
 48
0.0
 49
0.0
140
0.0
141
0.0
142
1.0
143
1.0
 70
   688
 72
     0
 73
     0
 74
     5
  7

 75
    16
 76
     0
 77
     2
 78
   300
147
1.0
148
0.0
149
0.0
100
AcDbLayout
  1
Layout1
 70
     1
 71
     1
 10
0.0
 20
0.0
 11
0.0
 21
0.0
 12
0.0
 22
0.0
 32
0.0
 14
0.0
 24
0.0
 34
0.0
 15
0.0
 25
0.0
 35
0.0
146
0.0
 13
0.0
 23
0.0
 33
0.0
 16
1.0
 26
0.0
 36
0.0
 17
0.0
 27
1.0
 37
0.0
 76
     0
330
1B
  0
LAYOUT
  5
26
102
{ACAD_REACTORS
330
1A
102
}
330
1A
100
AcDbPlotSettings
  1

  2

  4

  6

 40
0.0
 41
0.0
 42
0.0
 43
0.0
 44
0.0
 45
0.0
 46
0.0
 47
0.0
 48
0.0
 49
0.0
140
0.0
141
0.0
142
1.0
143
1.0
 70
   688
 72
     0
 73
     0
 74
     5
  7

 75
    16
 76
     0
 77
     2
 78
   300
147
1.0
148
0.0
149
0.0
100
AcDbLayout
  1
Layout2
 70
     1
 71
     2
 10
0.0
 20
0.0
 11
0.0
 21
0.0
 12
0.0
 22
0.0
 32
0.0
 14
0.0
 24
0.0
 34
0.0
 15
0.0
 25
0.0
 35
0.0
146
0.0
 13
0.0
 23
0.0
 33
0.0
 16
1.0
 26
0.0
 36
0.0
 17
0.0
 27
1.0
 37
0.0
 76
     0
330
23
  0
LAYOUT
  5
22
102
{ACAD_REACTORS
330
1A
102
}
330
1A
100
AcDbPlotSettings
  1

  2

  4

  6

 40
0.0
 41
0.0
 42
0.0
 43
0.0
 44
0.0
 45
0.0
 46
0.0
 47
0.0
 48
0.0
 49
0.0
140
0.0
141
0.0
142
1.0
143
1.0
 70
  1712
 72
     0
 73
     0
 74
     0
  7

 75
     0
 76
     0
 77
     2
 78
   300
147
1.0
148
0.0
149
0.0
100
AcDbLayout
  1
Model
 70
     1
 71
     0
 10
0.0
 20
0.0
 11
0.0
 21
0.0
 12
0.0
 22
0.0
 32
0.0
 14
-157.509811363987
 24
-165.6627659563957
 34
0.0
 15
198.2648245450632
 25
67.01413350441774
 35
0.0
146
0.0
 13
0.0
 23
0.0
 33
0.0
 16
1.0
 26
0.0
 36
0.0
 17
0.0
 27
1.0
 37
0.0
 76
     0
330
1F
  0
MLINESTYLE
  5
18
102
{ACAD_REACTORS
330
17
102
}
330
17
100
AcDbMlineStyle
  2
Standard
 70
     0
  3

 62
   256
 51
90.0
 52
90.0
 71
     2
 49
0.5
 62
   256
  6
BYLAYER
 49
-0.5
 62
   256
  6
BYLAYER
  0
ACDBPLACEHOLDER
  5
F
102
{ACAD_REACTORS
330
E
102
}
330
E
  0
ENDSEC
  0
EOF
