  0
SECTION
  2
HEADER
  9
$ACADVER
  1
AC1018
  9
$ACADMAINTVER
 70
     0
  9
$DWGCODEPAGE
  3
ANSI_1252
  9
$INSBASE
 10
0.0
 20
0.0
 30
0.0
  9
$EXTMIN
 10
-204.4654279100508
 20
-125.1293055096603
 30
0.0
  9
$EXTMAX
 10
186.872001348131
 20
109.761881720986
 30
0.0
  9
$LIMMIN
 10
0.0
 20
0.0
  9
$LIMMAX
 10
12.0
 20
9.0
  9
$ORTHOMODE
 70
     0
  9
$REGENMODE
 70
     1
  9
$FILLMODE
 70
     1
  9
$QTEXTMODE
 70
     0
  9
$MIRRTEXT
 70
     1
  9
$LTSCALE
 40
1.0
  9
$ATTMODE
 70
     1
  9
$TEXTSIZE
 40
0.2
  9
$TRACEWID
 40
0.05
  9
$TEXTSTYLE
  7
Standard
  9
$CLAYER
  8
0
  9
$CELTYPE
  6
ByLayer
  9
$CECOLOR
 62
   256
  9
$CELTSCALE
 40
1.0
  9
$DISPSILH
 70
     0
  9
$DIMSCALE
 40
1.0
  9
$DIMASZ
 40
0.18
  9
$DIMEXO
 40
0.0625
  9
$DIMDLI
 40
0.38
  9
$DIMRND
 40
0.0
  9
$DIMDLE
 40
0.0
  9
$DIMEXE
 40
0.18
  9
$DIMTP
 40
0.0
  9
$DIMTM
 40
0.0
  9
$DIMTXT
 40
0.18
  9
$DIMCEN
 40
0.09
  9
$DIMTSZ
 40
0.0
  9
$DIMTOL
 70
     0
  9
$DIMLIM
 70
     0
  9
$DIMTIH
 70
     1
  9
$DIMTOH
 70
     1
  9
$DIMSE1
 70
     0
  9
$DIMSE2
 70
     0
  9
$DIMTAD
 70
     0
  9
$DIMZIN
 70
     0
  9
$DIMBLK
  1

  9
$DIMASO
 70
     1
  9
$DIMSHO
 70
     1
  9
$DIMPOST
  1

  9
$DIMAPOST
  1

  9
$DIMALT
 70
     0
  9
$DIMALTD
 70
     2
  9
$DIMALTF
 40
25.4
  9
$DIMLFAC
 40
1.0
  9
$DIMTOFL
 70
     0
  9
$DIMTVP
 40
0.0
  9
$DIMTIX
 70
     0
  9
$DIMSOXD
 70
     0
  9
$DIMSAH
 70
     0
  9
$DIMBLK1
  1

  9
$DIMBLK2
  1

  9
$DIMSTYLE
  2
Standard
  9
$DIMCLRD
 70
     0
  9
$DIMCLRE
 70
     0
  9
$DIMCLRT
 70
     0
  9
$DIMTFAC
 40
1.0
  9
$DIMGAP
 40
0.09
  9
$DIMJUST
 70
     0
  9
$DIMSD1
 70
     0
  9
$DIMSD2
 70
     0
  9
$DIMTOLJ
 70
     1
  9
$DIMTZIN
 70
     0
  9
$DIMALTZ
 70
     0
  9
$DIMALTTZ
 70
     0
  9
$DIMUPT
 70
     0
  9
$DIMDEC
 70
     4
  9
$DIMTDEC
 70
     4
  9
$DIMALTU
 70
     2
  9
$DIMALTTD
 70
     2
  9
$DIMTXSTY
  7
Standard
  9
$DIMAUNIT
 70
     0
  9
$DIMADEC
 70
     0
  9
$DIMALTRND
 40
0.0
  9
$DIMAZIN
 70
     0
  9
$DIMDSEP
 70
    46
  9
$DIMATFIT
 70
     3
  9
$DIMFRAC
 70
     0
  9
$DIMLDRBLK
  1

  9
$DIMLUNIT
 70
     2
  9
$DIMLWD
 70
    -2
  9
$DIMLWE
 70
    -2
  9
$DIMTMOVE
 70
     0
  9
$LUNITS
 70
     2
  9
$LUPREC
 70
     4
  9
$SKETCHINC
 40
0.1
  9
$FILLETRAD
 40
0.5
  9
$AUNITS
 70
     0
  9
$AUPREC
 70
     0
  9
$MENU
  1
.
  9
$ELEVATION
 40
0.0
  9
$PELEVATION
 40
0.0
  9
$THICKNESS
 40
0.0
  9
$LIMCHECK
 70
     0
  9
$CHAMFERA
 40
0.5
  9
$CHAMFERB
 40
0.5
  9
$CHAMFERC
 40
1.0
  9
$CHAMFERD
 40
0.0
  9
$SKPOLY
 70
     0
  9
$TDCREATE
 40
2454623.419407662
  9
$TDUCREATE
 40
2454623.336074329
  9
$TDUPDATE
 40
2454623.419407674
  9
$TDUUPDATE
 40
2454623.33607434
  9
$TDINDWG
 40
0.0000000116
  9
$TDUSRTIMER
 40
0.0000000116
  9
$USRTIMER
 70
     1
  9
$ANGBASE
 50
0.0
  9
$ANGDIR
 70
     0
  9
$PDMODE
 70
     0
  9
$PDSIZE
 40
0.0
  9
$PLINEWID
 40
0.0
  9
$SPLFRAME
 70
     0
  9
$SPLINETYPE
 70
     6
  9
$SPLINESEGS
 70
     8
  9
$HANDSEED
  5
238
  9
$SURFTAB1
 70
     6
  9
$SURFTAB2
 70
     6
  9
$SURFTYPE
 70
     6
  9
$SURFU
 70
     6
  9
$SURFV
 70
     6
  9
$UCSBASE
  2

  9
$UCSNAME
  2

  9
$UCSORG
 10
0.0
 20
0.0
 30
0.0
  9
$UCSXDIR
 10
1.0
 20
0.0
 30
0.0
  9
$UCSYDIR
 10
0.0
 20
1.0
 30
0.0
  9
$UCSORTHOREF
  2

  9
$UCSORTHOVIEW
 70
     0
  9
$UCSORGTOP
 10
0.0
 20
0.0
 30
0.0
  9
$UCSORGBOTTOM
 10
0.0
 20
0.0
 30
0.0
  9
$UCSORGLEFT
 10
0.0
 20
0.0
 30
0.0
  9
$UCSORGRIGHT
 10
0.0
 20
0.0
 30
0.0
  9
$UCSORGFRONT
 10
0.0
 20
0.0
 30
0.0
  9
$UCSORGBACK
 10
0.0
 20
0.0
 30
0.0
  9
$PUCSBASE
  2

  9
$PUCSNAME
  2

  9
$PUCSORG
 10
0.0
 20
0.0
 30
0.0
  9
$PUCSXDIR
 10
1.0
 20
0.0
 30
0.0
  9
$PUCSYDIR
 10
0.0
 20
1.0
 30
0.0
  9
$PUCSORTHOREF
  2

  9
$PUCSORTHOVIEW
 70
     0
  9
$PUCSORGTOP
 10
0.0
 20
0.0
 30
0.0
  9
$PUCSORGBOTTOM
 10
0.0
 20
0.0
 30
0.0
  9
$PUCSORGLEFT
 10
0.0
 20
0.0
 30
0.0
  9
$PUCSORGRIGHT
 10
0.0
 20
0.0
 30
0.0
  9
$PUCSORGFRONT
 10
0.0
 20
0.0
 30
0.0
  9
$PUCSORGBACK
 10
0.0
 20
0.0
 30
0.0
  9
$USERI1
 70
     0
  9
$USERI2
 70
     0
  9
$USERI3
 70
     0
  9
$USERI4
 70
     0
  9
$USERI5
 70
     0
  9
$USERR1
 40
14.5
  9
$USERR2
 40
0.0
  9
$USERR3
 40
0.0
  9
$USERR4
 40
0.0
  9
$USERR5
 40
0.0
  9
$WORLDVIEW
 70
     1
  9
$SHADEDGE
 70
     3
  9
$SHADEDIF
 70
    70
  9
$TILEMODE
 70
     1
  9
$MAXACTVP
 70
    64
  9
$PINSBASE
 10
0.0
 20
0.0
 30
0.0
  9
$PLIMCHECK
 70
     0
  9
$PEXTMIN
 10
1.00000000000000E+20
 20
1.00000000000000E+20
 30
1.00000000000000E+20
  9
$PEXTMAX
 10
-1.00000000000000E+20
 20
-1.00000000000000E+20
 30
-1.00000000000000E+20
  9
$PLIMMIN
 10
0.0
 20
0.0
  9
$PLIMMAX
 10
12.0
 20
9.0
  9
$UNITMODE
 70
     0
  9
$VISRETAIN
 70
     1
  9
$PLINEGEN
 70
     0
  9
$PSLTSCALE
 70
     1
  9
$TREEDEPTH
 70
  3020
  9
$CMLSTYLE
  2
Standard
  9
$CMLJUST
 70
     0
  9
$CMLSCALE
 40
1.0
  9
$PROXYGRAPHICS
 70
     1
  9
$MEASUREMENT
 70
     1
  9
$CELWEIGHT
370
    -1
  9
$ENDCAPS
280
     0
  9
$JOINSTYLE
280
     0
  9
$LWDISPLAY
290
     0
  9
$INSUNITS
 70
     1
  9
$HYPERLINKBASE
  1

  9
$STYLESHEET
  1

  9
$XEDIT
290
     1
  9
$CEPSNTYPE
380
     0
  9
$PSTYLEMODE
290
     1
  9
$FINGERPRINTGUID
  2
{7F1663F3-0DDD-4E28-9A6A-4CCD2C906B04}
  9
$VERSIONGUID
  2
{FAEB1C32-E019-11D5-929B-00C0DF256EC4}
  9
$EXTNAMES
290
     1
  9
$PSVPSCALE
 40
0.0
  9
$OLESTARTUP
290
     0
  9
$SORTENTS
280
   127
  9
$INDEXCTL
280
     0
  9
$HIDETEXT
280
     1
  9
$XCLIPFRAME
290
     0
  9
$HALOGAP
280
     0
  9
$OBSCOLOR
 70
   257
  9
$OBSLTYPE
280
     0
  9
$INTERSECTIONDISPLAY
280
     0
  9
$INTERSECTIONCOLOR
 70
   257
  9
$DIMASSOC
280
     2
  9
$PROJECTNAME
  1

  0
ENDSEC
  0
SECTION
  2
CLASSES
  0
CLASS
  1
ACDBDICTIONARYWDFLT
  2
AcDbDictionaryWithDefault
  3
ObjectDBX Classes
 90
        0
 91
        3
280
     0
281
     0
  0
CLASS
  1

  2
exOdDbCircle
  3

 90
        0
 91
        3
280
     0
281
     1
  0
ENDSEC
  0
SECTION
  2
TABLES
  0
TABLE
  2
VPORT
  5
8
330
0
100
AcDbSymbolTable
 70
     1
  0
VPORT
  5
29
330
8
100
AcDbSymbolTableRecord
100
AcDbViewportTableRecord
  2
*Active
 70
     0
 10
0.0
 20
0.0
 11
1.0
 21
1.0
 12
-8.79671328095991
 22
-7.68371189433715
 13
0.0
 23
0.0
 14
0.5
 24
0.5
 15
0.5
 25
0.5
 16
0.0
 26
0.0
 36
1.0
 17
0.0
 27
0.0
 37
0.0
 40
268.5948260980949
 41
1.60267857142857
 42
50.0
 43
0.0
 44
0.0
 50
0.0
 51
0.0
 71
     0
 72
   100
 73
     1
 74
     3
 75
     0
 76
     0
 77
     0
 78
     0
281
     0
 65
     1
110
0.0
120
0.0
130
0.0
111
1.0
121
0.0
131
0.0
112
0.0
122
1.0
132
0.0
 79
     0
146
0.0
  0
ENDTAB
  0
TABLE
  2
LTYPE
  5
5
330
0
100
AcDbSymbolTable
 70
     8
  0
LTYPE
  5
14
330
5
100
AcDbSymbolTableRecord
100
AcDbLinetypeTableRecord
  2
ByBlock
 70
     0
  3

 72
    65
 73
     0
 40
0.0
  0
LTYPE
  5
15
330
5
100
AcDbSymbolTableRecord
100
AcDbLinetypeTableRecord
  2
ByLayer
 70
     0
  3

 72
    65
 73
     0
 40
0.0
  0
LTYPE
  5
16
330
5
100
AcDbSymbolTableRecord
100
AcDbLinetypeTableRecord
  2
Continuous
 70
     0
  3
Solid line
 72
    65
 73
     0
 40
0.0
  0
LTYPE
  5
2A
330
5
100
AcDbSymbolTableRecord
100
AcDbLinetypeTableRecord
  2
DASHED
 70
     0
  3
Dashed
 72
    65
 73
     2
 40
15.0
 49
7.0
 74
     0
 49
-8.0
 74
     0
  0
LTYPE
  5
2B
330
5
100
AcDbSymbolTableRecord
100
AcDbLinetypeTableRecord
  2
DOTTED
 70
     0
  3
Dotted
 72
    65
 73
     2
 40
1.0
 49
0.0
 74
     0
 49
-1.0
 74
     0
  0
LTYPE
  5
2C
330
5
100
AcDbSymbolTableRecord
100
AcDbLinetypeTableRecord
  2
DOT_CENTER
 70
     0
  3
Dot_Center
 72
    65
 73
     4
 40
14.0
 49
12.0
 74
     0
 49
-1.0
 74
     0
 49
0.0
 74
     0
 49
-1.0
 74
     0
  0
LTYPE
  5
2D
330
5
100
AcDbSymbolTableRecord
100
AcDbLinetypeTableRecord
  2
LONG_DASHED
 70
     0
  3
Long_Dashed
 72
    65
 73
     2
 40
15.0
 49
10.0
 74
     0
 49
-5.0
 74
     0
  0
LTYPE
  5
2E
330
5
100
AcDbSymbolTableRecord
100
AcDbLinetypeTableRecord
  2
DASH_CENTER
 70
     0
  3
Dash_Center
 72
    65
 73
     4
 40
14.0
 49
11.0
 74
     0
 49
-1.0
 74
     0
 49
1.0
 74
     0
 49
-1.0
 74
     0
  0
LTYPE
  5
2F
330
5
100
AcDbSymbolTableRecord
100
AcDbLinetypeTableRecord
  2
PHANTOM
 70
     0
  3
Phantom
 72
    65
 73
     6
 40
13.0
 49
10.0
 74
     0
 49
-1.0
 74
     0
 49
0.0
 74
     0
 49
-1.0
 74
     0
 49
0.0
 74
     0
 49
-1.0
 74
     0
  0
LTYPE
  5
30
330
5
100
AcDbSymbolTableRecord
100
AcDbLinetypeTableRecord
  2
CENTER_DASH_DASH
 70
     0
  3
Center_Dash_Dash
 72
    65
 73
     6
 40
14.0
 49
9.0
 74
     0
 49
-1.0
 74
     0
 49
1.0
 74
     0
 49
-1.0
 74
     0
 49
1.0
 74
     0
 49
-1.0
 74
     0
  0
ENDTAB
  0
TABLE
  2
LAYER
  5
2
330
0
100
AcDbSymbolTable
 70
     2
  0
LAYER
  5
10
330
2
100
AcDbSymbolTableRecord
100
AcDbLayerTableRecord
  2
0
 70
     0
 62
     7
  6
Continuous
370
    -3
390
F
  0
LAYER
  5
31
330
2
100
AcDbSymbolTableRecord
100
AcDbLayerTableRecord
  2
1
 70
     0
 62
     7
  6
Continuous
370
    -3
390
F
  0
ENDTAB
  0
TABLE
  2
STYLE
  5
3
330
0
100
AcDbSymbolTable
 70
     2
  0
STYLE
  5
11
330
3
100
AcDbSymbolTableRecord
100
AcDbTextStyleTableRecord
  2
Standard
 70
     0
 40
0.0
 41
1.0
 50
0.0
 71
     0
 42
0.2
  3
txt
  4

  0
STYLE
  5
123
330
3
100
AcDbSymbolTableRecord
100
AcDbTextStyleTableRecord
  2
CONVERTER_11
 70
     0
 40
0.0
 41
0.9
 50
0.0
 71
     0
 42
0.2
  3
txt.shx
  4

  0
ENDTAB
  0
TABLE
  2
VIEW
  5
6
330
0
100
AcDbSymbolTable
 70
     0
  0
ENDTAB
  0
TABLE
  2
UCS
  5
7
330
0
100
AcDbSymbolTable
 70
     0
  0
ENDTAB
  0
TABLE
  2
APPID
  5
9
330
0
100
AcDbSymbolTable
 70
     1
  0
APPID
  5
12
330
9
100
AcDbSymbolTableRecord
100
AcDbRegAppTableRecord
  2
ACAD
 70
     0
  0
ENDTAB
  0
TABLE
  2
DIMSTYLE
  5
A
330
0
100
AcDbSymbolTable
 70
    22
100
AcDbDimStyleTable
  0
DIMSTYLE
105
27
330
A
100
AcDbSymbolTableRecord
100
AcDbDimStyleTableRecord
  2
Standard
 70
     0
340
11
  0
DIMSTYLE
105
132
102
{ACAD_REACTORS
330
133
102
}
330
A
100
AcDbSymbolTableRecord
100
AcDbDimStyleTableRecord
  2
ME10_DIM_10
 70
     0
 41
3.5
 42
0.0
 44
2.0
 73
     0
 74
     0
 77
     1
 78
     8
140
3.5
147
2.0
172
     1
173
     1
176
     2
177
     2
178
     2
271
     3
340
123
  0
DIMSTYLE
105
13D
102
{ACAD_REACTORS
330
13E
102
}
330
A
100
AcDbSymbolTableRecord
100
AcDbDimStyleTableRecord
  2
ME10_DIM_11
 70
     0
 41
3.5
 42
0.0
 44
2.0
 73
     0
 74
     0
 77
     1
 78
     8
140
3.5
147
2.0
172
     1
173
     1
176
     2
177
     2
178
     2
271
     3
340
123
  0
DIMSTYLE
105
148
102
{ACAD_REACTORS
330
149
102
}
330
A
100
AcDbSymbolTableRecord
100
AcDbDimStyleTableRecord
  2
ME10_DIM_12
 70
     0
 41
3.5
 42
0.0
 44
2.0
 73
     0
 74
     0
 77
     1
 78
     8
140
3.5
147
2.0
172
     1
173
     1
176
     2
177
     2
178
     2
271
     3
340
123
  0
DIMSTYLE
105
153
102
{ACAD_REACTORS
330
154
102
}
330
A
100
AcDbSymbolTableRecord
100
AcDbDimStyleTableRecord
  2
ME10_DIM_13
 70
     0
 41
3.5
 42
0.0
 44
2.0
 73
     0
 74
     0
 77
     1
 78
     8
140
3.5
147
2.0
172
     1
173
     1
176
     2
177
     2
178
     2
271
     3
340
123
  0
DIMSTYLE
105
15E
102
{ACAD_REACTORS
330
15F
102
}
330
A
100
AcDbSymbolTableRecord
100
AcDbDimStyleTableRecord
  2
ME10_DIM_14
 70
     0
 41
3.5
 42
0.0
 44
2.0
 73
     0
 74
     0
 77
     1
 78
     8
140
3.5
147
2.0
172
     1
173
     1
176
     2
177
     2
178
     2
271
     3
340
123
  0
DIMSTYLE
105
16B
102
{ACAD_REACTORS
330
16C
102
}
330
A
100
AcDbSymbolTableRecord
100
AcDbDimStyleTableRecord
  2
ME10_DIM_15
 70
     0
 41
3.5
 42
0.0
 44
2.0
 73
     0
 74
     0
 77
     1
 78
     8
140
3.5
147
2.0
172
     1
173
     1
176
     2
177
     2
178
     2
271
     3
340
123
  0
DIMSTYLE
105
176
102
{ACAD_REACTORS
330
177
102
}
330
A
100
AcDbSymbolTableRecord
100
AcDbDimStyleTableRecord
  2
ME10_DIM_16
 70
     0
 41
3.5
 42
0.0
 44
2.0
 73
     0
 74
     0
 77
     1
 78
     8
140
3.5
147
2.0
172
     1
173
     1
176
     2
177
     2
178
     2
271
     3
340
123
  0
DIMSTYLE
105
183
102
{ACAD_REACTORS
330
184
102
}
330
A
100
AcDbSymbolTableRecord
100
AcDbDimStyleTableRecord
  2
ME10_DIM_17
 70
     0
 41
3.5
 42
0.0
 44
2.0
 73
     0
 74
     0
 77
     1
 78
     8
140
3.5
147
2.0
172
     1
173
     1
176
     2
177
     2
178
     2
271
     2
340
123
  0
DIMSTYLE
105
18E
102
{ACAD_REACTORS
330
18F
102
}
330
A
100
AcDbSymbolTableRecord
100
AcDbDimStyleTableRecord
  2
ME10_DIM_18
 70
     0
 41
3.5
 42
0.0
 44
2.0
 73
     0
 74
     0
 77
     1
 78
     8
140
3.5
147
2.0
172
     1
173
     1
176
     2
177
     2
178
     2
271
     2
340
123
  0
DIMSTYLE
105
199
102
{ACAD_REACTORS
330
19A
102
}
330
A
100
AcDbSymbolTableRecord
100
AcDbDimStyleTableRecord
  2
ME10_DIM_19
 70
     0
 41
3.5
 42
0.0
 44
2.0
 73
     0
 74
     0
 77
     1
 78
     8
140
3.5
147
2.0
172
     1
173
     1
176
     2
177
     2
178
     2
271
     2
340
123
  0
DIMSTYLE
105
1A4
102
{ACAD_REACTORS
330
1A5
102
}
330
A
100
AcDbSymbolTableRecord
100
AcDbDimStyleTableRecord
  2
ME10_DIM_20
 70
     0
 41
3.5
 42
0.0
 44
2.0
 73
     0
 74
     0
 77
     1
 78
     8
140
3.5
147
2.0
172
     1
173
     1
176
     2
177
     2
178
     2
271
     3
340
123
  0
DIMSTYLE
105
1AF
102
{ACAD_REACTORS
330
1B0
102
}
330
A
100
AcDbSymbolTableRecord
100
AcDbDimStyleTableRecord
  2
ME10_DIM_21
 70
     0
 41
3.5
 42
0.0
 44
2.0
 73
     0
 74
     0
 77
     1
 78
     8
140
3.5
147
2.0
172
     1
173
     1
176
     2
177
     2
178
     2
271
     3
340
123
  0
DIMSTYLE
105
1BA
102
{ACAD_REACTORS
330
1BB
102
}
330
A
100
AcDbSymbolTableRecord
100
AcDbDimStyleTableRecord
  2
ME10_DIM_22
 70
     0
 41
3.5
 42
0.0
 44
2.0
 73
     0
 74
     0
 77
     1
 78
     8
140
3.5
147
2.0
172
     1
173
     1
176
     2
177
     2
178
     2
271
     3
340
123
  0
DIMSTYLE
105
1C5
102
{ACAD_REACTORS
330
1C6
102
}
330
A
100
AcDbSymbolTableRecord
100
AcDbDimStyleTableRecord
  2
ME10_DIM_23
 70
     0
 41
3.5
 42
0.0
 44
2.0
 73
     0
 74
     0
 77
     1
 78
     8
140
3.5
147
2.0
172
     1
173
     1
176
     2
177
     2
178
     2
271
     3
340
123
  0
DIMSTYLE
105
1D0
102
{ACAD_REACTORS
330
1D1
102
}
330
A
100
AcDbSymbolTableRecord
100
AcDbDimStyleTableRecord
  2
ME10_DIM_24
 70
     0
 41
3.5
 42
0.0
 44
2.0
 73
     0
 74
     0
 77
     1
 78
     8
140
3.5
147
2.0
172
     1
173
     1
176
     2
177
     2
178
     2
271
     3
340
123
  0
DIMSTYLE
105
1DB
102
{ACAD_REACTORS
330
1DC
102
}
330
A
100
AcDbSymbolTableRecord
100
AcDbDimStyleTableRecord
  2
ME10_DIM_25
 70
     0
 41
3.5
 42
0.0
 44
2.0
 73
     0
 74
     0
 77
     1
 78
     8
140
3.5
147
2.0
172
     1
173
     1
176
     2
177
     2
178
     2
271
     3
340
123
  0
DIMSTYLE
105
1E8
102
{ACAD_REACTORS
330
1E9
102
}
330
A
100
AcDbSymbolTableRecord
100
AcDbDimStyleTableRecord
  2
ME10_DIM_26
 70
     0
 41
3.5
 42
0.0
 44
2.0
 73
     0
 74
     0
 77
     1
 78
     8
140
3.5
147
2.0
172
     1
173
     1
176
     2
177
     2
178
     2
271
     3
340
123
  0
DIMSTYLE
105
1F3
102
{ACAD_REACTORS
330
1F4
102
}
330
A
100
AcDbSymbolTableRecord
100
AcDbDimStyleTableRecord
  2
ME10_DIM_27
 70
     0
 41
3.5
 42
0.0
 44
2.0
 73
     0
 74
     0
 77
     1
 78
     8
140
3.5
147
2.0
172
     1
173
     1
176
     2
177
     2
178
     2
271
     3
340
123
  0
DIMSTYLE
105
1FE
102
{ACAD_REACTORS
330
1FF
102
}
330
A
100
AcDbSymbolTableRecord
100
AcDbDimStyleTableRecord
  2
ME10_DIM_28
 70
     0
 41
3.5
 42
0.0
 44
2.0
 73
     0
 74
     0
 77
     1
 78
     8
140
3.5
147
2.0
172
     1
173
     1
176
     2
177
     2
178
     2
271
     3
340
123
  0
DIMSTYLE
105
20B
102
{ACAD_REACTORS
330
20C
102
}
330
A
100
AcDbSymbolTableRecord
100
AcDbDimStyleTableRecord
  2
ME10_DIM_29
 70
     0
 41
3.5
 42
0.0
 44
2.0
 73
     0
 74
     0
 77
     1
 78
     8
140
3.5
147
2.0
172
     1
173
     1
176
     2
177
     2
178
     2
271
     3
340
123
  0
DIMSTYLE
105
216
102
{ACAD_REACTORS
330
217
102
}
330
A
100
AcDbSymbolTableRecord
100
AcDbDimStyleTableRecord
  2
ME10_DIM_30
 70
     0
 41
3.5
 42
0.0
 44
2.0
 73
     0
 74
     0
 77
     1
 78
     8
140
3.5
147
2.0
172
     1
173
     1
176
     2
177
     2
178
     2
271
     3
340
123
  0
ENDTAB
  0
TABLE
  2
BLOCK_RECORD
  5
1
330
0
100
AcDbSymbolTable
 70
    26
  0
BLOCK_RECORD
  5
1F
330
1
100
AcDbSymbolTableRecord
100
AcDbBlockTableRecord
  2
*Model_Space
340
22
  0
BLOCK_RECORD
  5
1B
330
1
100
AcDbSymbolTableRecord
100
AcDbBlockTableRecord
  2
*Paper_Space
340
1E
  0
BLOCK_RECORD
  5
23
330
1
100
AcDbSymbolTableRecord
100
AcDbBlockTableRecord
  2
*Paper_Space0
340
26
  0
BLOCK_RECORD
  5
127
330
1
100
AcDbSymbolTableRecord
100
AcDbBlockTableRecord
  2
*D1
340
0
  0
BLOCK_RECORD
  5
134
330
1
100
AcDbSymbolTableRecord
100
AcDbBlockTableRecord
  2
*D2
340
0
  0
BLOCK_RECORD
  5
13F
330
1
100
AcDbSymbolTableRecord
100
AcDbBlockTableRecord
  2
*D3
340
0
  0
BLOCK_RECORD
  5
14A
330
1
100
AcDbSymbolTableRecord
100
AcDbBlockTableRecord
  2
*D4
340
0
  0
BLOCK_RECORD
  5
155
330
1
100
AcDbSymbolTableRecord
100
AcDbBlockTableRecord
  2
*D5
340
0
  0
BLOCK_RECORD
  5
160
330
1
100
AcDbSymbolTableRecord
100
AcDbBlockTableRecord
  2
*D6
340
0
  0
BLOCK_RECORD
  5
16D
330
1
100
AcDbSymbolTableRecord
100
AcDbBlockTableRecord
  2
*D7
340
0
  0
BLOCK_RECORD
  5
178
330
1
100
AcDbSymbolTableRecord
100
AcDbBlockTableRecord
  2
*D8
340
0
  0
BLOCK_RECORD
  5
185
330
1
100
AcDbSymbolTableRecord
100
AcDbBlockTableRecord
  2
*D9
340
0
  0
BLOCK_RECORD
  5
190
330
1
100
AcDbSymbolTableRecord
100
AcDbBlockTableRecord
  2
*D10
340
0
  0
BLOCK_RECORD
  5
19B
330
1
100
AcDbSymbolTableRecord
100
AcDbBlockTableRecord
  2
*D11
340
0
  0
BLOCK_RECORD
  5
1A6
330
1
100
AcDbSymbolTableRecord
100
AcDbBlockTableRecord
  2
*D12
340
0
  0
BLOCK_RECORD
  5
1B1
330
1
100
AcDbSymbolTableRecord
100
AcDbBlockTableRecord
  2
*D13
340
0
  0
BLOCK_RECORD
  5
1BC
330
1
100
AcDbSymbolTableRecord
100
AcDbBlockTableRecord
  2
*D14
340
0
  0
BLOCK_RECORD
  5
1C7
330
1
100
AcDbSymbolTableRecord
100
AcDbBlockTableRecord
  2
*D15
340
0
  0
BLOCK_RECORD
  5
1D2
330
1
100
AcDbSymbolTableRecord
100
AcDbBlockTableRecord
  2
*D16
340
0
  0
BLOCK_RECORD
  5
1DD
330
1
100
AcDbSymbolTableRecord
100
AcDbBlockTableRecord
  2
*D17
340
0
  0
BLOCK_RECORD
  5
1EA
330
1
100
AcDbSymbolTableRecord
100
AcDbBlockTableRecord
  2
*D18
340
0
  0
BLOCK_RECORD
  5
1F5
330
1
100
AcDbSymbolTableRecord
100
AcDbBlockTableRecord
  2
*D19
340
0
  0
BLOCK_RECORD
  5
200
330
1
100
AcDbSymbolTableRecord
100
AcDbBlockTableRecord
  2
*D20
340
0
  0
BLOCK_RECORD
  5
20D
330
1
100
AcDbSymbolTableRecord
100
AcDbBlockTableRecord
  2
*D21
340
0
  0
BLOCK_RECORD
  5
218
330
1
100
AcDbSymbolTableRecord
100
AcDbBlockTableRecord
  2
*D22
340
0
102
{BLKREFS
331
21E
102
}
  0
BLOCK_RECORD
  5
21F
330
1
100
AcDbSymbolTableRecord
100
AcDbBlockTableRecord
  2
*D23
340
0
102
{BLKREFS
331
226
102
}
  0
BLOCK_RECORD
  5
227
330
1
100
AcDbSymbolTableRecord
100
AcDbBlockTableRecord
  2
*D24
340
0
102
{BLKREFS
331
22E
102
}
  0
BLOCK_RECORD
  5
22F
330
1
100
AcDbSymbolTableRecord
100
AcDbBlockTableRecord
  2
*D25
340
0
102
{BLKREFS
331
237
102
}
  0
ENDTAB
  0
ENDSEC
  0
SECTION
  2
BLOCKS
  0
BLOCK
  5
20
330
1F
100
AcDbEntity
  8
0
100
AcDbBlockBegin
  2
*Model_Space
 70
     0
 71
     0
 10
0.0
 20
0.0
 30
0.0
  3
*Model_Space
  1

  0
ENDBLK
  5
21
330
1F
100
AcDbEntity
  8
0
100
AcDbBlockEnd
  0
BLOCK
  5
1C
330
1B
100
AcDbEntity
 67
     1
  8
0
100
AcDbBlockBegin
  2
*Paper_Space
 70
     0
 71
     0
 10
0.0
 20
0.0
 30
0.0
  3
*Paper_Space
  1

  0
ENDBLK
  5
1D
330
1B
100
AcDbEntity
 67
     1
  8
0
100
AcDbBlockEnd
  0
BLOCK
  5
24
330
23
100
AcDbEntity
  8
0
100
AcDbBlockBegin
  2
*Paper_Space0
 70
     0
 71
     0
 10
0.0
 20
0.0
 30
0.0
  3
*Paper_Space0
  1

  0
ENDBLK
  5
25
330
23
100
AcDbEntity
  8
0
100
AcDbBlockEnd
  0
BLOCK
  5
130
330
127
100
AcDbEntity
  8
0
100
AcDbBlockBegin
  2
*D1
 70
     1
 71
     0
 10
0.0
 20
0.0
 30
0.0
  3
*D1
  1

  0
LINE
  5
128
330
127
100
AcDbEntity
  8
1
  6
Continuous
 62
     2
100
AcDbLine
 10
98.69860034321128
 20
83.2105310942362
 30
0.0
 11
105.6986003432113
 21
83.2105310942362
 31
0.0
  0
LINE
  5
129
330
127
100
AcDbEntity
  8
1
  6
Continuous
 62
     2
100
AcDbLine
 10
91.69860034321128
 20
83.2105310942362
 30
0.0
 11
98.69860034321128
 21
83.2105310942362
 31
0.0
  0
LINE
  5
12A
330
127
100
AcDbEntity
  8
1
  6
Continuous
 62
     2
100
AcDbLine
 10
84.69860034321128
 20
83.2105310942362
 30
0.0
 11
91.69860034321128
 21
83.2105310942362
 31
0.0
  0
LINE
  5
12B
330
127
100
AcDbEntity
  8
1
  6
Continuous
 62
     2
100
AcDbLine
 10
98.69860034321128
 20
63.62660009231135
 30
0.0
 11
98.69860034321128
 21
85.2105310942362
 31
0.0
  0
LINE
  5
12C
330
127
100
AcDbEntity
  8
1
  6
Continuous
 62
     2
100
AcDbLine
 10
91.69860034321128
 20
70.62660009231135
 30
0.0
 11
91.69860034321128
 21
85.2105310942362
 31
0.0
  0
SOLID
  5
12D
330
127
100
AcDbEntity
  8
1
 62
     2
100
AcDbTrace
 10
88.19860034321128
 20
82.74974735268032
 30
0.0
 11
88.19860034321128
 21
83.67131483579209
 31
0.0
 12
91.69860034321128
 22
83.2105310942362
 32
0.0
 13
91.69860034321128
 23
83.2105310942362
 33
0.0
  0
SOLID
  5
12E
330
127
100
AcDbEntity
  8
1
 62
     2
100
AcDbTrace
 10
102.1986003432113
 20
83.67131483579209
 30
0.0
 11
102.1986003432113
 21
82.74974735268032
 31
0.0
 12
98.69860034321128
 22
83.2105310942362
 32
0.0
 13
98.69860034321128
 23
83.2105310942362
 33
0.0
  0
MTEXT
  5
12F
330
127
100
AcDbEntity
  8
1
 62
     2
100
AcDbMText
 10
93.7748530183153
 20
85.2105310942362
 30
0.0
 40
3.5
 41
0.0
 71
     7
 72
     1
  1
7
  7
CONVERTER_11
 11
0.9999999999970621
 21
2.424068405545307E-6
 31
0.0
 73
     1
 44
0.60024009603842
  0
ENDBLK
  5
131
330
127
100
AcDbEntity
  8
0
100
AcDbBlockEnd
  0
BLOCK
  5
13B
330
134
100
AcDbEntity
  8
0
100
AcDbBlockBegin
  2
*D2
 70
     1
 71
     0
 10
0.0
 20
0.0
 30
0.0
  3
*D2
  1

  0
LINE
  5
135
330
134
100
AcDbEntity
  8
1
  6
Continuous
 62
     2
100
AcDbLine
 10
127.703068112831
 20
-57.62339990768865
 30
0.0
 11
127.703068112831
 21
68.37660009231135
 31
0.0
  0
LINE
  5
136
330
134
100
AcDbEntity
  8
1
  6
Continuous
 62
     2
100
AcDbLine
 10
93.94860034321128
 20
68.37660009231135
 30
0.0
 11
129.703068112831
 21
68.37660009231135
 31
0.0
  0
LINE
  5
137
330
134
100
AcDbEntity
  8
1
  6
Continuous
 62
     2
100
AcDbLine
 10
93.94860034321128
 20
-57.62339990768865
 30
0.0
 11
129.703068112831
 21
-57.62339990768865
 31
0.0
  0
SOLID
  5
138
330
134
100
AcDbEntity
  8
1
 62
     2
100
AcDbTrace
 10
127.2422843712751
 20
-54.12339990768865
 30
0.0
 11
128.1638518543869
 21
-54.12339990768865
 31
0.0
 12
127.703068112831
 22
-57.62339990768865
 32
0.0
 13
127.703068112831
 23
-57.62339990768865
 33
0.0
  0
SOLID
  5
139
330
134
100
AcDbEntity
  8
1
 62
     2
100
AcDbTrace
 10
128.1638518543869
 20
64.87660009231135
 30
0.0
 11
127.2422843712751
 21
64.87660009231135
 31
0.0
 12
127.703068112831
 22
68.37660009231135
 32
0.0
 13
127.703068112831
 23
68.37660009231135
 33
0.0
  0
MTEXT
  5
13A
330
134
100
AcDbEntity
  8
1
 62
     2
100
AcDbMText
 10
125.703068112831
 20
5.09059273158716
 30
0.0
 40
3.5
 41
0.0
 71
     7
 72
     1
  1
126
  7
CONVERTER_11
 11
0.0
 21
1.0
 31
0.0
 73
     1
 44
0.60024009603842
  0
ENDBLK
  5
13C
330
134
100
AcDbEntity
  8
0
100
AcDbBlockEnd
  0
BLOCK
  5
146
330
13F
100
AcDbEntity
  8
0
100
AcDbBlockBegin
  2
*D3
 70
     1
 71
     0
 10
0.0
 20
0.0
 30
0.0
  3
*D3
  1

  0
LINE
  5
140
330
13F
100
AcDbEntity
  8
1
  6
Continuous
 62
     2
100
AcDbLine
 10
121.178001368431
 20
-50.62339990768865
 30
0.0
 11
121.178001368431
 21
61.37660009231135
 31
0.0
  0
LINE
  5
141
330
13F
100
AcDbEntity
  8
1
  6
Continuous
 62
     2
100
AcDbLine
 10
100.9486003432113
 20
61.37660009231135
 30
0.0
 11
123.178001368431
 21
61.37660009231135
 31
0.0
  0
LINE
  5
142
330
13F
100
AcDbEntity
  8
1
  6
Continuous
 62
     2
100
AcDbLine
 10
100.9486003432113
 20
-50.62339990768865
 30
0.0
 11
123.178001368431
 21
-50.62339990768865
 31
0.0
  0
SOLID
  5
143
330
13F
100
AcDbEntity
  8
1
 62
     2
100
AcDbTrace
 10
121.6387851099869
 20
57.87660009231135
 30
0.0
 11
120.7172176268751
 21
57.87660009231135
 31
0.0
 12
121.178001368431
 22
61.37660009231135
 32
0.0
 13
121.178001368431
 23
61.37660009231135
 33
0.0
  0
SOLID
  5
144
330
13F
100
AcDbEntity
  8
1
 62
     2
100
AcDbTrace
 10
120.7172176268751
 20
-47.12339990768865
 30
0.0
 11
121.6387851099869
 21
-47.12339990768865
 31
0.0
 12
121.178001368431
 22
-50.62339990768865
 32
0.0
 13
121.178001368431
 23
-50.62339990768865
 33
0.0
  0
MTEXT
  5
145
330
13F
100
AcDbEntity
  8
1
 62
     2
100
AcDbMText
 10
119.178001368431
 20
3.98858309417287
 30
0.0
 40
3.5
 41
0.0
 71
     7
 72
     1
  1
112
  7
CONVERTER_11
 11
0.0
 21
1.0
 31
0.0
 73
     1
 44
0.60024009603842
  0
ENDBLK
  5
147
330
13F
100
AcDbEntity
  8
0
100
AcDbBlockEnd
  0
BLOCK
  5
151
330
14A
100
AcDbEntity
  8
0
100
AcDbBlockBegin
  2
*D4
 70
     1
 71
     0
 10
0.0
 20
0.0
 30
0.0
  3
*D4
  1

  0
LINE
  5
14B
330
14A
100
AcDbEntity
  8
1
  6
Continuous
 62
     2
100
AcDbLine
 10
86.19860034321128
 20
-101.3635996811345
 30
0.0
 11
102.1986003432113
 21
-101.3635996811345
 31
0.0
  0
LINE
  5
14C
330
14A
100
AcDbEntity
  8
1
  6
Continuous
 62
     2
100
AcDbLine
 10
102.1986003432113
 20
-31.87339990768865
 30
0.0
 11
102.1986003432113
 21
-103.3635996811345
 31
0.0
  0
LINE
  5
14D
330
14A
100
AcDbEntity
  8
1
  6
Continuous
 62
     2
100
AcDbLine
 10
86.19860034321128
 20
-55.62339990768865
 30
0.0
 11
86.19860034321128
 21
-103.3635996811345
 31
0.0
  0
SOLID
  5
14E
330
14A
100
AcDbEntity
  8
1
 62
     2
100
AcDbTrace
 10
89.69860034321128
 20
-100.9028159395786
 30
0.0
 11
89.69860034321128
 21
-101.8243834226904
 31
0.0
 12
86.19860034321128
 22
-101.3635996811345
 32
0.0
 13
86.19860034321128
 23
-101.3635996811345
 33
0.0
  0
SOLID
  5
14F
330
14A
100
AcDbEntity
  8
1
 62
     2
100
AcDbTrace
 10
98.69860034321128
 20
-101.8243834226904
 30
0.0
 11
98.69860034321128
 21
-100.9028159395786
 31
0.0
 12
102.1986003432113
 22
-101.3635996811345
 32
0.0
 13
102.1986003432113
 23
-101.3635996811345
 33
0.0
  0
MTEXT
  5
150
330
14A
100
AcDbEntity
  8
1
 62
     2
100
AcDbMText
 10
91.44541088623191
 20
-99.3635996811345
 30
0.0
 40
3.5
 41
0.0
 71
     7
 72
     1
  1
16
  7
CONVERTER_11
 11
0.9999999999970621
 21
2.424068405545307E-6
 31
0.0
 73
     1
 44
0.60024009603842
  0
ENDBLK
  5
152
330
14A
100
AcDbEntity
  8
0
100
AcDbBlockEnd
  0
BLOCK
  5
15C
330
155
100
AcDbEntity
  8
0
100
AcDbBlockBegin
  2
*D5
 70
     1
 71
     0
 10
0.0
 20
0.0
 30
0.0
  3
*D5
  1

  0
LINE
  5
156
330
155
100
AcDbEntity
  8
1
  6
Continuous
 62
     2
100
AcDbLine
 10
86.19860034321128
 20
-108.785670014645
 30
0.0
 11
104.1986003432113
 21
-108.785670014645
 31
0.0
  0
LINE
  5
157
330
155
100
AcDbEntity
  8
1
  6
Continuous
 62
     2
100
AcDbLine
 10
104.1986003432113
 20
-50.87339990768864
 30
0.0
 11
104.1986003432113
 21
-110.785670014645
 31
0.0
  0
LINE
  5
158
330
155
100
AcDbEntity
  8
1
  6
Continuous
 62
     2
100
AcDbLine
 10
86.19860034321128
 20
-55.62339990768864
 30
0.0
 11
86.19860034321128
 21
-110.785670014645
 31
0.0
  0
SOLID
  5
159
330
155
100
AcDbEntity
  8
1
 62
     2
100
AcDbTrace
 10
100.6986003432113
 20
-109.2464537562009
 30
0.0
 11
100.6986003432113
 21
-108.3248862730891
 31
0.0
 12
104.1986003432113
 22
-108.785670014645
 32
0.0
 13
104.1986003432113
 23
-108.785670014645
 33
0.0
  0
SOLID
  5
15A
330
155
100
AcDbEntity
  8
1
 62
     2
100
AcDbTrace
 10
89.69860034321128
 20
-108.3248862730891
 30
0.0
 11
89.69860034321128
 21
-109.2464537562009
 31
0.0
 12
86.19860034321128
 22
-108.785670014645
 32
0.0
 13
86.19860034321128
 23
-108.785670014645
 33
0.0
  0
MTEXT
  5
15B
330
155
100
AcDbEntity
  8
1
 62
     2
100
AcDbMText
 10
92.0239768395748
 20
-106.785670014645
 30
0.0
 40
3.5
 41
0.0
 71
     7
 72
     1
  1
18
  7
CONVERTER_11
 11
0.9999999999970621
 21
2.424068405545307E-6
 31
0.0
 73
     1
 44
0.60024009603842
  0
ENDBLK
  5
15D
330
155
100
AcDbEntity
  8
0
100
AcDbBlockEnd
  0
BLOCK
  5
169
330
160
100
AcDbEntity
  8
0
100
AcDbBlockBegin
  2
*D6
 70
     1
 71
     0
 10
0.0
 20
0.0
 30
0.0
  3
*D6
  1

  0
LINE
  5
161
330
160
100
AcDbEntity
  8
1
  6
Continuous
 62
     2
100
AcDbLine
 10
8.61444734521251
 20
-62.69793997026299
 30
0.0
 11
8.61444734521251
 21
-55.69793997026299
 31
0.0
  0
LINE
  5
162
330
160
100
AcDbEntity
  8
1
  6
Continuous
 62
     2
100
AcDbLine
 10
8.61444734521251
 20
-66.6979399702632
 30
0.0
 11
8.61444734521251
 21
-62.69793997026299
 31
0.0
  0
LINE
  5
163
330
160
100
AcDbEntity
  8
1
  6
Continuous
 62
     2
100
AcDbLine
 10
8.61444734521251
 20
-73.6979399702632
 30
0.0
 11
8.61444734521251
 21
-66.6979399702632
 31
0.0
  0
LINE
  5
164
330
160
100
AcDbEntity
  8
1
  6
Continuous
 62
     2
100
AcDbLine
 10
12.38679367266663
 20
-62.69793997026299
 30
0.0
 11
6.61444734521251
 21
-62.69793997026299
 31
0.0
  0
LINE
  5
165
330
160
100
AcDbEntity
  8
1
  6
Continuous
 62
     2
100
AcDbLine
 10
2.38679367266664
 20
-66.6979399702632
 30
0.0
 11
10.61444734521251
 21
-66.6979399702632
 31
0.0
  0
SOLID
  5
166
330
160
100
AcDbEntity
  8
1
 62
     2
100
AcDbTrace
 10
9.0752310867684
 20
-70.1979399702632
 30
0.0
 11
8.15366360365663
 21
-70.1979399702632
 31
0.0
 12
8.61444734521251
 22
-66.6979399702632
 32
0.0
 13
8.61444734521251
 23
-66.6979399702632
 33
0.0
  0
SOLID
  5
167
330
160
100
AcDbEntity
  8
1
 62
     2
100
AcDbTrace
 10
8.15366360365663
 20
-59.19793997026299
 30
0.0
 11
9.0752310867684
 21
-59.19793997026299
 31
0.0
 12
8.61444734521251
 22
-62.69793997026299
 32
0.0
 13
8.61444734521251
 23
-62.69793997026299
 33
0.0
  0
MTEXT
  5
168
330
160
100
AcDbEntity
  8
1
 62
     2
100
AcDbMText
 10
6.61444734521251
 20
-73.1736985766854
 30
0.0
 40
3.5
 41
0.0
 71
     7
 72
     1
  1
4
  7
CONVERTER_11
 11
0.0
 21
1.0
 31
0.0
 73
     1
 44
0.60024009603842
  0
ENDBLK
  5
16A
330
160
100
AcDbEntity
  8
0
100
AcDbBlockEnd
  0
BLOCK
  5
174
330
16D
100
AcDbEntity
  8
0
100
AcDbBlockBegin
  2
*D7
 70
     1
 71
     0
 10
0.0
 20
0.0
 30
0.0
  3
*D7
  1

  0
LINE
  5
16E
330
16D
100
AcDbEntity
  8
1
  6
Continuous
 62
     2
100
AcDbLine
 10
55.4619773579631
 20
-66.6979399702632
 30
0.0
 11
55.4619773579631
 21
-42.69793997026321
 31
0.0
  0
LINE
  5
16F
330
16D
100
AcDbEntity
  8
1
  6
Continuous
 62
     2
100
AcDbLine
 10
15.38679367266693
 20
-42.69793997026321
 30
0.0
 11
57.4619773579631
 21
-42.69793997026321
 31
0.0
  0
LINE
  5
170
330
16D
100
AcDbEntity
  8
1
  6
Continuous
 62
     2
100
AcDbLine
 10
47.38679367266684
 20
-66.6979399702632
 30
0.0
 11
57.4619773579631
 21
-66.6979399702632
 31
0.0
  0
SOLID
  5
171
330
16D
100
AcDbEntity
  8
1
 62
     2
100
AcDbTrace
 10
55.00119361640721
 20
-63.19793997026321
 30
0.0
 11
55.92276109951899
 21
-63.19793997026321
 31
0.0
 12
55.4619773579631
 22
-66.6979399702632
 32
0.0
 13
55.4619773579631
 23
-66.6979399702632
 33
0.0
  0
SOLID
  5
172
330
16D
100
AcDbEntity
  8
1
 62
     2
100
AcDbTrace
 10
55.92276109951899
 20
-46.19793997026321
 30
0.0
 11
55.00119361640721
 21
-46.19793997026321
 31
0.0
 12
55.4619773579631
 22
-42.69793997026321
 32
0.0
 13
55.4619773579631
 23
-42.69793997026321
 33
0.0
  0
MTEXT
  5
173
330
16D
100
AcDbEntity
  8
1
 62
     2
100
AcDbMText
 10
53.4619773579631
 20
-57.505976003421
 30
0.0
 40
3.5
 41
0.0
 71
     7
 72
     1
  1
24
  7
CONVERTER_11
 11
0.0
 21
1.0
 31
0.0
 73
     1
 44
0.60024009603842
  0
ENDBLK
  5
175
330
16D
100
AcDbEntity
  8
0
100
AcDbBlockEnd
  0
BLOCK
  5
181
330
178
100
AcDbEntity
  8
0
100
AcDbBlockBegin
  2
*D8
 70
     1
 71
     0
 10
0.0
 20
0.0
 30
0.0
  3
*D8
  1

  0
LINE
  5
179
330
178
100
AcDbEntity
  8
1
  6
Continuous
 62
     2
100
AcDbLine
 10
108.1986003432113
 20
-108.785670014645
 30
0.0
 11
116.500828588057
 21
-108.785670014645
 31
0.0
  0
LINE
  5
17A
330
178
100
AcDbEntity
  8
1
  6
Continuous
 62
     2
100
AcDbLine
 10
104.1986003432113
 20
-108.785670014645
 30
0.0
 11
108.1986003432113
 21
-108.785670014645
 31
0.0
  0
LINE
  5
17B
330
178
100
AcDbEntity
  8
1
  6
Continuous
 62
     2
100
AcDbLine
 10
97.19860034321128
 20
-108.785670014645
 30
0.0
 11
104.1986003432113
 21
-108.785670014645
 31
0.0
  0
LINE
  5
17C
330
178
100
AcDbEntity
  8
1
  6
Continuous
 62
     2
100
AcDbLine
 10
108.1986003432113
 20
-94.62339990768866
 30
0.0
 11
108.1986003432113
 21
-110.785670014645
 31
0.0
  0
LINE
  5
17D
330
178
100
AcDbEntity
  8
1
  6
Continuous
 62
     2
100
AcDbLine
 10
104.1986003432113
 20
-50.87339990768864
 30
0.0
 11
104.1986003432113
 21
-110.785670014645
 31
0.0
  0
SOLID
  5
17E
330
178
100
AcDbEntity
  8
1
 62
     2
100
AcDbTrace
 10
100.6986003432113
 20
-109.2464537562009
 30
0.0
 11
100.6986003432113
 21
-108.3248862730891
 31
0.0
 12
104.1986003432113
 22
-108.785670014645
 32
0.0
 13
104.1986003432113
 23
-108.785670014645
 33
0.0
  0
SOLID
  5
17F
330
178
100
AcDbEntity
  8
1
 62
     2
100
AcDbTrace
 10
111.6986003432113
 20
-108.3248862730891
 30
0.0
 11
111.6986003432113
 21
-109.2464537562009
 31
0.0
 12
108.1986003432113
 22
-108.785670014645
 32
0.0
 13
108.1986003432113
 23
-108.785670014645
 33
0.0
  0
MTEXT
  5
180
330
178
100
AcDbEntity
  8
1
 62
     2
100
AcDbMText
 10
114.400828588057
 20
-106.785670014645
 30
0.0
 40
3.5
 41
0.0
 71
     7
 72
     1
  1
4
  7
CONVERTER_11
 11
0.9999999999970621
 21
2.424068405545307E-6
 31
0.0
 73
     1
 44
0.60024009603842
  0
ENDBLK
  5
182
330
178
100
AcDbEntity
  8
0
100
AcDbBlockEnd
  0
BLOCK
  5
18C
330
185
100
AcDbEntity
  8
0
100
AcDbBlockBegin
  2
*D9
 70
     1
 71
     0
 10
0.0
 20
0.0
 30
0.0
  3
*D9
  1

  0
LINE
  5
186
330
185
100
AcDbEntity
  8
1
  6
Continuous
 62
     2
100
AcDbLine
 10
159.9119338369392
 20
-114.622960427562
 30
0.0
 11
184.9119338369392
 21
-114.622960427562
 31
0.0
  0
LINE
  5
187
330
185
100
AcDbEntity
  8
1
  6
Continuous
 62
     2
100
AcDbLine
 10
184.9119338369392
 20
-64.62339990768865
 30
0.0
 11
184.9119338369392
 21
-116.622960427562
 31
0.0
  0
LINE
  5
188
330
185
100
AcDbEntity
  8
1
  6
Continuous
 62
     2
100
AcDbLine
 10
159.9119338369392
 20
-39.87339990768864
 30
0.0
 11
159.9119338369392
 21
-116.622960427562
 31
0.0
  0
SOLID
  5
189
330
185
100
AcDbEntity
  8
1
 62
     2
100
AcDbTrace
 10
181.4119338369392
 20
-115.0837441691179
 30
0.0
 11
181.4119338369392
 21
-114.1621766860061
 31
0.0
 12
184.9119338369392
 22
-114.622960427562
 32
0.0
 13
184.9119338369392
 23
-114.622960427562
 33
0.0
  0
SOLID
  5
18A
330
185
100
AcDbEntity
  8
1
 62
     2
100
AcDbTrace
 10
163.4119338369392
 20
-114.1621766860061
 30
0.0
 11
163.4119338369392
 21
-115.0837441691179
 31
0.0
 12
159.9119338369392
 22
-114.622960427562
 32
0.0
 13
159.9119338369392
 23
-114.622960427562
 33
0.0
  0
MTEXT
  5
18B
330
185
100
AcDbEntity
  8
1
 62
     2
100
AcDbMText
 10
169.7475708734655
 20
-112.622960427562
 30
0.0
 40
3.5
 41
0.0
 71
     7
 72
     1
  1
25
  7
CONVERTER_11
 11
0.9999999999970621
 21
2.424068405545307E-6
 31
0.0
 73
     1
 44
0.60024009603842
  0
ENDBLK
  5
18D
330
185
100
AcDbEntity
  8
0
100
AcDbBlockEnd
  0
BLOCK
  5
197
330
190
100
AcDbEntity
  8
0
100
AcDbBlockBegin
  2
*D10
 70
     1
 71
     0
 10
0.0
 20
0.0
 30
0.0
  3
*D10
  1

  0
LINE
  5
191
330
190
100
AcDbEntity
  8
1
  6
Continuous
 62
     2
100
AcDbLine
 10
174.9119338369392
 20
-103.785670014645
 30
0.0
 11
184.9119338369392
 21
-103.785670014645
 31
0.0
  0
LINE
  5
192
330
190
100
AcDbEntity
  8
1
  6
Continuous
 62
     2
100
AcDbLine
 10
184.9119338369392
 20
-94.62339990768866
 30
0.0
 11
184.9119338369392
 21
-105.785670014645
 31
0.0
  0
LINE
  5
193
330
190
100
AcDbEntity
  8
1
  6
Continuous
 62
     2
100
AcDbLine
 10
174.9119338369392
 20
-64.62339990768865
 30
0.0
 11
174.9119338369392
 21
-105.785670014645
 31
0.0
  0
SOLID
  5
194
330
190
100
AcDbEntity
  8
1
 62
     2
100
AcDbTrace
 10
178.4119338369392
 20
-103.3248862730891
 30
0.0
 11
178.4119338369392
 21
-104.2464537562009
 31
0.0
 12
174.9119338369392
 22
-103.785670014645
 32
0.0
 13
174.9119338369392
 23
-103.785670014645
 33
0.0
  0
SOLID
  5
195
330
190
100
AcDbEntity
  8
1
 62
     2
100
AcDbTrace
 10
181.4119338369392
 20
-104.2464537562009
 30
0.0
 11
181.4119338369392
 21
-103.3248862730891
 31
0.0
 12
184.9119338369392
 22
-103.785670014645
 32
0.0
 13
184.9119338369392
 23
-103.785670014645
 33
0.0
  0
MTEXT
  5
196
330
190
100
AcDbEntity
  8
1
 62
     2
100
AcDbMText
 10
177.330422172949
 20
-101.785670014645
 30
0.0
 40
3.5
 41
0.0
 71
     7
 72
     1
  1
10
  7
CONVERTER_11
 11
0.9999999999970621
 21
2.424068405545307E-6
 31
0.0
 73
     1
 44
0.60024009603842
  0
ENDBLK
  5
198
330
190
100
AcDbEntity
  8
0
100
AcDbBlockEnd
  0
BLOCK
  5
1A2
330
19B
100
AcDbEntity
  8
0
100
AcDbBlockBegin
  2
*D11
 70
     1
 71
     0
 10
0.0
 20
0.0
 30
0.0
  3
*D11
  1

  0
LINE
  5
19C
330
19B
100
AcDbEntity
  8
1
  6
Continuous
 62
     2
100
AcDbLine
 10
114.800353254198
 20
-39.87339990768865
 30
0.0
 11
114.800353254198
 21
50.62660009231135
 31
0.0
  0
LINE
  5
19D
330
19B
100
AcDbEntity
  8
1
  6
Continuous
 62
     2
100
AcDbLine
 10
94.19860034321128
 20
50.62660009231135
 30
0.0
 11
116.800353254198
 21
50.62660009231135
 31
0.0
  0
LINE
  5
19E
330
19B
100
AcDbEntity
  8
1
  6
Continuous
 62
     2
100
AcDbLine
 10
94.19860034321128
 20
-39.87339990768865
 30
0.0
 11
116.800353254198
 21
-39.87339990768865
 31
0.0
  0
SOLID
  5
19F
330
19B
100
AcDbEntity
  8
1
 62
     2
100
AcDbTrace
 10
115.2611369957539
 20
47.12660009231135
 30
0.0
 11
114.3395695126421
 21
47.12660009231135
 31
0.0
 12
114.800353254198
 22
50.62660009231135
 32
0.0
 13
114.800353254198
 23
50.62660009231135
 33
0.0
  0
SOLID
  5
1A0
330
19B
100
AcDbEntity
  8
1
 62
     2
100
AcDbTrace
 10
114.3395695126421
 20
-36.37339990768865
 30
0.0
 11
115.2611369957539
 21
-36.37339990768865
 31
0.0
 12
114.800353254198
 22
-39.87339990768865
 32
0.0
 13
114.800353254198
 23
-39.87339990768865
 33
0.0
  0
MTEXT
  5
1A1
330
19B
100
AcDbEntity
  8
1
 62
     2
100
AcDbMText
 10
112.800353254198
 20
-5.3947908971885
 30
0.0
 40
3.5
 41
0.0
 71
     7
 72
     1
  1
90.5
  7
CONVERTER_11
 11
0.0
 21
1.0
 31
0.0
 73
     1
 44
0.60024009603842
  0
ENDBLK
  5
1A3
330
19B
100
AcDbEntity
  8
0
100
AcDbBlockEnd
  0
BLOCK
  5
1AD
330
1A6
100
AcDbEntity
  8
0
100
AcDbBlockBegin
  2
*D12
 70
     1
 71
     0
 10
0.0
 20
0.0
 30
0.0
  3
*D12
  1

  0
LINE
  5
1A7
330
1A6
100
AcDbEntity
  8
1
  6
Continuous
 62
     2
100
AcDbLine
 10
134.365113949226
 20
-64.62339990768865
 30
0.0
 11
134.365113949226
 21
75.37660009231135
 31
0.0
  0
LINE
  5
1A8
330
1A6
100
AcDbEntity
  8
1
  6
Continuous
 62
     2
100
AcDbLine
 10
95.19860034321128
 20
75.37660009231135
 30
0.0
 11
136.365113949226
 21
75.37660009231135
 31
0.0
  0
LINE
  5
1A9
330
1A6
100
AcDbEntity
  8
1
  6
Continuous
 62
     2
100
AcDbLine
 10
95.19860034321128
 20
-64.62339990768865
 30
0.0
 11
136.365113949226
 21
-64.62339990768865
 31
0.0
  0
SOLID
  5
1AA
330
1A6
100
AcDbEntity
  8
1
 62
     2
100
AcDbTrace
 10
133.9043302076701
 20
-61.12339990768865
 30
0.0
 11
134.8258976907819
 21
-61.12339990768865
 31
0.0
 12
134.365113949226
 22
-64.62339990768865
 32
0.0
 13
134.365113949226
 23
-64.62339990768865
 33
0.0
  0
SOLID
  5
1AB
330
1A6
100
AcDbEntity
  8
1
 62
     2
100
AcDbTrace
 10
134.8258976907819
 20
71.87660009231135
 30
0.0
 11
133.9043302076701
 21
71.87660009231135
 31
0.0
 12
134.365113949226
 22
75.37660009231135
 32
0.0
 13
134.365113949226
 23
75.37660009231135
 33
0.0
  0
MTEXT
  5
1AC
330
1A6
100
AcDbEntity
  8
1
 62
     2
100
AcDbMText
 10
132.365113949226
 20
-1.34172738631115
 30
0.0
 40
3.5
 41
0.0
 71
     7
 72
     1
  1
140
  7
CONVERTER_11
 11
0.0
 21
1.0
 31
0.0
 73
     1
 44
0.60024009603842
  0
ENDBLK
  5
1AE
330
1A6
100
AcDbEntity
  8
0
100
AcDbBlockEnd
  0
BLOCK
  5
1B8
330
1B1
100
AcDbEntity
  8
0
100
AcDbBlockBegin
  2
*D13
 70
     1
 71
     0
 10
0.0
 20
0.0
 30
0.0
  3
*D13
  1

  0
LINE
  5
1B2
330
1B1
100
AcDbEntity
  8
1
  6
Continuous
 62
     2
100
AcDbLine
 10
-185.1092983114337
 20
25.2594849337661
 30
0.0
 11
-168.1092983114337
 21
25.2594849337661
 31
0.0
  0
LINE
  5
1B3
330
1B1
100
AcDbEntity
  8
1
  6
Continuous
 62
     2
100
AcDbLine
 10
-168.1092983114337
 20
45.37660009231136
 30
0.0
 11
-168.1092983114337
 21
23.2594849337661
 31
0.0
  0
LINE
  5
1B4
330
1B1
100
AcDbEntity
  8
1
  6
Continuous
 62
     2
100
AcDbLine
 10
-185.1092983114337
 20
45.37660009231135
 30
0.0
 11
-185.1092983114337
 21
23.2594849337661
 31
0.0
  0
SOLID
  5
1B5
330
1B1
100
AcDbEntity
  8
1
 62
     2
100
AcDbTrace
 10
-181.6092983114337
 20
25.72026867532199
 30
0.0
 11
-181.6092983114337
 21
24.79870119221021
 31
0.0
 12
-185.1092983114337
 22
25.2594849337661
 32
0.0
 13
-185.1092983114337
 23
25.2594849337661
 33
0.0
  0
SOLID
  5
1B6
330
1B1
100
AcDbEntity
  8
1
 62
     2
100
AcDbTrace
 10
-171.6092983114337
 20
24.79870119221021
 30
0.0
 11
-171.6092983114337
 21
25.72026867532199
 31
0.0
 12
-168.1092983114337
 22
25.2594849337661
 32
0.0
 13
-168.1092983114337
 23
25.2594849337661
 33
0.0
  0
MTEXT
  5
1B7
330
1B1
100
AcDbEntity
  8
1
 62
     2
100
AcDbMText
 10
-175.476834644015
 20
27.2594849337661
 30
0.0
 40
3.5
 41
0.0
 71
     7
 72
     1
  1
17
  7
CONVERTER_11
 11
0.9999999999970621
 21
2.424068405545307E-6
 31
0.0
 73
     1
 44
0.60024009603842
  0
ENDBLK
  5
1B9
330
1B1
100
AcDbEntity
  8
0
100
AcDbBlockEnd
  0
BLOCK
  5
1C3
330
1BC
100
AcDbEntity
  8
0
100
AcDbBlockBegin
  2
*D14
 70
     1
 71
     0
 10
0.0
 20
0.0
 30
0.0
  3
*D14
  1

  0
LINE
  5
1BD
330
1BC
100
AcDbEntity
  8
1
  6
Continuous
 62
     2
100
AcDbLine
 10
-123.23579397888
 20
-64.62339990768865
 30
0.0
 11
-123.23579397888
 21
75.37660009231135
 31
0.0
  0
LINE
  5
1BE
330
1BC
100
AcDbEntity
  8
1
  6
Continuous
 62
     2
100
AcDbLine
 10
-178.6092983114338
 20
75.37660009231135
 30
0.0
 11
-121.23579397888
 21
75.37660009231135
 31
0.0
  0
LINE
  5
1BF
330
1BC
100
AcDbEntity
  8
1
  6
Continuous
 62
     2
100
AcDbLine
 10
-178.6092983114338
 20
-64.62339990768865
 30
0.0
 11
-121.23579397888
 21
-64.62339990768865
 31
0.0
  0
SOLID
  5
1C0
330
1BC
100
AcDbEntity
  8
1
 62
     2
100
AcDbTrace
 10
-122.7750102373241
 20
71.87660009231135
 30
0.0
 11
-123.6965777204359
 21
71.87660009231135
 31
0.0
 12
-123.23579397888
 22
75.37660009231135
 32
0.0
 13
-123.23579397888
 23
75.37660009231135
 33
0.0
  0
SOLID
  5
1C1
330
1BC
100
AcDbEntity
  8
1
 62
     2
100
AcDbTrace
 10
-123.6965777204359
 20
-61.12339990768865
 30
0.0
 11
-122.7750102373241
 21
-61.12339990768865
 31
0.0
 12
-123.23579397888
 22
-64.62339990768865
 32
0.0
 13
-123.23579397888
 23
-64.62339990768865
 33
0.0
  0
MTEXT
  5
1C2
330
1BC
100
AcDbEntity
  8
1
 62
     2
100
AcDbMText
 10
-125.23579397888
 20
1.69729540757812
 30
0.0
 40
3.5
 41
0.0
 71
     7
 72
     1
  1
140
  7
CONVERTER_11
 11
0.0
 21
1.0
 31
0.0
 73
     1
 44
0.60024009603842
  0
ENDBLK
  5
1C4
330
1BC
100
AcDbEntity
  8
0
100
AcDbBlockEnd
  0
BLOCK
  5
1CE
330
1C7
100
AcDbEntity
  8
0
100
AcDbBlockBegin
  2
*D15
 70
     1
 71
     0
 10
0.0
 20
0.0
 30
0.0
  3
*D15
  1

  0
LINE
  5
1C8
330
1C7
100
AcDbEntity
  8
1
  6
Continuous
 62
     2
100
AcDbLine
 10
-131.573538589165
 20
-43.12339990768864
 30
0.0
 11
-131.573538589165
 21
53.87660009231135
 31
0.0
  0
LINE
  5
1C9
330
1C7
100
AcDbEntity
  8
1
  6
Continuous
 62
     2
100
AcDbLine
 10
-176.6092983114337
 20
53.87660009231135
 30
0.0
 11
-129.573538589165
 21
53.87660009231135
 31
0.0
  0
LINE
  5
1CA
330
1C7
100
AcDbEntity
  8
1
  6
Continuous
 62
     2
100
AcDbLine
 10
-176.6092983114337
 20
-43.12339990768864
 30
0.0
 11
-129.573538589165
 21
-43.12339990768864
 31
0.0
  0
SOLID
  5
1CB
330
1C7
100
AcDbEntity
  8
1
 62
     2
100
AcDbTrace
 10
-131.1127548476091
 20
50.37660009231135
 30
0.0
 11
-132.0343223307209
 21
50.37660009231135
 31
0.0
 12
-131.573538589165
 22
53.87660009231135
 32
0.0
 13
-131.573538589165
 23
53.87660009231135
 33
0.0
  0
SOLID
  5
1CC
330
1C7
100
AcDbEntity
  8
1
 62
     2
100
AcDbTrace
 10
-132.0343223307209
 20
-39.62339990768864
 30
0.0
 11
-131.1127548476091
 21
-39.62339990768864
 31
0.0
 12
-131.573538589165
 22
-43.12339990768864
 32
0.0
 13
-131.573538589165
 23
-43.12339990768864
 33
0.0
  0
MTEXT
  5
1CD
330
1C7
100
AcDbEntity
  8
1
 62
     2
100
AcDbMText
 10
-133.573538589165
 20
3.4147770616606
 30
0.0
 40
3.5
 41
0.0
 71
     7
 72
     1
  1
97
  7
CONVERTER_11
 11
0.0
 21
1.0
 31
0.0
 73
     1
 44
0.60024009603842
  0
ENDBLK
  5
1CF
330
1C7
100
AcDbEntity
  8
0
100
AcDbBlockEnd
  0
BLOCK
  5
1D9
330
1D2
100
AcDbEntity
  8
0
100
AcDbBlockBegin
  2
*D16
 70
     1
 71
     0
 10
0.0
 20
0.0
 30
0.0
  3
*D16
  1

  0
LINE
  5
1D3
330
1D2
100
AcDbEntity
  8
1
  6
Continuous
 62
     2
100
AcDbLine
 10
-80.68958363885288
 20
-103.811863838072
 30
0.0
 11
-65.689583638853
 21
-103.811863838072
 31
0.0
  0
LINE
  5
1D4
330
1D2
100
AcDbEntity
  8
1
  6
Continuous
 62
     2
100
AcDbLine
 10
-65.689583638853
 20
-94.62339990768865
 30
0.0
 11
-65.689583638853
 21
-105.811863838072
 31
0.0
  0
LINE
  5
1D5
330
1D2
100
AcDbEntity
  8
1
  6
Continuous
 62
     2
100
AcDbLine
 10
-80.68958363885288
 20
-64.62339990768865
 30
0.0
 11
-80.68958363885288
 21
-105.811863838072
 31
0.0
  0
SOLID
  5
1D6
330
1D2
100
AcDbEntity
  8
1
 62
     2
100
AcDbTrace
 10
-69.189583638853
 20
-104.2726475796279
 30
0.0
 11
-69.189583638853
 21
-103.3510800965161
 31
0.0
 12
-65.689583638853
 22
-103.811863838072
 32
0.0
 13
-65.689583638853
 23
-103.811863838072
 33
0.0
  0
SOLID
  5
1D7
330
1D2
100
AcDbEntity
  8
1
 62
     2
100
AcDbTrace
 10
-77.18958363885288
 20
-103.3510800965161
 30
0.0
 11
-77.18958363885288
 21
-104.2726475796279
 31
0.0
 12
-80.68958363885288
 22
-103.811863838072
 32
0.0
 13
-80.68958363885288
 23
-103.811863838072
 33
0.0
  0
MTEXT
  5
1D8
330
1D2
100
AcDbEntity
  8
1
 62
     2
100
AcDbMText
 10
-75.5734025213866
 20
-101.811863838072
 30
0.0
 40
3.5
 41
0.0
 71
     7
 72
     1
  1
15
  7
CONVERTER_11
 11
0.9999999999970621
 21
2.424068405545307E-6
 31
0.0
 73
     1
 44
0.60024009603842
  0
ENDBLK
  5
1DA
330
1D2
100
AcDbEntity
  8
0
100
AcDbBlockEnd
  0
BLOCK
  5
1E6
330
1DD
100
AcDbEntity
  8
0
100
AcDbBlockBegin
  2
*D17
 70
     1
 71
     0
 10
0.0
 20
0.0
 30
0.0
  3
*D17
  1

  0
LINE
  5
1DE
330
1DD
100
AcDbEntity
  8
1
  6
Continuous
 62
     2
100
AcDbLine
 10
-5.18553578466974
 20
-63.69793997026315
 30
0.0
 11
-5.18553578466974
 21
-56.69793997026315
 31
0.0
  0
LINE
  5
1DF
330
1DD
100
AcDbEntity
  8
1
  6
Continuous
 62
     2
100
AcDbLine
 10
-5.18553578466974
 20
-66.69793997026315
 30
0.0
 11
-5.18553578466974
 21
-63.69793997026315
 31
0.0
  0
LINE
  5
1E0
330
1DD
100
AcDbEntity
  8
1
  6
Continuous
 62
     2
100
AcDbLine
 10
-5.18553578466974
 20
-73.69793997026315
 30
0.0
 11
-5.18553578466974
 21
-66.69793997026315
 31
0.0
  0
LINE
  5
1E1
330
1DD
100
AcDbEntity
  8
1
  6
Continuous
 62
     2
100
AcDbLine
 10
-11.11320632733307
 20
-63.69793997026315
 30
0.0
 11
-3.18553578466974
 21
-63.69793997026315
 31
0.0
  0
LINE
  5
1E2
330
1DD
100
AcDbEntity
  8
1
  6
Continuous
 62
     2
100
AcDbLine
 10
-1.11320632733307
 20
-66.69793997026315
 30
0.0
 11
-7.18553578466974
 21
-66.69793997026315
 31
0.0
  0
SOLID
  5
1E3
330
1DD
100
AcDbEntity
  8
1
 62
     2
100
AcDbTrace
 10
-4.72475204311386
 20
-70.19793997026315
 30
0.0
 11
-5.64631952622563
 21
-70.19793997026315
 31
0.0
 12
-5.18553578466974
 22
-66.69793997026315
 32
0.0
 13
-5.18553578466974
 23
-66.69793997026315
 33
0.0
  0
SOLID
  5
1E4
330
1DD
100
AcDbEntity
  8
1
 62
     2
100
AcDbTrace
 10
-5.64631952622563
 20
-60.19793997026315
 30
0.0
 11
-4.72475204311385
 21
-60.19793997026315
 31
0.0
 12
-5.18553578466974
 22
-63.69793997026315
 32
0.0
 13
-5.18553578466974
 23
-63.69793997026315
 33
0.0
  0
MTEXT
  5
1E5
330
1DD
100
AcDbEntity
  8
1
 62
     2
100
AcDbMText
 10
-7.18553578466974
 20
-71.8564021164145
 30
0.0
 40
3.5
 41
0.0
 71
     7
 72
     1
  1
3
  7
CONVERTER_11
 11
0.0
 21
1.0
 31
0.0
 73
     1
 44
0.60024009603842
  0
ENDBLK
  5
1E7
330
1DD
100
AcDbEntity
  8
0
100
AcDbBlockEnd
  0
BLOCK
  5
1F1
330
1EA
100
AcDbEntity
  8
0
100
AcDbBlockBegin
  2
*D18
 70
     1
 71
     0
 10
0.0
 20
0.0
 30
0.0
  3
*D18
  1

  0
LINE
  5
1EB
330
1EA
100
AcDbEntity
  8
1
  6
Continuous
 62
     2
100
AcDbLine
 10
-89.689583638853
 20
-115.213256550037
 30
0.0
 11
-65.689583638853
 21
-115.213256550037
 31
0.0
  0
LINE
  5
1EC
330
1EA
100
AcDbEntity
  8
1
  6
Continuous
 62
     2
100
AcDbLine
 10
-65.689583638853
 20
-64.62339990768865
 30
0.0
 11
-65.689583638853
 21
-117.213256550037
 31
0.0
  0
LINE
  5
1ED
330
1EA
100
AcDbEntity
  8
1
  6
Continuous
 62
     2
100
AcDbLine
 10
-89.689583638853
 20
-43.12339990768864
 30
0.0
 11
-89.689583638853
 21
-117.213256550037
 31
0.0
  0
SOLID
  5
1EE
330
1EA
100
AcDbEntity
  8
1
 62
     2
100
AcDbTrace
 10
-69.189583638853
 20
-115.6740402915929
 30
0.0
 11
-69.189583638853
 21
-114.7524728084811
 31
0.0
 12
-65.689583638853
 22
-115.213256550037
 32
0.0
 13
-65.689583638853
 23
-115.213256550037
 33
0.0
  0
SOLID
  5
1EF
330
1EA
100
AcDbEntity
  8
1
 62
     2
100
AcDbTrace
 10
-86.189583638853
 20
-114.7524728084811
 30
0.0
 11
-86.189583638853
 21
-115.6740402915929
 31
0.0
 12
-89.689583638853
 22
-115.213256550037
 32
0.0
 13
-89.689583638853
 23
-115.213256550037
 33
0.0
  0
MTEXT
  5
1F0
330
1EA
100
AcDbEntity
  8
1
 62
     2
100
AcDbMText
 10
-80.2002232625424
 20
-113.213256550037
 30
0.0
 40
3.5
 41
0.0
 71
     7
 72
     1
  1
24
  7
CONVERTER_11
 11
0.9999999999970621
 21
2.424068405545307E-6
 31
0.0
 73
     1
 44
0.60024009603842
  0
ENDBLK
  5
1F2
330
1EA
100
AcDbEntity
  8
0
100
AcDbBlockEnd
  0
BLOCK
  5
1FC
330
1F5
100
AcDbEntity
  8
0
100
AcDbBlockBegin
  2
*D19
 70
     1
 71
     0
 10
0.0
 20
0.0
 30
0.0
  3
*D19
  1

  0
LINE
  5
1F6
330
1F5
100
AcDbEntity
  8
1
  6
Continuous
 62
     2
100
AcDbLine
 10
76.273281338265
 20
-43.62339990768865
 30
0.0
 11
76.273281338265
 21
54.37660009231135
 31
0.0
  0
LINE
  5
1F7
330
1F5
100
AcDbEntity
  8
1
  6
Continuous
 62
     2
100
AcDbLine
 10
92.94860034321128
 20
-43.62339990768865
 30
0.0
 11
74.273281338265
 21
-43.62339990768865
 31
0.0
  0
LINE
  5
1F8
330
1F5
100
AcDbEntity
  8
1
  6
Continuous
 62
     2
100
AcDbLine
 10
92.94860034321128
 20
54.37660009231135
 30
0.0
 11
74.273281338265
 21
54.37660009231135
 31
0.0
  0
SOLID
  5
1F9
330
1F5
100
AcDbEntity
  8
1
 62
     2
100
AcDbTrace
 10
76.73406507982088
 20
50.87660009231135
 30
0.0
 11
75.81249759670911
 21
50.87660009231135
 31
0.0
 12
76.273281338265
 22
54.37660009231135
 32
0.0
 13
76.273281338265
 23
54.37660009231135
 33
0.0
  0
SOLID
  5
1FA
330
1F5
100
AcDbEntity
  8
1
 62
     2
100
AcDbTrace
 10
75.81249759670911
 20
-40.12339990768865
 30
0.0
 11
76.73406507982088
 21
-40.12339990768865
 31
0.0
 12
76.273281338265
 22
-43.62339990768865
 32
0.0
 13
76.273281338265
 23
-43.62339990768865
 33
0.0
  0
MTEXT
  5
1FB
330
1F5
100
AcDbEntity
  8
1
 62
     2
100
AcDbMText
 10
74.273281338265
 20
9.4878149153002
 30
0.0
 40
3.5
 41
0.0
 71
     7
 72
     1
  1
98
  7
CONVERTER_11
 11
0.0
 21
1.0
 31
0.0
 73
     1
 44
0.60024009603842
  0
ENDBLK
  5
1FD
330
1F5
100
AcDbEntity
  8
0
100
AcDbBlockEnd
  0
BLOCK
  5
209
330
200
100
AcDbEntity
  8
0
100
AcDbBlockBegin
  2
*D20
 70
     1
 71
     0
 10
0.0
 20
0.0
 30
0.0
  3
*D20
  1

  0
LINE
  5
201
330
200
100
AcDbEntity
  8
1
  6
Continuous
 62
     2
100
AcDbLine
 10
-199.1092983114338
 20
-105.49514119444
 30
0.0
 11
-192.1092983114338
 21
-105.49514119444
 31
0.0
  0
LINE
  5
202
330
200
100
AcDbEntity
  8
1
  6
Continuous
 62
     2
100
AcDbLine
 10
-192.1092983114338
 20
-105.49514119444
 30
0.0
 11
-189.1092983114338
 21
-105.49514119444
 31
0.0
  0
LINE
  5
203
330
200
100
AcDbEntity
  8
1
  6
Continuous
 62
     2
100
AcDbLine
 10
-189.1092983114338
 20
-105.49514119444
 30
0.0
 11
-182.1092983114338
 21
-105.49514119444
 31
0.0
  0
LINE
  5
204
330
200
100
AcDbEntity
  8
1
  6
Continuous
 62
     2
100
AcDbLine
 10
-189.1092983114338
 20
-54.12339990768866
 30
0.0
 11
-189.1092983114338
 21
-107.49514119444
 31
0.0
  0
LINE
  5
205
330
200
100
AcDbEntity
  8
1
  6
Continuous
 62
     2
100
AcDbLine
 10
-192.1092983114338
 20
-94.62339990768865
 30
0.0
 11
-192.1092983114338
 21
-107.49514119444
 31
0.0
  0
SOLID
  5
206
330
200
100
AcDbEntity
  8
1
 62
     2
100
AcDbTrace
 10
-195.6092983114338
 20
-105.9559249359959
 30
0.0
 11
-195.6092983114338
 21
-105.0343574528841
 31
0.0
 12
-192.1092983114338
 22
-105.49514119444
 32
0.0
 13
-192.1092983114338
 23
-105.49514119444
 33
0.0
  0
SOLID
  5
207
330
200
100
AcDbEntity
  8
1
 62
     2
100
AcDbTrace
 10
-185.6092983114338
 20
-105.0343574528841
 30
0.0
 11
-185.6092983114338
 21
-105.9559249359959
 31
0.0
 12
-189.1092983114338
 22
-105.49514119444
 32
0.0
 13
-189.1092983114338
 23
-105.49514119444
 33
0.0
  0
MTEXT
  5
208
330
200
100
AcDbEntity
  8
1
 62
     2
100
AcDbMText
 10
-198.172659850456
 20
-103.49514119444
 30
0.0
 40
3.5
 41
0.0
 71
     7
 72
     1
  1
3
  7
CONVERTER_11
 11
0.9999999999970621
 21
2.424068405545307E-6
 31
0.0
 73
     1
 44
0.60024009603842
  0
ENDBLK
  5
20A
330
200
100
AcDbEntity
  8
0
100
AcDbBlockEnd
  0
BLOCK
  5
214
330
20D
100
AcDbEntity
  8
0
100
AcDbBlockBegin
  2
*D21
 70
     1
 71
     0
 10
0.0
 20
0.0
 30
0.0
  3
*D21
  1

  0
LINE
  5
20E
330
20D
100
AcDbEntity
  8
1
  6
Continuous
 62
     2
100
AcDbLine
 10
-189.1092983114338
 20
-105.49514119444
 30
0.0
 11
-168.1092983114338
 21
-105.49514119444
 31
0.0
  0
LINE
  5
20F
330
20D
100
AcDbEntity
  8
1
  6
Continuous
 62
     2
100
AcDbLine
 10
-168.1092983114338
 20
-54.12339990768867
 30
0.0
 11
-168.1092983114338
 21
-107.49514119444
 31
0.0
  0
LINE
  5
210
330
20D
100
AcDbEntity
  8
1
  6
Continuous
 62
     2
100
AcDbLine
 10
-189.1092983114338
 20
-54.12339990768866
 30
0.0
 11
-189.1092983114338
 21
-107.49514119444
 31
0.0
  0
SOLID
  5
211
330
20D
100
AcDbEntity
  8
1
 62
     2
100
AcDbTrace
 10
-185.6092983114338
 20
-105.0343574528841
 30
0.0
 11
-185.6092983114338
 21
-105.9559249359959
 31
0.0
 12
-189.1092983114338
 22
-105.49514119444
 32
0.0
 13
-189.1092983114338
 23
-105.49514119444
 33
0.0
  0
SOLID
  5
212
330
20D
100
AcDbEntity
  8
1
 62
     2
100
AcDbTrace
 10
-171.6092983114338
 20
-105.9559249359959
 30
0.0
 11
-171.6092983114338
 21
-105.0343574528841
 31
0.0
 12
-168.1092983114338
 22
-105.49514119444
 32
0.0
 13
-168.1092983114338
 23
-105.49514119444
 33
0.0
  0
MTEXT
  5
213
330
20D
100
AcDbEntity
  8
1
 62
     2
100
AcDbMText
 10
-180.7092983114338
 20
-103.49514119444
 30
0.0
 40
3.5
 41
0.0
 71
     7
 72
     1
  1
21
  7
CONVERTER_11
 11
0.9999999999970621
 21
2.424068405545307E-6
 31
0.0
 73
     1
 44
0.60024009603842
  0
ENDBLK
  5
215
330
20D
100
AcDbEntity
  8
0
100
AcDbBlockEnd
  0
BLOCK
  5
21C
330
218
100
AcDbEntity
  8
0
100
AcDbBlockBegin
  2
*D22
 70
     1
 71
     0
 10
0.0
 20
0.0
 30
0.0
  3
*D22
  1

  0
LINE
  5
219
330
218
100
AcDbEntity
  8
1
  6
Continuous
 62
     2
100
AcDbLine
 10
-182.5105726295658
 20
51.49419450696116
 30
0.0
 11
-204.4654279100508
 21
74.25383806829511
 31
0.0
  0
SOLID
  5
21A
330
218
100
AcDbEntity
  8
1
 62
     2
100
AcDbTrace
 10
-185.2721430009971
 20
53.69329676472795
 30
0.0
 11
-184.608875226008
 21
54.33311117890597
 31
0.0
 12
-182.5105726295658
 22
51.49419450696116
 32
0.0
 13
-182.5105726295658
 23
51.49419450696116
 33
0.0
  0
MTEXT
  5
21B
330
218
100
AcDbEntity
  8
1
 62
     2
100
AcDbMText
 10
-202.1026180662373
 20
74.68514960532804
 30
0.0
 40
3.5
 41
0.0
 71
     7
 72
     1
  1
\C2;R\C2;8.5
  7
CONVERTER_11
 11
0.6942675668390692
 21
-0.7197169899588022
 31
0.0
 73
     1
 44
0.60024009603842
  0
ENDBLK
  5
21D
330
218
100
AcDbEntity
  8
0
100
AcDbBlockEnd
  0
BLOCK
  5
224
330
21F
100
AcDbEntity
  8
0
100
AcDbBlockBegin
  2
*D23
 70
     1
 71
     0
 10
0.0
 20
0.0
 30
0.0
  3
*D23
  1

  0
LINE
  5
220
330
21F
100
AcDbEntity
  8
1
  6
Continuous
 62
     2
100
AcDbLine
 10
100.03624573547
 20
-60.84040578425514
 30
0.0
 11
41.35422242688757
 21
-5.85316522974855
 31
0.0
  0
SOLID
  5
221
330
21F
100
AcDbEntity
  8
1
 62
     2
100
AcDbTrace
 10
91.22999093859167
 20
-51.95715198235693
 30
0.0
 11
90.5998586815398
 21
-52.62962500378729
 31
0.0
 12
88.36095495095253
 22
-49.90022365154086
 32
0.0
 13
88.36095495095253
 23
-49.90022365154086
 33
0.0
  0
SOLID
  5
222
330
21F
100
AcDbEntity
  8
1
 62
     2
100
AcDbTrace
 10
97.1672097478309
 20
-58.78347745343907
 30
0.0
 11
97.79734200488276
 21
-58.11100443200871
 31
0.0
 12
100.03624573547
 22
-60.84040578425514
 32
0.0
 13
100.03624573547
 23
-60.84040578425514
 33
0.0
  0
MTEXT
  5
223
330
21F
100
AcDbEntity
  8
1
 62
     2
100
AcDbMText
 10
43.84549193148666
 20
-5.44674641195762
 30
0.0
 40
3.5
 41
0.0
 71
     7
 72
     1
  1
\C2;Fräser ø\C2;16
  7
CONVERTER_11
 11
0.7297056740323431
 21
-0.6837613832946431
 31
0.0
 73
     1
 44
0.60024009603842
  0
ENDBLK
  5
225
330
21F
100
AcDbEntity
  8
0
100
AcDbBlockEnd
  0
BLOCK
  5
22C
330
227
100
AcDbEntity
  8
0
100
AcDbBlockBegin
  2
*D24
 70
     1
 71
     0
 10
0.0
 20
0.0
 30
0.0
  3
*D24
  1

  0
LINE
  5
228
330
227
100
AcDbEntity
  8
1
  6
Continuous
 62
     2
100
AcDbLine
 10
-180.1832541118767
 20
-47.23842466183361
 30
0.0
 11
-134.0939081810182
 21
-125.1293055096603
 31
0.0
  0
SOLID
  5
229
330
227
100
AcDbEntity
  8
1
 62
     2
100
AcDbTrace
 10
-174.2142587554727
 20
-58.23085005806487
 30
0.0
 11
-173.4211375918966
 21
-57.76154690889952
 31
0.0
 12
-172.0353425109909
 22
-61.00837515354379
 32
0.0
 13
-172.0353425109909
 23
-61.00837515354379
 33
0.0
  0
SOLID
  5
22A
330
227
100
AcDbEntity
  8
1
 62
     2
100
AcDbTrace
 10
-178.0043378673949
 20
-50.01594975731253
 30
0.0
 11
-178.7974590309711
 21
-50.48525290647788
 31
0.0
 12
-180.1832541118767
 22
-47.23842466183361
 32
0.0
 13
-180.1832541118767
 23
-47.23842466183361
 33
0.0
  0
MTEXT
  5
22B
330
227
100
AcDbEntity
  8
1
 62
     2
100
AcDbMText
 10
-146.2037443120581
 20
-100.7363255998714
 30
0.0
 40
3.5
 41
0.0
 71
     7
 72
     1
  1
\C2;Fräser ø\C2;16
  7
CONVERTER_11
 11
0.5092444750553675
 21
-0.860621905731886
 31
0.0
 73
     1
 44
0.60024009603842
  0
ENDBLK
  5
22D
330
227
100
AcDbEntity
  8
0
100
AcDbBlockEnd
  0
BLOCK
  5
235
330
22F
100
AcDbEntity
  8
0
100
AcDbBlockBegin
  2
*D25
 70
     1
 71
     0
 10
0.0
 20
0.0
 30
0.0
  3
*D25
  1

  0
LINE
  5
230
330
22F
100
AcDbEntity
  8
1
  6
Continuous
 62
     2
100
AcDbLine
 10
76.10083106126947
 20
57.06530896598455
 30
0.0
 11
90.48429228669261
 21
67.4960003285856
 31
0.0
  0
LINE
  5
231
330
22F
100
AcDbEntity
  8
1
  6
Continuous
 62
     2
100
AcDbLine
 10
97.1629865975453
 20
72.33929902907724
 30
0.0
 11
92.91290839972996
 21
69.2571998560371
 31
0.0
  0
SOLID
  5
232
330
22F
100
AcDbEntity
  8
1
 62
     2
100
AcDbTrace
 10
87.9214175241109
 20
65.06824527343609
 30
0.0
 11
87.38039611885385
 21
65.81428981968159
 31
0.0
 12
90.48429228669261
 22
67.4960003285856
 32
0.0
 13
90.48429228669261
 23
67.4960003285856
 33
0.0
  0
SOLID
  5
233
330
22F
100
AcDbEntity
  8
1
 62
     2
100
AcDbTrace
 10
95.47578316231167
 20
71.68495491118661
 30
0.0
 11
96.01680456756871
 21
70.93891036494111
 31
0.0
 12
92.91290839972996
 22
69.2571998560371
 32
0.0
 13
92.91290839972996
 23
69.2571998560371
 33
0.0
  0
MTEXT
  5
234
330
22F
100
AcDbEntity
  8
1
 62
     2
100
AcDbMText
 10
76.00338451974835
 20
59.46518483184627
 30
0.0
 40
3.5
 41
0.0
 71
     7
 72
     1
  1
\C2;ø\C2;3
  7
CONVERTER_11
 11
0.8095387043457795
 21
0.5870665091505022
 31
0.0
 73
     1
 44
0.60024009603842
  0
ENDBLK
  5
236
330
22F
100
AcDbEntity
  8
0
100
AcDbBlockEnd
  0
ENDSEC
  0
SECTION
  2
ENTITIES
  0
POINT
  5
32
330
1F
100
AcDbEntity
  8
1
 62
     3
100
AcDbPoint
 10
-14.90000000000001
 20
-3.74299999999998
 30
0.0
  0
POINT
  5
33
330
1F
100
AcDbEntity
  8
1
 62
     3
 60
     1
100
AcDbPoint
 10
-178.6092983114338
 20
79.813547369683
 30
0.0
  0
POINT
  5
34
330
1F
100
AcDbEntity
  8
1
 62
     3
 60
     1
100
AcDbPoint
 10
-178.6092983114338
 20
-69.4321357730327
 30
0.0
  0
POINT
  5
35
330
1F
100
AcDbEntity
  8
1
 62
     3
 60
     1
100
AcDbPoint
 10
-177.1092983114338
 20
105.3766000923113
 30
0.0
  0
POINT
  5
36
330
1F
100
AcDbEntity
  8
1
 62
     3
 60
     1
100
AcDbPoint
 10
-177.1092983114338
 20
-94.62339990768864
 30
0.0
  0
POINT
  5
37
330
1F
100
AcDbEntity
  8
1
 62
     3
 60
     1
100
AcDbPoint
 10
-16.11320632733308
 20
-59.69793997026318
 30
0.0
  0
POINT
  5
38
330
1F
100
AcDbEntity
  8
1
 62
     3
 60
     1
100
AcDbPoint
 10
-16.11320632733308
 20
-59.69793997026318
 30
0.0
  0
POINT
  5
39
330
1F
100
AcDbEntity
  8
1
 62
     3
 60
     1
100
AcDbPoint
 10
-65.689583638853
 20
-64.62339990768865
 30
0.0
  0
POINT
  5
3A
330
1F
100
AcDbEntity
  8
1
 62
     3
 60
     1
100
AcDbPoint
 10
-65.689583638853
 20
75.37660009231135
 30
0.0
  0
POINT
  5
3B
330
1F
100
AcDbEntity
  8
1
 62
     3
 60
     1
100
AcDbPoint
 10
-80.68958363885288
 20
-64.62339990768865
 30
0.0
  0
POINT
  5
3C
330
1F
100
AcDbEntity
  8
1
 62
     3
 60
     1
100
AcDbPoint
 10
-80.68958363885288
 20
75.37660009231135
 30
0.0
  0
POINT
  5
3D
330
1F
100
AcDbEntity
  8
1
 62
     3
 60
     1
100
AcDbPoint
 10
27.38679367266663
 20
-60.69793997026299
 30
0.0
  0
POINT
  5
3E
330
1F
100
AcDbEntity
  8
1
 62
     3
 60
     1
100
AcDbPoint
 10
15.38679367266693
 20
-42.69793997026321
 30
0.0
  0
POINT
  5
3F
330
1F
100
AcDbEntity
  8
1
 62
     3
 60
     1
100
AcDbPoint
 10
2.38679367266684
 20
-42.69793997026321
 30
0.0
  0
POINT
  5
40
330
1F
100
AcDbEntity
  8
1
 62
     3
 60
     1
100
AcDbPoint
 10
12.38679367266665
 20
-60.69793997026299
 30
0.0
  0
POINT
  5
41
330
1F
100
AcDbEntity
  8
1
 62
     3
 60
     1
100
AcDbPoint
 10
84.19860034321128
 20
-94.62339990768865
 30
0.0
  0
POINT
  5
42
330
1F
100
AcDbEntity
  8
1
 62
     3
 60
     1
100
AcDbPoint
 10
84.19860034321128
 20
105.3766000923114
 30
0.0
  0
POINT
  5
43
330
1F
100
AcDbEntity
  8
1
 62
     3
 60
     1
100
AcDbPoint
 10
95.19860034321128
 20
79.0371086457252
 30
0.0
  0
POINT
  5
44
330
1F
100
AcDbEntity
  8
1
 62
     3
 60
     1
100
AcDbPoint
 10
95.19860034321128
 20
-71.7996641872473
 30
0.0
  0
POINT
  5
45
330
1F
100
AcDbEntity
  8
1
 62
     3
 60
     1
100
AcDbPoint
 10
80.8484424361249
 20
-55.62339990768865
 30
0.0
  0
POINT
  5
46
330
1F
100
AcDbEntity
  8
1
 62
     3
 60
     1
100
AcDbPoint
 10
113.646798996139
 20
-55.62339990768865
 30
0.0
  0
POINT
  5
47
330
1F
100
AcDbEntity
  8
1
 62
     3
 60
     1
100
AcDbPoint
 10
79.7852255887716
 20
66.37660009231135
 30
0.0
  0
POINT
  5
48
330
1F
100
AcDbEntity
  8
1
 62
     3
 60
     1
100
AcDbPoint
 10
112.059202378128
 20
66.37660009231135
 30
0.0
  0
POINT
  5
49
330
1F
100
AcDbEntity
  8
1
 62
     3
 60
     1
100
AcDbPoint
 10
86.19860034321128
 20
66.37660009231135
 30
0.0
  0
POINT
  5
4A
330
1F
100
AcDbEntity
  8
1
 62
     3
 60
     1
100
AcDbPoint
 10
104.1986003432113
 20
-55.62339990768865
 30
0.0
  0
POINT
  5
4B
330
1F
100
AcDbEntity
  8
1
 62
     3
 60
     1
100
AcDbPoint
 10
102.1986003432113
 20
-31.87339990768865
 30
0.0
  0
POINT
  5
4C
330
1F
100
AcDbEntity
  8
1
 62
     3
 60
     1
100
AcDbPoint
 10
95.19860034321128
 20
66.37660009231135
 30
0.0
  0
POINT
  5
4D
330
1F
100
AcDbEntity
  8
1
 62
     3
 60
     1
100
AcDbPoint
 10
104.1986003432113
 20
66.37660009231135
 30
0.0
  0
POINT
  5
4E
330
1F
100
AcDbEntity
  8
1
 62
     3
 60
     1
100
AcDbPoint
 10
95.19860034321128
 20
-55.62339990768865
 30
0.0
  0
POINT
  5
4F
330
1F
100
AcDbEntity
  8
1
 62
     3
 60
     1
100
AcDbPoint
 10
86.19860034321128
 20
-55.62339990768865
 30
0.0
  0
POINT
  5
50
330
1F
100
AcDbEntity
  8
1
 62
     3
 60
     1
100
AcDbPoint
 10
102.1986003432113
 20
42.62660009231135
 30
0.0
  0
LINE
  5
51
330
1F
100
AcDbEntity
  8
1
  6
Continuous
 62
     2
100
AcDbLine
 10
-33.3616405948243
 20
55.1865255568431
 30
0.0
 11
27.08714915668849
 21
55.1865255568431
 31
0.0
  0
LINE
  5
52
330
1F
100
AcDbEntity
  8
1
  6
Continuous
 62
     2
100
AcDbLine
 10
-33.3616405948243
 20
55.1865255568431
 30
0.0
 11
-13.4550836279546
 21
2.61204614399851
 31
0.0
  0
LINE
  5
53
330
1F
100
AcDbEntity
  8
1
  6
DOT_CENTER
 62
     2
100
AcDbLine
 10
-187.177002318421
 20
45.37660009231136
 30
0.0
 11
-165.618098340366
 21
45.37660009231136
 31
0.0
  0
LINE
  5
54
330
1F
100
AcDbEntity
  8
1
  6
DOT_CENTER
 62
     2
100
AcDbLine
 10
-186.770736095109
 20
-34.62339990768866
 30
0.0
 11
-166.40158570131
 21
-34.62339990768866
 31
0.0
  0
LINE
  5
55
330
1F
100
AcDbEntity
  8
1
  6
Continuous
 62
     7
100
AcDbLine
 10
-168.1092983114338
 20
-34.62339990768866
 30
0.0
 11
-168.1092983114338
 21
-54.12339990768867
 31
0.0
  0
LINE
  5
56
330
1F
100
AcDbEntity
  8
1
  6
Continuous
 62
     7
100
AcDbLine
 10
-168.1092983114338
 20
45.37660009231136
 30
0.0
 11
-168.1092983114338
 21
-34.62339990768866
 31
0.0
  0
LINE
  5
57
330
1F
100
AcDbEntity
  8
1
  6
Continuous
 62
     7
100
AcDbLine
 10
-80.68958363885288
 20
-43.12339990768864
 30
0.0
 11
-80.68958363885288
 21
-35.12339990768865
 31
0.0
  0
LINE
  5
58
330
1F
100
AcDbEntity
  8
1
  6
Continuous
 62
     7
100
AcDbLine
 10
-80.68958363885288
 20
53.87660009231136
 30
0.0
 11
-80.68958363885288
 21
45.87660009231135
 31
0.0
  0
LINE
  5
59
330
1F
100
AcDbEntity
  8
1
  6
Continuous
 62
     7
100
AcDbLine
 10
-75.689583638853
 20
75.37660009231135
 30
0.0
 11
-80.68958363885288
 21
75.37660009231135
 31
0.0
  0
LINE
  5
5A
330
1F
100
AcDbEntity
  8
1
  6
Continuous
 62
     7
100
AcDbLine
 10
-75.689583638853
 20
-64.62339990768865
 30
0.0
 11
-80.68958363885288
 21
-64.62339990768865
 31
0.0
  0
LINE
  5
5B
330
1F
100
AcDbEntity
  8
1
  6
Continuous
 62
     7
100
AcDbLine
 10
-75.689583638853
 20
75.37660009231135
 30
0.0
 11
-75.689583638853
 21
-64.62339990768865
 31
0.0
  0
LINE
  5
5C
330
1F
100
AcDbEntity
  8
1
  6
Continuous
 62
     7
100
AcDbLine
 10
-65.689583638853
 20
75.37660009231135
 30
0.0
 11
-75.689583638853
 21
75.37660009231135
 31
0.0
  0
LINE
  5
5D
330
1F
100
AcDbEntity
  8
1
  6
Continuous
 62
     7
100
AcDbLine
 10
-65.689583638853
 20
-64.62339990768865
 30
0.0
 11
-75.689583638853
 21
-64.62339990768865
 31
0.0
  0
LINE
  5
5E
330
1F
100
AcDbEntity
  8
1
  6
DOT_CENTER
 62
     2
100
AcDbLine
 10
-52.68958363885299
 20
-94.62339990768862
 30
0.0
 11
-48.94585439796339
 21
-94.62339990768862
 31
0.0
  0
LINE
  5
5F
330
1F
100
AcDbEntity
  8
1
  6
DOT_CENTER
 62
     2
100
AcDbLine
 10
-52.68958363885299
 20
105.3766000923113
 30
0.0
 11
-48.94585439796339
 21
105.3766000923113
 31
0.0
  0
LINE
  5
60
330
1F
100
AcDbEntity
  8
1
  6
Continuous
 62
     7
100
AcDbLine
 10
-52.68958363885299
 20
105.3766000923113
 30
0.0
 11
-52.68958363885299
 21
-94.62339990768862
 31
0.0
  0
LINE
  5
61
330
1F
100
AcDbEntity
  8
1
  6
DOT_CENTER
 62
     2
100
AcDbLine
 10
-17.11417331874409
 20
-53.69793997026317
 30
0.0
 11
0.1054287052528
 21
-53.69793997026317
 31
0.0
  0
LINE
  5
62
330
1F
100
AcDbEntity
  8
1
  6
Continuous
 62
     7
100
AcDbLine
 10
-11.11320632733319
 20
-42.69793997026314
 30
0.0
 11
-11.11320632733319
 21
24.08734679886908
 31
0.0
  0
LINE
  5
63
330
1F
100
AcDbEntity
  8
1
  6
Continuous
 62
     7
100
AcDbLine
 10
-1.11320632733311
 20
-37.69793997026315
 30
0.0
 11
-1.11320632733308
 21
-42.69793997026315
 31
0.0
  0
LINE
  5
64
330
1F
100
AcDbEntity
  8
1
  6
Continuous
 62
     7
100
AcDbLine
 10
-1.11320632733308
 20
-42.69793997026315
 30
0.0
 11
-1.11320632733308
 21
-63.69793997026315
 31
0.0
  0
LINE
  5
65
330
1F
100
AcDbEntity
  8
1
  6
Continuous
 62
     7
100
AcDbLine
 10
-11.11320632733319
 20
-42.69793997026314
 30
0.0
 11
-1.11320632733308
 21
-42.69793997026315
 31
0.0
  0
LINE
  5
66
330
1F
100
AcDbEntity
  8
1
  6
Continuous
 62
     7
100
AcDbLine
 10
-15.11320632733307
 20
-63.69793997026315
 30
0.0
 11
-16.11320632733308
 21
-63.69793997026315
 31
0.0
  0
LINE
  5
67
330
1F
100
AcDbEntity
  8
1
  6
Continuous
 62
     7
100
AcDbLine
 10
-16.11320632733308
 20
-59.69793997026318
 30
0.0
 11
-25.11320632733307
 21
-59.69793997026319
 31
0.0
  0
LINE
  5
68
330
1F
100
AcDbEntity
  8
1
  6
Continuous
 62
     7
100
AcDbLine
 10
-16.11320632733308
 20
-63.69793997026315
 30
0.0
 11
-16.11320632733308
 21
-59.69793997026318
 31
0.0
  0
LINE
  5
69
330
1F
100
AcDbEntity
  8
1
  6
PHANTOM
 62
     2
100
AcDbLine
 10
-12.8632063273333
 20
-23.44793997026316
 30
0.0
 11
-12.8632063273333
 21
-17.94793997026316
 31
0.0
  0
LINE
  5
6A
330
1F
100
AcDbEntity
  8
1
  6
PHANTOM
 62
     2
100
AcDbLine
 10
-12.8632063273333
 20
-17.94793997026316
 30
0.0
 11
-15.1132063273333
 21
-15.69793997026314
 31
0.0
  0
LINE
  5
6B
330
1F
100
AcDbEntity
  8
1
  6
PHANTOM
 62
     2
100
AcDbLine
 10
-11.1132063273333
 20
-17.94793997026316
 30
0.0
 11
-12.8632063273333
 21
-17.94793997026316
 31
0.0
  0
LINE
  5
6C
330
1F
100
AcDbEntity
  8
1
  6
PHANTOM
 62
     2
100
AcDbLine
 10
-12.8632063273333
 20
-23.44793997026316
 30
0.0
 11
-15.1132063273333
 21
-25.69793997026316
 31
0.0
  0
LINE
  5
6D
330
1F
100
AcDbEntity
  8
1
  6
PHANTOM
 62
     2
100
AcDbLine
 10
-11.1132063273333
 20
-23.44793997026316
 30
0.0
 11
-12.8632063273333
 21
-23.44793997026316
 31
0.0
  0
LINE
  5
6E
330
1F
100
AcDbEntity
  8
1
  6
PHANTOM
 62
     2
100
AcDbLine
 10
5.38679367266682
 20
-20.69793997026316
 30
0.0
 11
-16.61320632733319
 21
-20.69793997026316
 31
0.0
  0
LINE
  5
6F
330
1F
100
AcDbEntity
  8
1
  6
PHANTOM
 62
     2
100
AcDbLine
 10
-12.8632063273333
 20
-6.44793997026316
 30
0.0
 11
-12.8632063273333
 21
-0.94793997026315
 31
0.0
  0
LINE
  5
70
330
1F
100
AcDbEntity
  8
1
  6
PHANTOM
 62
     2
100
AcDbLine
 10
-12.8632063273333
 20
-0.94793997026315
 30
0.0
 11
-15.1132063273333
 21
1.30206002973684
 31
0.0
  0
LINE
  5
71
330
1F
100
AcDbEntity
  8
1
  6
PHANTOM
 62
     2
100
AcDbLine
 10
-11.1132063273333
 20
-0.94793997026315
 30
0.0
 11
-12.8632063273333
 21
-0.94793997026315
 31
0.0
  0
LINE
  5
72
330
1F
100
AcDbEntity
  8
1
  6
PHANTOM
 62
     2
100
AcDbLine
 10
-12.8632063273333
 20
-6.44793997026316
 30
0.0
 11
-15.1132063273333
 21
-8.69793997026316
 31
0.0
  0
LINE
  5
73
330
1F
100
AcDbEntity
  8
1
  6
PHANTOM
 62
     2
100
AcDbLine
 10
-11.1132063273333
 20
-6.44793997026316
 30
0.0
 11
-12.8632063273333
 21
-6.44793997026316
 31
0.0
  0
LINE
  5
74
330
1F
100
AcDbEntity
  8
1
  6
PHANTOM
 62
     2
100
AcDbLine
 10
5.38679367266682
 20
-3.69793997026316
 30
0.0
 11
-16.61320632733319
 21
-3.69793997026316
 31
0.0
  0
LINE
  5
75
330
1F
100
AcDbEntity
  8
1
  6
PHANTOM
 62
     2
100
AcDbLine
 10
-11.11320632733319
 20
6.30206002973684
 30
0.0
 11
-15.11320632733319
 21
6.30206002973684
 31
0.0
  0
LINE
  5
76
330
1F
100
AcDbEntity
  8
1
  6
PHANTOM
 62
     2
100
AcDbLine
 10
-15.11320632733319
 20
6.30206002973684
 30
0.0
 11
-15.11320632733307
 21
-63.69793997026315
 31
0.0
  0
LINE
  5
77
330
1F
100
AcDbEntity
  8
1
  6
DOT_CENTER
 62
     2
100
AcDbLine
 10
11.88679367266693
 20
24.08734679886908
 30
0.0
 11
18.90126688979782
 21
24.08734679886908
 31
0.0
  0
LINE
  5
78
330
1F
100
AcDbEntity
  8
1
  6
Continuous
 62
     7
100
AcDbLine
 10
-1.11320632733307
 20
-39.69793997026321
 30
0.0
 11
0.61884448023565
 21
-42.69793997026321
 31
0.0
  0
LINE
  5
79
330
1F
100
AcDbEntity
  8
1
  6
Continuous
 62
     7
100
AcDbLine
 10
0.61884448023565
 20
-42.69793997026321
 30
0.0
 11
10.15474286509797
 21
-42.69793997026321
 31
0.0
  0
LINE
  5
7A
330
1F
100
AcDbEntity
  8
1
  6
Continuous
 62
     7
100
AcDbLine
 10
10.15474286509797
 20
-42.69793997026321
 30
0.0
 11
11.88679367266693
 21
-39.69793997026321
 31
0.0
  0
LINE
  5
7B
330
1F
100
AcDbEntity
  8
1
  6
Continuous
 62
     7
100
AcDbLine
 10
11.88679367266693
 20
-39.69793997026321
 30
0.0
 11
11.88679367266693
 21
-37.69793997026321
 31
0.0
  0
LINE
  5
7C
330
1F
100
AcDbEntity
  8
1
  6
Continuous
 62
     7
100
AcDbLine
 10
-0.11320632733307
 20
-38.69793997026321
 30
0.0
 11
10.88679367266693
 21
-38.69793997026321
 31
0.0
  0
LINE
  5
7D
330
1F
100
AcDbEntity
  8
1
  6
Continuous
 62
     7
100
AcDbLine
 10
10.88679367266693
 20
-38.69793997026321
 30
0.0
 11
10.88679367266693
 21
-39.42999077783217
 31
0.0
  0
LINE
  5
7E
330
1F
100
AcDbEntity
  8
1
  6
Continuous
 62
     7
100
AcDbLine
 10
10.88679367266693
 20
-39.42999077783217
 30
0.0
 11
9.57739259590838
 21
-41.69793997026321
 31
0.0
  0
LINE
  5
7F
330
1F
100
AcDbEntity
  8
1
  6
Continuous
 62
     7
100
AcDbLine
 10
9.57739259590838
 20
-41.69793997026321
 30
0.0
 11
1.1961947494253
 21
-41.69793997026321
 31
0.0
  0
LINE
  5
80
330
1F
100
AcDbEntity
  8
1
  6
Continuous
 62
     7
100
AcDbLine
 10
1.1961947494253
 20
-41.69793997026321
 30
0.0
 11
-0.11320632733307
 21
-39.42999077783216
 31
0.0
  0
LINE
  5
81
330
1F
100
AcDbEntity
  8
1
  6
Continuous
 62
     7
100
AcDbLine
 10
-0.11320632733307
 20
-39.42999077783216
 30
0.0
 11
-0.11320632733307
 21
-38.69793997026321
 31
0.0
  0
LINE
  5
82
330
1F
100
AcDbEntity
  8
1
  6
Continuous
 62
     7
100
AcDbLine
 10
-1.11320632733308
 20
-63.69793997026315
 30
0.0
 11
-11.11320632733307
 21
-63.69793997026315
 31
0.0
  0
LINE
  5
83
330
1F
100
AcDbEntity
  8
1
  6
Continuous
 62
     7
100
AcDbLine
 10
-25.11320632733307
 20
-59.69793997026319
 30
0.0
 11
-25.11320632733309
 21
-51.69793997026315
 31
0.0
  0
LINE
  5
84
330
1F
100
AcDbEntity
  8
1
  6
Continuous
 62
     7
100
AcDbLine
 10
-1.11320632733311
 20
-37.69793997026315
 30
0.0
 11
11.88679367266693
 21
-37.69793997026321
 31
0.0
  0
LINE
  5
85
330
1F
100
AcDbEntity
  8
1
  6
Continuous
 62
     7
100
AcDbLine
 10
11.88679367266693
 20
-37.69793997026321
 30
0.0
 11
11.88679367266693
 21
24.08734679886908
 31
0.0
  0
LINE
  5
86
330
1F
100
AcDbEntity
  8
1
  6
DOT_CENTER
 62
     2
100
AcDbLine
 10
11.88679367266693
 20
24.08734679886908
 30
0.0
 11
-11.11320632733319
 21
24.08734679886908
 31
0.0
  0
LINE
  5
87
330
1F
100
AcDbEntity
  8
1
  6
Continuous
 62
     7
100
AcDbLine
 10
-1.11320632733307
 20
-66.69793997026315
 30
0.0
 11
-44.11320632733313
 21
-66.6979399702632
 31
0.0
  0
LINE
  5
88
330
1F
100
AcDbEntity
  8
1
  6
Continuous
 62
     7
100
AcDbLine
 10
-11.11320632733307
 20
-63.69793997026315
 30
0.0
 11
-15.11320632733307
 21
-63.69793997026315
 31
0.0
  0
LINE
  5
89
330
1F
100
AcDbEntity
  8
1
  6
DOT_CENTER
 62
     2
100
AcDbLine
 10
-11.11320632733319
 20
24.08734679886908
 30
0.0
 11
-15.34507646136601
 21
24.08734679886908
 31
0.0
  0
LINE
  5
8A
330
1F
100
AcDbEntity
  8
1
  6
Continuous
 62
     7
100
AcDbLine
 10
-168.1092983114338
 20
64.87660009231138
 30
0.0
 11
-168.1092983114338
 21
45.37660009231136
 31
0.0
  0
LINE
  5
8B
330
1F
100
AcDbEntity
  8
1
  6
Continuous
 62
     7
100
AcDbLine
 10
-189.1092983114338
 20
64.87660009231135
 30
0.0
 11
-189.1092983114338
 21
-54.12339990768866
 31
0.0
  0
LINE
  5
8C
330
1F
100
AcDbEntity
  8
1
  6
Continuous
 62
     7
100
AcDbLine
 10
-80.68958363885288
 20
-43.12339990768864
 30
0.0
 11
-80.68958363885288
 21
-64.62339990768865
 31
0.0
  0
LINE
  5
8D
330
1F
100
AcDbEntity
  8
1
  6
Continuous
 62
     7
100
AcDbLine
 10
-89.689583638853
 20
-43.12339990768864
 30
0.0
 11
-80.68958363885288
 21
-43.12339990768864
 31
0.0
  0
LINE
  5
8E
330
1F
100
AcDbEntity
  8
1
  6
Continuous
 62
     7
100
AcDbLine
 10
-89.689583638853
 20
53.87660009231135
 30
0.0
 11
-89.689583638853
 21
-43.12339990768864
 31
0.0
  0
LINE
  5
8F
330
1F
100
AcDbEntity
  8
1
  6
Continuous
 62
     7
100
AcDbLine
 10
-80.68958363885288
 20
53.87660009231136
 30
0.0
 11
-89.689583638853
 21
53.87660009231135
 31
0.0
  0
LINE
  5
90
330
1F
100
AcDbEntity
  8
1
  6
DOT_CENTER
 62
     2
100
AcDbLine
 10
-88.68958363885305
 20
-94.62339990768865
 30
0.0
 11
-65.689583638853
 21
-94.62339990768865
 31
0.0
  0
LINE
  5
91
330
1F
100
AcDbEntity
  8
1
  6
DOT_CENTER
 62
     2
100
AcDbLine
 10
-88.68958363885305
 20
105.3766000923113
 30
0.0
 11
-65.689583638853
 21
105.3766000923113
 31
0.0
  0
LINE
  5
92
330
1F
100
AcDbEntity
  8
1
  6
DOT_CENTER
 62
     2
100
AcDbLine
 10
-65.689583638853
 20
-94.62339990768865
 30
0.0
 11
-52.68958363885299
 21
-94.62339990768862
 31
0.0
  0
LINE
  5
93
330
1F
100
AcDbEntity
  8
1
  6
DOT_CENTER
 62
     2
100
AcDbLine
 10
-65.689583638853
 20
105.3766000923113
 30
0.0
 11
-52.68958363885299
 21
105.3766000923113
 31
0.0
  0
LINE
  5
94
330
1F
100
AcDbEntity
  8
1
  6
Continuous
 62
     7
100
AcDbLine
 10
-65.689583638853
 20
-94.62339990768865
 30
0.0
 11
-65.689583638853
 21
-64.62339990768865
 31
0.0
  0
LINE
  5
95
330
1F
100
AcDbEntity
  8
1
  6
DOT_CENTER
 62
     2
100
AcDbLine
 10
-108.6895836388531
 20
-94.62339990768865
 30
0.0
 11
-88.68958363885305
 21
-94.62339990768865
 31
0.0
  0
LINE
  5
96
330
1F
100
AcDbEntity
  8
1
  6
DOT_CENTER
 62
     2
100
AcDbLine
 10
-108.6895836388531
 20
105.3766000923113
 30
0.0
 11
-88.68958363885305
 21
105.3766000923113
 31
0.0
  0
LINE
  5
97
330
1F
100
AcDbEntity
  8
1
  6
Continuous
 62
     7
100
AcDbLine
 10
-108.6895836388531
 20
105.3766000923113
 30
0.0
 11
-108.6895836388531
 21
-94.62339990768865
 31
0.0
  0
LINE
  5
98
330
1F
100
AcDbEntity
  8
1
  6
DOT_CENTER
 62
     2
100
AcDbLine
 10
-111.4513359841237
 20
-94.62339990768865
 30
0.0
 11
-108.6895836388531
 21
-94.62339990768865
 31
0.0
  0
LINE
  5
99
330
1F
100
AcDbEntity
  8
1
  6
DOT_CENTER
 62
     2
100
AcDbLine
 10
-111.4513359841237
 20
5.37660009231135
 30
0.0
 11
-61.17969971295487
 21
5.37660009231135
 31
0.0
  0
LINE
  5
9A
330
1F
100
AcDbEntity
  8
1
  6
DOT_CENTER
 62
     2
100
AcDbLine
 10
-111.4513359841237
 20
105.3766000923113
 30
0.0
 11
-108.6895836388531
 21
105.3766000923113
 31
0.0
  0
LINE
  5
9B
330
1F
100
AcDbEntity
  8
1
  6
DOT_CENTER
 62
     2
100
AcDbLine
 10
-197.6000806359427
 20
5.37660009231135
 30
0.0
 11
-139.747248015977
 21
5.37660009231135
 31
0.0
  0
LINE
  5
9C
330
1F
100
AcDbEntity
  8
1
  6
DOT_CENTER
 62
     2
100
AcDbLine
 10
-163.1092983114338
 20
-94.62339990768865
 30
0.0
 11
-144.7937815471108
 21
-94.62339990768865
 31
0.0
  0
LINE
  5
9D
330
1F
100
AcDbEntity
  8
1
  6
DOT_CENTER
 62
     2
100
AcDbLine
 10
-163.1092983114338
 20
105.3766000923113
 30
0.0
 11
-144.7937815471108
 21
105.3766000923113
 31
0.0
  0
LINE
  5
9E
330
1F
100
AcDbEntity
  8
1
  6
Continuous
 62
     7
100
AcDbLine
 10
-163.1092983114338
 20
105.3766000923113
 30
0.0
 11
-163.1092983114338
 21
-94.62339990768865
 31
0.0
  0
LINE
  5
9F
330
1F
100
AcDbEntity
  8
1
  6
DOT_CENTER
 62
     2
100
AcDbLine
 10
-192.1092983114338
 20
-94.62339990768865
 30
0.0
 11
-177.1092983114338
 21
-94.62339990768864
 31
0.0
  0
LINE
  5
A0
330
1F
100
AcDbEntity
  8
1
  6
DOT_CENTER
 62
     2
100
AcDbLine
 10
-192.1092983114338
 20
105.3766000923113
 30
0.0
 11
-177.1092983114338
 21
105.3766000923113
 31
0.0
  0
LINE
  5
A1
330
1F
100
AcDbEntity
  8
1
  6
Continuous
 62
     7
100
AcDbLine
 10
-192.1092983114338
 20
105.3766000923113
 30
0.0
 11
-192.1092983114338
 21
-94.62339990768865
 31
0.0
  0
LINE
  5
A2
330
1F
100
AcDbEntity
  8
1
  6
DOT_CENTER
 62
     2
100
AcDbLine
 10
-144.7937815471108
 20
105.3766000923113
 30
0.0
 11
-144.7937815471108
 21
109.761881720986
 31
0.0
  0
LINE
  5
A3
330
1F
100
AcDbEntity
  8
1
  6
DOT_CENTER
 62
     2
100
AcDbLine
 10
-144.7937815471108
 20
-94.62339990768865
 30
0.0
 11
-144.7937815471108
 21
-99.90359801694666
 31
0.0
  0
LINE
  5
A4
330
1F
100
AcDbEntity
  8
1
  6
DOT_CENTER
 62
     2
100
AcDbLine
 10
-144.7937815471108
 20
-94.62339990768865
 30
0.0
 11
-139.8383329234636
 21
-94.62339990768865
 31
0.0
  0
LINE
  5
A5
330
1F
100
AcDbEntity
  8
1
  6
DOT_CENTER
 62
     2
100
AcDbLine
 10
-144.7937815471108
 20
105.3766000923113
 30
0.0
 11
-139.8383329234636
 21
105.3766000923113
 31
0.0
  0
LINE
  5
A6
330
1F
100
AcDbEntity
  8
1
  6
DOT_CENTER
 62
     2
100
AcDbLine
 10
-144.7937815471108
 20
105.3766000923113
 30
0.0
 11
-144.7937815471108
 21
-94.62339990768865
 31
0.0
  0
LINE
  5
A7
330
1F
100
AcDbEntity
  8
1
  6
DOT_CENTER
 62
     2
100
AcDbLine
 10
-198.6000806359427
 20
-94.62339990768865
 30
0.0
 11
-192.1092983114338
 21
-94.62339990768865
 31
0.0
  0
LINE
  5
A8
330
1F
100
AcDbEntity
  8
1
  6
DOT_CENTER
 62
     2
100
AcDbLine
 10
-195.8500806359427
 20
105.3766000923113
 30
0.0
 11
-192.1092983114338
 21
105.3766000923113
 31
0.0
  0
LINE
  5
A9
330
1F
100
AcDbEntity
  8
1
  6
Continuous
 62
     7
100
AcDbLine
 10
-11.11320632733319
 20
-42.69793997026314
 30
0.0
 11
-11.11320632733319
 21
-51.69793997026315
 31
0.0
  0
LINE
  5
AA
330
1F
100
AcDbEntity
  8
1
  6
Continuous
 62
     7
100
AcDbLine
 10
-1.11320632733308
 20
-63.69793997026315
 30
0.0
 11
-1.11320632733307
 21
-66.69793997026315
 31
0.0
  0
LINE
  5
AB
330
1F
100
AcDbEntity
  8
1
  6
DOT_CENTER
 62
     2
100
AcDbLine
 10
-173.6092983114338
 20
105.3766000923113
 30
0.0
 11
-163.1092983114338
 21
105.3766000923113
 31
0.0
  0
LINE
  5
AC
330
1F
100
AcDbEntity
  8
1
  6
DOT_CENTER
 62
     2
100
AcDbLine
 10
-173.6092983114338
 20
-94.62339990768865
 30
0.0
 11
-163.1092983114338
 21
-94.62339990768865
 31
0.0
  0
LINE
  5
AD
330
1F
100
AcDbEntity
  8
1
  6
Continuous
 62
     7
100
AcDbLine
 10
-185.1092983114337
 20
45.37660009231135
 30
0.0
 11
-185.1092983114337
 21
-34.62339990768867
 31
0.0
  0
LINE
  5
AE
330
1F
100
AcDbEntity
  8
1
  6
DOT_CENTER
 62
     2
100
AcDbLine
 10
-178.6092983114338
 20
79.813547369683
 30
0.0
 11
-178.6092983114338
 21
-69.4321357730327
 31
0.0
  0
LINE
  5
AF
330
1F
100
AcDbEntity
  8
1
  6
DOT_CENTER
 62
     2
100
AcDbLine
 10
-194.6092983114338
 20
-54.12339990768867
 30
0.0
 11
-164.6092983114338
 21
-54.12339990768867
 31
0.0
  0
LINE
  5
B0
330
1F
100
AcDbEntity
  8
1
  6
DOT_CENTER
 62
     2
100
AcDbLine
 10
-194.6092983114338
 20
64.87660009231138
 30
0.0
 11
-164.6092983114338
 21
64.87660009231138
 31
0.0
  0
LINE
  5
B1
330
1F
100
AcDbEntity
  8
1
  6
Continuous
 62
     7
100
AcDbLine
 10
-80.68958363885288
 20
75.37660009231135
 30
0.0
 11
-80.68958363885288
 21
53.87660009231136
 31
0.0
  0
LINE
  5
B2
330
1F
100
AcDbEntity
  8
1
  6
Continuous
 62
     7
100
AcDbLine
 10
-65.689583638853
 20
75.37660009231135
 30
0.0
 11
-65.689583638853
 21
105.3766000923113
 31
0.0
  0
LINE
  5
B3
330
1F
100
AcDbEntity
  8
1
  6
Continuous
 62
     7
100
AcDbLine
 10
-65.689583638853
 20
-64.62339990768865
 30
0.0
 11
-65.689583638853
 21
75.37660009231135
 31
0.0
  0
LINE
  5
B4
330
1F
100
AcDbEntity
  8
1
  6
Continuous
 62
     7
100
AcDbLine
 10
-16.11320632733308
 20
-59.69793997026318
 30
0.0
 11
-16.11320632733308
 21
-51.69793997026315
 31
0.0
  0
LINE
  5
B5
330
1F
100
AcDbEntity
  8
1
  6
Continuous
 62
     7
100
AcDbLine
 10
-44.11320632733313
 20
-51.69793997026315
 30
0.0
 11
-25.11320632733309
 21
-51.69793997026315
 31
0.0
  0
LINE
  5
B6
330
1F
100
AcDbEntity
  8
1
  6
Continuous
 62
     7
100
AcDbLine
 10
-44.11320632733313
 20
-51.69793997026315
 30
0.0
 11
-44.11320632733313
 21
-66.6979399702632
 31
0.0
  0
LINE
  5
B7
330
1F
100
AcDbEntity
  8
1
  6
PHANTOM
 62
     2
100
AcDbLine
 10
-11.11320632733319
 20
-51.69793997026315
 30
0.0
 11
-11.11320632733307
 21
-63.69793997026315
 31
0.0
  0
LINE
  5
B8
330
1F
100
AcDbEntity
  8
1
  6
Continuous
 62
     7
100
AcDbLine
 10
-25.11320632733309
 20
-51.69793997026315
 30
0.0
 11
-11.11320632733319
 21
-51.69793997026315
 31
0.0
  0
LINE
  5
B9
330
1F
100
AcDbEntity
  8
1
  6
Continuous
 62
     7
100
AcDbLine
 10
-177.1092983114338
 20
75.17455906344406
 30
0.0
 11
-177.1092983114338
 21
-64.42135887882137
 31
0.0
  0
LINE
  5
BA
330
1F
100
AcDbEntity
  8
1
  6
DASHED
 62
     2
100
AcDbLine
 10
-177.1092983114338
 20
-64.42135887882137
 30
0.0
 11
-177.1092983114338
 21
-94.62339990768864
 31
0.0
  0
LINE
  5
BB
330
1F
100
AcDbEntity
  8
1
  6
DOT_CENTER
 62
     2
100
AcDbLine
 10
-177.1092983114338
 20
-94.62339990768864
 30
0.0
 11
-173.6092983114338
 21
-94.62339990768865
 31
0.0
  0
LINE
  5
BC
330
1F
100
AcDbEntity
  8
1
  6
DASHED
 62
     2
100
AcDbLine
 10
-177.1092983114338
 20
75.17455906344406
 30
0.0
 11
-177.1092983114338
 21
105.3766000923113
 31
0.0
  0
LINE
  5
BD
330
1F
100
AcDbEntity
  8
1
  6
DOT_CENTER
 62
     2
100
AcDbLine
 10
-177.1092983114338
 20
105.3766000923113
 30
0.0
 11
-173.6092983114338
 21
105.3766000923113
 31
0.0
  0
LINE
  5
BE
330
1F
100
AcDbEntity
  8
1
  6
DOT_CENTER
 62
     2
100
AcDbLine
 10
91.69860034321128
 20
-59.87339990768865
 30
0.0
 11
91.69860034321128
 21
-55.37339990768865
 31
0.0
  0
LINE
  5
BF
330
1F
100
AcDbEntity
  8
1
  6
DOT_CENTER
 62
     2
100
AcDbLine
 10
89.44860034321128
 20
-57.62339990768865
 30
0.0
 11
93.94860034321128
 21
-57.62339990768865
 31
0.0
  0
LINE
  5
C0
330
1F
100
AcDbEntity
  8
1
  6
DOT_CENTER
 62
     2
100
AcDbLine
 10
98.69860034321128
 20
-52.87339990768865
 30
0.0
 11
98.69860034321128
 21
-48.37339990768865
 31
0.0
  0
LINE
  5
C1
330
1F
100
AcDbEntity
  8
1
  6
DOT_CENTER
 62
     2
100
AcDbLine
 10
96.44860034321128
 20
-50.62339990768865
 30
0.0
 11
100.9486003432113
 21
-50.62339990768865
 31
0.0
  0
LINE
  5
C2
330
1F
100
AcDbEntity
  8
1
  6
DOT_CENTER
 62
     2
100
AcDbLine
 10
98.69860034321128
 20
59.12660009231135
 30
0.0
 11
98.69860034321128
 21
63.62660009231135
 31
0.0
  0
LINE
  5
C3
330
1F
100
AcDbEntity
  8
1
  6
DOT_CENTER
 62
     2
100
AcDbLine
 10
96.44860034321128
 20
61.37660009231135
 30
0.0
 11
100.9486003432113
 21
61.37660009231135
 31
0.0
  0
LINE
  5
C4
330
1F
100
AcDbEntity
  8
1
  6
DOT_CENTER
 62
     2
100
AcDbLine
 10
91.69860034321128
 20
66.12660009231135
 30
0.0
 11
91.69860034321128
 21
70.62660009231135
 31
0.0
  0
LINE
  5
C5
330
1F
100
AcDbEntity
  8
1
  6
DOT_CENTER
 62
     2
100
AcDbLine
 10
89.44860034321128
 20
68.37660009231135
 30
0.0
 11
93.94860034321128
 21
68.37660009231135
 31
0.0
  0
LINE
  5
C6
330
1F
100
AcDbEntity
  8
1
  6
DOT_CENTER
 62
     2
100
AcDbLine
 10
14.6649201599696
 20
-53.69793997026308
 30
0.0
 11
0.73531270605325
 21
-53.69793997026308
 31
0.0
  0
LINE
  5
C7
330
1F
100
AcDbEntity
  8
1
  6
DOT_CENTER
 62
     2
100
AcDbLine
 10
106.7337806860445
 20
-31.87339990768865
 30
0.0
 11
82.673680317395
 21
-31.87339990768865
 31
0.0
  0
LINE
  5
C8
330
1F
100
AcDbEntity
  8
1
  6
DOT_CENTER
 62
     2
100
AcDbLine
 10
82.673680317395
 20
42.62660009231135
 30
0.0
 11
106.7337806860445
 21
42.62660009231135
 31
0.0
  0
LINE
  5
C9
330
1F
100
AcDbEntity
  8
1
  6
DOT_CENTER
 62
     2
100
AcDbLine
 10
94.19860034321128
 20
54.0774055457129
 30
0.0
 11
94.19860034321128
 21
-44.2989979447035
 31
0.0
  0
LINE
  5
CA
330
1F
100
AcDbEntity
  8
1
  6
Continuous
 62
     7
100
AcDbLine
 10
102.1986003432113
 20
42.62660009231135
 30
0.0
 11
102.1986003432113
 21
-31.87339990768865
 31
0.0
  0
LINE
  5
CB
330
1F
100
AcDbEntity
  8
1
  6
DOT_CENTER
 62
     2
100
AcDbLine
 10
79.7852255887716
 20
66.37660009231135
 30
0.0
 11
112.059202378128
 21
66.37660009231135
 31
0.0
  0
LINE
  5
CC
330
1F
100
AcDbEntity
  8
1
  6
DOT_CENTER
 62
     2
100
AcDbLine
 10
80.8484424361249
 20
-55.62339990768865
 30
0.0
 11
113.646798996139
 21
-55.62339990768865
 31
0.0
  0
LINE
  5
CD
330
1F
100
AcDbEntity
  8
1
  6
DOT_CENTER
 62
     2
100
AcDbLine
 10
95.19860034321128
 20
79.0371086457252
 30
0.0
 11
95.19860034321128
 21
-71.7996641872473
 31
0.0
  0
LINE
  5
CE
330
1F
100
AcDbEntity
  8
1
  6
Continuous
 62
     7
100
AcDbLine
 10
86.19860034321128
 20
66.37660009231135
 30
0.0
 11
86.19860034321128
 21
-55.62339990768865
 31
0.0
  0
LINE
  5
CF
330
1F
100
AcDbEntity
  8
1
  6
Continuous
 62
     7
100
AcDbLine
 10
104.1986003432113
 20
61.62660009231135
 30
0.0
 11
104.1986003432113
 21
66.37660009231135
 31
0.0
  0
LINE
  5
D0
330
1F
100
AcDbEntity
  8
1
  6
Continuous
 62
     7
100
AcDbLine
 10
104.1986003432113
 20
-50.87339990768864
 30
0.0
 11
104.1986003432113
 21
-55.62339990768865
 31
0.0
  0
LINE
  5
D1
330
1F
100
AcDbEntity
  8
1
  6
Continuous
 62
     7
100
AcDbLine
 10
104.1986003432113
 20
61.62660009231135
 30
0.0
 11
104.1986003432113
 21
-29.62339990768866
 31
0.0
  0
LINE
  5
D2
330
1F
100
AcDbEntity
  8
1
  6
PHANTOM
 62
     2
100
AcDbLine
 10
47.38679367266684
 20
-68.47367057736668
 30
0.0
 11
47.38679367266684
 21
-66.6979399702632
 31
0.0
  0
LINE
  5
D3
330
1F
100
AcDbEntity
  8
1
  6
PHANTOM
 62
     2
100
AcDbLine
 10
47.38679367266684
 20
-66.6979399702632
 30
0.0
 11
47.38679367266684
 21
-26.69793997026321
 31
0.0
  0
LINE
  5
D4
330
1F
100
AcDbEntity
  8
1
  6
Continuous
 62
     7
100
AcDbLine
 10
2.38679367266664
 20
-66.6979399702632
 30
0.0
 11
2.38679367266664
 21
-62.69793997026299
 31
0.0
  0
LINE
  5
D5
330
1F
100
AcDbEntity
  8
1
  6
Continuous
 62
     7
100
AcDbLine
 10
27.38679367266667
 20
-44.69793997026299
 30
0.0
 11
12.38679367266681
 21
-44.69793997026299
 31
0.0
  0
LINE
  5
D6
330
1F
100
AcDbEntity
  8
1
  6
Continuous
 62
     7
100
AcDbLine
 10
2.38679367266664
 20
-62.69793997026299
 30
0.0
 11
12.38679367266663
 21
-62.69793997026299
 31
0.0
  0
LINE
  5
D7
330
1F
100
AcDbEntity
  8
1
  6
Continuous
 62
     7
100
AcDbLine
 10
47.38679367266684
 20
-66.6979399702632
 30
0.0
 11
2.38679367266664
 21
-66.6979399702632
 31
0.0
  0
LINE
  5
D8
330
1F
100
AcDbEntity
  8
1
  6
DOT_CENTER
 62
     2
100
AcDbLine
 10
62.8094379311456
 20
105.3766000923114
 30
0.0
 11
68.1986003432113
 21
105.3766000923114
 31
0.0
  0
LINE
  5
D9
330
1F
100
AcDbEntity
  8
1
  6
DOT_CENTER
 62
     2
100
AcDbLine
 10
62.8094379311456
 20
-94.62339990768866
 30
0.0
 11
68.1986003432113
 21
-94.62339990768866
 31
0.0
  0
LINE
  5
DA
330
1F
100
AcDbEntity
  8
1
  6
Continuous
 62
     7
100
AcDbLine
 10
68.1986003432113
 20
-94.62339990768866
 30
0.0
 11
68.1986003432113
 21
105.3766000923114
 31
0.0
  0
LINE
  5
DB
330
1F
100
AcDbEntity
  8
1
  6
DOT_CENTER
 62
     2
100
AcDbLine
 10
68.1986003432113
 20
105.3766000923114
 30
0.0
 11
84.19860034321128
 21
105.3766000923114
 31
0.0
  0
LINE
  5
DC
330
1F
100
AcDbEntity
  8
1
  6
DOT_CENTER
 62
     2
100
AcDbLine
 10
68.1986003432113
 20
-94.62339990768866
 30
0.0
 11
84.19860034321128
 21
-94.62339990768865
 31
0.0
  0
LINE
  5
DD
330
1F
100
AcDbEntity
  8
1
  6
Continuous
 62
     7
100
AcDbLine
 10
108.1986003432113
 20
-94.62339990768866
 30
0.0
 11
108.1986003432113
 21
105.3766000923114
 31
0.0
  0
LINE
  5
DE
330
1F
100
AcDbEntity
  8
1
  6
DOT_CENTER
 62
     2
100
AcDbLine
 10
108.1986003432113
 20
105.3766000923114
 30
0.0
 11
114.8813092857647
 21
105.3766000923114
 31
0.0
  0
LINE
  5
DF
330
1F
100
AcDbEntity
  8
1
  6
DOT_CENTER
 62
     2
100
AcDbLine
 10
108.1986003432113
 20
-94.62339990768866
 30
0.0
 11
114.1313092857647
 21
-94.62339990768866
 31
0.0
  0
LINE
  5
E0
330
1F
100
AcDbEntity
  8
1
  6
DOT_CENTER
 62
     2
100
AcDbLine
 10
62.0594379311456
 20
5.37660009231135
 30
0.0
 11
112.1313092857647
 21
5.37660009231135
 31
0.0
  0
LINE
  5
E1
330
1F
100
AcDbEntity
  8
1
  6
Continuous
 62
     7
100
AcDbLine
 10
12.38679367266681
 20
-44.69793997026299
 30
0.0
 11
12.38679367266665
 21
-60.69793997026299
 31
0.0
  0
LINE
  5
E2
330
1F
100
AcDbEntity
  8
1
  6
Continuous
 62
     7
100
AcDbLine
 10
12.38679367266681
 20
-44.69793997026299
 30
0.0
 11
2.38679367266681
 21
-44.69793997026291
 31
0.0
  0
LINE
  5
E3
330
1F
100
AcDbEntity
  8
1
  6
DOT_CENTER
 62
     2
100
AcDbLine
 10
138.7727714248735
 20
105.3766000923114
 30
0.0
 11
144.9119338369392
 21
105.3766000923114
 31
0.0
  0
LINE
  5
E4
330
1F
100
AcDbEntity
  8
1
  6
DOT_CENTER
 62
     2
100
AcDbLine
 10
139.9119338369392
 20
105.3766000923114
 30
0.0
 11
184.9119338369392
 21
105.3766000923114
 31
0.0
  0
LINE
  5
E5
330
1F
100
AcDbEntity
  8
1
  6
DOT_CENTER
 62
     2
100
AcDbLine
 10
184.9119338369392
 20
105.3766000923114
 30
0.0
 11
186.872001348131
 21
105.3766000923114
 31
0.0
  0
LINE
  5
E6
330
1F
100
AcDbEntity
  8
1
  6
DOT_CENTER
 62
     2
100
AcDbLine
 10
138.7727714248735
 20
-94.62339990768866
 30
0.0
 11
144.9119338369392
 21
-94.62339990768866
 31
0.0
  0
LINE
  5
E7
330
1F
100
AcDbEntity
  8
1
  6
DOT_CENTER
 62
     2
100
AcDbLine
 10
139.9119338369392
 20
-94.62339990768866
 30
0.0
 11
184.9119338369392
 21
-94.62339990768866
 31
0.0
  0
LINE
  5
E8
330
1F
100
AcDbEntity
  8
1
  6
DOT_CENTER
 62
     2
100
AcDbLine
 10
184.9119338369392
 20
-94.62339990768866
 30
0.0
 11
186.872001348131
 21
-94.62339990768866
 31
0.0
  0
LINE
  5
E9
330
1F
100
AcDbEntity
  8
1
  6
Continuous
 62
     7
100
AcDbLine
 10
184.9119338369392
 20
105.3766000923114
 30
0.0
 11
184.9119338369392
 21
75.37660009231134
 31
0.0
  0
LINE
  5
EA
330
1F
100
AcDbEntity
  8
1
  6
Continuous
 62
     7
100
AcDbLine
 10
184.9119338369392
 20
75.37660009231134
 30
0.0
 11
174.9119338369392
 21
75.37660009231136
 31
0.0
  0
LINE
  5
EB
330
1F
100
AcDbEntity
  8
1
  6
Continuous
 62
     7
100
AcDbLine
 10
184.9119338369392
 20
75.37660009231134
 30
0.0
 11
184.9119338369392
 21
-64.62339990768865
 31
0.0
  0
LINE
  5
EC
330
1F
100
AcDbEntity
  8
1
  6
Continuous
 62
     7
100
AcDbLine
 10
174.9119338369392
 20
75.37660009231136
 30
0.0
 11
174.9119338369392
 21
50.62660009231135
 31
0.0
  0
LINE
  5
ED
330
1F
100
AcDbEntity
  8
1
  6
Continuous
 62
     7
100
AcDbLine
 10
174.9119338369392
 20
50.62660009231135
 30
0.0
 11
159.9119338369392
 21
50.62660009231135
 31
0.0
  0
LINE
  5
EE
330
1F
100
AcDbEntity
  8
1
  6
Continuous
 62
     7
100
AcDbLine
 10
159.9119338369392
 20
50.62660009231135
 30
0.0
 11
159.9119338369392
 21
-39.87339990768864
 31
0.0
  0
LINE
  5
EF
330
1F
100
AcDbEntity
  8
1
  6
Continuous
 62
     7
100
AcDbLine
 10
159.9119338369392
 20
-39.87339990768864
 30
0.0
 11
174.9119338369392
 21
-39.87339990768866
 31
0.0
  0
LINE
  5
F0
330
1F
100
AcDbEntity
  8
1
  6
Continuous
 62
     7
100
AcDbLine
 10
174.9119338369392
 20
-39.87339990768866
 30
0.0
 11
174.9119338369392
 21
-64.62339990768865
 31
0.0
  0
LINE
  5
F1
330
1F
100
AcDbEntity
  8
1
  6
Continuous
 62
     7
100
AcDbLine
 10
174.9119338369392
 20
-64.62339990768865
 30
0.0
 11
184.9119338369392
 21
-64.62339990768865
 31
0.0
  0
LINE
  5
F2
330
1F
100
AcDbEntity
  8
1
  6
Continuous
 62
     7
100
AcDbLine
 10
184.9119338369392
 20
-64.62339990768865
 30
0.0
 11
184.9119338369392
 21
-94.62339990768866
 31
0.0
  0
LINE
  5
F3
330
1F
100
AcDbEntity
  8
1
  6
DOT_CENTER
 62
     2
100
AcDbLine
 10
139.9119338369392
 20
105.3766000923114
 30
0.0
 11
139.9119338369392
 21
-94.62339990768866
 31
0.0
  0
LINE
  5
F4
330
1F
100
AcDbEntity
  8
1
  6
DOT_CENTER
 62
     2
100
AcDbLine
 10
139.9119338369392
 20
-94.62339990768866
 30
0.0
 11
139.9119338369392
 21
-104.1112895265787
 31
0.0
  0
LINE
  5
F5
330
1F
100
AcDbEntity
  8
1
  6
DOT_CENTER
 62
     2
100
AcDbLine
 10
139.9119338369392
 20
105.3766000923114
 30
0.0
 11
139.9119338369392
 21
109.4193999621323
 31
0.0
  0
LINE
  5
F6
330
1F
100
AcDbEntity
  8
1
  6
DOT_CENTER
 62
     2
100
AcDbLine
 10
135.8074741741899
 20
5.37660009231135
 30
0.0
 11
186.5982542821677
 21
5.37660009231135
 31
0.0
  0
LINE
  5
F7
330
1F
100
AcDbEntity
  8
1
  6
DOT_CENTER
 62
     2
100
AcDbLine
 10
32.84299765474186
 20
-52.69793997026298
 30
0.0
 11
10.6319841965235
 21
-52.69793997026298
 31
0.0
  0
LINE
  5
F8
330
1F
100
AcDbEntity
  8
1
  6
Continuous
 62
     7
100
AcDbLine
 10
174.9119338369392
 20
50.62660009231135
 30
0.0
 11
174.9119338369392
 21
-32.87339990768865
 31
0.0
  0
LINE
  5
F9
330
1F
100
AcDbEntity
  8
1
  6
Continuous
 62
     7
100
AcDbLine
 10
174.9119338369392
 20
-39.87339990768866
 30
0.0
 11
174.9119338369392
 21
-32.87339990768865
 31
0.0
  0
LINE
  5
FA
330
1F
100
AcDbEntity
  8
1
  6
Continuous
 62
     7
100
AcDbLine
 10
2.38679367266681
 20
-44.69793997026291
 30
0.0
 11
2.38679367266684
 21
-42.69793997026321
 31
0.0
  0
LINE
  5
FB
330
1F
100
AcDbEntity
  8
1
  6
Continuous
 62
     7
100
AcDbLine
 10
2.38679367266664
 20
-62.69793997026299
 30
0.0
 11
2.38679367266681
 21
-44.69793997026291
 31
0.0
  0
LINE
  5
FC
330
1F
100
AcDbEntity
  8
1
  6
Continuous
 62
     7
100
AcDbLine
 10
104.1986003432113
 20
-29.62339990768866
 30
0.0
 11
104.1986003432113
 21
-50.87339990768864
 31
0.0
  0
LINE
  5
FD
330
1F
100
AcDbEntity
  8
1
  6
Continuous
 62
     7
100
AcDbLine
 10
15.38679367266693
 20
-26.69793997026321
 30
0.0
 11
15.38679367266693
 21
-42.69793997026321
 31
0.0
  0
LINE
  5
FE
330
1F
100
AcDbEntity
  8
1
  6
Continuous
 62
     7
100
AcDbLine
 10
15.38679367266693
 20
-42.69793997026321
 30
0.0
 11
2.38679367266684
 21
-42.69793997026321
 31
0.0
  0
LINE
  5
FF
330
1F
100
AcDbEntity
  8
1
  6
Continuous
 62
     7
100
AcDbLine
 10
12.38679367266665
 20
-60.69793997026299
 30
0.0
 11
27.38679367266663
 21
-60.69793997026299
 31
0.0
  0
LINE
  5
100
330
1F
100
AcDbEntity
  8
1
  6
Continuous
 62
     7
100
AcDbLine
 10
27.38679367266663
 20
-60.69793997026299
 30
0.0
 11
27.38679367266667
 21
-44.69793997026299
 31
0.0
  0
LINE
  5
101
330
1F
100
AcDbEntity
  8
1
  6
Continuous
 62
     7
100
AcDbLine
 10
12.38679367266665
 20
-60.69793997026299
 30
0.0
 11
12.38679367266663
 21
-62.69793997026299
 31
0.0
  0
LINE
  5
102
330
1F
100
AcDbEntity
  8
1
  6
Continuous
 62
     7
100
AcDbLine
 10
84.19860034321128
 20
105.3766000923114
 30
0.0
 11
84.19860034321128
 21
-94.62339990768865
 31
0.0
  0
LINE
  5
103
330
1F
100
AcDbEntity
  8
1
  6
DOT_CENTER
 62
     2
100
AcDbLine
 10
84.19860034321128
 20
105.3766000923114
 30
0.0
 11
108.1986003432113
 21
105.3766000923114
 31
0.0
  0
LINE
  5
104
330
1F
100
AcDbEntity
  8
1
  6
DOT_CENTER
 62
     2
100
AcDbLine
 10
84.19860034321128
 20
-94.62339990768865
 30
0.0
 11
108.1986003432113
 21
-94.62339990768866
 31
0.0
  0
LINE
  5
105
330
1F
100
AcDbEntity
  8
1
  6
DOT_CENTER
 62
     2
100
AcDbLine
 10
92.94860034321128
 20
54.37660009231135
 30
0.0
 11
97.4486003432113
 21
54.37660009231135
 31
0.0
  0
LINE
  5
106
330
1F
100
AcDbEntity
  8
1
  6
DOT_CENTER
 62
     2
100
AcDbLine
 10
92.94860034321128
 20
-43.62339990768865
 30
0.0
 11
97.4486003432113
 21
-43.62339990768865
 31
0.0
  0
LINE
  5
107
330
1F
100
AcDbEntity
  8
1
  6
PHANTOM
 62
     2
100
AcDbLine
 10
47.38679367266684
 20
-26.69793997026321
 30
0.0
 11
47.38679367266684
 21
-21.87239328400037
 31
0.0
  0
LINE
  5
108
330
1F
100
AcDbEntity
  8
1
  6
Continuous
 62
     7
100
AcDbLine
 10
15.38679367266693
 20
-26.69793997026321
 30
0.0
 11
47.38679367266684
 21
-26.69793997026321
 31
0.0
  0
ARC
  5
109
330
1F
100
AcDbEntity
  8
1
  6
Continuous
 62
     7
100
AcDbCircle
 10
94.19860034321128
 20
-31.87339990768865
 30
0.0
 40
8.0
100
AcDbArc
 50
180.0
 51
-90.0
  0
ARC
  5
10A
330
1F
100
AcDbEntity
  8
1
  6
Continuous
 62
     7
100
AcDbCircle
 10
94.19860034321128
 20
42.62660009231135
 30
0.0
 40
8.000000000000014
100
AcDbArc
 50
0.0
 51
90.0
  0
ARC
  5
10B
330
1F
100
AcDbEntity
  8
1
  6
Continuous
 62
     7
100
AcDbCircle
 10
95.19860034321128
 20
-55.62339990768865
 30
0.0
 40
9.0
100
AcDbArc
 50
180.0
 51
-90.0
  0
ARC
  5
10C
330
1F
100
AcDbEntity
  8
1
  6
Continuous
 62
     7
100
AcDbCircle
 10
95.19860034321128
 20
66.37660009231135
 30
0.0
 40
9.000000000000014
100
AcDbArc
 50
0.0
 51
90.0
  0
ARC
  5
10D
330
1F
100
AcDbEntity
  8
1
  6
Continuous
 62
     7
100
AcDbCircle
 10
94.19860034321128
 20
-31.87339990768865
 30
0.0
 40
8.0
100
AcDbArc
 50
-90.0
 51
0.0
  0
ARC
  5
10E
330
1F
100
AcDbEntity
  8
1
  6
Continuous
 62
     7
100
AcDbCircle
 10
94.19860034321128
 20
42.62660009231135
 30
0.0
 40
8.0
100
AcDbArc
 50
90.0
 51
180.0
  0
ARC
  5
10F
330
1F
100
AcDbEntity
  8
1
  6
Continuous
 62
     7
100
AcDbCircle
 10
95.19860034321128
 20
-55.62339990768865
 30
0.0
 40
9.0
100
AcDbArc
 50
-90.0
 51
0.0
  0
ARC
  5
110
330
1F
100
AcDbEntity
  8
1
  6
Continuous
 62
     7
100
AcDbCircle
 10
95.19860034321128
 20
66.37660009231135
 30
0.0
 40
9.0
100
AcDbArc
 50
90.0
 51
180.0
  0
CIRCLE
  5
111
330
1F
100
AcDbEntity
  8
1
  6
DOT_CENTER
 62
     2
100
AcDbCircle
 10
-176.1092983114338
 20
-54.12339990768867
 30
0.0
 40
8.0
  0
CIRCLE
  5
112
330
1F
100
AcDbEntity
  8
1
  6
Continuous
 62
     7
100
AcDbCircle
 10
91.69860034321128
 20
-57.62339990768865
 30
0.0
 40
1.5
  0
CIRCLE
  5
113
330
1F
100
AcDbEntity
  8
1
  6
Continuous
 62
     7
100
AcDbCircle
 10
98.69860034321128
 20
-50.62339990768865
 30
0.0
 40
1.500000000000014
  0
CIRCLE
  5
114
330
1F
100
AcDbEntity
  8
1
  6
Continuous
 62
     7
100
AcDbCircle
 10
98.69860034321128
 20
61.37660009231135
 30
0.0
 40
1.500000000000014
  0
CIRCLE
  5
115
330
1F
100
AcDbEntity
  8
1
  6
Continuous
 62
     7
100
AcDbCircle
 10
91.69860034321128
 20
68.37660009231135
 30
0.0
 40
1.5
  0
CIRCLE
  5
116
330
1F
100
AcDbEntity
  8
1
  6
DOT_CENTER
 62
     2
100
AcDbCircle
 10
94.19860034321128
 20
-55.370314717898
 30
0.0
 40
8.000000000000014
  0
CIRCLE
  5
117
330
1F
100
AcDbEntity
  8
1
  6
Continuous
 62
     7
100
AcDbCircle
 10
95.19860034321128
 20
54.37660009231135
 30
0.0
 40
1.500000000000014
  0
CIRCLE
  5
118
330
1F
100
AcDbEntity
  8
1
  6
Continuous
 62
     7
100
AcDbCircle
 10
95.19860034321128
 20
-43.62339990768865
 30
0.0
 40
1.500000000000014
  0
ARC
  5
119
330
1F
100
AcDbEntity
  8
1
  6
Continuous
 62
     7
100
AcDbCircle
 10
-176.6092983114337
 20
-34.62339990768864
 30
0.0
 40
8.5
100
AcDbArc
 50
-179.9999999999998
 51
-93.37228668343468
  0
ARC
  5
11A
330
1F
100
AcDbEntity
  8
1
  6
DOT_CENTER
 62
     2
100
AcDbCircle
 10
-176.6092983114337
 20
45.37660009231135
 30
0.0
 40
8.5
100
AcDbArc
 50
90.0
 51
93.37228668343467
  0
ARC
  5
11B
330
1F
100
AcDbEntity
  8
1
  6
DOT_CENTER
 62
     2
100
AcDbCircle
 10
-176.6092983114337
 20
45.37660009231135
 30
0.0
 40
8.499999999999886
100
AcDbArc
 50
0.00000000000005
 51
90.0
  0
ARC
  5
11C
330
1F
100
AcDbEntity
  8
1
  6
DOT_CENTER
 62
     2
100
AcDbCircle
 10
-176.6092983114337
 20
-34.62339990768864
 30
0.0
 40
8.5
100
AcDbArc
 50
-90.0
 51
-0.0000000000001
  0
ARC
  5
11D
330
1F
100
AcDbEntity
  8
1
  6
DOT_CENTER
 62
     2
100
AcDbCircle
 10
-176.6092983114337
 20
-34.62339990768864
 30
0.0
 40
8.49999999999999
100
AcDbArc
 50
-93.37228668343468
 51
-90.0
  0
ARC
  5
11E
330
1F
100
AcDbEntity
  8
1
  6
Continuous
 62
     7
100
AcDbCircle
 10
-176.6092983114337
 20
45.37660009231135
 30
0.0
 40
8.500000000000004
100
AcDbArc
 50
93.37228668343467
 51
180.0
  0
ARC
  5
11F
330
1F
100
AcDbEntity
  8
1
  6
Continuous
 62
     7
100
AcDbCircle
 10
-178.6092983114338
 20
-54.12339990768865
 30
0.0
 40
10.5
100
AcDbArc
 50
-90.0
 51
-0.00000000000012
  0
ARC
  5
120
330
1F
100
AcDbEntity
  8
1
  6
Continuous
 62
     7
100
AcDbCircle
 10
-178.6092983114338
 20
-54.12339990768865
 30
0.0
 40
10.5
100
AcDbArc
 50
-180.0
 51
-90.0
  0
ARC
  5
121
330
1F
100
AcDbEntity
  8
1
  6
Continuous
 62
     7
100
AcDbCircle
 10
-178.6092983114338
 20
64.87660009231135
 30
0.0
 40
10.5
100
AcDbArc
 50
0.00000000000016
 51
90.0
  0
ARC
  5
122
330
1F
100
AcDbEntity
  8
1
  6
Continuous
 62
     7
100
AcDbCircle
 10
-178.6092983114338
 20
64.87660009231135
 30
0.0
 40
10.5
100
AcDbArc
 50
90.0
 51
180.0
  0
MTEXT
  5
124
330
1F
100
AcDbEntity
  8
1
 62
     2
100
AcDbMText
 10
-30.40997654504031
 20
55.45485865396127
 30
0.0
 40
3.5
 41
0.0
 71
     4
 72
     1
  1
Befestigungsplatte\PTE210-3D FZ
  7
CONVERTER_11
 73
     1
 44
1.32052821128451
  0
MTEXT
  5
125
330
1F
100
AcDbEntity
  8
1
 62
     3
100
AcDbMText
 10
-42.01073053579021
 20
-105.7574994986811
 30
0.0
 40
5.0
 41
0.0
 71
     4
 72
     1
  1
Fräsbild\PFutterzarge\PRahmen
  7
CONVERTER_11
 73
     1
 44
1.32052821128451
  0
MTEXT
  5
126
330
1F
100
AcDbEntity
  8
1
 62
     3
100
AcDbMText
 10
19.40554988135929
 20
-97.7574994986811
 30
0.0
 40
5.0
 41
0.0
 71
     4
 72
     1
  1
Fräsbild\PFlügel
  7
CONVERTER_11
 73
     1
 44
1.32052821128451
  0
DIMENSION
  5
133
330
1F
100
AcDbEntity
  8
1
100
AcDbDimension
  2
*D1
 10
91.69860034321128
 20
83.2105310942362
 30
0.0
 11
94.8248530183153
 21
86.9605310942362
 31
0.0
 70
    32
  1
<>
 71
     5
 42
-1.0
 53
0.00013888888889
  3
ME10_DIM_10
100
AcDbAlignedDimension
 13
98.69860034321128
 23
63.62660009231135
 33
0.0
 14
91.69860034321128
 24
70.62660009231135
 34
0.0
100
AcDbRotatedDimension
  0
DIMENSION
  5
13E
330
1F
100
AcDbEntity
  8
1
100
AcDbDimension
  2
*D2
 10
127.703068112831
 20
-57.62339990768865
 30
0.0
 11
123.953068112831
 21
8.76559273158716
 31
0.0
 70
    32
  1
<>
 71
     5
 42
-1.0
 53
90.0
  3
ME10_DIM_11
100
AcDbAlignedDimension
 13
93.94860034321128
 23
68.37660009231135
 33
0.0
 14
93.94860034321128
 24
-57.62339990768865
 34
0.0
 50
90.0
100
AcDbRotatedDimension
  0
DIMENSION
  5
149
330
1F
100
AcDbEntity
  8
1
100
AcDbDimension
  2
*D3
 10
121.178001368431
 20
61.37660009231135
 30
0.0
 11
117.428001368431
 21
7.13858309417287
 31
0.0
 70
    32
  1
<>
 71
     5
 42
-1.0
 53
90.0
  3
ME10_DIM_12
100
AcDbAlignedDimension
 13
100.9486003432113
 23
-50.62339990768865
 33
0.0
 14
100.9486003432113
 24
61.37660009231135
 34
0.0
 50
90.0
100
AcDbRotatedDimension
  0
DIMENSION
  5
154
330
1F
100
AcDbEntity
  8
1
100
AcDbDimension
  2
*D4
 10
86.19860034321128
 20
-101.3635996811345
 30
0.0
 11
93.5454108862319
 21
-97.6135996811345
 31
0.0
 70
    32
  1
<>
 71
     5
 42
-1.0
 53
0.00013888888889
  3
ME10_DIM_13
100
AcDbAlignedDimension
 13
102.1986003432113
 23
-31.87339990768865
 33
0.0
 14
86.19860034321128
 24
-55.62339990768865
 34
0.0
100
AcDbRotatedDimension
  0
DIMENSION
  5
15F
330
1F
100
AcDbEntity
  8
1
100
AcDbDimension
  2
*D5
 10
104.1986003432113
 20
-108.785670014645
 30
0.0
 11
94.1239768395748
 21
-105.035670014645
 31
0.0
 70
    32
  1
<>
 71
     5
 42
-1.0
 53
0.00013888888889
  3
ME10_DIM_14
100
AcDbAlignedDimension
 13
86.19860034321128
 23
-55.62339990768865
 33
0.0
 14
104.1986003432113
 24
-50.87339990768864
 34
0.0
100
AcDbRotatedDimension
  0
DIMENSION
  5
16C
330
1F
100
AcDbEntity
  8
1
100
AcDbDimension
  2
*D6
 10
8.61444734521251
 20
-66.6979399702632
 30
0.0
 11
4.86444734521251
 21
-72.1236985766854
 31
0.0
 70
    32
  1
<>
 71
     5
 42
-1.0
 53
90.0
  3
ME10_DIM_15
100
AcDbAlignedDimension
 13
12.38679367266663
 23
-62.69793997026299
 33
0.0
 14
2.38679367266664
 24
-66.6979399702632
 34
0.0
 50
90.0
100
AcDbRotatedDimension
  0
DIMENSION
  5
177
330
1F
100
AcDbEntity
  8
1
100
AcDbDimension
  2
*D7
 10
55.4619773579631
 20
-66.6979399702632
 30
0.0
 11
51.7119773579631
 21
-54.880976003421
 31
0.0
 70
    32
  1
<>
 71
     5
 42
-1.0
 53
90.0
  3
ME10_DIM_16
100
AcDbAlignedDimension
 13
15.38679367266693
 23
-42.69793997026321
 33
0.0
 14
47.38679367266684
 24
-66.6979399702632
 34
0.0
 50
90.0
100
AcDbRotatedDimension
  0
DIMENSION
  5
184
330
1F
100
AcDbEntity
  8
1
100
AcDbDimension
  2
*D8
 10
104.1986003432113
 20
-108.785670014645
 30
0.0
 11
115.450828588057
 21
-105.035670014645
 31
0.0
 70
    32
  1
<>
 71
     5
 42
-1.0
 53
0.00013888888889
  3
ME10_DIM_17
100
AcDbAlignedDimension
 13
108.1986003432113
 23
-94.62339990768866
 33
0.0
 14
104.1986003432113
 24
-50.87339990768864
 34
0.0
100
AcDbRotatedDimension
  0
DIMENSION
  5
18F
330
1F
100
AcDbEntity
  8
1
100
AcDbDimension
  2
*D9
 10
184.9119338369392
 20
-114.622960427562
 30
0.0
 11
172.3725708734655
 21
-110.872960427562
 31
0.0
 70
    32
  1
<>
 71
     5
 42
-1.0
 53
0.00013888888889
  3
ME10_DIM_18
100
AcDbAlignedDimension
 13
159.9119338369392
 23
-39.87339990768864
 33
0.0
 14
184.9119338369392
 24
-64.62339990768865
 34
0.0
100
AcDbRotatedDimension
  0
DIMENSION
  5
19A
330
1F
100
AcDbEntity
  8
1
100
AcDbDimension
  2
*D10
 10
174.9119338369392
 20
-103.785670014645
 30
0.0
 11
179.430422172949
 21
-100.035670014645
 31
0.0
 70
    32
  1
<>
 71
     5
 42
-1.0
 53
0.00013888888889
  3
ME10_DIM_19
100
AcDbAlignedDimension
 13
184.9119338369392
 23
-94.62339990768866
 33
0.0
 14
174.9119338369392
 24
-64.62339990768865
 34
0.0
100
AcDbRotatedDimension
  0
DIMENSION
  5
1A5
330
1F
100
AcDbEntity
  8
1
100
AcDbDimension
  2
*D11
 10
114.800353254198
 20
50.62660009231135
 30
0.0
 11
111.050353254198
 21
-0.6260408971885
 31
0.0
 70
    32
  1
<>
 71
     5
 42
-1.0
 53
90.0
  3
ME10_DIM_20
100
AcDbAlignedDimension
 13
94.19860034321128
 23
-39.87339990768865
 33
0.0
 14
94.19860034321128
 24
50.62660009231135
 34
0.0
 50
90.0
100
AcDbRotatedDimension
  0
DIMENSION
  5
1B0
330
1F
100
AcDbEntity
  8
1
100
AcDbDimension
  2
*D12
 10
134.365113949226
 20
-64.62339990768865
 30
0.0
 11
130.615113949226
 21
2.33327261368885
 31
0.0
 70
    32
  1
<>
 71
     5
 42
-1.0
 53
90.0
  3
ME10_DIM_21
100
AcDbAlignedDimension
 13
95.19860034321128
 23
75.37660009231135
 33
0.0
 14
95.19860034321128
 24
-64.62339990768865
 34
0.0
 50
90.0
100
AcDbRotatedDimension
  0
DIMENSION
  5
1BB
330
1F
100
AcDbEntity
  8
1
100
AcDbDimension
  2
*D13
 10
-185.1092983114337
 20
25.2594849337661
 30
0.0
 11
-173.376834644015
 21
29.0094849337661
 31
0.0
 70
    32
  1
<>
 71
     5
 42
-1.0
 53
0.00013888888889
  3
ME10_DIM_22
100
AcDbAlignedDimension
 13
-168.1092983114338
 23
45.37660009231136
 33
0.0
 14
-185.1092983114337
 24
45.37660009231135
 34
0.0
100
AcDbRotatedDimension
  0
DIMENSION
  5
1C6
330
1F
100
AcDbEntity
  8
1
100
AcDbDimension
  2
*D14
 10
-123.23579397888
 20
75.37660009231135
 30
0.0
 11
-126.98579397888
 21
5.37229540757812
 31
0.0
 70
    32
  1
<>
 71
     5
 42
-1.0
 53
90.0
  3
ME10_DIM_23
100
AcDbAlignedDimension
 13
-178.6092983114338
 23
-64.62339990768865
 33
0.0
 14
-178.6092983114338
 24
75.37660009231135
 34
0.0
 50
90.0
100
AcDbRotatedDimension
  0
DIMENSION
  5
1D1
330
1F
100
AcDbEntity
  8
1
100
AcDbDimension
  2
*D15
 10
-131.573538589165
 20
53.87660009231135
 30
0.0
 11
-135.323538589165
 21
6.0397770616606
 31
0.0
 70
    32
  1
<>
 71
     5
 42
-1.0
 53
90.0
  3
ME10_DIM_24
100
AcDbAlignedDimension
 13
-176.6092983114337
 23
-43.12339990768864
 33
0.0
 14
-176.6092983114337
 24
53.87660009231135
 34
0.0
 50
90.0
100
AcDbRotatedDimension
  0
DIMENSION
  5
1DC
330
1F
100
AcDbEntity
  8
1
100
AcDbDimension
  2
*D16
 10
-65.689583638853
 20
-103.811863838072
 30
0.0
 11
-73.4734025213866
 21
-100.061863838072
 31
0.0
 70
    32
  1
<>
 71
     5
 42
-1.0
 53
0.00013888888889
  3
ME10_DIM_25
100
AcDbAlignedDimension
 13
-80.68958363885288
 23
-64.62339990768865
 33
0.0
 14
-65.689583638853
 24
-94.62339990768865
 34
0.0
100
AcDbRotatedDimension
  0
DIMENSION
  5
1E9
330
1F
100
AcDbEntity
  8
1
100
AcDbDimension
  2
*D17
 10
-5.18553578466974
 20
-66.69793997026315
 30
0.0
 11
-8.93553578466974
 21
-70.8064021164145
 31
0.0
 70
    32
  1
<>
 71
     5
 42
-1.0
 53
90.0
  3
ME10_DIM_26
100
AcDbAlignedDimension
 13
-11.11320632733307
 23
-63.69793997026315
 33
0.0
 14
-1.11320632733307
 24
-66.69793997026315
 34
0.0
 50
90.0
100
AcDbRotatedDimension
  0
DIMENSION
  5
1F4
330
1F
100
AcDbEntity
  8
1
100
AcDbDimension
  2
*D18
 10
-65.689583638853
 20
-115.213256550037
 30
0.0
 11
-77.5752232625424
 21
-111.463256550037
 31
0.0
 70
    32
  1
<>
 71
     5
 42
-1.0
 53
0.00013888888889
  3
ME10_DIM_27
100
AcDbAlignedDimension
 13
-89.689583638853
 23
-43.12339990768864
 33
0.0
 14
-65.689583638853
 24
-64.62339990768865
 34
0.0
100
AcDbRotatedDimension
  0
DIMENSION
  5
1FF
330
1F
100
AcDbEntity
  8
1
100
AcDbDimension
  2
*D19
 10
76.273281338265
 20
54.37660009231135
 30
0.0
 11
72.523281338265
 21
12.1128149153002
 31
0.0
 70
    32
  1
<>
 71
     5
 42
-1.0
 53
90.0
  3
ME10_DIM_28
100
AcDbAlignedDimension
 13
92.94860034321128
 23
-43.62339990768865
 33
0.0
 14
92.94860034321128
 24
54.37660009231135
 34
0.0
 50
90.0
100
AcDbRotatedDimension
  0
DIMENSION
  5
20C
330
1F
100
AcDbEntity
  8
1
100
AcDbDimension
  2
*D20
 10
-192.1092983114338
 20
-105.49514119444
 30
0.0
 11
-197.122659850456
 21
-101.74514119444
 31
0.0
 70
    32
  1
<>
 71
     5
 42
-1.0
 53
0.00013888888889
  3
ME10_DIM_29
100
AcDbAlignedDimension
 13
-189.1092983114338
 23
-54.12339990768866
 33
0.0
 14
-192.1092983114338
 24
-94.62339990768865
 34
0.0
100
AcDbRotatedDimension
  0
DIMENSION
  5
217
330
1F
100
AcDbEntity
  8
1
100
AcDbDimension
  2
*D21
 10
-189.1092983114338
 20
-105.49514119444
 30
0.0
 11
-178.6092983114338
 21
-101.74514119444
 31
0.0
 70
    32
  1
<>
 71
     5
 42
-1.0
 53
0.00013888888889
  3
ME10_DIM_30
100
AcDbAlignedDimension
 13
-168.1092983114338
 23
-54.12339990768867
 33
0.0
 14
-189.1092983114338
 24
-54.12339990768866
 34
0.0
100
AcDbRotatedDimension
  0
INSERT
  5
21E
330
1F
100
AcDbEntity
  8
1
100
AcDbBlockReference
  2
*D22
 10
0.0
 20
0.0
 30
0.0
  0
INSERT
  5
226
330
1F
100
AcDbEntity
  8
1
100
AcDbBlockReference
  2
*D23
 10
0.0
 20
0.0
 30
0.0
  0
INSERT
  5
22E
330
1F
100
AcDbEntity
  8
1
100
AcDbBlockReference
  2
*D24
 10
0.0
 20
0.0
 30
0.0
  0
INSERT
  5
237
330
1F
100
AcDbEntity
  8
1
100
AcDbBlockReference
  2
*D25
 10
0.0
 20
0.0
 30
0.0
  0
ENDSEC
  0
SECTION
  2
OBJECTS
  0
DICTIONARY
  5
C
330
0
100
AcDbDictionary
281
     1
  3
ACAD_GROUP
350
D
  3
ACAD_LAYOUT
350
1A
  3
ACAD_MLINESTYLE
350
17
  3
ACAD_PLOTSETTINGS
350
19
  3
ACAD_PLOTSTYLENAME
350
E
  0
DICTIONARY
  5
D
102
{ACAD_REACTORS
330
C
102
}
330
C
100
AcDbDictionary
281
     1
  0
DICTIONARY
  5
1A
102
{ACAD_REACTORS
330
C
102
}
330
C
100
AcDbDictionary
281
     1
  3
Layout1
350
1E
  3
Layout2
350
26
  3
Model
350
22
  0
DICTIONARY
  5
17
102
{ACAD_REACTORS
330
C
102
}
330
C
100
AcDbDictionary
281
     1
  3
Standard
350
18
  0
DICTIONARY
  5
19
102
{ACAD_REACTORS
330
C
102
}
330
C
100
AcDbDictionary
281
     1
  0
ACDBDICTIONARYWDFLT
  5
E
102
{ACAD_REACTORS
330
C
102
}
330
C
100
AcDbDictionary
281
     1
  3
Normal
350
F
100
AcDbDictionaryWithDefault
340
F
  0
LAYOUT
  5
1E
102
{ACAD_REACTORS
330
1A
102
}
330
1A
100
AcDbPlotSettings
  1

  2

  4

  6

 40
0.0
 41
0.0
 42
0.0
 43
0.0
 44
0.0
 45
0.0
 46
0.0
 47
0.0
 48
0.0
 49
0.0
140
0.0
141
0.0
142
1.0
143
1.0
 70
   688
 72
     0
 73
     0
 74
     5
  7

 75
    16
 76
     0
 77
     2
 78
   300
147
1.0
148
0.0
149
0.0
100
AcDbLayout
  1
Layout1
 70
     1
 71
     1
 10
0.0
 20
0.0
 11
0.0
 21
0.0
 12
0.0
 22
0.0
 32
0.0
 14
0.0
 24
0.0
 34
0.0
 15
0.0
 25
0.0
 35
0.0
146
0.0
 13
0.0
 23
0.0
 33
0.0
 16
1.0
 26
0.0
 36
0.0
 17
0.0
 27
1.0
 37
0.0
 76
     0
330
1B
  0
LAYOUT
  5
26
102
{ACAD_REACTORS
330
1A
102
}
330
1A
100
AcDbPlotSettings
  1

  2

  4

  6

 40
0.0
 41
0.0
 42
0.0
 43
0.0
 44
0.0
 45
0.0
 46
0.0
 47
0.0
 48
0.0
 49
0.0
140
0.0
141
0.0
142
1.0
143
1.0
 70
   688
 72
     0
 73
     0
 74
     5
  7

 75
    16
 76
     0
 77
     2
 78
   300
147
1.0
148
0.0
149
0.0
100
AcDbLayout
  1
Layout2
 70
     1
 71
     2
 10
0.0
 20
0.0
 11
0.0
 21
0.0
 12
0.0
 22
0.0
 32
0.0
 14
0.0
 24
0.0
 34
0.0
 15
0.0
 25
0.0
 35
0.0
146
0.0
 13
0.0
 23
0.0
 33
0.0
 16
1.0
 26
0.0
 36
0.0
 17
0.0
 27
1.0
 37
0.0
 76
     0
330
23
  0
LAYOUT
  5
22
102
{ACAD_REACTORS
330
1A
102
}
330
1A
100
AcDbPlotSettings
  1

  2

  4

  6

 40
0.0
 41
0.0
 42
0.0
 43
0.0
 44
0.0
 45
0.0
 46
0.0
 47
0.0
 48
0.0
 49
0.0
140
0.0
141
0.0
142
1.0
143
1.0
 70
  1712
 72
     0
 73
     0
 74
     0
  7

 75
     0
 76
     0
 77
     2
 78
   300
147
1.0
148
0.0
149
0.0
100
AcDbLayout
  1
Model
 70
     1
 71
     0
 10
0.0
 20
0.0
 11
0.0
 21
0.0
 12
0.0
 22
0.0
 32
0.0
 14
-204.4654279100508
 24
-125.1293055096603
 34
0.0
 15
186.872001348131
 25
109.761881720986
 35
0.0
146
0.0
 13
0.0
 23
0.0
 33
0.0
 16
1.0
 26
0.0
 36
0.0
 17
0.0
 27
1.0
 37
0.0
 76
     0
330
1F
  0
MLINESTYLE
  5
18
102
{ACAD_REACTORS
330
17
102
}
330
17
100
AcDbMlineStyle
  2
Standard
 70
     0
  3

 62
   256
 51
90.0
 52
90.0
 71
     2
 49
0.5
 62
   256
  6
BYLAYER
 49
-0.5
 62
   256
  6
BYLAYER
  0
ACDBPLACEHOLDER
  5
F
102
{ACAD_REACTORS
330
E
102
}
330
E
  0
ENDSEC
  0
EOF
