  0
SECTION
  2
HEADER
  9
$ACADVER
  1
AC1018
  9
$ACADMAINTVER
 70
     0
  9
$DWGCODEPAGE
  3
ANSI_1252
  9
$INSBASE
 10
0.0
 20
0.0
 30
0.0
  9
$EXTMIN
 10
-62.7693584227262
 20
-82.9128103006777
 30
0.0
  9
$EXTMAX
 10
63.9989745266741
 20
24.08734679886905
 30
0.0
  9
$LIMMIN
 10
0.0
 20
0.0
  9
$LIMMAX
 10
12.0
 20
9.0
  9
$ORTHOMODE
 70
     0
  9
$REGENMODE
 70
     1
  9
$FILLMODE
 70
     1
  9
$QTEXTMODE
 70
     0
  9
$MIRRTEXT
 70
     1
  9
$LTSCALE
 40
1.0
  9
$ATTMODE
 70
     1
  9
$TEXTSIZE
 40
0.2
  9
$TRACEWID
 40
0.05
  9
$TEXTSTYLE
  7
Standard
  9
$CLAYER
  8
0
  9
$CELTYPE
  6
ByLayer
  9
$CECOLOR
 62
   256
  9
$CELTSCALE
 40
1.0
  9
$DISPSILH
 70
     0
  9
$DIMSCALE
 40
1.0
  9
$DIMASZ
 40
0.18
  9
$DIMEXO
 40
0.0625
  9
$DIMDLI
 40
0.38
  9
$DIMRND
 40
0.0
  9
$DIMDLE
 40
0.0
  9
$DIMEXE
 40
0.18
  9
$DIMTP
 40
0.0
  9
$DIMTM
 40
0.0
  9
$DIMTXT
 40
0.18
  9
$DIMCEN
 40
0.09
  9
$DIMTSZ
 40
0.0
  9
$DIMTOL
 70
     0
  9
$DIMLIM
 70
     0
  9
$DIMTIH
 70
     1
  9
$DIMTOH
 70
     1
  9
$DIMSE1
 70
     0
  9
$DIMSE2
 70
     0
  9
$DIMTAD
 70
     0
  9
$DIMZIN
 70
     0
  9
$DIMBLK
  1

  9
$DIMASO
 70
     1
  9
$DIMSHO
 70
     1
  9
$DIMPOST
  1

  9
$DIMAPOST
  1

  9
$DIMALT
 70
     0
  9
$DIMALTD
 70
     2
  9
$DIMALTF
 40
25.4
  9
$DIMLFAC
 40
1.0
  9
$DIMTOFL
 70
     0
  9
$DIMTVP
 40
0.0
  9
$DIMTIX
 70
     0
  9
$DIMSOXD
 70
     0
  9
$DIMSAH
 70
     0
  9
$DIMBLK1
  1

  9
$DIMBLK2
  1

  9
$DIMSTYLE
  2
Standard
  9
$DIMCLRD
 70
     0
  9
$DIMCLRE
 70
     0
  9
$DIMCLRT
 70
     0
  9
$DIMTFAC
 40
1.0
  9
$DIMGAP
 40
0.09
  9
$DIMJUST
 70
     0
  9
$DIMSD1
 70
     0
  9
$DIMSD2
 70
     0
  9
$DIMTOLJ
 70
     1
  9
$DIMTZIN
 70
     0
  9
$DIMALTZ
 70
     0
  9
$DIMALTTZ
 70
     0
  9
$DIMUPT
 70
     0
  9
$DIMDEC
 70
     4
  9
$DIMTDEC
 70
     4
  9
$DIMALTU
 70
     2
  9
$DIMALTTD
 70
     2
  9
$DIMTXSTY
  7
Standard
  9
$DIMAUNIT
 70
     0
  9
$DIMADEC
 70
     0
  9
$DIMALTRND
 40
0.0
  9
$DIMAZIN
 70
     0
  9
$DIMDSEP
 70
    46
  9
$DIMATFIT
 70
     3
  9
$DIMFRAC
 70
     0
  9
$DIMLDRBLK
  1

  9
$DIMLUNIT
 70
     2
  9
$DIMLWD
 70
    -2
  9
$DIMLWE
 70
    -2
  9
$DIMTMOVE
 70
     0
  9
$LUNITS
 70
     2
  9
$LUPREC
 70
     4
  9
$SKETCHINC
 40
0.1
  9
$FILLETRAD
 40
0.5
  9
$AUNITS
 70
     0
  9
$AUPREC
 70
     0
  9
$MENU
  1
.
  9
$ELEVATION
 40
0.0
  9
$PELEVATION
 40
0.0
  9
$THICKNESS
 40
0.0
  9
$LIMCHECK
 70
     0
  9
$CHAMFERA
 40
0.5
  9
$CHAMFERB
 40
0.5
  9
$CHAMFERC
 40
1.0
  9
$CHAMFERD
 40
0.0
  9
$SKPOLY
 70
     0
  9
$TDCREATE
 40
2454385.365701967
  9
$TDUCREATE
 40
2454385.282368634
  9
$TDUPDATE
 40
2454385.365701979
  9
$TDUUPDATE
 40
2454385.282368646
  9
$TDINDWG
 40
0.0000000116
  9
$TDUSRTIMER
 40
0.0000000116
  9
$USRTIMER
 70
     1
  9
$ANGBASE
 50
0.0
  9
$ANGDIR
 70
     0
  9
$PDMODE
 70
     0
  9
$PDSIZE
 40
0.0
  9
$PLINEWID
 40
0.0
  9
$SPLFRAME
 70
     0
  9
$SPLINETYPE
 70
     6
  9
$SPLINESEGS
 70
     8
  9
$HANDSEED
  5
13D
  9
$SURFTAB1
 70
     6
  9
$SURFTAB2
 70
     6
  9
$SURFTYPE
 70
     6
  9
$SURFU
 70
     6
  9
$SURFV
 70
     6
  9
$UCSBASE
  2

  9
$UCSNAME
  2

  9
$UCSORG
 10
0.0
 20
0.0
 30
0.0
  9
$UCSXDIR
 10
1.0
 20
0.0
 30
0.0
  9
$UCSYDIR
 10
0.0
 20
1.0
 30
0.0
  9
$UCSORTHOREF
  2

  9
$UCSORTHOVIEW
 70
     0
  9
$UCSORGTOP
 10
0.0
 20
0.0
 30
0.0
  9
$UCSORGBOTTOM
 10
0.0
 20
0.0
 30
0.0
  9
$UCSORGLEFT
 10
0.0
 20
0.0
 30
0.0
  9
$UCSORGRIGHT
 10
0.0
 20
0.0
 30
0.0
  9
$UCSORGFRONT
 10
0.0
 20
0.0
 30
0.0
  9
$UCSORGBACK
 10
0.0
 20
0.0
 30
0.0
  9
$PUCSBASE
  2

  9
$PUCSNAME
  2

  9
$PUCSORG
 10
0.0
 20
0.0
 30
0.0
  9
$PUCSXDIR
 10
1.0
 20
0.0
 30
0.0
  9
$PUCSYDIR
 10
0.0
 20
1.0
 30
0.0
  9
$PUCSORTHOREF
  2

  9
$PUCSORTHOVIEW
 70
     0
  9
$PUCSORGTOP
 10
0.0
 20
0.0
 30
0.0
  9
$PUCSORGBOTTOM
 10
0.0
 20
0.0
 30
0.0
  9
$PUCSORGLEFT
 10
0.0
 20
0.0
 30
0.0
  9
$PUCSORGRIGHT
 10
0.0
 20
0.0
 30
0.0
  9
$PUCSORGFRONT
 10
0.0
 20
0.0
 30
0.0
  9
$PUCSORGBACK
 10
0.0
 20
0.0
 30
0.0
  9
$USERI1
 70
     0
  9
$USERI2
 70
     0
  9
$USERI3
 70
     0
  9
$USERI4
 70
     0
  9
$USERI5
 70
     0
  9
$USERR1
 40
14.5
  9
$USERR2
 40
0.0
  9
$USERR3
 40
0.0
  9
$USERR4
 40
0.0
  9
$USERR5
 40
0.0
  9
$WORLDVIEW
 70
     1
  9
$SHADEDGE
 70
     3
  9
$SHADEDIF
 70
    70
  9
$TILEMODE
 70
     1
  9
$MAXACTVP
 70
    64
  9
$PINSBASE
 10
0.0
 20
0.0
 30
0.0
  9
$PLIMCHECK
 70
     0
  9
$PEXTMIN
 10
1.00000000000000E+20
 20
1.00000000000000E+20
 30
1.00000000000000E+20
  9
$PEXTMAX
 10
-1.00000000000000E+20
 20
-1.00000000000000E+20
 30
-1.00000000000000E+20
  9
$PLIMMIN
 10
0.0
 20
0.0
  9
$PLIMMAX
 10
12.0
 20
9.0
  9
$UNITMODE
 70
     0
  9
$VISRETAIN
 70
     1
  9
$PLINEGEN
 70
     0
  9
$PSLTSCALE
 70
     1
  9
$TREEDEPTH
 70
  3020
  9
$CMLSTYLE
  2
Standard
  9
$CMLJUST
 70
     0
  9
$CMLSCALE
 40
1.0
  9
$PROXYGRAPHICS
 70
     1
  9
$MEASUREMENT
 70
     1
  9
$CELWEIGHT
370
    -1
  9
$ENDCAPS
280
     0
  9
$JOINSTYLE
280
     0
  9
$LWDISPLAY
290
     0
  9
$INSUNITS
 70
     1
  9
$HYPERLINKBASE
  1

  9
$STYLESHEET
  1

  9
$XEDIT
290
     1
  9
$CEPSNTYPE
380
     0
  9
$PSTYLEMODE
290
     1
  9
$FINGERPRINTGUID
  2
{8A75C5D7-E50C-4457-B3B9-B219886FB267}
  9
$VERSIONGUID
  2
{FAEB1C32-E019-11D5-929B-00C0DF256EC4}
  9
$EXTNAMES
290
     1
  9
$PSVPSCALE
 40
0.0
  9
$OLESTARTUP
290
     0
  9
$SORTENTS
280
   127
  9
$INDEXCTL
280
     0
  9
$HIDETEXT
280
     1
  9
$XCLIPFRAME
290
     0
  9
$HALOGAP
280
     0
  9
$OBSCOLOR
 70
   257
  9
$OBSLTYPE
280
     0
  9
$INTERSECTIONDISPLAY
280
     0
  9
$INTERSECTIONCOLOR
 70
   257
  9
$DIMASSOC
280
     2
  9
$PROJECTNAME
  1

  0
ENDSEC
  0
SECTION
  2
CLASSES
  0
CLASS
  1
ACDBDICTIONARYWDFLT
  2
AcDbDictionaryWithDefault
  3
ObjectDBX Classes
 90
        0
 91
        3
280
     0
281
     0
  0
CLASS
  1

  2
exOdDbCircle
  3

 90
        0
 91
        3
280
     0
281
     1
  0
ENDSEC
  0
SECTION
  2
TABLES
  0
TABLE
  2
VPORT
  5
8
330
0
100
AcDbSymbolTable
 70
     1
  0
VPORT
  5
29
330
8
100
AcDbSymbolTableRecord
100
AcDbViewportTableRecord
  2
*Active
 70
     0
 10
0.0
 20
0.0
 11
1.0
 21
1.0
 12
0.61480805197395
 22
-29.41273175090433
 13
0.0
 23
0.0
 14
0.5
 24
0.5
 15
0.5
 25
0.5
 16
0.0
 26
0.0
 36
1.0
 17
0.0
 27
0.0
 37
0.0
 40
117.7001728095014
 41
1.60267857142857
 42
50.0
 43
0.0
 44
0.0
 50
0.0
 51
0.0
 71
     0
 72
   100
 73
     1
 74
     3
 75
     0
 76
     0
 77
     0
 78
     0
281
     0
 65
     1
110
0.0
120
0.0
130
0.0
111
1.0
121
0.0
131
0.0
112
0.0
122
1.0
132
0.0
 79
     0
146
0.0
  0
ENDTAB
  0
TABLE
  2
LTYPE
  5
5
330
0
100
AcDbSymbolTable
 70
     8
  0
LTYPE
  5
14
330
5
100
AcDbSymbolTableRecord
100
AcDbLinetypeTableRecord
  2
ByBlock
 70
     0
  3

 72
    65
 73
     0
 40
0.0
  0
LTYPE
  5
15
330
5
100
AcDbSymbolTableRecord
100
AcDbLinetypeTableRecord
  2
ByLayer
 70
     0
  3

 72
    65
 73
     0
 40
0.0
  0
LTYPE
  5
16
330
5
100
AcDbSymbolTableRecord
100
AcDbLinetypeTableRecord
  2
Continuous
 70
     0
  3
Solid line
 72
    65
 73
     0
 40
0.0
  0
LTYPE
  5
2A
330
5
100
AcDbSymbolTableRecord
100
AcDbLinetypeTableRecord
  2
DASHED
 70
     0
  3
Dashed
 72
    65
 73
     2
 40
15.0
 49
7.0
 74
     0
 49
-8.0
 74
     0
  0
LTYPE
  5
2B
330
5
100
AcDbSymbolTableRecord
100
AcDbLinetypeTableRecord
  2
DOTTED
 70
     0
  3
Dotted
 72
    65
 73
     2
 40
1.0
 49
0.0
 74
     0
 49
-1.0
 74
     0
  0
LTYPE
  5
2C
330
5
100
AcDbSymbolTableRecord
100
AcDbLinetypeTableRecord
  2
DOT_CENTER
 70
     0
  3
Dot_Center
 72
    65
 73
     4
 40
14.0
 49
12.0
 74
     0
 49
-1.0
 74
     0
 49
0.0
 74
     0
 49
-1.0
 74
     0
  0
LTYPE
  5
2D
330
5
100
AcDbSymbolTableRecord
100
AcDbLinetypeTableRecord
  2
LONG_DASHED
 70
     0
  3
Long_Dashed
 72
    65
 73
     2
 40
15.0
 49
10.0
 74
     0
 49
-5.0
 74
     0
  0
LTYPE
  5
2E
330
5
100
AcDbSymbolTableRecord
100
AcDbLinetypeTableRecord
  2
DASH_CENTER
 70
     0
  3
Dash_Center
 72
    65
 73
     4
 40
14.0
 49
11.0
 74
     0
 49
-1.0
 74
     0
 49
1.0
 74
     0
 49
-1.0
 74
     0
  0
LTYPE
  5
2F
330
5
100
AcDbSymbolTableRecord
100
AcDbLinetypeTableRecord
  2
PHANTOM
 70
     0
  3
Phantom
 72
    65
 73
     6
 40
13.0
 49
10.0
 74
     0
 49
-1.0
 74
     0
 49
0.0
 74
     0
 49
-1.0
 74
     0
 49
0.0
 74
     0
 49
-1.0
 74
     0
  0
LTYPE
  5
30
330
5
100
AcDbSymbolTableRecord
100
AcDbLinetypeTableRecord
  2
CENTER_DASH_DASH
 70
     0
  3
Center_Dash_Dash
 72
    65
 73
     6
 40
14.0
 49
9.0
 74
     0
 49
-1.0
 74
     0
 49
1.0
 74
     0
 49
-1.0
 74
     0
 49
1.0
 74
     0
 49
-1.0
 74
     0
  0
ENDTAB
  0
TABLE
  2
LAYER
  5
2
330
0
100
AcDbSymbolTable
 70
     2
  0
LAYER
  5
10
330
2
100
AcDbSymbolTableRecord
100
AcDbLayerTableRecord
  2
0
 70
     0
 62
     7
  6
Continuous
370
    -3
390
F
  0
LAYER
  5
31
330
2
100
AcDbSymbolTableRecord
100
AcDbLayerTableRecord
  2
1
 70
     0
 62
     7
  6
Continuous
370
    -3
390
F
  0
ENDTAB
  0
TABLE
  2
STYLE
  5
3
330
0
100
AcDbSymbolTable
 70
     2
  0
STYLE
  5
11
330
3
100
AcDbSymbolTableRecord
100
AcDbTextStyleTableRecord
  2
Standard
 70
     0
 40
0.0
 41
1.0
 50
0.0
 71
     0
 42
0.2
  3
txt
  4

  0
STYLE
  5
E8
330
3
100
AcDbSymbolTableRecord
100
AcDbTextStyleTableRecord
  2
CONVERTER_11
 70
     0
 40
0.0
 41
0.9
 50
0.0
 71
     0
 42
0.2
  3
txt.shx
  4

  0
ENDTAB
  0
TABLE
  2
VIEW
  5
6
330
0
100
AcDbSymbolTable
 70
     0
  0
ENDTAB
  0
TABLE
  2
UCS
  5
7
330
0
100
AcDbSymbolTable
 70
     0
  0
ENDTAB
  0
TABLE
  2
APPID
  5
9
330
0
100
AcDbSymbolTable
 70
     1
  0
APPID
  5
12
330
9
100
AcDbSymbolTableRecord
100
AcDbRegAppTableRecord
  2
ACAD
 70
     0
  0
ENDTAB
  0
TABLE
  2
DIMSTYLE
  5
A
330
0
100
AcDbSymbolTable
 70
     9
100
AcDbDimStyleTable
  0
DIMSTYLE
105
27
330
A
100
AcDbSymbolTableRecord
100
AcDbDimStyleTableRecord
  2
Standard
 70
     0
340
11
  0
DIMSTYLE
105
EC
102
{ACAD_REACTORS
330
ED
102
}
330
A
100
AcDbSymbolTableRecord
100
AcDbDimStyleTableRecord
  2
ME10_DIM_10
 70
     0
 41
3.5
 42
0.0
 44
2.0
 73
     0
 74
     0
 77
     1
 78
     8
140
3.5
147
2.0
172
     1
173
     1
176
     2
177
     2
178
     2
271
     3
340
E8
  0
DIMSTYLE
105
F7
102
{ACAD_REACTORS
330
F8
102
}
330
A
100
AcDbSymbolTableRecord
100
AcDbDimStyleTableRecord
  2
ME10_DIM_11
 70
     0
 41
3.5
 42
0.0
 44
2.0
 73
     0
 74
     0
 77
     1
 78
     8
140
3.5
147
2.0
172
     1
173
     1
176
     2
177
     2
178
     2
271
     3
340
E8
  0
DIMSTYLE
105
102
102
{ACAD_REACTORS
330
103
102
}
330
A
100
AcDbSymbolTableRecord
100
AcDbDimStyleTableRecord
  2
ME10_DIM_12
 70
     0
 41
3.5
 42
0.0
 44
2.0
 73
     0
 74
     0
 77
     1
 78
     8
140
3.5
147
2.0
172
     1
173
     1
176
     2
177
     2
178
     2
271
     3
340
E8
  0
DIMSTYLE
105
10D
102
{ACAD_REACTORS
330
10E
102
}
330
A
100
AcDbSymbolTableRecord
100
AcDbDimStyleTableRecord
  2
ME10_DIM_13
 70
     0
 41
3.5
 42
0.0
 44
2.0
 73
     0
 74
     0
 77
     1
 78
     8
140
3.5
147
2.0
172
     1
173
     1
176
     2
177
     2
178
     2
271
     3
340
E8
  0
DIMSTYLE
105
118
102
{ACAD_REACTORS
330
119
102
}
330
A
100
AcDbSymbolTableRecord
100
AcDbDimStyleTableRecord
  2
ME10_DIM_14
 70
     0
 41
3.5
 42
0.0
 44
2.0
 73
     0
 74
     0
 77
     1
 78
     8
140
3.5
147
2.0
172
     1
173
     1
176
     2
177
     2
178
     2
271
     3
340
E8
  0
DIMSTYLE
105
123
102
{ACAD_REACTORS
330
124
102
}
330
A
100
AcDbSymbolTableRecord
100
AcDbDimStyleTableRecord
  2
ME10_DIM_15
 70
     0
 41
3.5
 42
0.0
 44
2.0
 73
     0
 74
     0
 77
     1
 78
     8
140
3.5
147
2.0
172
     1
173
     1
176
     2
177
     2
178
     2
271
     3
340
E8
  0
DIMSTYLE
105
12E
102
{ACAD_REACTORS
330
12F
102
}
330
A
100
AcDbSymbolTableRecord
100
AcDbDimStyleTableRecord
  2
ME10_DIM_16
 70
     0
 41
3.5
 42
0.0
 44
2.0
 73
     0
 74
     0
 77
     1
 78
     8
140
3.5
147
2.0
172
     1
173
     1
176
     2
177
     2
178
     2
271
     3
340
E8
  0
DIMSTYLE
105
13B
102
{ACAD_REACTORS
330
13C
102
}
330
A
100
AcDbSymbolTableRecord
100
AcDbDimStyleTableRecord
  2
ME10_DIM_17
 70
     0
 41
3.5
 42
0.0
 44
2.0
 73
     0
 74
     0
 77
     1
 78
     8
140
3.5
147
2.0
172
     1
173
     1
176
     2
177
     2
178
     2
271
     3
340
E8
  0
ENDTAB
  0
TABLE
  2
BLOCK_RECORD
  5
1
330
0
100
AcDbSymbolTable
 70
     9
  0
BLOCK_RECORD
  5
1F
330
1
100
AcDbSymbolTableRecord
100
AcDbBlockTableRecord
  2
*Model_Space
340
22
  0
BLOCK_RECORD
  5
1B
330
1
100
AcDbSymbolTableRecord
100
AcDbBlockTableRecord
  2
*Paper_Space
340
1E
  0
BLOCK_RECORD
  5
23
330
1
100
AcDbSymbolTableRecord
100
AcDbBlockTableRecord
  2
*Paper_Space0
340
26
  0
BLOCK_RECORD
  5
E0
330
1
100
AcDbSymbolTableRecord
100
AcDbBlockTableRecord
  2
*D1
340
0
  0
BLOCK_RECORD
  5
EE
330
1
100
AcDbSymbolTableRecord
100
AcDbBlockTableRecord
  2
*D2
340
0
  0
BLOCK_RECORD
  5
F9
330
1
100
AcDbSymbolTableRecord
100
AcDbBlockTableRecord
  2
*D3
340
0
  0
BLOCK_RECORD
  5
104
330
1
100
AcDbSymbolTableRecord
100
AcDbBlockTableRecord
  2
*D4
340
0
  0
BLOCK_RECORD
  5
10F
330
1
100
AcDbSymbolTableRecord
100
AcDbBlockTableRecord
  2
*D5
340
0
  0
BLOCK_RECORD
  5
11A
330
1
100
AcDbSymbolTableRecord
100
AcDbBlockTableRecord
  2
*D6
340
0
  0
BLOCK_RECORD
  5
125
330
1
100
AcDbSymbolTableRecord
100
AcDbBlockTableRecord
  2
*D7
340
0
  0
BLOCK_RECORD
  5
130
330
1
100
AcDbSymbolTableRecord
100
AcDbBlockTableRecord
  2
*D8
340
0
  0
ENDTAB
  0
ENDSEC
  0
SECTION
  2
BLOCKS
  0
BLOCK
  5
20
330
1F
100
AcDbEntity
  8
0
100
AcDbBlockBegin
  2
*Model_Space
 70
     0
 71
     0
 10
0.0
 20
0.0
 30
0.0
  3
*Model_Space
  1

  0
ENDBLK
  5
21
330
1F
100
AcDbEntity
  8
0
100
AcDbBlockEnd
  0
BLOCK
  5
1C
330
1B
100
AcDbEntity
 67
     1
  8
0
100
AcDbBlockBegin
  2
*Paper_Space
 70
     0
 71
     0
 10
0.0
 20
0.0
 30
0.0
  3
*Paper_Space
  1

  0
ENDBLK
  5
1D
330
1B
100
AcDbEntity
 67
     1
  8
0
100
AcDbBlockEnd
  0
BLOCK
  5
24
330
23
100
AcDbEntity
  8
0
100
AcDbBlockBegin
  2
*Paper_Space0
 70
     0
 71
     0
 10
0.0
 20
0.0
 30
0.0
  3
*Paper_Space0
  1

  0
ENDBLK
  5
25
330
23
100
AcDbEntity
  8
0
100
AcDbBlockEnd
  0
BLOCK
  5
EA
330
E0
100
AcDbEntity
  8
0
100
AcDbBlockBegin
  2
*D1
 70
     1
 71
     0
 10
0.0
 20
0.0
 30
0.0
  3
*D1
  1

  0
LINE
  5
E1
330
E0
100
AcDbEntity
  8
1
  6
Continuous
 62
     2
100
AcDbLine
 10
61.9989745266741
 20
-62.69793997026302
 30
0.0
 11
61.9989745266741
 21
-55.69793997026301
 31
0.0
  0
LINE
  5
E2
330
E0
100
AcDbEntity
  8
1
  6
Continuous
 62
     2
100
AcDbLine
 10
61.9989745266741
 20
-66.6979399702632
 30
0.0
 11
61.9989745266741
 21
-62.69793997026302
 31
0.0
  0
LINE
  5
E3
330
E0
100
AcDbEntity
  8
1
  6
Continuous
 62
     2
100
AcDbLine
 10
61.9989745266741
 20
-73.6979399702632
 30
0.0
 11
61.9989745266741
 21
-66.6979399702632
 31
0.0
  0
LINE
  5
E4
330
E0
100
AcDbEntity
  8
1
  6
Continuous
 62
     2
100
AcDbLine
 10
11.88679367266667
 20
-62.69793997026302
 30
0.0
 11
63.9989745266741
 21
-62.69793997026302
 31
0.0
  0
LINE
  5
E5
330
E0
100
AcDbEntity
  8
1
  6
Continuous
 62
     2
100
AcDbLine
 10
46.88679367266684
 20
-66.6979399702632
 30
0.0
 11
63.9989745266741
 21
-66.6979399702632
 31
0.0
  0
SOLID
  5
E6
330
E0
100
AcDbEntity
  8
1
 62
     2
100
AcDbTrace
 10
62.45975826822998
 20
-70.1979399702632
 30
0.0
 11
61.53819078511821
 21
-70.1979399702632
 31
0.0
 12
61.9989745266741
 22
-66.6979399702632
 32
0.0
 13
61.9989745266741
 23
-66.6979399702632
 33
0.0
  0
SOLID
  5
E7
330
E0
100
AcDbEntity
  8
1
 62
     2
100
AcDbTrace
 10
61.53819078511821
 20
-59.19793997026302
 30
0.0
 11
62.45975826822998
 21
-59.19793997026302
 31
0.0
 12
61.9989745266741
 22
-62.69793997026302
 32
0.0
 13
61.9989745266741
 23
-62.69793997026302
 33
0.0
  0
MTEXT
  5
E9
330
E0
100
AcDbEntity
  8
1
 62
     2
100
AcDbMText
 10
59.9989745266741
 20
-72.5202750072966
 30
0.0
 40
3.5
 41
0.0
 71
     7
 72
     1
  1
4
  7
CONVERTER_11
 11
0.0
 21
1.0
 31
0.0
 73
     1
 44
0.60024009603842
  0
ENDBLK
  5
EB
330
E0
100
AcDbEntity
  8
0
100
AcDbBlockEnd
  0
BLOCK
  5
F5
330
EE
100
AcDbEntity
  8
0
100
AcDbBlockBegin
  2
*D2
 70
     1
 71
     0
 10
0.0
 20
0.0
 30
0.0
  3
*D2
  1

  0
LINE
  5
EF
330
EE
100
AcDbEntity
  8
1
  6
Continuous
 62
     2
100
AcDbLine
 10
61.9989745266741
 20
-62.69793997026302
 30
0.0
 11
61.9989745266741
 21
-44.69793997026301
 31
0.0
  0
LINE
  5
F0
330
EE
100
AcDbEntity
  8
1
  6
Continuous
 62
     2
100
AcDbLine
 10
26.88679367266667
 20
-44.69793997026301
 30
0.0
 11
63.9989745266741
 21
-44.69793997026301
 31
0.0
  0
LINE
  5
F1
330
EE
100
AcDbEntity
  8
1
  6
Continuous
 62
     2
100
AcDbLine
 10
11.88679367266667
 20
-62.69793997026302
 30
0.0
 11
63.9989745266741
 21
-62.69793997026302
 31
0.0
  0
SOLID
  5
F2
330
EE
100
AcDbEntity
  8
1
 62
     2
100
AcDbTrace
 10
62.45975826822998
 20
-48.19793997026301
 30
0.0
 11
61.53819078511821
 21
-48.19793997026301
 31
0.0
 12
61.9989745266741
 22
-44.69793997026301
 32
0.0
 13
61.9989745266741
 23
-44.69793997026301
 33
0.0
  0
SOLID
  5
F3
330
EE
100
AcDbEntity
  8
1
 62
     2
100
AcDbTrace
 10
61.53819078511821
 20
-59.19793997026302
 30
0.0
 11
62.45975826822998
 21
-59.19793997026302
 31
0.0
 12
61.9989745266741
 22
-62.69793997026302
 32
0.0
 13
61.9989745266741
 23
-62.69793997026302
 33
0.0
  0
MTEXT
  5
F4
330
EE
100
AcDbEntity
  8
1
 62
     2
100
AcDbMText
 10
59.9989745266741
 20
-55.0334704179918
 30
0.0
 40
3.5
 41
0.0
 71
     7
 72
     1
  1
18
  7
CONVERTER_11
 11
0.0
 21
1.0
 31
0.0
 73
     1
 44
0.60024009603842
  0
ENDBLK
  5
F6
330
EE
100
AcDbEntity
  8
0
100
AcDbBlockEnd
  0
BLOCK
  5
100
330
F9
100
AcDbEntity
  8
0
100
AcDbBlockBegin
  2
*D3
 70
     1
 71
     0
 10
0.0
 20
0.0
 30
0.0
  3
*D3
  1

  0
LINE
  5
FA
330
F9
100
AcDbEntity
  8
1
  6
Continuous
 62
     2
100
AcDbLine
 10
54.3122072984775
 20
-60.69793997026302
 30
0.0
 11
54.3122072984775
 21
-44.69793997026301
 31
0.0
  0
LINE
  5
FB
330
F9
100
AcDbEntity
  8
1
  6
Continuous
 62
     2
100
AcDbLine
 10
26.88679367266667
 20
-44.69793997026301
 30
0.0
 11
56.3122072984775
 21
-44.69793997026301
 31
0.0
  0
LINE
  5
FC
330
F9
100
AcDbEntity
  8
1
  6
Continuous
 62
     2
100
AcDbLine
 10
26.88679367266667
 20
-60.69793997026302
 30
0.0
 11
56.3122072984775
 21
-60.69793997026302
 31
0.0
  0
SOLID
  5
FD
330
F9
100
AcDbEntity
  8
1
 62
     2
100
AcDbTrace
 10
54.77299104003339
 20
-48.19793997026301
 30
0.0
 11
53.85142355692162
 21
-48.19793997026301
 31
0.0
 12
54.3122072984775
 22
-44.69793997026301
 32
0.0
 13
54.3122072984775
 23
-44.69793997026301
 33
0.0
  0
SOLID
  5
FE
330
F9
100
AcDbEntity
  8
1
 62
     2
100
AcDbTrace
 10
53.85142355692162
 20
-57.19793997026302
 30
0.0
 11
54.77299104003339
 21
-57.19793997026302
 31
0.0
 12
54.3122072984775
 22
-60.69793997026302
 32
0.0
 13
54.3122072984775
 23
-60.69793997026302
 33
0.0
  0
MTEXT
  5
FF
330
F9
100
AcDbEntity
  8
1
 62
     2
100
AcDbMText
 10
52.3122072984775
 20
-54.5140942539245
 30
0.0
 40
3.5
 41
0.0
 71
     7
 72
     1
  1
16
  7
CONVERTER_11
 11
0.0
 21
1.0
 31
0.0
 73
     1
 44
0.60024009603842
  0
ENDBLK
  5
101
330
F9
100
AcDbEntity
  8
0
100
AcDbBlockEnd
  0
BLOCK
  5
10B
330
104
100
AcDbEntity
  8
0
100
AcDbBlockBegin
  2
*D4
 70
     1
 71
     0
 10
0.0
 20
0.0
 30
0.0
  3
*D4
  1

  0
LINE
  5
105
330
104
100
AcDbEntity
  8
1
  6
Continuous
 62
     2
100
AcDbLine
 10
-57.2693584227262
 20
-63.69793997026315
 30
0.0
 11
-57.2693584227262
 21
-42.69793997026315
 31
0.0
  0
LINE
  5
106
330
104
100
AcDbEntity
  8
1
  6
Continuous
 62
     2
100
AcDbLine
 10
-11.11320632733307
 20
-63.69793997026315
 30
0.0
 11
-59.2693584227262
 21
-63.69793997026315
 31
0.0
  0
LINE
  5
107
330
104
100
AcDbEntity
  8
1
  6
Continuous
 62
     2
100
AcDbLine
 10
-25.11320632733306
 20
-42.69793997026315
 30
0.0
 11
-59.2693584227262
 21
-42.69793997026315
 31
0.0
  0
SOLID
  5
108
330
104
100
AcDbEntity
  8
1
 62
     2
100
AcDbTrace
 10
-56.80857468117031
 20
-46.19793997026315
 30
0.0
 11
-57.73014216428209
 21
-46.19793997026315
 31
0.0
 12
-57.2693584227262
 22
-42.69793997026315
 32
0.0
 13
-57.2693584227262
 23
-42.69793997026315
 33
0.0
  0
SOLID
  5
109
330
104
100
AcDbEntity
  8
1
 62
     2
100
AcDbTrace
 10
-57.73014216428209
 20
-60.19793997026315
 30
0.0
 11
-56.80857468117031
 21
-60.19793997026315
 31
0.0
 12
-57.2693584227262
 22
-63.69793997026315
 32
0.0
 13
-57.2693584227262
 23
-63.69793997026315
 33
0.0
  0
MTEXT
  5
10A
330
104
100
AcDbEntity
  8
1
 62
     2
100
AcDbMText
 10
-59.2693584227262
 20
-53.8573566834995
 30
0.0
 40
3.5
 41
0.0
 71
     7
 72
     1
  1
21
  7
CONVERTER_11
 11
0.0
 21
1.0
 31
0.0
 73
     1
 44
0.60024009603842
  0
ENDBLK
  5
10C
330
104
100
AcDbEntity
  8
0
100
AcDbBlockEnd
  0
BLOCK
  5
116
330
10F
100
AcDbEntity
  8
0
100
AcDbBlockBegin
  2
*D5
 70
     1
 71
     0
 10
0.0
 20
0.0
 30
0.0
  3
*D5
  1

  0
LINE
  5
110
330
10F
100
AcDbEntity
  8
1
  6
Continuous
 62
     2
100
AcDbLine
 10
-49.7542691106715
 20
-59.69793997026315
 30
0.0
 11
-49.7542691106715
 21
-42.69793997026315
 31
0.0
  0
LINE
  5
111
330
10F
100
AcDbEntity
  8
1
  6
Continuous
 62
     2
100
AcDbLine
 10
-25.11320632733303
 20
-59.69793997026315
 30
0.0
 11
-51.7542691106715
 21
-59.69793997026315
 31
0.0
  0
LINE
  5
112
330
10F
100
AcDbEntity
  8
1
  6
Continuous
 62
     2
100
AcDbLine
 10
-25.11320632733306
 20
-42.69793997026315
 30
0.0
 11
-51.7542691106715
 21
-42.69793997026315
 31
0.0
  0
SOLID
  5
113
330
10F
100
AcDbEntity
  8
1
 62
     2
100
AcDbTrace
 10
-50.21505285222739
 20
-56.19793997026315
 30
0.0
 11
-49.29348536911561
 21
-56.19793997026315
 31
0.0
 12
-49.7542691106715
 22
-59.69793997026315
 32
0.0
 13
-49.7542691106715
 23
-59.69793997026315
 33
0.0
  0
SOLID
  5
114
330
10F
100
AcDbEntity
  8
1
 62
     2
100
AcDbTrace
 10
-49.29348536911561
 20
-46.19793997026315
 30
0.0
 11
-50.21505285222739
 21
-46.19793997026315
 31
0.0
 12
-49.7542691106715
 22
-42.69793997026315
 32
0.0
 13
-49.7542691106715
 23
-42.69793997026315
 33
0.0
  0
MTEXT
  5
115
330
10F
100
AcDbEntity
  8
1
 62
     2
100
AcDbMText
 10
-51.7542691106715
 20
-53.0033692616751
 30
0.0
 40
3.5
 41
0.0
 71
     7
 72
     1
  1
17
  7
CONVERTER_11
 11
0.0
 21
1.0
 31
0.0
 73
     1
 44
0.60024009603842
  0
ENDBLK
  5
117
330
10F
100
AcDbEntity
  8
0
100
AcDbBlockEnd
  0
BLOCK
  5
121
330
11A
100
AcDbEntity
  8
0
100
AcDbBlockBegin
  2
*D6
 70
     1
 71
     0
 10
0.0
 20
0.0
 30
0.0
  3
*D6
  1

  0
LINE
  5
11B
330
11A
100
AcDbEntity
  8
1
  6
Continuous
 62
     2
100
AcDbLine
 10
-25.11320632733303
 20
-76.9707828395883
 30
0.0
 11
-1.11320632733307
 21
-76.9707828395883
 31
0.0
  0
LINE
  5
11C
330
11A
100
AcDbEntity
  8
1
  6
Continuous
 62
     2
100
AcDbLine
 10
-1.11320632733307
 20
-66.69793997026315
 30
0.0
 11
-1.11320632733307
 21
-78.9707828395883
 31
0.0
  0
LINE
  5
11D
330
11A
100
AcDbEntity
  8
1
  6
Continuous
 62
     2
100
AcDbLine
 10
-25.11320632733303
 20
-59.69793997026315
 30
0.0
 11
-25.11320632733303
 21
-78.9707828395883
 31
0.0
  0
SOLID
  5
11E
330
11A
100
AcDbEntity
  8
1
 62
     2
100
AcDbTrace
 10
-21.61320632733303
 20
-76.50999909803241
 30
0.0
 11
-21.61320632733303
 21
-77.43156658114418
 31
0.0
 12
-25.11320632733303
 22
-76.9707828395883
 32
0.0
 13
-25.11320632733303
 23
-76.9707828395883
 33
0.0
  0
SOLID
  5
11F
330
11A
100
AcDbEntity
  8
1
 62
     2
100
AcDbTrace
 10
-4.61320632733307
 20
-77.43156658114418
 30
0.0
 11
-4.61320632733307
 21
-76.50999909803241
 31
0.0
 12
-1.11320632733307
 22
-76.9707828395883
 32
0.0
 13
-1.11320632733307
 23
-76.9707828395883
 33
0.0
  0
MTEXT
  5
120
330
11A
100
AcDbEntity
  8
1
 62
     2
100
AcDbMText
 10
-16.3004446027144
 20
-74.9707828395883
 30
0.0
 40
3.5
 41
0.0
 71
     7
 72
     1
  1
24
  7
CONVERTER_11
 11
0.9999999999970621
 21
2.424068405545307E-6
 31
0.0
 73
     1
 44
0.60024009603842
  0
ENDBLK
  5
122
330
11A
100
AcDbEntity
  8
0
100
AcDbBlockEnd
  0
BLOCK
  5
12C
330
125
100
AcDbEntity
  8
0
100
AcDbBlockBegin
  2
*D7
 70
     1
 71
     0
 10
0.0
 20
0.0
 30
0.0
  3
*D7
  1

  0
LINE
  5
126
330
125
100
AcDbEntity
  8
1
  6
Continuous
 62
     2
100
AcDbLine
 10
1.88679367266665
 20
-76.9707828395883
 30
0.0
 11
26.88679367266667
 21
-76.9707828395883
 31
0.0
  0
LINE
  5
127
330
125
100
AcDbEntity
  8
1
  6
Continuous
 62
     2
100
AcDbLine
 10
26.88679367266667
 20
-60.69793997026302
 30
0.0
 11
26.88679367266667
 21
-78.9707828395883
 31
0.0
  0
LINE
  5
128
330
125
100
AcDbEntity
  8
1
  6
Continuous
 62
     2
100
AcDbLine
 10
1.88679367266665
 20
-66.6979399702632
 30
0.0
 11
1.88679367266665
 21
-78.9707828395883
 31
0.0
  0
SOLID
  5
129
330
125
100
AcDbEntity
  8
1
 62
     2
100
AcDbTrace
 10
5.38679367266665
 20
-76.50999909803241
 30
0.0
 11
5.38679367266665
 21
-77.43156658114418
 31
0.0
 12
1.88679367266665
 22
-76.9707828395883
 32
0.0
 13
1.88679367266665
 23
-76.9707828395883
 33
0.0
  0
SOLID
  5
12A
330
125
100
AcDbEntity
  8
1
 62
     2
100
AcDbTrace
 10
23.38679367266667
 20
-77.43156658114418
 30
0.0
 11
23.38679367266667
 21
-76.50999909803241
 31
0.0
 12
26.88679367266667
 22
-76.9707828395883
 32
0.0
 13
26.88679367266667
 23
-76.9707828395883
 33
0.0
  0
MTEXT
  5
12B
330
125
100
AcDbEntity
  8
1
 62
     2
100
AcDbMText
 10
11.76179367266666
 20
-74.9707828395883
 30
0.0
 40
3.5
 41
0.0
 71
     7
 72
     1
  1
25
  7
CONVERTER_11
 11
0.9999999999970621
 21
2.424068405545307E-6
 31
0.0
 73
     1
 44
0.60024009603842
  0
ENDBLK
  5
12D
330
125
100
AcDbEntity
  8
0
100
AcDbBlockEnd
  0
BLOCK
  5
139
330
130
100
AcDbEntity
  8
0
100
AcDbBlockBegin
  2
*D8
 70
     1
 71
     0
 10
0.0
 20
0.0
 30
0.0
  3
*D8
  1

  0
LINE
  5
131
330
130
100
AcDbEntity
  8
1
  6
Continuous
 62
     2
100
AcDbLine
 10
1.88679367266664
 20
-76.9707828395883
 30
0.0
 11
8.88679367266664
 21
-76.9707828395883
 31
0.0
  0
LINE
  5
132
330
130
100
AcDbEntity
  8
1
  6
Continuous
 62
     2
100
AcDbLine
 10
-1.11320632733307
 20
-76.9707828395883
 30
0.0
 11
1.88679367266664
 21
-76.9707828395883
 31
0.0
  0
LINE
  5
133
330
130
100
AcDbEntity
  8
1
  6
Continuous
 62
     2
100
AcDbLine
 10
-8.11320632733307
 20
-76.9707828395883
 30
0.0
 11
-1.11320632733307
 21
-76.9707828395883
 31
0.0
  0
LINE
  5
134
330
130
100
AcDbEntity
  8
1
  6
Continuous
 62
     2
100
AcDbLine
 10
1.88679367266664
 20
-66.6979399702632
 30
0.0
 11
1.88679367266664
 21
-78.9707828395883
 31
0.0
  0
LINE
  5
135
330
130
100
AcDbEntity
  8
1
  6
Continuous
 62
     2
100
AcDbLine
 10
-1.11320632733307
 20
-66.69793997026315
 30
0.0
 11
-1.11320632733307
 21
-78.9707828395883
 31
0.0
  0
SOLID
  5
136
330
130
100
AcDbEntity
  8
1
 62
     2
100
AcDbTrace
 10
-4.61320632733307
 20
-77.43156658114418
 30
0.0
 11
-4.61320632733307
 21
-76.50999909803241
 31
0.0
 12
-1.11320632733307
 22
-76.9707828395883
 32
0.0
 13
-1.11320632733307
 23
-76.9707828395883
 33
0.0
  0
SOLID
  5
137
330
130
100
AcDbEntity
  8
1
 62
     2
100
AcDbTrace
 10
5.38679367266664
 20
-76.50999909803241
 30
0.0
 11
5.38679367266664
 21
-77.43156658114418
 31
0.0
 12
1.88679367266664
 22
-76.9707828395883
 32
0.0
 13
1.88679367266664
 23
-76.9707828395883
 33
0.0
  0
MTEXT
  5
138
330
130
100
AcDbEntity
  8
1
 62
     2
100
AcDbMText
 10
-0.71010202432124
 20
-82.9128103006777
 30
0.0
 40
3.5
 41
0.0
 71
     7
 72
     1
  1
3
  7
CONVERTER_11
 11
0.9999999999970621
 21
2.424068405545307E-6
 31
0.0
 73
     1
 44
0.60024009603842
  0
ENDBLK
  5
13A
330
130
100
AcDbEntity
  8
0
100
AcDbBlockEnd
  0
ENDSEC
  0
SECTION
  2
ENTITIES
  0
POINT
  5
32
330
1F
100
AcDbEntity
  8
1
 62
     3
 60
     1
100
AcDbPoint
 10
46.88679367266684
 20
-26.69793997026321
 30
0.0
  0
POINT
  5
33
330
1F
100
AcDbEntity
  8
1
 62
     3
 60
     1
100
AcDbPoint
 10
14.88679367266693
 20
-26.69793997026321
 30
0.0
  0
POINT
  5
34
330
1F
100
AcDbEntity
  8
1
 62
     3
 60
     1
100
AcDbPoint
 10
14.88679367266693
 20
-42.69793997026321
 30
0.0
  0
POINT
  5
35
330
1F
100
AcDbEntity
  8
1
 62
     3
 60
     1
100
AcDbPoint
 10
1.88679367266684
 20
-42.69793997026321
 30
0.0
  0
LINE
  5
36
330
1F
100
AcDbEntity
  8
1
  6
DOT_CENTER
 62
     2
100
AcDbLine
 10
0.38679367266691
 20
-42.69793997026306
 30
0.0
 11
0.38679367266691
 21
-52.297939970263
 31
0.0
  0
LINE
  5
37
330
1F
100
AcDbEntity
  8
1
  6
DOT_CENTER
 62
     2
100
AcDbLine
 10
5.18679367266692
 20
-47.49793997026302
 30
0.0
 11
-4.41320632733316
 21
-47.49793997026302
 31
0.0
  0
LINE
  5
38
330
1F
100
AcDbEntity
  8
1
  6
Continuous
 62
     7
100
AcDbLine
 10
15.11314867301844
 20
-48.92391517474181
 30
0.0
 11
16.71992829390355
 21
-51.2186342875826
 31
0.0
  0
LINE
  5
39
330
1F
100
AcDbEntity
  8
1
  6
Continuous
 62
     7
100
AcDbLine
 10
18.44158957001288
 20
-46.70363422485883
 30
0.0
 11
22.75241800042501
 21
-52.86013525515921
 31
0.0
  0
LINE
  5
3A
330
1F
100
AcDbEntity
  8
1
  6
Continuous
 62
     7
100
AcDbLine
 10
-3.76153339522919
 20
-54.76188044784033
 30
0.0
 11
-2.14428296622315
 21
-58.23008518504091
 31
0.0
  0
LINE
  5
3B
330
1F
100
AcDbEntity
  8
1
  6
Continuous
 62
     7
100
AcDbLine
 10
-6.6940538577142
 20
-50.34464432919182
 30
0.0
 11
-1.73634197511898
 21
-45.37843648569373
 31
0.0
  0
LINE
  5
3C
330
1F
100
AcDbEntity
  8
1
  6
Continuous
 62
     7
100
AcDbLine
 10
-7.86320632733309
 20
-59.49793997026302
 30
0.0
 11
-7.86320632733309
 21
-53.17064897528411
 31
0.0
  0
LINE
  5
3D
330
1F
100
AcDbEntity
  8
1
  6
Continuous
 62
     7
100
AcDbLine
 10
12.36415124001765
 20
-44.99793997026302
 30
0.0
 11
15.16498139285689
 21
-44.99793997026302
 31
0.0
  0
LINE
  5
3E
330
1F
100
AcDbEntity
  8
1
  6
DOT_CENTER
 62
     2
100
AcDbLine
 10
24.68679367266692
 20
-53.74793997026302
 30
0.0
 11
15.08679367266684
 21
-53.74793997026302
 31
0.0
  0
LINE
  5
3F
330
1F
100
AcDbEntity
  8
1
  6
DOT_CENTER
 62
     2
100
AcDbLine
 10
19.88679367266691
 20
-48.94793997026301
 30
0.0
 11
19.88679367266691
 21
-58.547939970263
 31
0.0
  0
LINE
  5
40
330
1F
100
AcDbEntity
  8
1
  6
DOT_CENTER
 62
     2
100
AcDbLine
 10
-4.86320632733309
 20
-54.69793997026301
 30
0.0
 11
-4.86320632733309
 21
-64.297939970263
 31
0.0
  0
LINE
  5
41
330
1F
100
AcDbEntity
  8
1
  6
DOT_CENTER
 62
     2
100
AcDbLine
 10
-0.06320632733308
 20
-59.49793997026302
 30
0.0
 11
-9.66320632733316
 21
-59.49793997026302
 31
0.0
  0
LINE
  5
42
330
1F
100
AcDbEntity
  8
1
  6
Continuous
 62
     7
100
AcDbLine
 10
-2.43276161235529
 20
-51.97605247180701
 30
0.0
 11
12.99100079324116
 21
-48.13047659489192
 31
0.0
  0
LINE
  5
43
330
1F
100
AcDbEntity
  8
1
  6
DASHED
 62
     2
100
AcDbLine
 10
12.36415124001765
 20
-44.99793997026302
 30
0.0
 11
15.11314867301844
 21
-48.92391517474181
 31
0.0
  0
LINE
  5
44
330
1F
100
AcDbEntity
  8
1
  6
Continuous
 62
     7
100
AcDbLine
 10
2.04510606784454
 20
-44.99793997026302
 30
0.0
 11
12.36415124001765
 21
-44.99793997026302
 31
0.0
  0
LINE
  5
45
330
1F
100
AcDbEntity
  8
1
  6
Continuous
 62
     7
100
AcDbLine
 10
6.79856716160698
 20
-49.67442370500621
 30
0.0
 11
7.467641203048
 21
-50.34464432919182
 31
0.0
  0
LINE
  5
46
330
1F
100
AcDbEntity
  8
1
  6
DASHED
 62
     2
100
AcDbLine
 10
0.38679367266691
 20
-51.27305838368675
 30
0.0
 11
-6.02497981627336
 21
-49.6744237050064
 31
0.0
  0
LINE
  5
47
330
1F
100
AcDbEntity
  8
1
  6
Continuous
 62
     7
100
AcDbLine
 10
-6.02497981627336
 20
-49.6744237050064
 30
0.0
 11
-12.21741344790791
 21
-48.130476594892
 31
0.0
  0
LINE
  5
48
330
1F
100
AcDbEntity
  8
1
  6
Continuous
 62
     7
100
AcDbLine
 10
-15.94634094856991
 20
-51.21863428758292
 30
0.0
 11
-14.33956132768531
 21
-48.92391517474212
 31
0.0
  0
LINE
  5
49
330
1F
100
AcDbEntity
  8
1
  6
Continuous
 62
     7
100
AcDbLine
 10
-21.57066246020008
 20
-52.27721066120992
 30
0.0
 11
-17.66800222467907
 21
-46.7036342248588
 31
0.0
  0
LINE
  5
4A
330
1F
100
AcDbEntity
  8
1
  6
DOT_CENTER
 62
     2
100
AcDbLine
 10
5.6367936726669
 20
-64.297939970263
 30
0.0
 11
5.6367936726669
 21
-54.69793997026301
 31
0.0
  0
LINE
  5
4B
330
1F
100
AcDbEntity
  8
1
  6
DOT_CENTER
 62
     2
100
AcDbLine
 10
10.43679367266702
 20
-59.49793997026302
 30
0.0
 11
0.83679367266689
 21
-59.49793997026302
 31
0.0
  0
LINE
  5
4C
330
1F
100
AcDbEntity
  8
1
  6
DOT_CENTER
 62
     2
100
AcDbLine
 10
-19.1132063273331
 20
-58.547939970263
 30
0.0
 11
-19.1132063273331
 21
-48.94793997026301
 31
0.0
  0
LINE
  5
4D
330
1F
100
AcDbEntity
  8
1
  6
DOT_CENTER
 62
     2
100
AcDbLine
 10
-14.31320632733297
 20
-53.74793997026302
 30
0.0
 11
-23.91320632733311
 21
-53.74793997026302
 31
0.0
  0
LINE
  5
4E
330
1F
100
AcDbEntity
  8
1
  6
Continuous
 62
     7
100
AcDbLine
 10
-11.5905638946852
 20
-44.99793997026302
 30
0.0
 11
-1.27151872251102
 21
-44.99793997026302
 31
0.0
  0
LINE
  5
4F
330
1F
100
AcDbEntity
  8
1
  6
Continuous
 62
     7
100
AcDbLine
 10
8.6367936726669
 20
-57.6615680855777
 30
0.0
 11
8.6367936726669
 21
-59.49793997026302
 31
0.0
  0
LINE
  5
50
330
1F
100
AcDbEntity
  8
1
  6
DASHED
 62
     2
100
AcDbLine
 10
2.50992932045278
 20
-45.37843648569367
 30
0.0
 11
6.79856716160698
 21
-49.67442370500621
 31
0.0
  0
LINE
  5
51
330
1F
100
AcDbEntity
  8
1
  6
Continuous
 62
     7
100
AcDbLine
 10
3.20634895768882
 20
-51.97605247180721
 30
0.0
 11
0.38679367266691
 21
-51.27305838368675
 31
0.0
  0
LINE
  5
52
330
1F
100
AcDbEntity
  8
1
  6
Continuous
 62
     7
100
AcDbLine
 10
4.48791478703458
 20
-54.86311394187101
 30
0.0
 11
4.53512074056272
 21
-54.76188044784081
 31
0.0
  0
LINE
  5
53
330
1F
100
AcDbEntity
  8
1
  6
Continuous
 62
     7
100
AcDbLine
 10
4.48791478703458
 20
-54.86311394187101
 30
0.0
 11
8.6367936726669
 21
-57.6615680855777
 31
0.0
  0
LINE
  5
54
330
1F
100
AcDbEntity
  8
1
  6
Continuous
 62
     7
100
AcDbLine
 10
8.6367936726669
 20
-53.17064897528411
 30
0.0
 11
8.6367936726669
 21
-57.6615680855777
 31
0.0
  0
LINE
  5
55
330
1F
100
AcDbEntity
  8
1
  6
Continuous
 62
     7
100
AcDbLine
 10
2.91787031155701
 20
-58.23008518504091
 30
0.0
 11
4.48791478703458
 21
-54.86311394187101
 31
0.0
  0
LINE
  5
56
330
1F
100
AcDbEntity
  8
1
  6
Continuous
 62
     7
100
AcDbLine
 10
-11.5905638946852
 20
-44.99793997026302
 30
0.0
 11
-14.33956132768531
 21
-48.92391517474212
 31
0.0
  0
LINE
  5
57
330
1F
100
AcDbEntity
  8
1
  6
Continuous
 62
     7
100
AcDbLine
 10
-14.39139404752314
 20
-44.99793997026302
 30
0.0
 11
-11.5905638946852
 21
-44.99793997026302
 31
0.0
  0
LINE
  5
58
330
1F
100
AcDbEntity
  8
1
  6
Continuous
 62
     7
100
AcDbLine
 10
21.23843256285921
 20
-50.697939970263
 30
0.0
 11
22.8867936726669
 21
-50.697939970263
 31
0.0
  0
LINE
  5
59
330
1F
100
AcDbEntity
  8
1
  6
DASHED
 62
     2
100
AcDbLine
 10
16.35533420781339
 20
-50.697939970263
 30
0.0
 11
21.23843256285921
 21
-50.697939970263
 31
0.0
  0
LINE
  5
5A
330
1F
100
AcDbEntity
  8
1
  6
DASHED
 62
     2
100
AcDbLine
 10
8.6367936726669
 20
-56.79793997026303
 30
0.0
 11
7.8867936726669
 21
-56.79793997026303
 31
0.0
  0
LINE
  5
5B
330
1F
100
AcDbEntity
  8
1
  6
Continuous
 62
     7
100
AcDbLine
 10
17.8867936726669
 20
-44.69793997026302
 30
0.0
 11
1.88679367266681
 21
-44.69793997026291
 31
0.0
  0
LINE
  5
5C
330
1F
100
AcDbEntity
  8
1
  6
Continuous
 62
     7
100
AcDbLine
 10
1.88679367266667
 20
-62.69793997026302
 30
0.0
 11
8.8867936726669
 21
-62.69793997026302
 31
0.0
  0
LINE
  5
5D
330
1F
100
AcDbEntity
  8
1
  6
DOT_CENTER
 62
     2
100
AcDbLine
 10
5.7998909088879
 20
-53.74793997026302
 30
0.0
 11
23.53859622098088
 21
-53.74793997026302
 31
0.0
  0
LINE
  5
5E
330
1F
100
AcDbEntity
  8
1
  6
Continuous
 62
     7
100
AcDbLine
 10
22.8867936726669
 20
-58.09793997026303
 30
0.0
 11
22.8867936726669
 21
-56.79793997026303
 31
0.0
  0
LINE
  5
5F
330
1F
100
AcDbEntity
  8
1
  6
Continuous
 62
     7
100
AcDbLine
 10
22.8867936726669
 20
-56.79793997026303
 30
0.0
 11
8.6367936726669
 21
-56.79793997026303
 31
0.0
  0
LINE
  5
60
330
1F
100
AcDbEntity
  8
1
  6
DASHED
 62
     2
100
AcDbLine
 10
6.8867936726669
 20
-55.79793997026303
 30
0.0
 11
6.8867936726669
 21
-51.697939970263
 31
0.0
  0
LINE
  5
61
330
1F
100
AcDbEntity
  8
1
  6
Continuous
 62
     7
100
AcDbLine
 10
22.8867936726669
 20
-56.79793997026303
 30
0.0
 11
22.8867936726669
 21
-50.697939970263
 31
0.0
  0
LINE
  5
62
330
1F
100
AcDbEntity
  8
1
  6
Continuous
 62
     7
100
AcDbLine
 10
7.8867936726669
 20
-50.697939970263
 30
0.0
 11
16.35533420781339
 21
-50.697939970263
 31
0.0
  0
LINE
  5
63
330
1F
100
AcDbEntity
  8
1
  6
Continuous
 62
     7
100
AcDbLine
 10
1.88679367266681
 20
-44.69793997026291
 30
0.0
 11
1.88679367266681
 21
-44.89986375890958
 31
0.0
  0
LINE
  5
64
330
1F
100
AcDbEntity
  8
1
  6
Continuous
 62
     7
100
AcDbLine
 10
22.8867936726669
 20
-50.697939970263
 30
0.0
 11
22.8867936726669
 21
-47.29793997026302
 31
0.0
  0
LINE
  5
65
330
1F
100
AcDbEntity
  8
1
  6
Continuous
 62
     7
100
AcDbLine
 10
8.8867936726669
 20
-59.09793997026303
 30
0.0
 11
21.154742865098
 21
-59.09793997026303
 31
0.0
  0
LINE
  5
66
330
1F
100
AcDbEntity
  8
1
  6
Continuous
 62
     7
100
AcDbLine
 10
21.154742865098
 20
-59.09793997026303
 30
0.0
 11
22.8867936726669
 21
-58.09793997026303
 31
0.0
  0
LINE
  5
67
330
1F
100
AcDbEntity
  8
1
  6
Continuous
 62
     7
100
AcDbLine
 10
21.154742865098
 20
-46.29793997026302
 30
0.0
 11
17.8867936726669
 21
-46.29793997026302
 31
0.0
  0
LINE
  5
68
330
1F
100
AcDbEntity
  8
1
  6
Continuous
 62
     7
100
AcDbLine
 10
17.8867936726669
 20
-46.29793997026302
 30
0.0
 11
17.8867936726669
 21
-44.69793997026302
 31
0.0
  0
LINE
  5
69
330
1F
100
AcDbEntity
  8
1
  6
Continuous
 62
     7
100
AcDbLine
 10
8.8867936726669
 20
-62.69793997026302
 30
0.0
 11
8.8867936726669
 21
-59.09793997026303
 31
0.0
  0
LINE
  5
6A
330
1F
100
AcDbEntity
  8
1
  6
Continuous
 62
     7
100
AcDbLine
 10
22.8867936726669
 20
-47.29793997026302
 30
0.0
 11
21.154742865098
 21
-46.29793997026302
 31
0.0
  0
LINE
  5
6B
330
1F
100
AcDbEntity
  8
1
  6
Continuous
 62
     7
100
AcDbLine
 10
1.88679367266681
 20
-44.69793997026291
 30
0.0
 11
1.88679367266684
 21
-42.69793997026321
 31
0.0
  0
LINE
  5
6C
330
1F
100
AcDbEntity
  8
1
  6
PHANTOM
 62
     2
100
AcDbLine
 10
46.88679367266684
 20
-26.69793997026321
 30
0.0
 11
46.88679367266684
 21
-21.87239328400037
 31
0.0
  0
LINE
  5
6D
330
1F
100
AcDbEntity
  8
1
  6
Continuous
 62
     7
100
AcDbLine
 10
14.88679367266693
 20
-26.69793997026321
 30
0.0
 11
46.88679367266684
 21
-26.69793997026321
 31
0.0
  0
LINE
  5
6E
330
1F
100
AcDbEntity
  8
1
  6
PHANTOM
 62
     2
100
AcDbLine
 10
46.88679367266684
 20
-68.47367057736668
 30
0.0
 11
46.88679367266684
 21
-66.6979399702632
 31
0.0
  0
LINE
  5
6F
330
1F
100
AcDbEntity
  8
1
  6
PHANTOM
 62
     2
100
AcDbLine
 10
46.88679367266684
 20
-66.6979399702632
 30
0.0
 11
46.88679367266684
 21
-26.69793997026321
 31
0.0
  0
LINE
  5
70
330
1F
100
AcDbEntity
  8
1
  6
Continuous
 62
     7
100
AcDbLine
 10
1.88679367266664
 20
-66.6979399702632
 30
0.0
 11
1.88679367266667
 21
-62.69793997026302
 31
0.0
  0
LINE
  5
71
330
1F
100
AcDbEntity
  8
1
  6
Continuous
 62
     7
100
AcDbLine
 10
46.88679367266684
 20
-66.6979399702632
 30
0.0
 11
1.88679367266664
 21
-66.6979399702632
 31
0.0
  0
LINE
  5
72
330
1F
100
AcDbEntity
  8
1
  6
Continuous
 62
     7
100
AcDbLine
 10
14.88679367266693
 20
-26.69793997026321
 30
0.0
 11
14.88679367266693
 21
-42.69793997026321
 31
0.0
  0
LINE
  5
73
330
1F
100
AcDbEntity
  8
1
  6
Continuous
 62
     7
100
AcDbLine
 10
14.88679367266693
 20
-42.69793997026321
 30
0.0
 11
1.88679367266684
 21
-42.69793997026321
 31
0.0
  0
LINE
  5
74
330
1F
100
AcDbEntity
  8
1
  6
Continuous
 62
     7
100
AcDbLine
 10
26.88679367266667
 20
-44.69793997026301
 30
0.0
 11
20.88679367266667
 21
-44.69793997026301
 31
0.0
  0
LINE
  5
75
330
1F
100
AcDbEntity
  8
1
  6
Continuous
 62
     7
100
AcDbLine
 10
20.88679367266667
 20
-44.69793997026301
 30
0.0
 11
20.88679367266667
 21
-46.19793997026299
 31
0.0
  0
LINE
  5
76
330
1F
100
AcDbEntity
  8
1
  6
Continuous
 62
     7
100
AcDbLine
 10
20.88679367266667
 20
-46.19793997026299
 30
0.0
 11
25.88679367266667
 21
-46.19793997026299
 31
0.0
  0
LINE
  5
77
330
1F
100
AcDbEntity
  8
1
  6
Continuous
 62
     7
100
AcDbLine
 10
25.88679367266667
 20
-46.19793997026299
 30
0.0
 11
25.88679367266667
 21
-59.19793997026302
 31
0.0
  0
LINE
  5
78
330
1F
100
AcDbEntity
  8
1
  6
Continuous
 62
     7
100
AcDbLine
 10
25.88679367266667
 20
-59.19793997026302
 30
0.0
 11
11.88679367266667
 21
-59.19793997026302
 31
0.0
  0
LINE
  5
79
330
1F
100
AcDbEntity
  8
1
  6
Continuous
 62
     7
100
AcDbLine
 10
11.88679367266667
 20
-59.19793997026302
 30
0.0
 11
11.88679367266667
 21
-60.69793997026302
 31
0.0
  0
LINE
  5
7A
330
1F
100
AcDbEntity
  8
1
  6
Continuous
 62
     7
100
AcDbLine
 10
11.88679367266667
 20
-60.69793997026302
 30
0.0
 11
26.88679367266667
 21
-60.69793997026302
 31
0.0
  0
LINE
  5
7B
330
1F
100
AcDbEntity
  8
1
  6
Continuous
 62
     7
100
AcDbLine
 10
26.88679367266667
 20
-60.69793997026302
 30
0.0
 11
26.88679367266667
 21
-44.69793997026301
 31
0.0
  0
LINE
  5
7C
330
1F
100
AcDbEntity
  8
1
  6
Continuous
 62
     7
100
AcDbLine
 10
11.88679367266667
 20
-62.69793997026302
 30
0.0
 11
11.88679367266667
 21
-60.69793997026302
 31
0.0
  0
LINE
  5
7D
330
1F
100
AcDbEntity
  8
1
  6
Continuous
 62
     7
100
AcDbLine
 10
20.88679367266667
 20
-44.69793997026301
 30
0.0
 11
1.88679367266681
 21
-44.69793997026291
 31
0.0
  0
LINE
  5
7E
330
1F
100
AcDbEntity
  8
1
  6
Continuous
 62
     7
100
AcDbLine
 10
11.88679367266667
 20
-62.69793997026302
 30
0.0
 11
1.88679367266667
 21
-62.69793997026302
 31
0.0
  0
LINE
  5
7F
330
1F
100
AcDbEntity
  8
1
  6
Continuous
 62
     7
100
AcDbLine
 10
1.88679367266667
 20
-62.69793997026302
 30
0.0
 11
1.88679367266675
 21
-51.64705038795115
 31
0.0
  0
LINE
  5
80
330
1F
100
AcDbEntity
  8
1
  6
DASHED
 62
     2
100
AcDbLine
 10
-20.46484521752551
 20
-50.69793997026315
 30
0.0
 11
-15.58174686247972
 21
-50.69793997026311
 31
0.0
  0
LINE
  5
81
330
1F
100
AcDbEntity
  8
1
  6
Continuous
 62
     7
100
AcDbLine
 10
-23.61320632733307
 20
-59.69793997026315
 30
0.0
 11
-25.11320632733303
 21
-59.69793997026315
 31
0.0
  0
LINE
  5
82
330
1F
100
AcDbEntity
  8
1
  6
Continuous
 62
     7
100
AcDbLine
 10
-23.61320632733307
 20
-58.44793997026315
 30
0.0
 11
-23.61320632733307
 21
-59.69793997026315
 31
0.0
  0
LINE
  5
83
330
1F
100
AcDbEntity
  8
1
  6
Continuous
 62
     7
100
AcDbLine
 10
-24.11320632733307
 20
-58.44793997026315
 30
0.0
 11
-23.61320632733307
 21
-58.44793997026315
 31
0.0
  0
LINE
  5
84
330
1F
100
AcDbEntity
  8
1
  6
Continuous
 62
     7
100
AcDbLine
 10
-3.11320632733307
 20
-62.69793997026304
 30
0.0
 11
-3.11320632733307
 21
-63.69793997026315
 31
0.0
  0
LINE
  5
85
330
1F
100
AcDbEntity
  8
1
  6
Continuous
 62
     7
100
AcDbLine
 10
-3.11320632733307
 20
-43.94793997026315
 30
0.0
 11
-17.11320632733307
 21
-43.94793997026315
 31
0.0
  0
LINE
  5
86
330
1F
100
AcDbEntity
  8
1
  6
Continuous
 62
     7
100
AcDbLine
 10
-24.11320632733303
 20
-43.94793997026315
 30
0.0
 11
-24.11320632733307
 21
-58.44793997026315
 31
0.0
  0
LINE
  5
87
330
1F
100
AcDbEntity
  8
1
  6
Continuous
 62
     7
100
AcDbLine
 10
-1.11320632733307
 20
-42.69793997026315
 30
0.0
 11
-1.11320632733307
 21
-44.89986375890963
 31
0.0
  0
LINE
  5
88
330
1F
100
AcDbEntity
  8
1
  6
Continuous
 62
     7
100
AcDbLine
 10
-25.11320632733303
 20
-59.69793997026315
 30
0.0
 11
-25.11320632733306
 21
-42.69793997026315
 31
0.0
  0
LINE
  5
89
330
1F
100
AcDbEntity
  8
1
  6
Continuous
 62
     7
100
AcDbLine
 10
-3.11320632733307
 20
-42.69793997026316
 30
0.0
 11
-3.11320632733307
 21
-43.94793997026315
 31
0.0
  0
LINE
  5
8A
330
1F
100
AcDbEntity
  8
1
  6
Continuous
 62
     7
100
AcDbLine
 10
-17.11320632733307
 20
-43.94793997026315
 30
0.0
 11
-24.11320632733303
 21
-43.94793997026315
 31
0.0
  0
LINE
  5
8B
330
1F
100
AcDbEntity
  8
1
  6
Continuous
 62
     7
100
AcDbLine
 10
-17.11320632733307
 20
-42.69793997026315
 30
0.0
 11
-1.11320632733307
 21
-42.69793997026315
 31
0.0
  0
LINE
  5
8C
330
1F
100
AcDbEntity
  8
1
  6
Continuous
 62
     7
100
AcDbLine
 10
-17.11320632733307
 20
-42.69793997026315
 30
0.0
 11
-17.11320632733307
 21
-43.94793997026315
 31
0.0
  0
LINE
  5
8D
330
1F
100
AcDbEntity
  8
1
  6
Continuous
 62
     7
100
AcDbLine
 10
-11.11320632733307
 20
-59.69793997026316
 30
0.0
 11
-23.61320632733307
 21
-59.69793997026315
 31
0.0
  0
LINE
  5
8E
330
1F
100
AcDbEntity
  8
1
  6
Continuous
 62
     7
100
AcDbLine
 10
-11.11320632733307
 20
-63.69793997026315
 30
0.0
 11
-11.11320632733307
 21
-59.69793997026316
 31
0.0
  0
LINE
  5
8F
330
1F
100
AcDbEntity
  8
1
  6
Continuous
 62
     7
100
AcDbLine
 10
-1.11320632733307
 20
-63.69793997026315
 30
0.0
 11
-11.11320632733307
 21
-63.69793997026315
 31
0.0
  0
LINE
  5
90
330
1F
100
AcDbEntity
  8
1
  6
Continuous
 62
     7
100
AcDbLine
 10
-25.11320632733306
 20
-42.69793997026315
 30
0.0
 11
-17.11320632733307
 21
-42.69793997026315
 31
0.0
  0
LINE
  5
91
330
1F
100
AcDbEntity
  8
1
  6
Continuous
 62
     7
100
AcDbLine
 10
-11.11320632733307
 20
-59.69793997026316
 30
0.0
 11
-11.11320632733307
 21
-58.8319145664786
 31
0.0
  0
LINE
  5
92
330
1F
100
AcDbEntity
  8
1
  6
Continuous
 62
     7
100
AcDbLine
 10
-1.11320632733307
 20
-66.69793997026315
 30
0.0
 11
-44.11320632733315
 21
-66.6979399702632
 31
0.0
  0
LINE
  5
93
330
1F
100
AcDbEntity
  8
1
  6
Continuous
 62
     7
100
AcDbLine
 10
11.88679367266693
 20
-37.69793997026321
 30
0.0
 11
11.88679367266694
 21
24.08734679886905
 31
0.0
  0
LINE
  5
94
330
1F
100
AcDbEntity
  8
1
  6
Continuous
 62
     7
100
AcDbLine
 10
-1.1132063273331
 20
-37.69793997026315
 30
0.0
 11
11.88679367266693
 21
-37.69793997026321
 31
0.0
  0
LINE
  5
95
330
1F
100
AcDbEntity
  8
1
  6
Continuous
 62
     7
100
AcDbLine
 10
-0.11320632733307
 20
-39.42999077783216
 30
0.0
 11
-0.11320632733307
 21
-38.69793997026321
 31
0.0
  0
LINE
  5
96
330
1F
100
AcDbEntity
  8
1
  6
Continuous
 62
     7
100
AcDbLine
 10
1.1961947494253
 20
-41.69793997026321
 30
0.0
 11
-0.11320632733307
 21
-39.42999077783216
 31
0.0
  0
LINE
  5
97
330
1F
100
AcDbEntity
  8
1
  6
Continuous
 62
     7
100
AcDbLine
 10
9.57739259590838
 20
-41.69793997026321
 30
0.0
 11
1.1961947494253
 21
-41.69793997026321
 31
0.0
  0
LINE
  5
98
330
1F
100
AcDbEntity
  8
1
  6
Continuous
 62
     7
100
AcDbLine
 10
10.88679367266693
 20
-39.42999077783217
 30
0.0
 11
9.57739259590838
 21
-41.69793997026321
 31
0.0
  0
LINE
  5
99
330
1F
100
AcDbEntity
  8
1
  6
Continuous
 62
     7
100
AcDbLine
 10
10.88679367266693
 20
-38.69793997026321
 30
0.0
 11
10.88679367266693
 21
-39.42999077783217
 31
0.0
  0
LINE
  5
9A
330
1F
100
AcDbEntity
  8
1
  6
Continuous
 62
     7
100
AcDbLine
 10
-0.11320632733307
 20
-38.69793997026321
 30
0.0
 11
10.88679367266693
 21
-38.69793997026321
 31
0.0
  0
LINE
  5
9B
330
1F
100
AcDbEntity
  8
1
  6
Continuous
 62
     7
100
AcDbLine
 10
11.88679367266693
 20
-39.69793997026321
 30
0.0
 11
11.88679367266693
 21
-37.69793997026321
 31
0.0
  0
LINE
  5
9C
330
1F
100
AcDbEntity
  8
1
  6
Continuous
 62
     7
100
AcDbLine
 10
10.15474286509797
 20
-42.69793997026321
 30
0.0
 11
11.88679367266693
 21
-39.69793997026321
 31
0.0
  0
LINE
  5
9D
330
1F
100
AcDbEntity
  8
1
  6
Continuous
 62
     7
100
AcDbLine
 10
0.61884448023565
 20
-42.69793997026321
 30
0.0
 11
10.15474286509797
 21
-42.69793997026321
 31
0.0
  0
LINE
  5
9E
330
1F
100
AcDbEntity
  8
1
  6
Continuous
 62
     7
100
AcDbLine
 10
-1.11320632733307
 20
-39.69793997026321
 30
0.0
 11
0.61884448023565
 21
-42.69793997026321
 31
0.0
  0
LINE
  5
9F
330
1F
100
AcDbEntity
  8
1
  6
Continuous
 62
     7
100
AcDbLine
 10
-1.1132063273331
 20
-37.69793997026315
 30
0.0
 11
-1.11320632733307
 21
-42.69793997026315
 31
0.0
  0
LINE
  5
A0
330
1F
100
AcDbEntity
  8
1
  6
Continuous
 62
     7
100
AcDbLine
 10
-1.11320632733307
 20
-63.69793997026315
 30
0.0
 11
-1.11320632733307
 21
-66.69793997026315
 31
0.0
  0
LINE
  5
A1
330
1F
100
AcDbEntity
  8
1
  6
DOT_CENTER
 62
     2
100
AcDbLine
 10
-24.39169727004066
 20
-53.74793997026304
 30
0.0
 11
-5.15153373505048
 21
-53.74793997026304
 31
0.0
  0
LINE
  5
A2
330
1F
100
AcDbEntity
  8
1
  6
DASHED
 62
     2
100
AcDbLine
 10
-7.11320632733303
 20
-56.79793997026303
 30
0.0
 11
-7.86320632733309
 21
-56.79793997026303
 31
0.0
  0
LINE
  5
A3
330
1F
100
AcDbEntity
  8
1
  6
DASHED
 62
     2
100
AcDbLine
 10
-6.11320632733303
 20
-51.69793997026303
 30
0.0
 11
-6.11320632733303
 21
-55.79793997026302
 31
0.0
  0
LINE
  5
A4
330
1F
100
AcDbEntity
  8
1
  6
Continuous
 62
     7
100
AcDbLine
 10
-23.61320632733307
 20
-50.69793997026318
 30
0.0
 11
-20.46484521752551
 21
-50.69793997026315
 31
0.0
  0
LINE
  5
A5
330
1F
100
AcDbEntity
  8
1
  6
Continuous
 62
     7
100
AcDbLine
 10
-1.11320632733309
 20
-62.69793997026304
 30
0.0
 11
-1.11320632733307
 21
-51.64705038795151
 31
0.0
  0
LINE
  5
A6
330
1F
100
AcDbEntity
  8
1
  6
Continuous
 62
     7
100
AcDbLine
 10
-22.61320632733311
 20
-58.69793997026304
 30
0.0
 11
-11.61320632733306
 21
-58.69793997026304
 31
0.0
  0
LINE
  5
A7
330
1F
100
AcDbEntity
  8
1
  6
Continuous
 62
     7
100
AcDbLine
 10
-10.61320632733309
 20
-59.69793997026304
 30
0.0
 11
-10.61320632733309
 21
-62.69793997026304
 31
0.0
  0
LINE
  5
A8
330
1F
100
AcDbEntity
  8
1
  6
Continuous
 62
     7
100
AcDbLine
 10
-10.61320632733309
 20
-62.69793997026304
 30
0.0
 11
-1.11320632733309
 21
-62.69793997026304
 31
0.0
  0
LINE
  5
A9
330
1F
100
AcDbEntity
  8
1
  6
Continuous
 62
     7
100
AcDbLine
 10
-17.2479654189403
 20
-46.19793997026304
 30
0.0
 11
-22.61320632733311
 21
-46.19793997026304
 31
0.0
  0
LINE
  5
AA
330
1F
100
AcDbEntity
  8
1
  6
Continuous
 62
     7
100
AcDbLine
 10
-23.61320632733309
 20
-47.19793997026318
 30
0.0
 11
-23.61320632733311
 21
-57.69793997026304
 31
0.0
  0
LINE
  5
AB
330
1F
100
AcDbEntity
  8
1
  6
Continuous
 62
     7
100
AcDbLine
 10
-1.11320632733307
 20
-63.69793997026315
 30
0.0
 11
-1.11320632733309
 21
-62.69793997026304
 31
0.0
  0
LINE
  5
AC
330
1F
100
AcDbEntity
  8
1
  6
Continuous
 62
     7
100
AcDbLine
 10
-15.58174686247972
 20
-50.69793997026311
 30
0.0
 11
-7.11320632733303
 21
-50.69793997026304
 31
0.0
  0
LINE
  5
AD
330
1F
100
AcDbEntity
  8
1
  6
Continuous
 62
     7
100
AcDbLine
 10
-7.86320632733309
 20
-56.79793997026303
 30
0.0
 11
-23.61320632733311
 21
-56.79793997026303
 31
0.0
  0
LINE
  5
AE
330
1F
100
AcDbEntity
  8
1
  6
DOT_CENTER
 62
     2
100
AcDbLine
 10
-11.11320632733315
 20
24.08734679886905
 30
0.0
 11
-15.34507646136596
 21
24.08734679886905
 31
0.0
  0
LINE
  5
AF
330
1F
100
AcDbEntity
  8
1
  6
DOT_CENTER
 62
     2
100
AcDbLine
 10
11.88679367266694
 20
24.08734679886905
 30
0.0
 11
18.90126688979784
 21
24.08734679886905
 31
0.0
  0
LINE
  5
B0
330
1F
100
AcDbEntity
  8
1
  6
DOT_CENTER
 62
     2
100
AcDbLine
 10
11.88679367266694
 20
24.08734679886905
 30
0.0
 11
-11.11320632733315
 21
24.08734679886905
 31
0.0
  0
LINE
  5
B1
330
1F
100
AcDbEntity
  8
1
  6
DASHED
 62
     2
100
AcDbLine
 10
-12.86320632733326
 20
-17.94793997026326
 30
0.0
 11
-15.11320632733326
 21
-15.69793997026315
 31
0.0
  0
LINE
  5
B2
330
1F
100
AcDbEntity
  8
1
  6
DASHED
 62
     2
100
AcDbLine
 10
-11.11320632733326
 20
-17.94793997026326
 30
0.0
 11
-12.86320632733326
 21
-17.94793997026326
 31
0.0
  0
LINE
  5
B3
330
1F
100
AcDbEntity
  8
1
  6
DASHED
 62
     2
100
AcDbLine
 10
-12.86320632733326
 20
-6.44793997026326
 30
0.0
 11
-12.86320632733326
 21
-0.94793997026326
 31
0.0
  0
LINE
  5
B4
330
1F
100
AcDbEntity
  8
1
  6
DASHED
 62
     2
100
AcDbLine
 10
-12.86320632733326
 20
-0.94793997026326
 30
0.0
 11
-15.11320632733326
 21
1.30206002973674
 31
0.0
  0
LINE
  5
B5
330
1F
100
AcDbEntity
  8
1
  6
DASHED
 62
     2
100
AcDbLine
 10
-11.11320632733326
 20
-0.94793997026326
 30
0.0
 11
-12.86320632733326
 21
-0.94793997026326
 31
0.0
  0
LINE
  5
B6
330
1F
100
AcDbEntity
  8
1
  6
DASHED
 62
     2
100
AcDbLine
 10
-12.86320632733326
 20
-6.44793997026326
 30
0.0
 11
-15.11320632733326
 21
-8.69793997026326
 31
0.0
  0
LINE
  5
B7
330
1F
100
AcDbEntity
  8
1
  6
DASHED
 62
     2
100
AcDbLine
 10
-11.11320632733326
 20
-6.44793997026326
 30
0.0
 11
-12.86320632733326
 21
-6.44793997026326
 31
0.0
  0
LINE
  5
B8
330
1F
100
AcDbEntity
  8
1
  6
DASHED
 62
     2
100
AcDbLine
 10
-12.86320632733326
 20
-23.44793997026326
 30
0.0
 11
-12.86320632733326
 21
-17.94793997026326
 31
0.0
  0
LINE
  5
B9
330
1F
100
AcDbEntity
  8
1
  6
DASHED
 62
     2
100
AcDbLine
 10
-12.86320632733326
 20
-23.44793997026326
 30
0.0
 11
-15.11320632733326
 21
-25.69793997026326
 31
0.0
  0
LINE
  5
BA
330
1F
100
AcDbEntity
  8
1
  6
DASHED
 62
     2
100
AcDbLine
 10
-11.11320632733326
 20
-23.44793997026326
 30
0.0
 11
-12.86320632733326
 21
-23.44793997026326
 31
0.0
  0
LINE
  5
BB
330
1F
100
AcDbEntity
  8
1
  6
PHANTOM
 62
     2
100
AcDbLine
 10
5.38679367266685
 20
-20.69793997026326
 30
0.0
 11
-16.61320632733315
 21
-20.69793997026326
 31
0.0
  0
LINE
  5
BC
330
1F
100
AcDbEntity
  8
1
  6
PHANTOM
 62
     2
100
AcDbLine
 10
5.38679367266685
 20
-3.69793997026326
 30
0.0
 11
-16.61320632733315
 21
-3.69793997026326
 31
0.0
  0
LINE
  5
BD
330
1F
100
AcDbEntity
  8
1
  6
Continuous
 62
     7
100
AcDbLine
 10
-11.11320632733315
 20
6.30206002973674
 30
0.0
 11
-15.11320632733315
 21
6.30206002973674
 31
0.0
  0
LINE
  5
BE
330
1F
100
AcDbEntity
  8
1
  6
Continuous
 62
     7
100
AcDbLine
 10
-11.11320632733315
 20
-42.69793997026315
 30
0.0
 11
-11.11320632733315
 21
24.08734679886905
 31
0.0
  0
LINE
  5
BF
330
1F
100
AcDbEntity
  8
1
  6
Continuous
 62
     7
100
AcDbLine
 10
-15.11320632733315
 20
6.30206002973674
 30
0.0
 11
-15.11320632733306
 21
-42.69793997026315
 31
0.0
  0
LINE
  5
C0
330
1F
100
AcDbEntity
  8
1
  6
Continuous
 62
     7
100
AcDbLine
 10
-44.11320632733315
 20
-51.69793997026315
 30
0.0
 11
-24.11320632733306
 21
-51.69793997026315
 31
0.0
  0
LINE
  5
C1
330
1F
100
AcDbEntity
  8
1
  6
Continuous
 62
     7
100
AcDbLine
 10
-44.11320632733315
 20
-51.69793997026315
 30
0.0
 11
-44.11320632733315
 21
-66.6979399702632
 31
0.0
  0
ARC
  5
C2
330
1F
100
AcDbEntity
  8
1
  6
DASHED
 62
     2
100
AcDbCircle
 10
0.3867936726669
 20
-47.49793997026302
 30
0.0
 40
3.000000000000135
100
AcDbArc
 50
44.95094855690628
 51
56.44269023808015
  0
ARC
  5
C3
330
1F
100
AcDbEntity
  8
1
  6
Continuous
 62
     7
100
AcDbCircle
 10
0.3867936726669
 20
-47.49793997026302
 30
0.0
 40
2.99999999999997
100
AcDbArc
 50
56.44269023808015
 51
135.0490514430944
  0
ARC
  5
C4
330
1F
100
AcDbEntity
  8
1
  6
Continuous
 62
     7
100
AcDbCircle
 10
19.88679367266691
 20
-53.74793997026302
 30
0.0
 40
2.999999999999958
100
AcDbArc
 50
163.952715530337
 51
17.21360683119659
  0
ARC
  5
C5
330
1F
100
AcDbEntity
  8
1
  6
Continuous
 62
     7
100
AcDbCircle
 10
-4.86320632733309
 20
-59.49793997026302
 30
0.0
 40
3.0
100
AcDbArc
 50
180.0
 51
25.00000000000017
  0
ARC
  5
C6
330
1F
100
AcDbEntity
  8
1
  6
Continuous
 62
     7
100
AcDbCircle
 10
5.6367936726669
 20
-59.49793997026302
 30
0.0
 40
2.999999999999946
100
AcDbArc
 50
154.9999999999994
 51
0.0
  0
ARC
  5
C7
330
1F
100
AcDbEntity
  8
1
  6
Continuous
 62
     7
100
AcDbCircle
 10
-19.1132063273331
 20
-53.74793997026302
 30
0.0
 40
2.999999999999981
100
AcDbArc
 50
145.0000000000007
 51
16.04728446966267
  0
CIRCLE
  5
C8
330
1F
100
AcDbEntity
  8
1
  6
Continuous
 62
     7
100
AcDbCircle
 10
19.88679367266691
 20
-53.74793997026302
 30
0.0
 40
2.0
  0
CIRCLE
  5
C9
330
1F
100
AcDbEntity
  8
1
  6
Continuous
 62
     7
100
AcDbCircle
 10
-4.86320632733309
 20
-59.49793997026302
 30
0.0
 40
1.75
  0
CIRCLE
  5
CA
330
1F
100
AcDbEntity
  8
1
  6
Continuous
 62
     7
100
AcDbCircle
 10
0.3867936726669
 20
-47.49793997026302
 30
0.0
 40
1.750000000000014
  0
CIRCLE
  5
CB
330
1F
100
AcDbEntity
  8
1
  6
Continuous
 62
     7
100
AcDbCircle
 10
5.6367936726669
 20
-59.49793997026302
 30
0.0
 40
1.75
  0
CIRCLE
  5
CC
330
1F
100
AcDbEntity
  8
1
  6
Continuous
 62
     7
100
AcDbCircle
 10
-19.1132063273331
 20
-53.74793997026302
 30
0.0
 40
2.0
  0
ARC
  5
CD
330
1F
100
AcDbEntity
  8
1
  6
Continuous
 62
     7
100
AcDbCircle
 10
15.16498139285694
 20
-48.99793997026302
 30
0.0
 40
3.999999999999979
100
AcDbArc
 50
35.00000000000027
 51
90.00000000000074
  0
ARC
  5
CE
330
1F
100
AcDbEntity
  8
1
  6
Continuous
 62
     7
100
AcDbCircle
 10
13.47484458444042
 20
-50.0710680474439
 30
0.0
 40
2.00000000000003
100
AcDbArc
 50
34.99999999999945
 51
103.999999999998
  0
ARC
  5
CF
330
1F
100
AcDbEntity
  8
1
  6
Continuous
 62
     7
100
AcDbCircle
 10
15.08162420532553
 20
-52.36578716028481
 30
0.0
 40
2.000000000000092
100
AcDbArc
 50
-16.04728446966313
 51
35.00000000000212
  0
ARC
  5
D0
330
1F
100
AcDbEntity
  8
1
  6
Continuous
 62
     7
100
AcDbCircle
 10
-1.94891782115597
 20
-53.91664392435891
 30
0.0
 40
1.999999999999905
100
AcDbArc
 50
104.0000000000002
 51
-154.9999999999984
  0
ARC
  5
D1
330
1F
100
AcDbEntity
  8
1
  6
Continuous
 62
     7
100
AcDbCircle
 10
-3.86320632733309
 20
-53.17064897528411
 30
0.0
 40
4.0
100
AcDbArc
 50
135.0490514430948
 51
180.0
  0
ARC
  5
D2
330
1F
100
AcDbEntity
  8
1
  6
Continuous
 62
     7
100
AcDbCircle
 10
-14.39139404752308
 20
-48.99793997026302
 30
0.0
 40
4.0
100
AcDbArc
 50
90.00000000000084
 51
144.9999999999998
  0
ARC
  5
D3
330
1F
100
AcDbEntity
  8
1
  6
Continuous
 62
     7
100
AcDbCircle
 10
-12.70125723910718
 20
-50.07106804744402
 30
0.0
 40
2.000000000000011
100
AcDbArc
 50
76.00000000000202
 51
145.0000000000068
  0
ARC
  5
D4
330
1F
100
AcDbEntity
  8
1
  6
Continuous
 62
     7
100
AcDbCircle
 10
2.7225051664895
 20
-53.91664392435911
 30
0.0
 40
2.000000000000056
100
AcDbArc
 50
-25.00000000000885
 51
75.99999999999982
  0
ARC
  5
D5
330
1F
100
AcDbEntity
  8
1
  6
Continuous
 62
     7
100
AcDbCircle
 10
-14.30803685999177
 20
-52.36578716028481
 30
0.0
 40
2.000000000000011
100
AcDbArc
 50
145.0000000000074
 51
-163.952715530336
  0
ARC
  5
D6
330
1F
100
AcDbEntity
  8
1
  6
Continuous
 62
     7
100
AcDbCircle
 10
4.6367936726669
 20
-53.17064897528411
 30
0.0
 40
4.0
100
AcDbArc
 50
0.0
 51
44.95094855690522
  0
ARC
  5
D7
330
1F
100
AcDbEntity
  8
1
  6
DASHED
 62
     2
100
AcDbCircle
 10
7.8867936726669
 20
-55.79793997026303
 30
0.0
 40
1.0
100
AcDbArc
 50
180.0
 51
-90.0
  0
ARC
  5
D8
330
1F
100
AcDbEntity
  8
1
  6
DASHED
 62
     2
100
AcDbCircle
 10
7.8867936726669
 20
-51.697939970263
 30
0.0
 40
0.9999999999999909
100
AcDbArc
 50
95.84103701114498
 51
180.0
  0
ARC
  5
D9
330
1F
100
AcDbEntity
  8
1
  6
Continuous
 62
     7
100
AcDbCircle
 10
7.8867936726669
 20
-51.697939970263
 30
0.0
 40
1.0
100
AcDbArc
 50
90.0
 51
95.84103701114498
  0
ARC
  5
DA
330
1F
100
AcDbEntity
  8
1
  6
DASHED
 62
     2
100
AcDbCircle
 10
-7.11320632733303
 20
-51.69793997026304
 30
0.0
 40
1.0
100
AcDbArc
 50
0.00000000000081
 51
84.15896298885968
  0
ARC
  5
DB
330
1F
100
AcDbEntity
  8
1
  6
DASHED
 62
     2
100
AcDbCircle
 10
-7.11320632733303
 20
-55.79793997026303
 30
0.0
 40
1.0
100
AcDbArc
 50
-90.0
 51
0.00000000000041
  0
ARC
  5
DC
330
1F
100
AcDbEntity
  8
1
  6
Continuous
 62
     7
100
AcDbCircle
 10
-7.11320632733303
 20
-51.69793997026304
 30
0.0
 40
0.9999999999999969
100
AcDbArc
 50
84.15896298885968
 51
90.0
  0
ARC
  5
DD
330
1F
100
AcDbEntity
  8
1
  6
Continuous
 62
     7
100
AcDbCircle
 10
-22.61320632733311
 20
-47.19793997026304
 30
0.0
 40
1.0
100
AcDbArc
 50
90.0
 51
-179.9999999999923
  0
ARC
  5
DE
330
1F
100
AcDbEntity
  8
1
  6
Continuous
 62
     7
100
AcDbCircle
 10
-22.61320632733311
 20
-57.69793997026304
 30
0.0
 40
1.0
100
AcDbArc
 50
180.0
 51
-90.0
  0
ARC
  5
DF
330
1F
100
AcDbEntity
  8
1
  6
Continuous
 62
     7
100
AcDbCircle
 10
-11.61320632733309
 20
-59.69793997026304
 30
0.0
 40
1.0
100
AcDbArc
 50
0.0
 51
89.99999999999827
  0
DIMENSION
  5
ED
330
1F
100
AcDbEntity
  8
1
100
AcDbDimension
  2
*D1
 10
61.9989745266741
 20
-66.6979399702632
 30
0.0
 11
58.2489745266741
 21
-71.4702750072966
 31
0.0
 70
    32
  1
<>
 71
     5
 42
-1.0
 53
90.0
  3
ME10_DIM_10
100
AcDbAlignedDimension
 13
11.88679367266667
 23
-62.69793997026302
 33
0.0
 14
46.88679367266684
 24
-66.6979399702632
 34
0.0
 50
90.0
100
AcDbRotatedDimension
  0
DIMENSION
  5
F8
330
1F
100
AcDbEntity
  8
1
100
AcDbDimension
  2
*D2
 10
61.9989745266741
 20
-44.69793997026301
 30
0.0
 11
58.2489745266741
 21
-52.9334704179918
 31
0.0
 70
    32
  1
<>
 71
     5
 42
-1.0
 53
90.0
  3
ME10_DIM_11
100
AcDbAlignedDimension
 13
11.88679367266667
 23
-62.69793997026302
 33
0.0
 14
26.88679367266667
 24
-44.69793997026301
 34
0.0
 50
90.0
100
AcDbRotatedDimension
  0
DIMENSION
  5
103
330
1F
100
AcDbEntity
  8
1
100
AcDbDimension
  2
*D3
 10
54.3122072984775
 20
-44.69793997026301
 30
0.0
 11
50.5622072984775
 21
-52.4140942539245
 31
0.0
 70
    32
  1
<>
 71
     5
 42
-1.0
 53
90.0
  3
ME10_DIM_12
100
AcDbAlignedDimension
 13
26.88679367266667
 23
-60.69793997026302
 33
0.0
 14
26.88679367266667
 24
-44.69793997026301
 34
0.0
 50
90.0
100
AcDbRotatedDimension
  0
DIMENSION
  5
10E
330
1F
100
AcDbEntity
  8
1
100
AcDbDimension
  2
*D4
 10
-57.2693584227262
 20
-42.69793997026315
 30
0.0
 11
-61.0193584227262
 21
-51.7573566834995
 31
0.0
 70
    32
  1
<>
 71
     5
 42
-1.0
 53
90.0
  3
ME10_DIM_13
100
AcDbAlignedDimension
 13
-11.11320632733307
 23
-63.69793997026315
 33
0.0
 14
-25.11320632733306
 24
-42.69793997026315
 34
0.0
 50
90.0
100
AcDbRotatedDimension
  0
DIMENSION
  5
119
330
1F
100
AcDbEntity
  8
1
100
AcDbDimension
  2
*D5
 10
-49.7542691106715
 20
-59.69793997026315
 30
0.0
 11
-53.5042691106715
 21
-50.9033692616751
 31
0.0
 70
    32
  1
<>
 71
     5
 42
-1.0
 53
90.0
  3
ME10_DIM_14
100
AcDbAlignedDimension
 13
-25.11320632733306
 23
-42.69793997026315
 33
0.0
 14
-25.11320632733303
 24
-59.69793997026315
 34
0.0
 50
90.0
100
AcDbRotatedDimension
  0
DIMENSION
  5
124
330
1F
100
AcDbEntity
  8
1
100
AcDbDimension
  2
*D6
 10
-25.11320632733303
 20
-76.9707828395883
 30
0.0
 11
-13.6754446027144
 21
-73.2207828395883
 31
0.0
 70
    32
  1
<>
 71
     5
 42
-1.0
 53
0.00013888888889
  3
ME10_DIM_15
100
AcDbAlignedDimension
 13
-1.11320632733307
 23
-66.69793997026315
 33
0.0
 14
-25.11320632733303
 24
-59.69793997026315
 34
0.0
100
AcDbRotatedDimension
  0
DIMENSION
  5
12F
330
1F
100
AcDbEntity
  8
1
100
AcDbDimension
  2
*D7
 10
1.88679367266665
 20
-76.9707828395883
 30
0.0
 11
14.38679367266666
 21
-73.2207828395883
 31
0.0
 70
    32
  1
<>
 71
     5
 42
-1.0
 53
0.00013888888889
  3
ME10_DIM_16
100
AcDbAlignedDimension
 13
26.88679367266667
 23
-60.69793997026302
 33
0.0
 14
1.88679367266664
 24
-66.6979399702632
 34
0.0
100
AcDbRotatedDimension
  0
DIMENSION
  5
13C
330
1F
100
AcDbEntity
  8
1
100
AcDbDimension
  2
*D8
 10
-1.11320632733307
 20
-76.9707828395883
 30
0.0
 11
0.33989797567876
 21
-81.1628103006777
 31
0.0
 70
    32
  1
<>
 71
     5
 42
-1.0
 53
0.00013888888889
  3
ME10_DIM_17
100
AcDbAlignedDimension
 13
1.88679367266664
 23
-66.6979399702632
 33
0.0
 14
-1.11320632733307
 24
-66.69793997026315
 34
0.0
100
AcDbRotatedDimension
  0
ENDSEC
  0
SECTION
  2
OBJECTS
  0
DICTIONARY
  5
C
330
0
100
AcDbDictionary
281
     1
  3
ACAD_GROUP
350
D
  3
ACAD_LAYOUT
350
1A
  3
ACAD_MLINESTYLE
350
17
  3
ACAD_PLOTSETTINGS
350
19
  3
ACAD_PLOTSTYLENAME
350
E
  0
DICTIONARY
  5
D
102
{ACAD_REACTORS
330
C
102
}
330
C
100
AcDbDictionary
281
     1
  0
DICTIONARY
  5
1A
102
{ACAD_REACTORS
330
C
102
}
330
C
100
AcDbDictionary
281
     1
  3
Layout1
350
1E
  3
Layout2
350
26
  3
Model
350
22
  0
DICTIONARY
  5
17
102
{ACAD_REACTORS
330
C
102
}
330
C
100
AcDbDictionary
281
     1
  3
Standard
350
18
  0
DICTIONARY
  5
19
102
{ACAD_REACTORS
330
C
102
}
330
C
100
AcDbDictionary
281
     1
  0
ACDBDICTIONARYWDFLT
  5
E
102
{ACAD_REACTORS
330
C
102
}
330
C
100
AcDbDictionary
281
     1
  3
Normal
350
F
100
AcDbDictionaryWithDefault
340
F
  0
LAYOUT
  5
1E
102
{ACAD_REACTORS
330
1A
102
}
330
1A
100
AcDbPlotSettings
  1

  2

  4

  6

 40
0.0
 41
0.0
 42
0.0
 43
0.0
 44
0.0
 45
0.0
 46
0.0
 47
0.0
 48
0.0
 49
0.0
140
0.0
141
0.0
142
1.0
143
1.0
 70
   688
 72
     0
 73
     0
 74
     5
  7

 75
    16
 76
     0
 77
     2
 78
   300
147
1.0
148
0.0
149
0.0
100
AcDbLayout
  1
Layout1
 70
     1
 71
     1
 10
0.0
 20
0.0
 11
0.0
 21
0.0
 12
0.0
 22
0.0
 32
0.0
 14
0.0
 24
0.0
 34
0.0
 15
0.0
 25
0.0
 35
0.0
146
0.0
 13
0.0
 23
0.0
 33
0.0
 16
1.0
 26
0.0
 36
0.0
 17
0.0
 27
1.0
 37
0.0
 76
     0
330
1B
  0
LAYOUT
  5
26
102
{ACAD_REACTORS
330
1A
102
}
330
1A
100
AcDbPlotSettings
  1

  2

  4

  6

 40
0.0
 41
0.0
 42
0.0
 43
0.0
 44
0.0
 45
0.0
 46
0.0
 47
0.0
 48
0.0
 49
0.0
140
0.0
141
0.0
142
1.0
143
1.0
 70
   688
 72
     0
 73
     0
 74
     5
  7

 75
    16
 76
     0
 77
     2
 78
   300
147
1.0
148
0.0
149
0.0
100
AcDbLayout
  1
Layout2
 70
     1
 71
     2
 10
0.0
 20
0.0
 11
0.0
 21
0.0
 12
0.0
 22
0.0
 32
0.0
 14
0.0
 24
0.0
 34
0.0
 15
0.0
 25
0.0
 35
0.0
146
0.0
 13
0.0
 23
0.0
 33
0.0
 16
1.0
 26
0.0
 36
0.0
 17
0.0
 27
1.0
 37
0.0
 76
     0
330
23
  0
LAYOUT
  5
22
102
{ACAD_REACTORS
330
1A
102
}
330
1A
100
AcDbPlotSettings
  1

  2

  4

  6

 40
0.0
 41
0.0
 42
0.0
 43
0.0
 44
0.0
 45
0.0
 46
0.0
 47
0.0
 48
0.0
 49
0.0
140
0.0
141
0.0
142
1.0
143
1.0
 70
  1712
 72
     0
 73
     0
 74
     0
  7

 75
     0
 76
     0
 77
     2
 78
   300
147
1.0
148
0.0
149
0.0
100
AcDbLayout
  1
Model
 70
     1
 71
     0
 10
0.0
 20
0.0
 11
0.0
 21
0.0
 12
0.0
 22
0.0
 32
0.0
 14
-62.7693584227262
 24
-82.9128103006777
 34
0.0
 15
63.9989745266741
 25
24.08734679886905
 35
0.0
146
0.0
 13
0.0
 23
0.0
 33
0.0
 16
1.0
 26
0.0
 36
0.0
 17
0.0
 27
1.0
 37
0.0
 76
     0
330
1F
  0
MLINESTYLE
  5
18
102
{ACAD_REACTORS
330
17
102
}
330
17
100
AcDbMlineStyle
  2
Standard
 70
     0
  3

 62
   256
 51
90.0
 52
90.0
 71
     2
 49
0.5
 62
   256
  6
BYLAYER
 49
-0.5
 62
   256
  6
BYLAYER
  0
ACDBPLACEHOLDER
  5
F
102
{ACAD_REACTORS
330
E
102
}
330
E
  0
ENDSEC
  0
EOF
