  0
SECTION
  2
HEADER
  9
$ACADVER
  1
AC1018
  9
$ACADMAINTVER
 70
     0
  9
$DWGCODEPAGE
  3
ANSI_1252
  9
$INSBASE
 10
0.0
 20
0.0
 30
0.0
  9
$EXTMIN
 10
-206.5065863713548
 20
-120.2833961103276
 30
0.0
  9
$EXTMAX
 10
183.144101125991
 20
109.761881720986
 30
0.0
  9
$LIMMIN
 10
0.0
 20
0.0
  9
$LIMMAX
 10
12.0
 20
9.0
  9
$ORTHOMODE
 70
     0
  9
$REGENMODE
 70
     1
  9
$FILLMODE
 70
     1
  9
$QTEXTMODE
 70
     0
  9
$MIRRTEXT
 70
     1
  9
$LTSCALE
 40
1.0
  9
$ATTMODE
 70
     1
  9
$TEXTSIZE
 40
0.2
  9
$TRACEWID
 40
0.05
  9
$TEXTSTYLE
  7
Standard
  9
$CLAYER
  8
0
  9
$CELTYPE
  6
ByLayer
  9
$CECOLOR
 62
   256
  9
$CELTSCALE
 40
1.0
  9
$DISPSILH
 70
     0
  9
$DIMSCALE
 40
1.0
  9
$DIMASZ
 40
0.18
  9
$DIMEXO
 40
0.0625
  9
$DIMDLI
 40
0.38
  9
$DIMRND
 40
0.0
  9
$DIMDLE
 40
0.0
  9
$DIMEXE
 40
0.18
  9
$DIMTP
 40
0.0
  9
$DIMTM
 40
0.0
  9
$DIMTXT
 40
0.18
  9
$DIMCEN
 40
0.09
  9
$DIMTSZ
 40
0.0
  9
$DIMTOL
 70
     0
  9
$DIMLIM
 70
     0
  9
$DIMTIH
 70
     1
  9
$DIMTOH
 70
     1
  9
$DIMSE1
 70
     0
  9
$DIMSE2
 70
     0
  9
$DIMTAD
 70
     0
  9
$DIMZIN
 70
     0
  9
$DIMBLK
  1

  9
$DIMASO
 70
     1
  9
$DIMSHO
 70
     1
  9
$DIMPOST
  1

  9
$DIMAPOST
  1

  9
$DIMALT
 70
     0
  9
$DIMALTD
 70
     2
  9
$DIMALTF
 40
25.4
  9
$DIMLFAC
 40
1.0
  9
$DIMTOFL
 70
     0
  9
$DIMTVP
 40
0.0
  9
$DIMTIX
 70
     0
  9
$DIMSOXD
 70
     0
  9
$DIMSAH
 70
     0
  9
$DIMBLK1
  1

  9
$DIMBLK2
  1

  9
$DIMSTYLE
  2
Standard
  9
$DIMCLRD
 70
     0
  9
$DIMCLRE
 70
     0
  9
$DIMCLRT
 70
     0
  9
$DIMTFAC
 40
1.0
  9
$DIMGAP
 40
0.09
  9
$DIMJUST
 70
     0
  9
$DIMSD1
 70
     0
  9
$DIMSD2
 70
     0
  9
$DIMTOLJ
 70
     1
  9
$DIMTZIN
 70
     0
  9
$DIMALTZ
 70
     0
  9
$DIMALTTZ
 70
     0
  9
$DIMUPT
 70
     0
  9
$DIMDEC
 70
     4
  9
$DIMTDEC
 70
     4
  9
$DIMALTU
 70
     2
  9
$DIMALTTD
 70
     2
  9
$DIMTXSTY
  7
Standard
  9
$DIMAUNIT
 70
     0
  9
$DIMADEC
 70
     0
  9
$DIMALTRND
 40
0.0
  9
$DIMAZIN
 70
     0
  9
$DIMDSEP
 70
    46
  9
$DIMATFIT
 70
     3
  9
$DIMFRAC
 70
     0
  9
$DIMLDRBLK
  1

  9
$DIMLUNIT
 70
     2
  9
$DIMLWD
 70
    -2
  9
$DIMLWE
 70
    -2
  9
$DIMTMOVE
 70
     0
  9
$LUNITS
 70
     2
  9
$LUPREC
 70
     4
  9
$SKETCHINC
 40
0.1
  9
$FILLETRAD
 40
0.5
  9
$AUNITS
 70
     0
  9
$AUPREC
 70
     0
  9
$MENU
  1
.
  9
$ELEVATION
 40
0.0
  9
$PELEVATION
 40
0.0
  9
$THICKNESS
 40
0.0
  9
$LIMCHECK
 70
     0
  9
$CHAMFERA
 40
0.5
  9
$CHAMFERB
 40
0.5
  9
$CHAMFERC
 40
1.0
  9
$CHAMFERD
 40
0.0
  9
$SKPOLY
 70
     0
  9
$TDCREATE
 40
2454623.419083947
  9
$TDUCREATE
 40
2454623.335750613
  9
$TDUPDATE
 40
2454623.419083958
  9
$TDUUPDATE
 40
2454623.335750625
  9
$TDINDWG
 40
0.0000000116
  9
$TDUSRTIMER
 40
0.0000000116
  9
$USRTIMER
 70
     1
  9
$ANGBASE
 50
0.0
  9
$ANGDIR
 70
     0
  9
$PDMODE
 70
     0
  9
$PDSIZE
 40
0.0
  9
$PLINEWID
 40
0.0
  9
$SPLFRAME
 70
     0
  9
$SPLINETYPE
 70
     6
  9
$SPLINESEGS
 70
     8
  9
$HANDSEED
  5
247
  9
$SURFTAB1
 70
     6
  9
$SURFTAB2
 70
     6
  9
$SURFTYPE
 70
     6
  9
$SURFU
 70
     6
  9
$SURFV
 70
     6
  9
$UCSBASE
  2

  9
$UCSNAME
  2

  9
$UCSORG
 10
0.0
 20
0.0
 30
0.0
  9
$UCSXDIR
 10
1.0
 20
0.0
 30
0.0
  9
$UCSYDIR
 10
0.0
 20
1.0
 30
0.0
  9
$UCSORTHOREF
  2

  9
$UCSORTHOVIEW
 70
     0
  9
$UCSORGTOP
 10
0.0
 20
0.0
 30
0.0
  9
$UCSORGBOTTOM
 10
0.0
 20
0.0
 30
0.0
  9
$UCSORGLEFT
 10
0.0
 20
0.0
 30
0.0
  9
$UCSORGRIGHT
 10
0.0
 20
0.0
 30
0.0
  9
$UCSORGFRONT
 10
0.0
 20
0.0
 30
0.0
  9
$UCSORGBACK
 10
0.0
 20
0.0
 30
0.0
  9
$PUCSBASE
  2

  9
$PUCSNAME
  2

  9
$PUCSORG
 10
0.0
 20
0.0
 30
0.0
  9
$PUCSXDIR
 10
1.0
 20
0.0
 30
0.0
  9
$PUCSYDIR
 10
0.0
 20
1.0
 30
0.0
  9
$PUCSORTHOREF
  2

  9
$PUCSORTHOVIEW
 70
     0
  9
$PUCSORGTOP
 10
0.0
 20
0.0
 30
0.0
  9
$PUCSORGBOTTOM
 10
0.0
 20
0.0
 30
0.0
  9
$PUCSORGLEFT
 10
0.0
 20
0.0
 30
0.0
  9
$PUCSORGRIGHT
 10
0.0
 20
0.0
 30
0.0
  9
$PUCSORGFRONT
 10
0.0
 20
0.0
 30
0.0
  9
$PUCSORGBACK
 10
0.0
 20
0.0
 30
0.0
  9
$USERI1
 70
     0
  9
$USERI2
 70
     0
  9
$USERI3
 70
     0
  9
$USERI4
 70
     0
  9
$USERI5
 70
     0
  9
$USERR1
 40
14.5
  9
$USERR2
 40
0.0
  9
$USERR3
 40
0.0
  9
$USERR4
 40
0.0
  9
$USERR5
 40
0.0
  9
$WORLDVIEW
 70
     1
  9
$SHADEDGE
 70
     3
  9
$SHADEDIF
 70
    70
  9
$TILEMODE
 70
     1
  9
$MAXACTVP
 70
    64
  9
$PINSBASE
 10
0.0
 20
0.0
 30
0.0
  9
$PLIMCHECK
 70
     0
  9
$PEXTMIN
 10
1.00000000000000E+20
 20
1.00000000000000E+20
 30
1.00000000000000E+20
  9
$PEXTMAX
 10
-1.00000000000000E+20
 20
-1.00000000000000E+20
 30
-1.00000000000000E+20
  9
$PLIMMIN
 10
0.0
 20
0.0
  9
$PLIMMAX
 10
12.0
 20
9.0
  9
$UNITMODE
 70
     0
  9
$VISRETAIN
 70
     1
  9
$PLINEGEN
 70
     0
  9
$PSLTSCALE
 70
     1
  9
$TREEDEPTH
 70
  3020
  9
$CMLSTYLE
  2
Standard
  9
$CMLJUST
 70
     0
  9
$CMLSCALE
 40
1.0
  9
$PROXYGRAPHICS
 70
     1
  9
$MEASUREMENT
 70
     1
  9
$CELWEIGHT
370
    -1
  9
$ENDCAPS
280
     0
  9
$JOINSTYLE
280
     0
  9
$LWDISPLAY
290
     0
  9
$INSUNITS
 70
     1
  9
$HYPERLINKBASE
  1

  9
$STYLESHEET
  1

  9
$XEDIT
290
     1
  9
$CEPSNTYPE
380
     0
  9
$PSTYLEMODE
290
     1
  9
$FINGERPRINTGUID
  2
{9314C834-14F3-4962-9514-9D725B110AE8}
  9
$VERSIONGUID
  2
{FAEB1C32-E019-11D5-929B-00C0DF256EC4}
  9
$EXTNAMES
290
     1
  9
$PSVPSCALE
 40
0.0
  9
$OLESTARTUP
290
     0
  9
$SORTENTS
280
   127
  9
$INDEXCTL
280
     0
  9
$HIDETEXT
280
     1
  9
$XCLIPFRAME
290
     0
  9
$HALOGAP
280
     0
  9
$OBSCOLOR
 70
   257
  9
$OBSLTYPE
280
     0
  9
$INTERSECTIONDISPLAY
280
     0
  9
$INTERSECTIONCOLOR
 70
   257
  9
$DIMASSOC
280
     2
  9
$PROJECTNAME
  1

  0
ENDSEC
  0
SECTION
  2
CLASSES
  0
CLASS
  1
ACDBDICTIONARYWDFLT
  2
AcDbDictionaryWithDefault
  3
ObjectDBX Classes
 90
        0
 91
        3
280
     0
281
     0
  0
CLASS
  1

  2
exOdDbCircle
  3

 90
        0
 91
        3
280
     0
281
     1
  0
ENDSEC
  0
SECTION
  2
TABLES
  0
TABLE
  2
VPORT
  5
8
330
0
100
AcDbSymbolTable
 70
     1
  0
VPORT
  5
29
330
8
100
AcDbSymbolTableRecord
100
AcDbViewportTableRecord
  2
*Active
 70
     0
 10
0.0
 20
0.0
 11
1.0
 21
1.0
 12
-11.68124262268191
 22
-5.2607571946708
 13
0.0
 23
0.0
 14
0.5
 24
0.5
 15
0.5
 25
0.5
 16
0.0
 26
0.0
 36
1.0
 17
0.0
 27
0.0
 37
0.0
 40
267.4371292460893
 41
1.60267857142857
 42
50.0
 43
0.0
 44
0.0
 50
0.0
 51
0.0
 71
     0
 72
   100
 73
     1
 74
     3
 75
     0
 76
     0
 77
     0
 78
     0
281
     0
 65
     1
110
0.0
120
0.0
130
0.0
111
1.0
121
0.0
131
0.0
112
0.0
122
1.0
132
0.0
 79
     0
146
0.0
  0
ENDTAB
  0
TABLE
  2
LTYPE
  5
5
330
0
100
AcDbSymbolTable
 70
     8
  0
LTYPE
  5
14
330
5
100
AcDbSymbolTableRecord
100
AcDbLinetypeTableRecord
  2
ByBlock
 70
     0
  3

 72
    65
 73
     0
 40
0.0
  0
LTYPE
  5
15
330
5
100
AcDbSymbolTableRecord
100
AcDbLinetypeTableRecord
  2
ByLayer
 70
     0
  3

 72
    65
 73
     0
 40
0.0
  0
LTYPE
  5
16
330
5
100
AcDbSymbolTableRecord
100
AcDbLinetypeTableRecord
  2
Continuous
 70
     0
  3
Solid line
 72
    65
 73
     0
 40
0.0
  0
LTYPE
  5
2A
330
5
100
AcDbSymbolTableRecord
100
AcDbLinetypeTableRecord
  2
DASHED
 70
     0
  3
Dashed
 72
    65
 73
     2
 40
15.0
 49
7.0
 74
     0
 49
-8.0
 74
     0
  0
LTYPE
  5
2B
330
5
100
AcDbSymbolTableRecord
100
AcDbLinetypeTableRecord
  2
DOTTED
 70
     0
  3
Dotted
 72
    65
 73
     2
 40
1.0
 49
0.0
 74
     0
 49
-1.0
 74
     0
  0
LTYPE
  5
2C
330
5
100
AcDbSymbolTableRecord
100
AcDbLinetypeTableRecord
  2
DOT_CENTER
 70
     0
  3
Dot_Center
 72
    65
 73
     4
 40
14.0
 49
12.0
 74
     0
 49
-1.0
 74
     0
 49
0.0
 74
     0
 49
-1.0
 74
     0
  0
LTYPE
  5
2D
330
5
100
AcDbSymbolTableRecord
100
AcDbLinetypeTableRecord
  2
LONG_DASHED
 70
     0
  3
Long_Dashed
 72
    65
 73
     2
 40
15.0
 49
10.0
 74
     0
 49
-5.0
 74
     0
  0
LTYPE
  5
2E
330
5
100
AcDbSymbolTableRecord
100
AcDbLinetypeTableRecord
  2
DASH_CENTER
 70
     0
  3
Dash_Center
 72
    65
 73
     4
 40
14.0
 49
11.0
 74
     0
 49
-1.0
 74
     0
 49
1.0
 74
     0
 49
-1.0
 74
     0
  0
LTYPE
  5
2F
330
5
100
AcDbSymbolTableRecord
100
AcDbLinetypeTableRecord
  2
PHANTOM
 70
     0
  3
Phantom
 72
    65
 73
     6
 40
13.0
 49
10.0
 74
     0
 49
-1.0
 74
     0
 49
0.0
 74
     0
 49
-1.0
 74
     0
 49
0.0
 74
     0
 49
-1.0
 74
     0
  0
LTYPE
  5
30
330
5
100
AcDbSymbolTableRecord
100
AcDbLinetypeTableRecord
  2
CENTER_DASH_DASH
 70
     0
  3
Center_Dash_Dash
 72
    65
 73
     6
 40
14.0
 49
9.0
 74
     0
 49
-1.0
 74
     0
 49
1.0
 74
     0
 49
-1.0
 74
     0
 49
1.0
 74
     0
 49
-1.0
 74
     0
  0
ENDTAB
  0
TABLE
  2
LAYER
  5
2
330
0
100
AcDbSymbolTable
 70
     2
  0
LAYER
  5
10
330
2
100
AcDbSymbolTableRecord
100
AcDbLayerTableRecord
  2
0
 70
     0
 62
     7
  6
Continuous
370
    -3
390
F
  0
LAYER
  5
31
330
2
100
AcDbSymbolTableRecord
100
AcDbLayerTableRecord
  2
1
 70
     0
 62
     7
  6
Continuous
370
    -3
390
F
  0
ENDTAB
  0
TABLE
  2
STYLE
  5
3
330
0
100
AcDbSymbolTable
 70
     2
  0
STYLE
  5
11
330
3
100
AcDbSymbolTableRecord
100
AcDbTextStyleTableRecord
  2
Standard
 70
     0
 40
0.0
 41
1.0
 50
0.0
 71
     0
 42
0.2
  3
txt
  4

  0
STYLE
  5
103
330
3
100
AcDbSymbolTableRecord
100
AcDbTextStyleTableRecord
  2
CONVERTER_11
 70
     0
 40
0.0
 41
0.9
 50
0.0
 71
     0
 42
0.2
  3
txt.shx
  4

  0
ENDTAB
  0
TABLE
  2
VIEW
  5
6
330
0
100
AcDbSymbolTable
 70
     0
  0
ENDTAB
  0
TABLE
  2
UCS
  5
7
330
0
100
AcDbSymbolTable
 70
     0
  0
ENDTAB
  0
TABLE
  2
APPID
  5
9
330
0
100
AcDbSymbolTable
 70
     1
  0
APPID
  5
12
330
9
100
AcDbSymbolTableRecord
100
AcDbRegAppTableRecord
  2
ACAD
 70
     0
  0
ENDTAB
  0
TABLE
  2
DIMSTYLE
  5
A
330
0
100
AcDbSymbolTable
 70
    25
100
AcDbDimStyleTable
  0
DIMSTYLE
105
27
330
A
100
AcDbSymbolTableRecord
100
AcDbDimStyleTableRecord
  2
Standard
 70
     0
340
11
  0
DIMSTYLE
105
111
102
{ACAD_REACTORS
330
112
102
}
330
A
100
AcDbSymbolTableRecord
100
AcDbDimStyleTableRecord
  2
ME10_DIM_10
 70
     0
 41
3.5
 42
0.0
 44
2.0
 73
     0
 74
     0
 77
     1
 78
     8
140
3.5
147
2.0
172
     1
173
     1
176
     2
177
     2
178
     2
271
     3
340
103
  0
DIMSTYLE
105
11C
102
{ACAD_REACTORS
330
11D
102
}
330
A
100
AcDbSymbolTableRecord
100
AcDbDimStyleTableRecord
  2
ME10_DIM_11
 70
     0
 41
3.5
 42
0.0
 44
2.0
 73
     0
 74
     0
 77
     1
 78
     8
140
3.5
147
2.0
172
     1
173
     1
176
     2
177
     2
178
     2
271
     3
340
103
  0
DIMSTYLE
105
127
102
{ACAD_REACTORS
330
128
102
}
330
A
100
AcDbSymbolTableRecord
100
AcDbDimStyleTableRecord
  2
ME10_DIM_12
 70
     0
 41
3.5
 42
0.0
 44
2.0
 73
     0
 74
     0
 77
     1
 78
     8
140
3.5
147
2.0
172
     1
173
     1
176
     2
177
     2
178
     2
271
     3
340
103
  0
DIMSTYLE
105
132
102
{ACAD_REACTORS
330
133
102
}
330
A
100
AcDbSymbolTableRecord
100
AcDbDimStyleTableRecord
  2
ME10_DIM_13
 70
     0
 41
3.5
 42
0.0
 44
2.0
 73
     0
 74
     0
 77
     1
 78
     8
140
3.5
147
2.0
172
     1
173
     1
176
     2
177
     2
178
     2
271
     3
340
103
  0
DIMSTYLE
105
13F
102
{ACAD_REACTORS
330
140
102
}
330
A
100
AcDbSymbolTableRecord
100
AcDbDimStyleTableRecord
  2
ME10_DIM_14
 70
     0
 41
3.5
 42
0.0
 44
2.0
 73
     0
 74
     0
 77
     1
 78
     8
140
3.5
147
2.0
172
     1
173
     1
176
     2
177
     2
178
     2
271
     3
340
103
  0
DIMSTYLE
105
14A
102
{ACAD_REACTORS
330
14B
102
}
330
A
100
AcDbSymbolTableRecord
100
AcDbDimStyleTableRecord
  2
ME10_DIM_15
 70
     0
 41
3.5
 42
0.0
 44
2.0
 73
     0
 74
     0
 77
     1
 78
     8
140
3.5
147
2.0
172
     1
173
     1
176
     2
177
     2
178
     2
271
     3
340
103
  0
DIMSTYLE
105
157
102
{ACAD_REACTORS
330
158
102
}
330
A
100
AcDbSymbolTableRecord
100
AcDbDimStyleTableRecord
  2
ME10_DIM_16
 70
     0
 41
3.5
 42
0.0
 44
2.0
 73
     0
 74
     0
 77
     1
 78
     8
140
3.5
147
2.0
172
     1
173
     1
176
     2
177
     2
178
     2
271
     3
340
103
  0
DIMSTYLE
105
162
102
{ACAD_REACTORS
330
163
102
}
330
A
100
AcDbSymbolTableRecord
100
AcDbDimStyleTableRecord
  2
ME10_DIM_17
 70
     0
 41
3.5
 42
0.0
 44
2.0
 73
     0
 74
     0
 77
     1
 78
     8
140
3.5
147
2.0
172
     1
173
     1
176
     2
177
     2
178
     2
271
     3
340
103
  0
DIMSTYLE
105
16D
102
{ACAD_REACTORS
330
16E
102
}
330
A
100
AcDbSymbolTableRecord
100
AcDbDimStyleTableRecord
  2
ME10_DIM_18
 70
     0
 41
3.5
 42
0.0
 44
2.0
 73
     0
 74
     0
 77
     1
 78
     8
140
3.5
147
2.0
172
     1
173
     1
176
     2
177
     2
178
     2
271
     3
340
103
  0
DIMSTYLE
105
178
102
{ACAD_REACTORS
330
179
102
}
330
A
100
AcDbSymbolTableRecord
100
AcDbDimStyleTableRecord
  2
ME10_DIM_19
 70
     0
 41
3.5
 42
0.0
 44
2.0
 73
     0
 74
     0
 77
     1
 78
     8
140
3.5
147
2.0
172
     1
173
     1
176
     2
177
     2
178
     2
271
     3
340
103
  0
DIMSTYLE
105
183
102
{ACAD_REACTORS
330
184
102
}
330
A
100
AcDbSymbolTableRecord
100
AcDbDimStyleTableRecord
  2
ME10_DIM_20
 70
     0
 41
3.5
 42
0.0
 44
2.0
 73
     0
 74
     0
 77
     1
 78
     8
140
3.5
147
2.0
172
     1
173
     1
176
     2
177
     2
178
     2
271
     3
340
103
  0
DIMSTYLE
105
18E
102
{ACAD_REACTORS
330
18F
102
}
330
A
100
AcDbSymbolTableRecord
100
AcDbDimStyleTableRecord
  2
ME10_DIM_21
 70
     0
 41
3.5
 42
0.0
 44
2.0
 73
     0
 74
     0
 77
     1
 78
     8
140
3.5
147
2.0
172
     1
173
     1
176
     2
177
     2
178
     2
271
     2
340
103
  0
DIMSTYLE
105
199
102
{ACAD_REACTORS
330
19A
102
}
330
A
100
AcDbSymbolTableRecord
100
AcDbDimStyleTableRecord
  2
ME10_DIM_22
 70
     0
 41
3.5
 42
0.0
 44
2.0
 73
     0
 74
     0
 77
     1
 78
     8
140
3.5
147
2.0
172
     1
173
     1
176
     2
177
     2
178
     2
271
     2
340
103
  0
DIMSTYLE
105
1A4
102
{ACAD_REACTORS
330
1A5
102
}
330
A
100
AcDbSymbolTableRecord
100
AcDbDimStyleTableRecord
  2
ME10_DIM_23
 70
     0
 41
3.5
 42
0.0
 44
2.0
 73
     0
 74
     0
 77
     1
 78
     8
140
3.5
147
2.0
172
     1
173
     1
176
     2
177
     2
178
     2
271
     2
340
103
  0
DIMSTYLE
105
1AF
102
{ACAD_REACTORS
330
1B0
102
}
330
A
100
AcDbSymbolTableRecord
100
AcDbDimStyleTableRecord
  2
ME10_DIM_24
 70
     0
 41
3.5
 42
0.0
 44
2.0
 73
     0
 74
     0
 77
     1
 78
     8
140
3.5
147
2.0
172
     1
173
     1
176
     2
177
     2
178
     2
271
     2
340
103
  0
DIMSTYLE
105
1BC
102
{ACAD_REACTORS
330
1BD
102
}
330
A
100
AcDbSymbolTableRecord
100
AcDbDimStyleTableRecord
  2
ME10_DIM_25
 70
     0
 41
3.5
 42
0.0
 44
2.0
 73
     0
 74
     0
 77
     1
 78
     8
140
3.5
147
2.0
172
     1
173
     1
176
     2
177
     2
178
     2
271
     3
340
103
  0
DIMSTYLE
105
1C7
102
{ACAD_REACTORS
330
1C8
102
}
330
A
100
AcDbSymbolTableRecord
100
AcDbDimStyleTableRecord
  2
ME10_DIM_26
 70
     0
 41
3.5
 42
0.0
 44
2.0
 73
     0
 74
     0
 77
     1
 78
     8
140
3.5
147
2.0
172
     1
173
     1
176
     2
177
     2
178
     2
271
     3
340
103
  0
DIMSTYLE
105
1D4
102
{ACAD_REACTORS
330
1D5
102
}
330
A
100
AcDbSymbolTableRecord
100
AcDbDimStyleTableRecord
  2
ME10_DIM_27
 70
     0
 41
3.5
 42
0.0
 44
2.0
 73
     0
 74
     0
 77
     1
 78
     8
140
3.5
147
2.0
172
     1
173
     1
176
     2
177
     2
178
     2
271
     3
340
103
  0
DIMSTYLE
105
1DF
102
{ACAD_REACTORS
330
1E0
102
}
330
A
100
AcDbSymbolTableRecord
100
AcDbDimStyleTableRecord
  2
ME10_DIM_28
 70
     0
 41
3.5
 42
0.0
 44
2.0
 73
     0
 74
     0
 77
     1
 78
     8
140
3.5
147
2.0
172
     1
173
     1
176
     2
177
     2
178
     2
271
     3
340
103
  0
DIMSTYLE
105
1EC
102
{ACAD_REACTORS
330
1ED
102
}
330
A
100
AcDbSymbolTableRecord
100
AcDbDimStyleTableRecord
  2
ME10_DIM_29
 70
     0
 41
3.5
 42
0.0
 44
2.0
 73
     0
 74
     0
 77
     1
 78
     8
140
3.5
147
2.0
172
     1
173
     1
176
     2
177
     2
178
     2
271
     3
340
103
  0
DIMSTYLE
105
1F7
102
{ACAD_REACTORS
330
1F8
102
}
330
A
100
AcDbSymbolTableRecord
100
AcDbDimStyleTableRecord
  2
ME10_DIM_30
 70
     0
 41
3.5
 42
0.0
 44
2.0
 73
     0
 74
     0
 77
     1
 78
     8
140
3.5
147
2.0
172
     1
173
     1
176
     2
177
     2
178
     2
271
     3
340
103
  0
DIMSTYLE
105
204
102
{ACAD_REACTORS
330
205
102
}
330
A
100
AcDbSymbolTableRecord
100
AcDbDimStyleTableRecord
  2
ME10_DIM_31
 70
     0
 41
3.5
 42
0.0
 44
2.0
 73
     0
 74
     0
 77
     1
 78
     8
140
3.5
147
2.0
172
     1
173
     1
176
     2
177
     2
178
     2
271
     3
340
103
  0
DIMSTYLE
105
211
102
{ACAD_REACTORS
330
212
102
}
330
A
100
AcDbSymbolTableRecord
100
AcDbDimStyleTableRecord
  2
ME10_DIM_32
 70
     0
 41
3.5
 42
0.0
 44
2.0
 73
     0
 74
     0
 77
     1
 78
     8
140
3.5
147
2.0
172
     1
173
     1
176
     2
177
     2
178
     2
271
     3
340
103
  0
DIMSTYLE
105
21C
102
{ACAD_REACTORS
330
21D
102
}
330
A
100
AcDbSymbolTableRecord
100
AcDbDimStyleTableRecord
  2
ME10_DIM_33
 70
     0
 41
3.5
 42
0.0
 44
2.0
 73
     0
 74
     0
 77
     1
 78
     8
140
3.5
147
2.0
172
     1
173
     1
176
     2
177
     2
178
     2
271
     3
340
103
  0
ENDTAB
  0
TABLE
  2
BLOCK_RECORD
  5
1
330
0
100
AcDbSymbolTable
 70
    30
  0
BLOCK_RECORD
  5
1F
330
1
100
AcDbSymbolTableRecord
100
AcDbBlockTableRecord
  2
*Model_Space
340
22
  0
BLOCK_RECORD
  5
1B
330
1
100
AcDbSymbolTableRecord
100
AcDbBlockTableRecord
  2
*Paper_Space
340
1E
  0
BLOCK_RECORD
  5
23
330
1
100
AcDbSymbolTableRecord
100
AcDbBlockTableRecord
  2
*Paper_Space0
340
26
  0
BLOCK_RECORD
  5
106
330
1
100
AcDbSymbolTableRecord
100
AcDbBlockTableRecord
  2
*D1
340
0
  0
BLOCK_RECORD
  5
113
330
1
100
AcDbSymbolTableRecord
100
AcDbBlockTableRecord
  2
*D2
340
0
  0
BLOCK_RECORD
  5
11E
330
1
100
AcDbSymbolTableRecord
100
AcDbBlockTableRecord
  2
*D3
340
0
  0
BLOCK_RECORD
  5
129
330
1
100
AcDbSymbolTableRecord
100
AcDbBlockTableRecord
  2
*D4
340
0
  0
BLOCK_RECORD
  5
134
330
1
100
AcDbSymbolTableRecord
100
AcDbBlockTableRecord
  2
*D5
340
0
  0
BLOCK_RECORD
  5
141
330
1
100
AcDbSymbolTableRecord
100
AcDbBlockTableRecord
  2
*D6
340
0
  0
BLOCK_RECORD
  5
14C
330
1
100
AcDbSymbolTableRecord
100
AcDbBlockTableRecord
  2
*D7
340
0
  0
BLOCK_RECORD
  5
159
330
1
100
AcDbSymbolTableRecord
100
AcDbBlockTableRecord
  2
*D8
340
0
  0
BLOCK_RECORD
  5
164
330
1
100
AcDbSymbolTableRecord
100
AcDbBlockTableRecord
  2
*D9
340
0
  0
BLOCK_RECORD
  5
16F
330
1
100
AcDbSymbolTableRecord
100
AcDbBlockTableRecord
  2
*D10
340
0
  0
BLOCK_RECORD
  5
17A
330
1
100
AcDbSymbolTableRecord
100
AcDbBlockTableRecord
  2
*D11
340
0
  0
BLOCK_RECORD
  5
185
330
1
100
AcDbSymbolTableRecord
100
AcDbBlockTableRecord
  2
*D12
340
0
  0
BLOCK_RECORD
  5
190
330
1
100
AcDbSymbolTableRecord
100
AcDbBlockTableRecord
  2
*D13
340
0
  0
BLOCK_RECORD
  5
19B
330
1
100
AcDbSymbolTableRecord
100
AcDbBlockTableRecord
  2
*D14
340
0
  0
BLOCK_RECORD
  5
1A6
330
1
100
AcDbSymbolTableRecord
100
AcDbBlockTableRecord
  2
*D15
340
0
  0
BLOCK_RECORD
  5
1B1
330
1
100
AcDbSymbolTableRecord
100
AcDbBlockTableRecord
  2
*D16
340
0
  0
BLOCK_RECORD
  5
1BE
330
1
100
AcDbSymbolTableRecord
100
AcDbBlockTableRecord
  2
*D17
340
0
  0
BLOCK_RECORD
  5
1C9
330
1
100
AcDbSymbolTableRecord
100
AcDbBlockTableRecord
  2
*D18
340
0
  0
BLOCK_RECORD
  5
1D6
330
1
100
AcDbSymbolTableRecord
100
AcDbBlockTableRecord
  2
*D19
340
0
  0
BLOCK_RECORD
  5
1E1
330
1
100
AcDbSymbolTableRecord
100
AcDbBlockTableRecord
  2
*D20
340
0
  0
BLOCK_RECORD
  5
1EE
330
1
100
AcDbSymbolTableRecord
100
AcDbBlockTableRecord
  2
*D21
340
0
  0
BLOCK_RECORD
  5
1F9
330
1
100
AcDbSymbolTableRecord
100
AcDbBlockTableRecord
  2
*D22
340
0
  0
BLOCK_RECORD
  5
206
330
1
100
AcDbSymbolTableRecord
100
AcDbBlockTableRecord
  2
*D23
340
0
  0
BLOCK_RECORD
  5
213
330
1
100
AcDbSymbolTableRecord
100
AcDbBlockTableRecord
  2
*D24
340
0
  0
BLOCK_RECORD
  5
21E
330
1
100
AcDbSymbolTableRecord
100
AcDbBlockTableRecord
  2
*D25
340
0
102
{BLKREFS
331
224
102
}
  0
BLOCK_RECORD
  5
225
330
1
100
AcDbSymbolTableRecord
100
AcDbBlockTableRecord
  2
*D26
340
0
102
{BLKREFS
331
22C
102
}
  0
BLOCK_RECORD
  5
22D
330
1
100
AcDbSymbolTableRecord
100
AcDbBlockTableRecord
  2
*D27
340
0
102
{BLKREFS
331
234
102
}
  0
BLOCK_RECORD
  5
235
330
1
100
AcDbSymbolTableRecord
100
AcDbBlockTableRecord
  2
*D28
340
0
102
{BLKREFS
331
23D
102
}
  0
BLOCK_RECORD
  5
23E
330
1
100
AcDbSymbolTableRecord
100
AcDbBlockTableRecord
  2
*D29
340
0
102
{BLKREFS
331
246
102
}
  0
ENDTAB
  0
ENDSEC
  0
SECTION
  2
BLOCKS
  0
BLOCK
  5
20
330
1F
100
AcDbEntity
  8
0
100
AcDbBlockBegin
  2
*Model_Space
 70
     0
 71
     0
 10
0.0
 20
0.0
 30
0.0
  3
*Model_Space
  1

  0
ENDBLK
  5
21
330
1F
100
AcDbEntity
  8
0
100
AcDbBlockEnd
  0
BLOCK
  5
1C
330
1B
100
AcDbEntity
 67
     1
  8
0
100
AcDbBlockBegin
  2
*Paper_Space
 70
     0
 71
     0
 10
0.0
 20
0.0
 30
0.0
  3
*Paper_Space
  1

  0
ENDBLK
  5
1D
330
1B
100
AcDbEntity
 67
     1
  8
0
100
AcDbBlockEnd
  0
BLOCK
  5
24
330
23
100
AcDbEntity
  8
0
100
AcDbBlockBegin
  2
*Paper_Space0
 70
     0
 71
     0
 10
0.0
 20
0.0
 30
0.0
  3
*Paper_Space0
  1

  0
ENDBLK
  5
25
330
23
100
AcDbEntity
  8
0
100
AcDbBlockEnd
  0
BLOCK
  5
10F
330
106
100
AcDbEntity
  8
0
100
AcDbBlockBegin
  2
*D1
 70
     1
 71
     0
 10
0.0
 20
0.0
 30
0.0
  3
*D1
  1

  0
LINE
  5
107
330
106
100
AcDbEntity
  8
1
  6
Continuous
 62
     2
100
AcDbLine
 10
91.6986003432113
 20
84.0181754211378
 30
0.0
 11
98.6986003432113
 21
84.0181754211378
 31
0.0
  0
LINE
  5
108
330
106
100
AcDbEntity
  8
1
  6
Continuous
 62
     2
100
AcDbLine
 10
84.6986003432113
 20
84.0181754211378
 30
0.0
 11
91.6986003432113
 21
84.0181754211378
 31
0.0
  0
LINE
  5
109
330
106
100
AcDbEntity
  8
1
  6
Continuous
 62
     2
100
AcDbLine
 10
77.6986003432113
 20
84.0181754211378
 30
0.0
 11
84.6986003432113
 21
84.0181754211378
 31
0.0
  0
LINE
  5
10A
330
106
100
AcDbEntity
  8
1
  6
Continuous
 62
     2
100
AcDbLine
 10
91.6986003432113
 20
63.62660009231134
 30
0.0
 11
91.6986003432113
 21
86.0181754211378
 31
0.0
  0
LINE
  5
10B
330
106
100
AcDbEntity
  8
1
  6
Continuous
 62
     2
100
AcDbLine
 10
84.6986003432113
 20
70.62660009231134
 30
0.0
 11
84.6986003432113
 21
86.0181754211378
 31
0.0
  0
SOLID
  5
10C
330
106
100
AcDbEntity
  8
1
 62
     2
100
AcDbTrace
 10
81.1986003432113
 20
83.55739167958191
 30
0.0
 11
81.1986003432113
 21
84.47895916269368
 31
0.0
 12
84.6986003432113
 22
84.0181754211378
 32
0.0
 13
84.6986003432113
 23
84.0181754211378
 33
0.0
  0
SOLID
  5
10D
330
106
100
AcDbEntity
  8
1
 62
     2
100
AcDbTrace
 10
95.1986003432113
 20
84.47895916269368
 30
0.0
 11
95.1986003432113
 21
83.55739167958191
 31
0.0
 12
91.6986003432113
 22
84.0181754211378
 32
0.0
 13
91.6986003432113
 23
84.0181754211378
 33
0.0
  0
MTEXT
  5
10E
330
106
100
AcDbEntity
  8
1
 62
     2
100
AcDbMText
 10
87.4576030440485
 20
86.0181754211378
 30
0.0
 40
3.5
 41
0.0
 71
     7
 72
     1
  1
7
  7
CONVERTER_11
 11
0.9999999999970621
 21
2.424068405545307E-6
 31
0.0
 73
     1
 44
0.60024009603842
  0
ENDBLK
  5
110
330
106
100
AcDbEntity
  8
0
100
AcDbBlockEnd
  0
BLOCK
  5
11A
330
113
100
AcDbEntity
  8
0
100
AcDbBlockBegin
  2
*D2
 70
     1
 71
     0
 10
0.0
 20
0.0
 30
0.0
  3
*D2
  1

  0
LINE
  5
114
330
113
100
AcDbEntity
  8
1
  6
Continuous
 62
     2
100
AcDbLine
 10
121.714431803987
 20
-57.62339990768867
 30
0.0
 11
121.714431803987
 21
68.37660009231134
 31
0.0
  0
LINE
  5
115
330
113
100
AcDbEntity
  8
1
  6
Continuous
 62
     2
100
AcDbLine
 10
86.9486003432113
 20
68.37660009231134
 30
0.0
 11
123.714431803987
 21
68.37660009231134
 31
0.0
  0
LINE
  5
116
330
113
100
AcDbEntity
  8
1
  6
Continuous
 62
     2
100
AcDbLine
 10
86.9486003432113
 20
-57.62339990768867
 30
0.0
 11
123.714431803987
 21
-57.62339990768867
 31
0.0
  0
SOLID
  5
117
330
113
100
AcDbEntity
  8
1
 62
     2
100
AcDbTrace
 10
122.1752155455429
 20
64.87660009231134
 30
0.0
 11
121.2536480624311
 21
64.87660009231134
 31
0.0
 12
121.714431803987
 22
68.37660009231134
 32
0.0
 13
121.714431803987
 23
68.37660009231134
 33
0.0
  0
SOLID
  5
118
330
113
100
AcDbEntity
  8
1
 62
     2
100
AcDbTrace
 10
121.2536480624311
 20
-54.12339990768867
 30
0.0
 11
122.1752155455429
 21
-54.12339990768867
 31
0.0
 12
121.714431803987
 22
-57.62339990768867
 32
0.0
 13
121.714431803987
 23
-57.62339990768867
 33
0.0
  0
MTEXT
  5
119
330
113
100
AcDbEntity
  8
1
 62
     2
100
AcDbMText
 10
119.714431803987
 20
-1.30593745458938
 30
0.0
 40
3.5
 41
0.0
 71
     7
 72
     1
  1
126
  7
CONVERTER_11
 11
0.0
 21
1.0
 31
0.0
 73
     1
 44
0.60024009603842
  0
ENDBLK
  5
11B
330
113
100
AcDbEntity
  8
0
100
AcDbBlockEnd
  0
BLOCK
  5
125
330
11E
100
AcDbEntity
  8
0
100
AcDbBlockBegin
  2
*D3
 70
     1
 71
     0
 10
0.0
 20
0.0
 30
0.0
  3
*D3
  1

  0
LINE
  5
11F
330
11E
100
AcDbEntity
  8
1
  6
Continuous
 62
     2
100
AcDbLine
 10
114.85018505681
 20
-50.62339990768865
 30
0.0
 11
114.85018505681
 21
61.37660009231134
 31
0.0
  0
LINE
  5
120
330
11E
100
AcDbEntity
  8
1
  6
Continuous
 62
     2
100
AcDbLine
 10
93.9486003432113
 20
61.37660009231134
 30
0.0
 11
116.85018505681
 21
61.37660009231134
 31
0.0
  0
LINE
  5
121
330
11E
100
AcDbEntity
  8
1
  6
Continuous
 62
     2
100
AcDbLine
 10
93.9486003432113
 20
-50.62339990768865
 30
0.0
 11
116.85018505681
 21
-50.62339990768865
 31
0.0
  0
SOLID
  5
122
330
11E
100
AcDbEntity
  8
1
 62
     2
100
AcDbTrace
 10
115.3109687983659
 20
57.87660009231134
 30
0.0
 11
114.3894013152541
 21
57.87660009231134
 31
0.0
 12
114.85018505681
 22
61.37660009231134
 32
0.0
 13
114.85018505681
 23
61.37660009231134
 33
0.0
  0
SOLID
  5
123
330
11E
100
AcDbEntity
  8
1
 62
     2
100
AcDbTrace
 10
114.3894013152541
 20
-47.12339990768865
 30
0.0
 11
115.3109687983659
 21
-47.12339990768865
 31
0.0
 12
114.85018505681
 22
-50.62339990768865
 32
0.0
 13
114.85018505681
 23
-50.62339990768865
 33
0.0
  0
MTEXT
  5
124
330
11E
100
AcDbEntity
  8
1
 62
     2
100
AcDbMText
 10
112.85018505681
 20
2.33257370063364
 30
0.0
 40
3.5
 41
0.0
 71
     7
 72
     1
  1
112
  7
CONVERTER_11
 11
0.0
 21
1.0
 31
0.0
 73
     1
 44
0.60024009603842
  0
ENDBLK
  5
126
330
11E
100
AcDbEntity
  8
0
100
AcDbBlockEnd
  0
BLOCK
  5
130
330
129
100
AcDbEntity
  8
0
100
AcDbBlockBegin
  2
*D4
 70
     1
 71
     0
 10
0.0
 20
0.0
 30
0.0
  3
*D4
  1

  0
LINE
  5
12A
330
129
100
AcDbEntity
  8
1
  6
Continuous
 62
     2
100
AcDbLine
 10
-185.1092983114338
 20
28.4188748070954
 30
0.0
 11
-168.1092983114338
 21
28.4188748070954
 31
0.0
  0
LINE
  5
12B
330
129
100
AcDbEntity
  8
1
  6
Continuous
 62
     2
100
AcDbLine
 10
-168.1092983114338
 20
64.87660009231135
 30
0.0
 11
-168.1092983114338
 21
26.4188748070954
 31
0.0
  0
LINE
  5
12C
330
129
100
AcDbEntity
  8
1
  6
Continuous
 62
     2
100
AcDbLine
 10
-185.1092983114338
 20
45.37660009231135
 30
0.0
 11
-185.1092983114338
 21
26.4188748070954
 31
0.0
  0
SOLID
  5
12D
330
129
100
AcDbEntity
  8
1
 62
     2
100
AcDbTrace
 10
-181.6092983114338
 20
28.87965854865129
 30
0.0
 11
-181.6092983114338
 21
27.95809106553951
 31
0.0
 12
-185.1092983114338
 22
28.4188748070954
 32
0.0
 13
-185.1092983114338
 23
28.4188748070954
 33
0.0
  0
SOLID
  5
12E
330
129
100
AcDbEntity
  8
1
 62
     2
100
AcDbTrace
 10
-171.6092983114338
 20
27.95809106553951
 30
0.0
 11
-171.6092983114338
 21
28.87965854865129
 31
0.0
 12
-168.1092983114338
 22
28.4188748070954
 32
0.0
 13
-168.1092983114338
 23
28.4188748070954
 33
0.0
  0
MTEXT
  5
12F
330
129
100
AcDbEntity
  8
1
 62
     2
100
AcDbMText
 10
-175.349200137177
 20
30.4188748070954
 30
0.0
 40
3.5
 41
0.0
 71
     7
 72
     1
  1
17
  7
CONVERTER_11
 11
0.9999999999970621
 21
2.424068405545307E-6
 31
0.0
 73
     1
 44
0.60024009603842
  0
ENDBLK
  5
131
330
129
100
AcDbEntity
  8
0
100
AcDbBlockEnd
  0
BLOCK
  5
13D
330
134
100
AcDbEntity
  8
0
100
AcDbBlockBegin
  2
*D5
 70
     1
 71
     0
 10
0.0
 20
0.0
 30
0.0
  3
*D5
  1

  0
LINE
  5
135
330
134
100
AcDbEntity
  8
1
  6
Continuous
 62
     2
100
AcDbLine
 10
-189.1092983114338
 20
-107.064073241939
 30
0.0
 11
-182.1092983114338
 21
-107.064073241939
 31
0.0
  0
LINE
  5
136
330
134
100
AcDbEntity
  8
1
  6
Continuous
 62
     2
100
AcDbLine
 10
-192.1092983114338
 20
-107.064073241939
 30
0.0
 11
-189.1092983114338
 21
-107.064073241939
 31
0.0
  0
LINE
  5
137
330
134
100
AcDbEntity
  8
1
  6
Continuous
 62
     2
100
AcDbLine
 10
-199.1092983114338
 20
-107.064073241939
 30
0.0
 11
-192.1092983114338
 21
-107.064073241939
 31
0.0
  0
LINE
  5
138
330
134
100
AcDbEntity
  8
1
  6
Continuous
 62
     2
100
AcDbLine
 10
-189.1092983114338
 20
-54.12339990768865
 30
0.0
 11
-189.1092983114338
 21
-109.064073241939
 31
0.0
  0
LINE
  5
139
330
134
100
AcDbEntity
  8
1
  6
Continuous
 62
     2
100
AcDbLine
 10
-192.1092983114338
 20
-94.62339990768865
 30
0.0
 11
-192.1092983114338
 21
-109.064073241939
 31
0.0
  0
SOLID
  5
13A
330
134
100
AcDbEntity
  8
1
 62
     2
100
AcDbTrace
 10
-195.6092983114338
 20
-107.5248569834949
 30
0.0
 11
-195.6092983114338
 21
-106.6032895003831
 31
0.0
 12
-192.1092983114338
 22
-107.064073241939
 32
0.0
 13
-192.1092983114338
 23
-107.064073241939
 33
0.0
  0
SOLID
  5
13B
330
134
100
AcDbEntity
  8
1
 62
     2
100
AcDbTrace
 10
-185.6092983114338
 20
-106.6032895003831
 30
0.0
 11
-185.6092983114338
 21
-107.5248569834949
 31
0.0
 12
-189.1092983114338
 22
-107.064073241939
 32
0.0
 13
-189.1092983114338
 23
-107.064073241939
 33
0.0
  0
MTEXT
  5
13C
330
134
100
AcDbEntity
  8
1
 62
     2
100
AcDbMText
 10
-198.263916223329
 20
-105.064073241939
 30
0.0
 40
3.5
 41
0.0
 71
     7
 72
     1
  1
3
  7
CONVERTER_11
 11
0.9999999999970621
 21
2.424068405545307E-6
 31
0.0
 73
     1
 44
0.60024009603842
  0
ENDBLK
  5
13E
330
134
100
AcDbEntity
  8
0
100
AcDbBlockEnd
  0
BLOCK
  5
148
330
141
100
AcDbEntity
  8
0
100
AcDbBlockBegin
  2
*D6
 70
     1
 71
     0
 10
0.0
 20
0.0
 30
0.0
  3
*D6
  1

  0
LINE
  5
142
330
141
100
AcDbEntity
  8
1
  6
Continuous
 62
     2
100
AcDbLine
 10
-189.1092983114338
 20
-107.064073241939
 30
0.0
 11
-168.1092983114338
 21
-107.064073241939
 31
0.0
  0
LINE
  5
143
330
141
100
AcDbEntity
  8
1
  6
Continuous
 62
     2
100
AcDbLine
 10
-168.1092983114338
 20
-54.12339990768865
 30
0.0
 11
-168.1092983114338
 21
-109.064073241939
 31
0.0
  0
LINE
  5
144
330
141
100
AcDbEntity
  8
1
  6
Continuous
 62
     2
100
AcDbLine
 10
-189.1092983114338
 20
-54.12339990768865
 30
0.0
 11
-189.1092983114338
 21
-109.064073241939
 31
0.0
  0
SOLID
  5
145
330
141
100
AcDbEntity
  8
1
 62
     2
100
AcDbTrace
 10
-171.6092983114338
 20
-107.5248569834949
 30
0.0
 11
-171.6092983114338
 21
-106.6032895003831
 31
0.0
 12
-168.1092983114338
 22
-107.064073241939
 32
0.0
 13
-168.1092983114338
 23
-107.064073241939
 33
0.0
  0
SOLID
  5
146
330
141
100
AcDbEntity
  8
1
 62
     2
100
AcDbTrace
 10
-185.6092983114338
 20
-106.6032895003831
 30
0.0
 11
-185.6092983114338
 21
-107.5248569834949
 31
0.0
 12
-189.1092983114338
 22
-107.064073241939
 32
0.0
 13
-189.1092983114338
 23
-107.064073241939
 33
0.0
  0
MTEXT
  5
147
330
141
100
AcDbEntity
  8
1
 62
     2
100
AcDbMText
 10
-180.9452342178087
 20
-105.064073241939
 30
0.0
 40
3.5
 41
0.0
 71
     7
 72
     1
  1
21
  7
CONVERTER_11
 11
0.9999999999970621
 21
2.424068405545307E-6
 31
0.0
 73
     1
 44
0.60024009603842
  0
ENDBLK
  5
149
330
141
100
AcDbEntity
  8
0
100
AcDbBlockEnd
  0
BLOCK
  5
155
330
14C
100
AcDbEntity
  8
0
100
AcDbBlockBegin
  2
*D7
 70
     1
 71
     0
 10
0.0
 20
0.0
 30
0.0
  3
*D7
  1

  0
LINE
  5
14D
330
14C
100
AcDbEntity
  8
1
  6
Continuous
 62
     2
100
AcDbLine
 10
101.1986003432113
 20
-105.781584343866
 30
0.0
 11
108.640539035212
 21
-105.781584343866
 31
0.0
  0
LINE
  5
14E
330
14C
100
AcDbEntity
  8
1
  6
Continuous
 62
     2
100
AcDbLine
 10
97.19860034321128
 20
-105.781584343866
 30
0.0
 11
101.1986003432113
 21
-105.781584343866
 31
0.0
  0
LINE
  5
14F
330
14C
100
AcDbEntity
  8
1
  6
Continuous
 62
     2
100
AcDbLine
 10
90.19860034321128
 20
-105.781584343866
 30
0.0
 11
97.19860034321128
 21
-105.781584343866
 31
0.0
  0
LINE
  5
150
330
14C
100
AcDbEntity
  8
1
  6
Continuous
 62
     2
100
AcDbLine
 10
101.1986003432113
 20
-94.62339990768866
 30
0.0
 11
101.1986003432113
 21
-107.781584343866
 31
0.0
  0
LINE
  5
151
330
14C
100
AcDbEntity
  8
1
  6
Continuous
 62
     2
100
AcDbLine
 10
97.19860034321128
 20
-55.62339990768865
 30
0.0
 11
97.19860034321128
 21
-107.781584343866
 31
0.0
  0
SOLID
  5
152
330
14C
100
AcDbEntity
  8
1
 62
     2
100
AcDbTrace
 10
104.6986003432113
 20
-105.3208006023101
 30
0.0
 11
104.6986003432113
 21
-106.2423680854219
 31
0.0
 12
101.1986003432113
 22
-105.781584343866
 32
0.0
 13
101.1986003432113
 23
-105.781584343866
 33
0.0
  0
SOLID
  5
153
330
14C
100
AcDbEntity
  8
1
 62
     2
100
AcDbTrace
 10
93.69860034321128
 20
-106.2423680854219
 30
0.0
 11
93.69860034321128
 21
-105.3208006023101
 31
0.0
 12
97.19860034321128
 22
-105.781584343866
 32
0.0
 13
97.19860034321128
 23
-105.781584343866
 33
0.0
  0
MTEXT
  5
154
330
14C
100
AcDbEntity
  8
1
 62
     2
100
AcDbMText
 10
106.540539035212
 20
-103.781584343866
 30
0.0
 40
3.5
 41
0.0
 71
     7
 72
     1
  1
4
  7
CONVERTER_11
 11
0.9999999999970621
 21
2.424068405545307E-6
 31
0.0
 73
     1
 44
0.60024009603842
  0
ENDBLK
  5
156
330
14C
100
AcDbEntity
  8
0
100
AcDbBlockEnd
  0
BLOCK
  5
160
330
159
100
AcDbEntity
  8
0
100
AcDbBlockBegin
  2
*D8
 70
     1
 71
     0
 10
0.0
 20
0.0
 30
0.0
  3
*D8
  1

  0
LINE
  5
15A
330
159
100
AcDbEntity
  8
1
  6
Continuous
 62
     2
100
AcDbLine
 10
79.19860034321128
 20
-105.781584343866
 30
0.0
 11
97.19860034321128
 21
-105.781584343866
 31
0.0
  0
LINE
  5
15B
330
159
100
AcDbEntity
  8
1
  6
Continuous
 62
     2
100
AcDbLine
 10
97.19860034321128
 20
-55.62339990768865
 30
0.0
 11
97.19860034321128
 21
-107.781584343866
 31
0.0
  0
LINE
  5
15C
330
159
100
AcDbEntity
  8
1
  6
Continuous
 62
     2
100
AcDbLine
 10
79.19860034321128
 20
-55.62339990768865
 30
0.0
 11
79.19860034321128
 21
-107.781584343866
 31
0.0
  0
SOLID
  5
15D
330
159
100
AcDbEntity
  8
1
 62
     2
100
AcDbTrace
 10
93.69860034321128
 20
-106.2423680854219
 30
0.0
 11
93.69860034321128
 21
-105.3208006023101
 31
0.0
 12
97.19860034321128
 22
-105.781584343866
 32
0.0
 13
97.19860034321128
 23
-105.781584343866
 33
0.0
  0
SOLID
  5
15E
330
159
100
AcDbEntity
  8
1
 62
     2
100
AcDbTrace
 10
82.69860034321128
 20
-105.3208006023101
 30
0.0
 11
82.69860034321128
 21
-106.2423680854219
 31
0.0
 12
79.19860034321128
 22
-105.781584343866
 32
0.0
 13
79.19860034321128
 23
-105.781584343866
 33
0.0
  0
MTEXT
  5
15F
330
159
100
AcDbEntity
  8
1
 62
     2
100
AcDbMText
 10
84.790868300829
 20
-103.781584343866
 30
0.0
 40
3.5
 41
0.0
 71
     7
 72
     1
  1
18
  7
CONVERTER_11
 11
0.9999999999970621
 21
2.424068405545307E-6
 31
0.0
 73
     1
 44
0.60024009603842
  0
ENDBLK
  5
161
330
159
100
AcDbEntity
  8
0
100
AcDbBlockEnd
  0
BLOCK
  5
16B
330
164
100
AcDbEntity
  8
0
100
AcDbBlockBegin
  2
*D9
 70
     1
 71
     0
 10
0.0
 20
0.0
 30
0.0
  3
*D9
  1

  0
LINE
  5
165
330
164
100
AcDbEntity
  8
1
  6
Continuous
 62
     2
100
AcDbLine
 10
79.19860034321128
 20
16.3048182481224
 30
0.0
 11
95.19860034321128
 21
16.3048182481224
 31
0.0
  0
LINE
  5
166
330
164
100
AcDbEntity
  8
1
  6
Continuous
 62
     2
100
AcDbLine
 10
79.19860034321128
 20
5.37660009231135
 30
0.0
 11
79.19860034321128
 21
18.3048182481224
 31
0.0
  0
LINE
  5
167
330
164
100
AcDbEntity
  8
1
  6
Continuous
 62
     2
100
AcDbLine
 10
95.19860034321128
 20
-31.87339990768865
 30
0.0
 11
95.19860034321128
 21
18.3048182481224
 31
0.0
  0
SOLID
  5
168
330
164
100
AcDbEntity
  8
1
 62
     2
100
AcDbTrace
 10
91.69860034321128
 20
15.84403450656652
 30
0.0
 11
91.69860034321128
 21
16.76560198967829
 31
0.0
 12
95.19860034321128
 22
16.3048182481224
 32
0.0
 13
95.19860034321128
 23
16.3048182481224
 33
0.0
  0
SOLID
  5
169
330
164
100
AcDbEntity
  8
1
 62
     2
100
AcDbTrace
 10
82.69860034321128
 20
16.76560198967829
 30
0.0
 11
82.69860034321128
 21
15.84403450656652
 31
0.0
 12
79.19860034321128
 22
16.3048182481224
 32
0.0
 13
79.19860034321128
 23
16.3048182481224
 33
0.0
  0
MTEXT
  5
16A
330
164
100
AcDbEntity
  8
1
 62
     2
100
AcDbMText
 10
82.6020811065338
 20
18.3048182481224
 30
0.0
 40
3.5
 41
0.0
 71
     7
 72
     1
  1
16
  7
CONVERTER_11
 11
0.9999999999970621
 21
2.424068405545307E-6
 31
0.0
 73
     1
 44
0.60024009603842
  0
ENDBLK
  5
16C
330
164
100
AcDbEntity
  8
0
100
AcDbBlockEnd
  0
BLOCK
  5
176
330
16F
100
AcDbEntity
  8
0
100
AcDbBlockBegin
  2
*D10
 70
     1
 71
     0
 10
0.0
 20
0.0
 30
0.0
  3
*D10
  1

  0
LINE
  5
170
330
16F
100
AcDbEntity
  8
1
  6
Continuous
 62
     2
100
AcDbLine
 10
129.164495411211
 20
-64.62339990768865
 30
0.0
 11
129.164495411211
 21
75.37660009231135
 31
0.0
  0
LINE
  5
171
330
16F
100
AcDbEntity
  8
1
  6
Continuous
 62
     2
100
AcDbLine
 10
88.19860034321127
 20
75.37660009231135
 30
0.0
 11
131.164495411211
 21
75.37660009231135
 31
0.0
  0
LINE
  5
172
330
16F
100
AcDbEntity
  8
1
  6
Continuous
 62
     2
100
AcDbLine
 10
88.19860034321127
 20
-64.62339990768865
 30
0.0
 11
131.164495411211
 21
-64.62339990768865
 31
0.0
  0
SOLID
  5
173
330
16F
100
AcDbEntity
  8
1
 62
     2
100
AcDbTrace
 10
128.7037116696551
 20
-61.12339990768865
 30
0.0
 11
129.6252791527669
 21
-61.12339990768865
 31
0.0
 12
129.164495411211
 22
-64.62339990768865
 32
0.0
 13
129.164495411211
 23
-64.62339990768865
 33
0.0
  0
SOLID
  5
174
330
16F
100
AcDbEntity
  8
1
 62
     2
100
AcDbTrace
 10
129.6252791527669
 20
71.87660009231135
 30
0.0
 11
128.7037116696551
 21
71.87660009231135
 31
0.0
 12
129.164495411211
 22
75.37660009231135
 32
0.0
 13
129.164495411211
 23
75.37660009231135
 33
0.0
  0
MTEXT
  5
175
330
16F
100
AcDbEntity
  8
1
 62
     2
100
AcDbMText
 10
127.164495411211
 20
2.49263469910252
 30
0.0
 40
3.5
 41
0.0
 71
     7
 72
     1
  1
140
  7
CONVERTER_11
 11
0.0
 21
1.0
 31
0.0
 73
     1
 44
0.60024009603842
  0
ENDBLK
  5
177
330
16F
100
AcDbEntity
  8
0
100
AcDbBlockEnd
  0
BLOCK
  5
181
330
17A
100
AcDbEntity
  8
0
100
AcDbBlockBegin
  2
*D11
 70
     1
 71
     0
 10
0.0
 20
0.0
 30
0.0
  3
*D11
  1

  0
LINE
  5
17B
330
17A
100
AcDbEntity
  8
1
  6
Continuous
 62
     2
100
AcDbLine
 10
107.769916730974
 20
-39.87339990768865
 30
0.0
 11
107.769916730974
 21
50.62660009231135
 31
0.0
  0
LINE
  5
17C
330
17A
100
AcDbEntity
  8
1
  6
Continuous
 62
     2
100
AcDbLine
 10
87.19860034321128
 20
50.62660009231135
 30
0.0
 11
109.769916730974
 21
50.62660009231135
 31
0.0
  0
LINE
  5
17D
330
17A
100
AcDbEntity
  8
1
  6
Continuous
 62
     2
100
AcDbLine
 10
87.19860034321128
 20
-39.87339990768865
 30
0.0
 11
109.769916730974
 21
-39.87339990768865
 31
0.0
  0
SOLID
  5
17E
330
17A
100
AcDbEntity
  8
1
 62
     2
100
AcDbTrace
 10
108.2307004725299
 20
47.12660009231135
 30
0.0
 11
107.3091329894181
 21
47.12660009231135
 31
0.0
 12
107.769916730974
 22
50.62660009231135
 32
0.0
 13
107.769916730974
 23
50.62660009231135
 33
0.0
  0
SOLID
  5
17F
330
17A
100
AcDbEntity
  8
1
 62
     2
100
AcDbTrace
 10
107.3091329894181
 20
-36.37339990768865
 30
0.0
 11
108.2307004725299
 21
-36.37339990768865
 31
0.0
 12
107.769916730974
 22
-39.87339990768865
 32
0.0
 13
107.769916730974
 23
-39.87339990768865
 33
0.0
  0
MTEXT
  5
180
330
17A
100
AcDbEntity
  8
1
 62
     2
100
AcDbMText
 10
105.769916730974
 20
-5.72908357873547
 30
0.0
 40
3.5
 41
0.0
 71
     7
 72
     1
  1
90.5
  7
CONVERTER_11
 11
0.0
 21
1.0
 31
0.0
 73
     1
 44
0.60024009603842
  0
ENDBLK
  5
182
330
17A
100
AcDbEntity
  8
0
100
AcDbBlockEnd
  0
BLOCK
  5
18C
330
185
100
AcDbEntity
  8
0
100
AcDbBlockBegin
  2
*D12
 70
     1
 71
     0
 10
0.0
 20
0.0
 30
0.0
  3
*D12
  1

  0
LINE
  5
186
330
185
100
AcDbEntity
  8
1
  6
Continuous
 62
     2
100
AcDbLine
 10
-92.80488390961864
 20
-118.2833961103276
 30
0.0
 11
-68.80177865188125
 21
-118.2833961103276
 31
0.0
  0
LINE
  5
187
330
185
100
AcDbEntity
  8
1
  6
Continuous
 62
     2
100
AcDbLine
 10
-68.80177865188125
 20
-65.12339990768865
 30
0.0
 11
-68.80177865188125
 21
-120.2833961103276
 31
0.0
  0
LINE
  5
188
330
185
100
AcDbEntity
  8
1
  6
Continuous
 62
     2
100
AcDbLine
 10
-92.80488390961864
 20
-43.12339990768862
 30
0.0
 11
-92.80488390961864
 21
-120.2833961103276
 31
0.0
  0
SOLID
  5
189
330
185
100
AcDbEntity
  8
1
 62
     2
100
AcDbTrace
 10
-72.30177865188125
 20
-118.7441798518835
 30
0.0
 11
-72.30177865188125
 21
-117.8226123687717
 31
0.0
 12
-68.80177865188125
 22
-118.2833961103276
 32
0.0
 13
-68.80177865188125
 23
-118.2833961103276
 33
0.0
  0
SOLID
  5
18A
330
185
100
AcDbEntity
  8
1
 62
     2
100
AcDbTrace
 10
-89.30488390961864
 20
-117.8226123687717
 30
0.0
 11
-89.30488390961864
 21
-118.7441798518835
 31
0.0
 12
-92.80488390961864
 22
-118.2833961103276
 32
0.0
 13
-92.80488390961864
 23
-118.2833961103276
 33
0.0
  0
MTEXT
  5
18B
330
185
100
AcDbEntity
  8
1
 62
     2
100
AcDbMText
 10
-83.60099419807558
 20
-116.2833961103276
 30
0.0
 40
3.5
 41
0.0
 71
     7
 72
     1
  1
24
  7
CONVERTER_11
 11
0.9999999999970621
 21
2.424068405545307E-6
 31
0.0
 73
     1
 44
0.60024009603842
  0
ENDBLK
  5
18D
330
185
100
AcDbEntity
  8
0
100
AcDbBlockEnd
  0
BLOCK
  5
197
330
190
100
AcDbEntity
  8
0
100
AcDbBlockBegin
  2
*D13
 70
     1
 71
     0
 10
0.0
 20
0.0
 30
0.0
  3
*D13
  1

  0
LINE
  5
191
330
190
100
AcDbEntity
  8
1
  6
Continuous
 62
     2
100
AcDbLine
 10
-78.80177865188125
 20
-107.2653824624736
 30
0.0
 11
-68.80177865188125
 21
-107.2653824624736
 31
0.0
  0
LINE
  5
192
330
190
100
AcDbEntity
  8
1
  6
Continuous
 62
     2
100
AcDbLine
 10
-68.80177865188125
 20
-94.62339990768865
 30
0.0
 11
-68.80177865188125
 21
-109.2653824624736
 31
0.0
  0
LINE
  5
193
330
190
100
AcDbEntity
  8
1
  6
Continuous
 62
     2
100
AcDbLine
 10
-78.80177865188125
 20
-65.12339990768865
 30
0.0
 11
-78.80177865188125
 21
-109.2653824624736
 31
0.0
  0
SOLID
  5
194
330
190
100
AcDbEntity
  8
1
 62
     2
100
AcDbTrace
 10
-75.30177865188125
 20
-106.8045987209177
 30
0.0
 11
-75.30177865188125
 21
-107.7261662040295
 31
0.0
 12
-78.80177865188125
 22
-107.2653824624736
 32
0.0
 13
-78.80177865188125
 23
-107.2653824624736
 33
0.0
  0
SOLID
  5
195
330
190
100
AcDbEntity
  8
1
 62
     2
100
AcDbTrace
 10
-72.30177865188125
 20
-107.7261662040295
 30
0.0
 11
-72.30177865188125
 21
-106.8045987209177
 31
0.0
 12
-68.80177865188125
 22
-107.2653824624736
 32
0.0
 13
-68.80177865188125
 23
-107.2653824624736
 33
0.0
  0
MTEXT
  5
196
330
190
100
AcDbEntity
  8
1
 62
     2
100
AcDbMText
 10
-75.83414482681312
 20
-105.2653824624736
 30
0.0
 40
3.5
 41
0.0
 71
     7
 72
     1
  1
10
  7
CONVERTER_11
 11
0.9999999999970621
 21
2.424068405545307E-6
 31
0.0
 73
     1
 44
0.60024009603842
  0
ENDBLK
  5
198
330
190
100
AcDbEntity
  8
0
100
AcDbBlockEnd
  0
BLOCK
  5
1A2
330
19B
100
AcDbEntity
  8
0
100
AcDbBlockBegin
  2
*D14
 70
     1
 71
     0
 10
0.0
 20
0.0
 30
0.0
  3
*D14
  1

  0
LINE
  5
19C
330
19B
100
AcDbEntity
  8
1
  6
Continuous
 62
     2
100
AcDbLine
 10
170.9119338369392
 20
-103.785670014645
 30
0.0
 11
180.9119338369392
 21
-103.785670014645
 31
0.0
  0
LINE
  5
19D
330
19B
100
AcDbEntity
  8
1
  6
Continuous
 62
     2
100
AcDbLine
 10
180.9119338369392
 20
-94.62339990768866
 30
0.0
 11
180.9119338369392
 21
-105.785670014645
 31
0.0
  0
LINE
  5
19E
330
19B
100
AcDbEntity
  8
1
  6
Continuous
 62
     2
100
AcDbLine
 10
170.9119338369392
 20
-64.62339990768865
 30
0.0
 11
170.9119338369392
 21
-105.785670014645
 31
0.0
  0
SOLID
  5
19F
330
19B
100
AcDbEntity
  8
1
 62
     2
100
AcDbTrace
 10
174.4119338369392
 20
-103.3248862730891
 30
0.0
 11
174.4119338369392
 21
-104.2464537562009
 31
0.0
 12
170.9119338369392
 22
-103.785670014645
 32
0.0
 13
170.9119338369392
 23
-103.785670014645
 33
0.0
  0
SOLID
  5
1A0
330
19B
100
AcDbEntity
  8
1
 62
     2
100
AcDbTrace
 10
177.4119338369392
 20
-104.2464537562009
 30
0.0
 11
177.4119338369392
 21
-103.3248862730891
 31
0.0
 12
180.9119338369392
 22
-103.785670014645
 32
0.0
 13
180.9119338369392
 23
-103.785670014645
 33
0.0
  0
MTEXT
  5
1A1
330
19B
100
AcDbEntity
  8
1
 62
     2
100
AcDbMText
 10
173.330422172949
 20
-101.785670014645
 30
0.0
 40
3.5
 41
0.0
 71
     7
 72
     1
  1
10
  7
CONVERTER_11
 11
0.9999999999970621
 21
2.424068405545307E-6
 31
0.0
 73
     1
 44
0.60024009603842
  0
ENDBLK
  5
1A3
330
19B
100
AcDbEntity
  8
0
100
AcDbBlockEnd
  0
BLOCK
  5
1AD
330
1A6
100
AcDbEntity
  8
0
100
AcDbBlockBegin
  2
*D15
 70
     1
 71
     0
 10
0.0
 20
0.0
 30
0.0
  3
*D15
  1

  0
LINE
  5
1A7
330
1A6
100
AcDbEntity
  8
1
  6
Continuous
 62
     2
100
AcDbLine
 10
155.9119338369392
 20
-114.622960427562
 30
0.0
 11
180.9119338369392
 21
-114.622960427562
 31
0.0
  0
LINE
  5
1A8
330
1A6
100
AcDbEntity
  8
1
  6
Continuous
 62
     2
100
AcDbLine
 10
155.9119338369392
 20
-39.87339990768866
 30
0.0
 11
155.9119338369392
 21
-116.622960427562
 31
0.0
  0
LINE
  5
1A9
330
1A6
100
AcDbEntity
  8
1
  6
Continuous
 62
     2
100
AcDbLine
 10
180.9119338369392
 20
-64.62339990768865
 30
0.0
 11
180.9119338369392
 21
-116.622960427562
 31
0.0
  0
SOLID
  5
1AA
330
1A6
100
AcDbEntity
  8
1
 62
     2
100
AcDbTrace
 10
177.4119338369392
 20
-115.0837441691179
 30
0.0
 11
177.4119338369392
 21
-114.1621766860061
 31
0.0
 12
180.9119338369392
 22
-114.622960427562
 32
0.0
 13
180.9119338369392
 23
-114.622960427562
 33
0.0
  0
SOLID
  5
1AB
330
1A6
100
AcDbEntity
  8
1
 62
     2
100
AcDbTrace
 10
159.4119338369392
 20
-114.1621766860061
 30
0.0
 11
159.4119338369392
 21
-115.0837441691179
 31
0.0
 12
155.9119338369392
 22
-114.622960427562
 32
0.0
 13
155.9119338369392
 23
-114.622960427562
 33
0.0
  0
MTEXT
  5
1AC
330
1A6
100
AcDbEntity
  8
1
 62
     2
100
AcDbMText
 10
165.7475708734655
 20
-112.622960427562
 30
0.0
 40
3.5
 41
0.0
 71
     7
 72
     1
  1
25
  7
CONVERTER_11
 11
0.9999999999970621
 21
2.424068405545307E-6
 31
0.0
 73
     1
 44
0.60024009603842
  0
ENDBLK
  5
1AE
330
1A6
100
AcDbEntity
  8
0
100
AcDbBlockEnd
  0
BLOCK
  5
1BA
330
1B1
100
AcDbEntity
  8
0
100
AcDbBlockBegin
  2
*D16
 70
     1
 71
     0
 10
0.0
 20
0.0
 30
0.0
  3
*D16
  1

  0
LINE
  5
1B2
330
1B1
100
AcDbEntity
  8
1
  6
Continuous
 62
     2
100
AcDbLine
 10
9.63953091356274
 20
-73.7386454488453
 30
0.0
 11
9.63953091356274
 21
-66.6979399702632
 31
0.0
  0
LINE
  5
1B3
330
1B1
100
AcDbEntity
  8
1
  6
Continuous
 62
     2
100
AcDbLine
 10
9.63953091356274
 20
-66.6979399702632
 30
0.0
 11
9.63953091356274
 21
-62.69793997026319
 31
0.0
  0
LINE
  5
1B4
330
1B1
100
AcDbEntity
  8
1
  6
Continuous
 62
     2
100
AcDbLine
 10
9.63953091356274
 20
-62.69793997026319
 30
0.0
 11
9.63953091356274
 21
-55.69793997026319
 31
0.0
  0
LINE
  5
1B5
330
1B1
100
AcDbEntity
  8
1
  6
Continuous
 62
     2
100
AcDbLine
 10
2.38679367266664
 20
-66.6979399702632
 30
0.0
 11
11.63953091356274
 21
-66.6979399702632
 31
0.0
  0
LINE
  5
1B6
330
1B1
100
AcDbEntity
  8
1
  6
Continuous
 62
     2
100
AcDbLine
 10
12.38679367266663
 20
-62.69793997026319
 30
0.0
 11
7.63953091356274
 21
-62.69793997026319
 31
0.0
  0
SOLID
  5
1B7
330
1B1
100
AcDbEntity
  8
1
 62
     2
100
AcDbTrace
 10
9.17874717200685
 20
-59.19793997026319
 30
0.0
 11
10.10031465511863
 21
-59.19793997026319
 31
0.0
 12
9.63953091356274
 22
-62.69793997026319
 32
0.0
 13
9.63953091356274
 23
-62.69793997026319
 33
0.0
  0
SOLID
  5
1B8
330
1B1
100
AcDbEntity
  8
1
 62
     2
100
AcDbTrace
 10
10.10031465511863
 20
-70.1979399702632
 30
0.0
 11
9.17874717200685
 21
-70.1979399702632
 31
0.0
 12
9.63953091356274
 22
-66.6979399702632
 32
0.0
 13
9.63953091356274
 23
-66.6979399702632
 33
0.0
  0
MTEXT
  5
1B9
330
1B1
100
AcDbEntity
  8
1
 62
     2
100
AcDbMText
 10
7.63953091356274
 20
-73.7386454488453
 30
0.0
 40
3.5
 41
0.0
 71
     7
 72
     1
  1
4
  7
CONVERTER_11
 11
0.0
 21
1.0
 31
0.0
 73
     1
 44
0.60024009603842
  0
ENDBLK
  5
1BB
330
1B1
100
AcDbEntity
  8
0
100
AcDbBlockEnd
  0
BLOCK
  5
1C5
330
1BE
100
AcDbEntity
  8
0
100
AcDbBlockBegin
  2
*D17
 70
     1
 71
     0
 10
0.0
 20
0.0
 30
0.0
  3
*D17
  1

  0
LINE
  5
1BF
330
1BE
100
AcDbEntity
  8
1
  6
Continuous
 62
     2
100
AcDbLine
 10
56.5158341698211
 20
-66.6979399702632
 30
0.0
 11
56.5158341698211
 21
-42.69793997026321
 31
0.0
  0
LINE
  5
1C0
330
1BE
100
AcDbEntity
  8
1
  6
Continuous
 62
     2
100
AcDbLine
 10
47.38679367266684
 20
-66.6979399702632
 30
0.0
 11
58.5158341698211
 21
-66.6979399702632
 31
0.0
  0
LINE
  5
1C1
330
1BE
100
AcDbEntity
  8
1
  6
Continuous
 62
     2
100
AcDbLine
 10
15.38679367266695
 20
-42.69793997026321
 30
0.0
 11
58.5158341698211
 21
-42.69793997026321
 31
0.0
  0
SOLID
  5
1C2
330
1BE
100
AcDbEntity
  8
1
 62
     2
100
AcDbTrace
 10
56.97661791137698
 20
-46.19793997026321
 30
0.0
 11
56.05505042826521
 21
-46.19793997026321
 31
0.0
 12
56.5158341698211
 22
-42.69793997026321
 32
0.0
 13
56.5158341698211
 23
-42.69793997026321
 33
0.0
  0
SOLID
  5
1C3
330
1BE
100
AcDbEntity
  8
1
 62
     2
100
AcDbTrace
 10
56.05505042826521
 20
-63.19793997026321
 30
0.0
 11
56.97661791137698
 21
-63.19793997026321
 31
0.0
 12
56.5158341698211
 22
-66.6979399702632
 32
0.0
 13
56.5158341698211
 23
-66.6979399702632
 33
0.0
  0
MTEXT
  5
1C4
330
1BE
100
AcDbEntity
  8
1
 62
     2
100
AcDbMText
 10
54.5158341698211
 20
-57.3476779503028
 30
0.0
 40
3.5
 41
0.0
 71
     7
 72
     1
  1
24
  7
CONVERTER_11
 11
0.0
 21
1.0
 31
0.0
 73
     1
 44
0.60024009603842
  0
ENDBLK
  5
1C6
330
1BE
100
AcDbEntity
  8
0
100
AcDbBlockEnd
  0
BLOCK
  5
1D2
330
1C9
100
AcDbEntity
  8
0
100
AcDbBlockBegin
  2
*D18
 70
     1
 71
     0
 10
0.0
 20
0.0
 30
0.0
  3
*D18
  1

  0
LINE
  5
1CA
330
1C9
100
AcDbEntity
  8
1
  6
Continuous
 62
     2
100
AcDbLine
 10
-7.155817394035
 20
-63.69793997026324
 30
0.0
 11
-7.155817394035
 21
-56.69793997026324
 31
0.0
  0
LINE
  5
1CB
330
1C9
100
AcDbEntity
  8
1
  6
Continuous
 62
     2
100
AcDbLine
 10
-7.155817394035
 20
-66.6979399702632
 30
0.0
 11
-7.155817394035
 21
-63.69793997026324
 31
0.0
  0
LINE
  5
1CC
330
1C9
100
AcDbEntity
  8
1
  6
Continuous
 62
     2
100
AcDbLine
 10
-7.155817394035
 20
-73.6979399702632
 30
0.0
 11
-7.155817394035
 21
-66.6979399702632
 31
0.0
  0
LINE
  5
1CD
330
1C9
100
AcDbEntity
  8
1
  6
Continuous
 62
     2
100
AcDbLine
 10
-11.11320632733307
 20
-63.69793997026324
 30
0.0
 11
-5.155817394035
 21
-63.69793997026324
 31
0.0
  0
LINE
  5
1CE
330
1C9
100
AcDbEntity
  8
1
  6
Continuous
 62
     2
100
AcDbLine
 10
-1.11320632733307
 20
-66.6979399702632
 30
0.0
 11
-9.155817394035
 21
-66.6979399702632
 31
0.0
  0
SOLID
  5
1CF
330
1C9
100
AcDbEntity
  8
1
 62
     2
100
AcDbTrace
 10
-7.61660113559088
 20
-60.19793997026324
 30
0.0
 11
-6.69503365247911
 21
-60.19793997026324
 31
0.0
 12
-7.155817394035
 22
-63.69793997026324
 32
0.0
 13
-7.155817394035
 23
-63.69793997026324
 33
0.0
  0
SOLID
  5
1D0
330
1C9
100
AcDbEntity
  8
1
 62
     2
100
AcDbTrace
 10
-6.69503365247911
 20
-70.1979399702632
 30
0.0
 11
-7.61660113559088
 21
-70.1979399702632
 31
0.0
 12
-7.155817394035
 22
-66.6979399702632
 32
0.0
 13
-7.155817394035
 23
-66.6979399702632
 33
0.0
  0
MTEXT
  5
1D1
330
1C9
100
AcDbEntity
  8
1
 62
     2
100
AcDbMText
 10
-9.155817394035
 20
-70.69835125877249
 30
0.0
 40
3.5
 41
0.0
 71
     7
 72
     1
  1
3
  7
CONVERTER_11
 11
0.0
 21
1.0
 31
0.0
 73
     1
 44
0.60024009603842
  0
ENDBLK
  5
1D3
330
1C9
100
AcDbEntity
  8
0
100
AcDbBlockEnd
  0
BLOCK
  5
1DD
330
1D6
100
AcDbEntity
  8
0
100
AcDbBlockBegin
  2
*D19
 70
     1
 71
     0
 10
0.0
 20
0.0
 30
0.0
  3
*D19
  1

  0
LINE
  5
1D7
330
1D6
100
AcDbEntity
  8
1
  6
Continuous
 62
     2
100
AcDbLine
 10
-152.343632319825
 20
-43.12339990768865
 30
0.0
 11
-152.343632319825
 21
53.87660009231135
 31
0.0
  0
LINE
  5
1D8
330
1D6
100
AcDbEntity
  8
1
  6
Continuous
 62
     2
100
AcDbLine
 10
-176.6092983114338
 20
-43.12339990768865
 30
0.0
 11
-150.343632319825
 21
-43.12339990768865
 31
0.0
  0
LINE
  5
1D9
330
1D6
100
AcDbEntity
  8
1
  6
Continuous
 62
     2
100
AcDbLine
 10
-176.6092983114338
 20
53.87660009231135
 30
0.0
 11
-150.343632319825
 21
53.87660009231135
 31
0.0
  0
SOLID
  5
1DA
330
1D6
100
AcDbEntity
  8
1
 62
     2
100
AcDbTrace
 10
-151.8828485782691
 20
50.37660009231135
 30
0.0
 11
-152.8044160613809
 21
50.37660009231135
 31
0.0
 12
-152.343632319825
 22
53.87660009231135
 32
0.0
 13
-152.343632319825
 23
53.87660009231135
 33
0.0
  0
SOLID
  5
1DB
330
1D6
100
AcDbEntity
  8
1
 62
     2
100
AcDbTrace
 10
-152.8044160613809
 20
-39.62339990768865
 30
0.0
 11
-151.8828485782691
 21
-39.62339990768865
 31
0.0
 12
-152.343632319825
 22
-43.12339990768865
 32
0.0
 13
-152.343632319825
 23
-43.12339990768865
 33
0.0
  0
MTEXT
  5
1DC
330
1D6
100
AcDbEntity
  8
1
 62
     2
100
AcDbMText
 10
-154.343632319825
 20
-3.84140719138927
 30
0.0
 40
3.5
 41
0.0
 71
     7
 72
     1
  1
97
  7
CONVERTER_11
 11
0.0
 21
1.0
 31
0.0
 73
     1
 44
0.60024009603842
  0
ENDBLK
  5
1DE
330
1D6
100
AcDbEntity
  8
0
100
AcDbBlockEnd
  0
BLOCK
  5
1EA
330
1E1
100
AcDbEntity
  8
0
100
AcDbBlockBegin
  2
*D20
 70
     1
 71
     0
 10
0.0
 20
0.0
 30
0.0
  3
*D20
  1

  0
LINE
  5
1E2
330
1E1
100
AcDbEntity
  8
1
  6
Continuous
 62
     2
100
AcDbLine
 10
-120.474509002291
 20
-64.62339990768865
 30
0.0
 11
-120.474509002291
 21
75.37660009231135
 31
0.0
  0
LINE
  5
1E3
330
1E1
100
AcDbEntity
  8
1
  6
Continuous
 62
     2
100
AcDbLine
 10
-126.98649968981
 20
-64.62339990768865
 30
0.0
 11
-118.474509002291
 21
-64.62339990768865
 31
0.0
  0
LINE
  5
1E4
330
1E1
100
AcDbEntity
  8
1
  6
Continuous
 62
     2
100
AcDbLine
 10
-178.6092983114338
 20
-64.62339990768865
 30
0.0
 11
-136.334775862954
 21
-64.62339990768865
 31
0.0
  0
LINE
  5
1E5
330
1E1
100
AcDbEntity
  8
1
  6
Continuous
 62
     2
100
AcDbLine
 10
-127.198960511927
 20
75.37660009231135
 30
0.0
 11
-118.474509002291
 21
75.37660009231135
 31
0.0
  0
LINE
  5
1E6
330
1E1
100
AcDbEntity
  8
1
  6
Continuous
 62
     2
100
AcDbLine
 10
-178.6092983114338
 20
75.37660009231135
 30
0.0
 11
-137.397079973538
 21
75.37660009231135
 31
0.0
  0
SOLID
  5
1E7
330
1E1
100
AcDbEntity
  8
1
 62
     2
100
AcDbTrace
 10
-120.0137252607351
 20
71.87660009231135
 30
0.0
 11
-120.9352927438469
 21
71.87660009231135
 31
0.0
 12
-120.474509002291
 22
75.37660009231135
 32
0.0
 13
-120.474509002291
 23
75.37660009231135
 33
0.0
  0
SOLID
  5
1E8
330
1E1
100
AcDbEntity
  8
1
 62
     2
100
AcDbTrace
 10
-120.9352927438469
 20
-61.12339990768865
 30
0.0
 11
-120.0137252607351
 21
-61.12339990768865
 31
0.0
 12
-120.474509002291
 22
-64.62339990768865
 32
0.0
 13
-120.474509002291
 23
-64.62339990768865
 33
0.0
  0
MTEXT
  5
1E9
330
1E1
100
AcDbEntity
  8
1
 62
     2
100
AcDbMText
 10
-122.474509002291
 20
2.11979993846834
 30
0.0
 40
3.5
 41
0.0
 71
     7
 72
     1
  1
140
  7
CONVERTER_11
 11
0.0
 21
1.0
 31
0.0
 73
     1
 44
0.60024009603842
  0
ENDBLK
  5
1EB
330
1E1
100
AcDbEntity
  8
0
100
AcDbBlockEnd
  0
BLOCK
  5
1F5
330
1EE
100
AcDbEntity
  8
0
100
AcDbBlockBegin
  2
*D21
 70
     1
 71
     0
 10
0.0
 20
0.0
 30
0.0
  3
*D21
  1

  0
LINE
  5
1EF
330
1EE
100
AcDbEntity
  8
1
  6
Continuous
 62
     2
100
AcDbLine
 10
70.3887512679591
 20
-43.62339990768865
 30
0.0
 11
70.3887512679591
 21
54.37660009231135
 31
0.0
  0
LINE
  5
1F0
330
1EE
100
AcDbEntity
  8
1
  6
Continuous
 62
     2
100
AcDbLine
 10
85.94860034321128
 20
-43.62339990768865
 30
0.0
 11
68.3887512679591
 21
-43.62339990768865
 31
0.0
  0
LINE
  5
1F1
330
1EE
100
AcDbEntity
  8
1
  6
Continuous
 62
     2
100
AcDbLine
 10
85.94860034321128
 20
54.37660009231135
 30
0.0
 11
68.3887512679591
 21
54.37660009231135
 31
0.0
  0
SOLID
  5
1F2
330
1EE
100
AcDbEntity
  8
1
 62
     2
100
AcDbTrace
 10
70.84953500951498
 20
50.87660009231135
 30
0.0
 11
69.92796752640321
 21
50.87660009231135
 31
0.0
 12
70.3887512679591
 22
54.37660009231135
 32
0.0
 13
70.3887512679591
 23
54.37660009231135
 33
0.0
  0
SOLID
  5
1F3
330
1EE
100
AcDbEntity
  8
1
 62
     2
100
AcDbTrace
 10
69.92796752640321
 20
-40.12339990768865
 30
0.0
 11
70.84953500951498
 21
-40.12339990768865
 31
0.0
 12
70.3887512679591
 22
-43.62339990768865
 32
0.0
 13
70.3887512679591
 23
-43.62339990768865
 33
0.0
  0
MTEXT
  5
1F4
330
1EE
100
AcDbEntity
  8
1
 62
     2
100
AcDbMText
 10
68.3887512679591
 20
7.5807132807289
 30
0.0
 40
3.5
 41
0.0
 71
     7
 72
     1
  1
98
  7
CONVERTER_11
 11
0.0
 21
1.0
 31
0.0
 73
     1
 44
0.60024009603842
  0
ENDBLK
  5
1F6
330
1EE
100
AcDbEntity
  8
0
100
AcDbBlockEnd
  0
BLOCK
  5
202
330
1F9
100
AcDbEntity
  8
0
100
AcDbBlockBegin
  2
*D22
 70
     1
 71
     0
 10
0.0
 20
0.0
 30
0.0
  3
*D22
  1

  0
LINE
  5
1FA
330
1F9
100
AcDbEntity
  8
1
  6
Continuous
 62
     2
100
AcDbLine
 10
-129.185402709083
 20
77.0637872610572
 30
0.0
 11
-129.185402709083
 21
64.87660009231135
 31
0.0
  0
LINE
  5
1FB
330
1F9
100
AcDbEntity
  8
1
  6
Continuous
 62
     2
100
AcDbLine
 10
-129.185402709083
 20
64.87660009231135
 30
0.0
 11
-129.185402709083
 21
58.62660009231135
 31
0.0
  0
LINE
  5
1FC
330
1F9
100
AcDbEntity
  8
1
  6
Continuous
 62
     2
100
AcDbLine
 10
-129.185402709083
 20
58.62660009231135
 30
0.0
 11
-129.185402709083
 21
51.62660009231135
 31
0.0
  0
LINE
  5
1FD
330
1F9
100
AcDbEntity
  8
1
  6
Continuous
 62
     2
100
AcDbLine
 10
-176.8592983114338
 20
58.62660009231135
 30
0.0
 11
-127.185402709083
 21
58.62660009231135
 31
0.0
  0
LINE
  5
1FE
330
1F9
100
AcDbEntity
  8
1
  6
Continuous
 62
     2
100
AcDbLine
 10
-166.856329904655
 20
64.87660009231135
 30
0.0
 11
-127.185402709083
 21
64.87660009231135
 31
0.0
  0
SOLID
  5
1FF
330
1F9
100
AcDbEntity
  8
1
 62
     2
100
AcDbTrace
 10
-129.6461864506389
 20
68.37660009231135
 30
0.0
 11
-128.7246189675271
 21
68.37660009231135
 31
0.0
 12
-129.185402709083
 22
64.87660009231135
 32
0.0
 13
-129.185402709083
 23
64.87660009231135
 33
0.0
  0
SOLID
  5
200
330
1F9
100
AcDbEntity
  8
1
 62
     2
100
AcDbTrace
 10
-128.7246189675271
 20
55.12660009231135
 30
0.0
 11
-129.6461864506389
 21
55.12660009231135
 31
0.0
 12
-129.185402709083
 22
58.62660009231135
 32
0.0
 13
-129.185402709083
 23
58.62660009231135
 33
0.0
  0
MTEXT
  5
201
330
1F9
100
AcDbEntity
  8
1
 62
     2
100
AcDbMText
 10
-131.185402709083
 20
67.5262872610572
 30
0.0
 40
3.5
 41
0.0
 71
     7
 72
     1
  1
6.25
  7
CONVERTER_11
 11
0.0
 21
1.0
 31
0.0
 73
     1
 44
0.60024009603842
  0
ENDBLK
  5
203
330
1F9
100
AcDbEntity
  8
0
100
AcDbBlockEnd
  0
BLOCK
  5
20F
330
206
100
AcDbEntity
  8
0
100
AcDbBlockBegin
  2
*D23
 70
     1
 71
     0
 10
0.0
 20
0.0
 30
0.0
  3
*D23
  1

  0
LINE
  5
207
330
206
100
AcDbEntity
  8
1
  6
Continuous
 62
     2
100
AcDbLine
 10
-129.185402709083
 20
-40.87339990768865
 30
0.0
 11
-129.185402709083
 21
-47.87339990768865
 31
0.0
  0
LINE
  5
208
330
206
100
AcDbEntity
  8
1
  6
Continuous
 62
     2
100
AcDbLine
 10
-129.185402709083
 20
-47.87339990768865
 30
0.0
 11
-129.185402709083
 21
-54.12339990768865
 31
0.0
  0
LINE
  5
209
330
206
100
AcDbEntity
  8
1
  6
Continuous
 62
     2
100
AcDbLine
 10
-129.185402709083
 20
-54.12339990768865
 30
0.0
 11
-129.185402709083
 21
-66.9614131389388
 31
0.0
  0
LINE
  5
20A
330
206
100
AcDbEntity
  8
1
  6
Continuous
 62
     2
100
AcDbLine
 10
-166.18830624847
 20
-54.12339990768865
 30
0.0
 11
-127.185402709083
 21
-54.12339990768865
 31
0.0
  0
LINE
  5
20B
330
206
100
AcDbEntity
  8
1
  6
Continuous
 62
     2
100
AcDbLine
 10
-176.8592983114338
 20
-47.87339990768865
 30
0.0
 11
-127.185402709083
 21
-47.87339990768865
 31
0.0
  0
SOLID
  5
20C
330
206
100
AcDbEntity
  8
1
 62
     2
100
AcDbTrace
 10
-129.6461864506389
 20
-44.37339990768865
 30
0.0
 11
-128.7246189675271
 21
-44.37339990768865
 31
0.0
 12
-129.185402709083
 22
-47.87339990768865
 32
0.0
 13
-129.185402709083
 23
-47.87339990768865
 33
0.0
  0
SOLID
  5
20D
330
206
100
AcDbEntity
  8
1
 62
     2
100
AcDbTrace
 10
-128.7246189675271
 20
-57.62339990768865
 30
0.0
 11
-129.6461864506389
 21
-57.62339990768865
 31
0.0
 12
-129.185402709083
 22
-54.12339990768865
 32
0.0
 13
-129.185402709083
 23
-54.12339990768865
 33
0.0
  0
MTEXT
  5
20E
330
206
100
AcDbEntity
  8
1
 62
     2
100
AcDbMText
 10
-131.185402709083
 20
-66.9614131389388
 30
0.0
 40
3.5
 41
0.0
 71
     7
 72
     1
  1
6.25
  7
CONVERTER_11
 11
0.0
 21
1.0
 31
0.0
 73
     1
 44
0.60024009603842
  0
ENDBLK
  5
210
330
206
100
AcDbEntity
  8
0
100
AcDbBlockEnd
  0
BLOCK
  5
21A
330
213
100
AcDbEntity
  8
0
100
AcDbBlockBegin
  2
*D24
 70
     1
 71
     0
 10
0.0
 20
0.0
 30
0.0
  3
*D24
  1

  0
LINE
  5
214
330
213
100
AcDbEntity
  8
1
  6
Continuous
 62
     2
100
AcDbLine
 10
-129.185402709083
 20
58.62660009231135
 30
0.0
 11
-129.185402709083
 21
-47.87339990768865
 31
0.0
  0
LINE
  5
215
330
213
100
AcDbEntity
  8
1
  6
Continuous
 62
     2
100
AcDbLine
 10
-176.8592983114338
 20
-47.87339990768865
 30
0.0
 11
-127.185402709083
 21
-47.87339990768865
 31
0.0
  0
LINE
  5
216
330
213
100
AcDbEntity
  8
1
  6
Continuous
 62
     2
100
AcDbLine
 10
-176.8592983114338
 20
58.62660009231135
 30
0.0
 11
-127.185402709083
 21
58.62660009231135
 31
0.0
  0
SOLID
  5
217
330
213
100
AcDbEntity
  8
1
 62
     2
100
AcDbTrace
 10
-128.7246189675271
 20
55.12660009231135
 30
0.0
 11
-129.6461864506389
 21
55.12660009231135
 31
0.0
 12
-129.185402709083
 22
58.62660009231135
 32
0.0
 13
-129.185402709083
 23
58.62660009231135
 33
0.0
  0
SOLID
  5
218
330
213
100
AcDbEntity
  8
1
 62
     2
100
AcDbTrace
 10
-129.6461864506389
 20
-44.37339990768865
 30
0.0
 11
-128.7246189675271
 21
-44.37339990768865
 31
0.0
 12
-129.185402709083
 22
-47.87339990768865
 32
0.0
 13
-129.185402709083
 23
-47.87339990768865
 33
0.0
  0
MTEXT
  5
219
330
213
100
AcDbEntity
  8
1
 62
     2
100
AcDbMText
 10
-131.185402709083
 20
1.25081487116972
 30
0.0
 40
3.5
 41
0.0
 71
     7
 72
     1
  1
106.5
  7
CONVERTER_11
 11
0.0
 21
1.0
 31
0.0
 73
     1
 44
0.60024009603842
  0
ENDBLK
  5
21B
330
213
100
AcDbEntity
  8
0
100
AcDbBlockEnd
  0
BLOCK
  5
222
330
21E
100
AcDbEntity
  8
0
100
AcDbBlockBegin
  2
*D25
 70
     1
 71
     0
 10
0.0
 20
0.0
 30
0.0
  3
*D25
  1

  0
LINE
  5
21F
330
21E
100
AcDbEntity
  8
1
  6
Continuous
 62
     2
100
AcDbLine
 10
-183.5684140124459
 20
50.25724642859991
 30
0.0
 11
-206.5065863713548
 21
66.34450689308431
 31
0.0
  0
SOLID
  5
220
330
21E
100
AcDbEntity
  8
1
 62
     2
100
AcDbTrace
 10
-186.6985113575739
 20
51.88967169993841
 30
0.0
 11
-186.1693531269749
 21
52.64417696361669
 31
0.0
 12
-183.5684140124459
 22
50.25724642859991
 32
0.0
 13
-183.5684140124459
 23
50.25724642859991
 33
0.0
  0
MTEXT
  5
221
330
21E
100
AcDbEntity
  8
1
 62
     2
100
AcDbMText
 10
-204.2693020707756
 20
67.21826827835024
 30
0.0
 40
3.5
 41
0.0
 71
     7
 72
     1
  1
\C2;R\C2;8.5
  7
CONVERTER_11
 11
0.8187194942367166
 21
-0.5741936866221841
 31
0.0
 73
     1
 44
0.60024009603842
  0
ENDBLK
  5
223
330
21E
100
AcDbEntity
  8
0
100
AcDbBlockEnd
  0
BLOCK
  5
22A
330
225
100
AcDbEntity
  8
0
100
AcDbBlockBegin
  2
*D26
 70
     1
 71
     0
 10
0.0
 20
0.0
 30
0.0
  3
*D26
  1

  0
LINE
  5
226
330
225
100
AcDbEntity
  8
1
  6
Continuous
 62
     2
100
AcDbLine
 10
91.7896757383974
 20
-61.23594024236348
 30
0.0
 11
34.36209706405585
 21
20.71353762719526
 31
0.0
  0
SOLID
  5
227
330
225
100
AcDbEntity
  8
1
 62
     2
100
AcDbTrace
 10
84.9934729669474
 20
-50.73479984972911
 30
0.0
 11
84.23876789989073
 21
-51.26367307431886
 31
0.0
 12
82.60752494802516
 22
-48.13295940352891
 32
0.0
 13
82.60752494802516
 23
-48.13295940352891
 33
0.0
  0
SOLID
  5
228
330
225
100
AcDbEntity
  8
1
 62
     2
100
AcDbTrace
 10
89.40372771947513
 20
-58.63409979616331
 30
0.0
 11
90.15843278653179
 21
-58.10522657157355
 31
0.0
 12
91.7896757383974
 22
-61.23594024236348
 32
0.0
 13
91.7896757383974
 23
-61.23594024236348
 33
0.0
  0
MTEXT
  5
229
330
225
100
AcDbEntity
  8
1
 62
     2
100
AcDbMText
 10
36.88375168248348
 20
20.60014457025397
 30
0.0
 40
3.5
 41
0.0
 71
     7
 72
     1
  1
\C2;Fräser ø\C2;16
  7
CONVERTER_11
 11
0.5738844243982661
 21
-0.8189363024271612
 31
0.0
 73
     1
 44
0.60024009603842
  0
ENDBLK
  5
22B
330
225
100
AcDbEntity
  8
0
100
AcDbBlockEnd
  0
BLOCK
  5
232
330
22D
100
AcDbEntity
  8
0
100
AcDbBlockBegin
  2
*D27
 70
     1
 71
     0
 10
0.0
 20
0.0
 30
0.0
  3
*D27
  1

  0
LINE
  5
22E
330
22D
100
AcDbEntity
  8
1
  6
Continuous
 62
     2
100
AcDbLine
 10
-183.0120639984715
 20
-50.64099870070352
 30
0.0
 11
-115.4994606358088
 21
-90.19084958834998
 31
0.0
  0
SOLID
  5
22F
330
22D
100
AcDbEntity
  8
1
 62
     2
100
AcDbTrace
 10
-172.459403766244
 20
-57.35692631196054
 30
0.0
 11
-171.9935814587062
 21
-56.56175576187132
 31
0.0
 12
-169.2065326243961
 22
-58.72847689105538
 32
0.0
 13
-169.2065326243961
 23
-58.72847689105538
 33
0.0
  0
SOLID
  5
230
330
22D
100
AcDbEntity
  8
1
 62
     2
100
AcDbTrace
 10
-179.7591928566237
 20
-52.01254927979837
 30
0.0
 11
-180.2250151641614
 21
-52.80771982988758
 31
0.0
 12
-183.0120639984715
 22
-50.64099870070352
 32
0.0
 13
-183.0120639984715
 23
-50.64099870070352
 33
0.0
  0
MTEXT
  5
231
330
22D
100
AcDbEntity
  8
1
 62
     2
100
AcDbMText
 10
-137.9234153695079
 20
-74.73666393846825
 30
0.0
 40
3.5
 41
0.0
 71
     7
 72
     1
  1
\C2;Fräser ø\C2;16
  7
CONVERTER_11
 11
0.8628457108797187
 21
-0.5054673868969913
 31
0.0
 73
     1
 44
0.60024009603842
  0
ENDBLK
  5
233
330
22D
100
AcDbEntity
  8
0
100
AcDbBlockEnd
  0
BLOCK
  5
23B
330
235
100
AcDbEntity
  8
0
100
AcDbBlockBegin
  2
*D28
 70
     1
 71
     0
 10
0.0
 20
0.0
 30
0.0
  3
*D28
  1

  0
LINE
  5
236
330
235
100
AcDbEntity
  8
1
  6
Continuous
 62
     2
100
AcDbLine
 10
68.49276970171833
 20
57.64554148202424
 30
0.0
 11
83.44793691736947
 21
67.54844491647675
 31
0.0
  0
LINE
  5
237
330
235
100
AcDbEntity
  8
1
  6
Continuous
 62
     2
100
AcDbLine
 10
90.32658575949948
 20
72.10329838356694
 30
0.0
 11
85.94926376905312
 21
69.20475526814592
 31
0.0
  0
SOLID
  5
238
330
235
100
AcDbEntity
  8
1
 62
     2
100
AcDbTrace
 10
80.78412255074518
 20
65.23189259100508
 30
0.0
 11
80.27532196339861
 21
66.00027308805375
 31
0.0
 12
83.44793691736947
 22
67.54844491647675
 32
0.0
 13
83.44793691736947
 23
67.54844491647675
 33
0.0
  0
SOLID
  5
239
330
235
100
AcDbEntity
  8
1
 62
     2
100
AcDbTrace
 10
88.61307813567741
 20
71.52130759361759
 30
0.0
 11
89.12187872302398
 21
70.75292709656892
 31
0.0
 12
85.94926376905312
 22
69.20475526814592
 32
0.0
 13
85.94926376905312
 23
69.20475526814592
 33
0.0
  0
MTEXT
  5
23A
330
235
100
AcDbEntity
  8
1
 62
     2
100
AcDbMText
 10
68.49748437151864
 20
60.04739030571999
 30
0.0
 40
3.5
 41
0.0
 71
     7
 72
     1
  1
\C2;ø\C2;3
  7
CONVERTER_11
 11
0.8337756172278799
 21
0.5521034505563862
 31
0.0
 73
     1
 44
0.60024009603842
  0
ENDBLK
  5
23C
330
235
100
AcDbEntity
  8
0
100
AcDbBlockEnd
  0
BLOCK
  5
244
330
23E
100
AcDbEntity
  8
0
100
AcDbBlockBegin
  2
*D29
 70
     1
 71
     0
 10
0.0
 20
0.0
 30
0.0
  3
*D29
  1

  0
LINE
  5
23F
330
23E
100
AcDbEntity
  8
1
  6
Continuous
 62
     2
100
AcDbLine
 10
-184.1273407855635
 20
60.36198496720599
 30
0.0
 11
-180.2244188612404
 21
63.87335228673238
 31
0.0
  0
LINE
  5
240
330
23E
100
AcDbEntity
  8
1
  6
Continuous
 62
     2
100
AcDbLine
 10
-164.6406792143957
 20
77.89367735931972
 30
0.0
 11
-177.9941777616272
 21
65.87984789789031
 31
0.0
  0
SOLID
  5
241
330
23E
100
AcDbEntity
  8
1
 62
     2
100
AcDbTrace
 10
-175.7004166637868
 20
68.56331239039174
 30
0.0
 11
-175.0840429603702
 21
67.87820649809076
 31
0.0
 12
-177.9941777616272
 22
65.87984789789031
 32
0.0
 13
-177.9941777616272
 23
65.87984789789031
 33
0.0
  0
SOLID
  5
242
330
23E
100
AcDbEntity
  8
1
 62
     2
100
AcDbTrace
 10
-182.5181799590809
 20
61.18988779423096
 30
0.0
 11
-183.1345536624974
 21
61.87499368653195
 31
0.0
 12
-180.2244188612404
 22
63.87335228673238
 32
0.0
 13
-180.2244188612404
 23
63.87335228673238
 33
0.0
  0
MTEXT
  5
243
330
23E
100
AcDbEntity
  8
1
 62
     2
100
AcDbMText
 10
-169.6731090435269
 20
76.05641036324356
 30
0.0
 40
3.5
 41
0.0
 71
     7
 72
     1
  1
\C2;ø\C2;3
  7
CONVERTER_11
 11
0.7434136998710709
 21
0.6688318703859778
 31
0.0
 73
     1
 44
0.60024009603842
  0
ENDBLK
  5
245
330
23E
100
AcDbEntity
  8
0
100
AcDbBlockEnd
  0
ENDSEC
  0
SECTION
  2
ENTITIES
  0
POINT
  5
32
330
1F
100
AcDbEntity
  8
1
 62
     3
 60
     1
100
AcDbPoint
 10
-25.11320632733309
 20
-59.6979399702632
 30
0.0
  0
POINT
  5
33
330
1F
100
AcDbEntity
  8
1
 62
     3
 60
     1
100
AcDbPoint
 10
-11.1132063273331
 20
-59.6979399702632
 30
0.0
  0
POINT
  5
34
330
1F
100
AcDbEntity
  8
1
 62
     3
 60
     1
100
AcDbPoint
 10
11.88679367266695
 20
-42.69793997026321
 30
0.0
  0
POINT
  5
35
330
1F
100
AcDbEntity
  8
1
 62
     3
 60
     1
100
AcDbPoint
 10
15.38679367266695
 20
-42.69793997026321
 30
0.0
  0
POINT
  5
36
330
1F
100
AcDbEntity
  8
1
 62
     3
 60
     1
100
AcDbPoint
 10
15.38679367266695
 20
-26.69793997026321
 30
0.0
  0
POINT
  5
37
330
1F
100
AcDbEntity
  8
1
 62
     3
 60
     1
100
AcDbPoint
 10
72.5349461857596
 20
66.37660009231135
 30
0.0
  0
POINT
  5
38
330
1F
100
AcDbEntity
  8
1
 62
     3
 60
     1
100
AcDbPoint
 10
101.1986003432113
 20
66.37660009231135
 30
0.0
  0
POINT
  5
39
330
1F
100
AcDbEntity
  8
1
 62
     3
 60
     1
100
AcDbPoint
 10
95.19860034321128
 20
5.37660009231135
 30
0.0
  0
POINT
  5
3A
330
1F
100
AcDbEntity
  8
1
 62
     3
 60
     1
100
AcDbPoint
 10
95.19860034321128
 20
5.37660009231135
 30
0.0
  0
POINT
  5
3B
330
1F
100
AcDbEntity
  8
1
 62
     3
 60
     1
100
AcDbPoint
 10
88.19860034321128
 20
5.37660009231135
 30
0.0
  0
POINT
  5
3C
330
1F
100
AcDbEntity
  8
1
 62
     3
 60
     1
100
AcDbPoint
 10
88.19860034321128
 20
5.37660009231135
 30
0.0
  0
POINT
  5
3D
330
1F
100
AcDbEntity
  8
1
 62
     3
 60
     1
100
AcDbPoint
 10
88.19860034321128
 20
-69.62339990768865
 30
0.0
  0
POINT
  5
3E
330
1F
100
AcDbEntity
  8
1
 62
     3
 60
     1
100
AcDbPoint
 10
101.1986003432113
 20
-55.62339990768865
 30
0.0
  0
POINT
  5
3F
330
1F
100
AcDbEntity
  8
1
 62
     3
 60
     1
100
AcDbPoint
 10
12.38679367266665
 20
-60.69793997026319
 30
0.0
  0
POINT
  5
40
330
1F
100
AcDbEntity
  8
1
 62
     3
 60
     1
100
AcDbPoint
 10
27.38679367266664
 20
-60.69793997026319
 30
0.0
  0
POINT
  5
41
330
1F
100
AcDbEntity
  8
1
 62
     3
 60
     1
100
AcDbPoint
 10
79.19860034321128
 20
42.62660009231135
 30
0.0
  0
POINT
  5
42
330
1F
100
AcDbEntity
  8
1
 62
     3
 60
     1
100
AcDbPoint
 10
88.19860034321128
 20
66.37660009231135
 30
0.0
  0
POINT
  5
43
330
1F
100
AcDbEntity
  8
1
 62
     3
 60
     1
100
AcDbPoint
 10
88.19860034321128
 20
-55.62339990768865
 30
0.0
  0
POINT
  5
44
330
1F
100
AcDbEntity
  8
1
 62
     3
 60
     1
100
AcDbPoint
 10
95.19860034321128
 20
42.62660009231135
 30
0.0
  0
LINE
  5
45
330
1F
100
AcDbEntity
  8
1
  6
DOT_CENTER
 62
     2
100
AcDbLine
 10
-9.01360038267119
 20
-51.19793997026326
 30
0.0
 11
-27.1065792868494
 21
-51.19793997026326
 31
0.0
  0
LINE
  5
46
330
1F
100
AcDbEntity
  8
1
  6
DOT_CENTER
 62
     2
100
AcDbLine
 10
-187.554644728426
 20
45.37660009231135
 30
0.0
 11
-166.132898766084
 21
45.37660009231135
 31
0.0
  0
LINE
  5
47
330
1F
100
AcDbEntity
  8
1
  6
DOT_CENTER
 62
     2
100
AcDbLine
 10
-186.939077315715
 20
-34.62339990768865
 30
0.0
 11
-166.009785283542
 21
-34.62339990768865
 31
0.0
  0
LINE
  5
48
330
1F
100
AcDbEntity
  8
1
  6
DOT_CENTER
 62
     2
100
AcDbLine
 10
-176.6092983114338
 20
56.6913679844397
 30
0.0
 11
-176.6092983114338
 21
-45.4217611399236
 31
0.0
  0
LINE
  5
49
330
1F
100
AcDbEntity
  8
1
  6
DOT_CENTER
 62
     2
100
AcDbLine
 10
-197.6000806359427
 20
5.37660009231135
 30
0.0
 11
-135.8383329234636
 21
5.37660009231135
 31
0.0
  0
LINE
  5
4A
330
1F
100
AcDbEntity
  8
1
  6
DOT_CENTER
 62
     2
100
AcDbLine
 10
-190.620962865328
 20
-54.12339990768865
 30
0.0
 11
-166.18830624847
 21
-54.12339990768865
 31
0.0
  0
LINE
  5
4B
330
1F
100
AcDbEntity
  8
1
  6
DOT_CENTER
 62
     2
100
AcDbLine
 10
-181.3592983114338
 20
-47.87339990768865
 30
0.0
 11
-176.8592983114338
 21
-47.87339990768865
 31
0.0
  0
LINE
  5
4C
330
1F
100
AcDbEntity
  8
1
  6
DOT_CENTER
 62
     2
100
AcDbLine
 10
-179.1092983114338
 20
-75.5804222971521
 30
0.0
 11
-179.1092983114338
 21
86.3336224817748
 31
0.0
  0
LINE
  5
4D
330
1F
100
AcDbEntity
  8
1
  6
DOT_CENTER
 62
     2
100
AcDbLine
 10
-181.3592983114338
 20
58.62660009231135
 30
0.0
 11
-176.8592983114338
 21
58.62660009231135
 31
0.0
  0
LINE
  5
4E
330
1F
100
AcDbEntity
  8
1
  6
DOT_CENTER
 62
     2
100
AcDbLine
 10
-190.620962865328
 20
64.87660009231135
 30
0.0
 11
-166.856329904655
 21
64.87660009231135
 31
0.0
  0
LINE
  5
4F
330
1F
100
AcDbEntity
  8
1
  6
Continuous
 62
     7
100
AcDbLine
 10
-11.11320632733307
 20
-63.69793997026324
 30
0.0
 11
-11.1132063273331
 21
-59.6979399702632
 31
0.0
  0
LINE
  5
50
330
1F
100
AcDbEntity
  8
1
  6
Continuous
 62
     7
100
AcDbLine
 10
-11.1132063273331
 20
-59.6979399702632
 30
0.0
 11
-11.1132063273332
 21
-42.6979399702632
 31
0.0
  0
LINE
  5
51
330
1F
100
AcDbEntity
  8
1
  6
Continuous
 62
     7
100
AcDbLine
 10
-25.11320632733309
 20
-59.6979399702632
 30
0.0
 11
-25.11320632733315
 21
-42.69793997026332
 31
0.0
  0
LINE
  5
52
330
1F
100
AcDbEntity
  8
1
  6
Continuous
 62
     7
100
AcDbLine
 10
-11.1132063273331
 20
-59.6979399702632
 30
0.0
 11
-25.11320632733309
 21
-59.6979399702632
 31
0.0
  0
LINE
  5
53
330
1F
100
AcDbEntity
  8
1
  6
Continuous
 62
     7
100
AcDbLine
 10
-189.1092983114338
 20
-54.12339990768865
 30
0.0
 11
-189.1092983114338
 21
64.87660009231135
 31
0.0
  0
LINE
  5
54
330
1F
100
AcDbEntity
  8
1
  6
Continuous
 62
     7
100
AcDbLine
 10
-168.1092983114338
 20
-54.12339990768865
 30
0.0
 11
-168.1092983114338
 21
64.87660009231135
 31
0.0
  0
LINE
  5
55
330
1F
100
AcDbEntity
  8
1
  6
Continuous
 62
     7
100
AcDbLine
 10
-185.1092983114338
 20
-34.62339990768865
 30
0.0
 11
-185.1092983114338
 21
45.37660009231135
 31
0.0
  0
LINE
  5
56
330
1F
100
AcDbEntity
  8
1
  6
DOT_CENTER
 62
     2
100
AcDbLine
 10
0.36388297763503
 20
-53.19793997026318
 30
0.0
 11
-13.2598530654007
 21
-53.19793997026318
 31
0.0
  0
LINE
  5
57
330
1F
100
AcDbEntity
  8
1
  6
Continuous
 62
     7
100
AcDbLine
 10
-78.80177865188125
 20
53.87660009231135
 30
0.0
 11
-78.80177865188125
 21
45.37660009231139
 31
0.0
  0
LINE
  5
58
330
1F
100
AcDbEntity
  8
1
  6
Continuous
 62
     7
100
AcDbLine
 10
-78.80177865188125
 20
-43.12339990768866
 30
0.0
 11
-78.80177865188125
 21
-33.12339990768865
 31
0.0
  0
LINE
  5
59
330
1F
100
AcDbEntity
  8
1
  6
Continuous
 62
     7
100
AcDbLine
 10
-11.1132063273332
 20
-42.6979399702632
 30
0.0
 11
-1.11320632733315
 21
-42.6979399702632
 31
0.0
  0
LINE
  5
5A
330
1F
100
AcDbEntity
  8
1
  6
Continuous
 62
     7
100
AcDbLine
 10
-68.80177865188125
 20
-65.12339990768865
 30
0.0
 11
-68.80177865188125
 21
-94.62339990768865
 31
0.0
  0
LINE
  5
5B
330
1F
100
AcDbEntity
  8
1
  6
Continuous
 62
     7
100
AcDbLine
 10
-78.80177865188125
 20
-65.12339990768865
 30
0.0
 11
-68.80177865188125
 21
-65.12339990768865
 31
0.0
  0
LINE
  5
5C
330
1F
100
AcDbEntity
  8
1
  6
Continuous
 62
     7
100
AcDbLine
 10
-78.80177865188125
 20
-43.12339990768866
 30
0.0
 11
-78.80177865188125
 21
-65.12339990768865
 31
0.0
  0
LINE
  5
5D
330
1F
100
AcDbEntity
  8
1
  6
Continuous
 62
     7
100
AcDbLine
 10
-92.80488390961864
 20
-43.12339990768863
 30
0.0
 11
-78.80177865188125
 21
-43.12339990768866
 31
0.0
  0
LINE
  5
5E
330
1F
100
AcDbEntity
  8
1
  6
Continuous
 62
     7
100
AcDbLine
 10
-92.80177865188125
 20
53.87660009231135
 30
0.0
 11
-92.80488390961864
 21
-43.12339990768863
 31
0.0
  0
LINE
  5
5F
330
1F
100
AcDbEntity
  8
1
  6
Continuous
 62
     7
100
AcDbLine
 10
-78.80177865188125
 20
53.87660009231135
 30
0.0
 11
-92.80177865188125
 21
53.87660009231135
 31
0.0
  0
LINE
  5
60
330
1F
100
AcDbEntity
  8
1
  6
Continuous
 62
     7
100
AcDbLine
 10
-78.80177865188125
 20
75.37660009231135
 30
0.0
 11
-78.80177865188125
 21
53.87660009231135
 31
0.0
  0
LINE
  5
61
330
1F
100
AcDbEntity
  8
1
  6
Continuous
 62
     7
100
AcDbLine
 10
-68.80177865188125
 20
75.37660009231135
 30
0.0
 11
-68.80177865188125
 21
-65.12339990768865
 31
0.0
  0
LINE
  5
62
330
1F
100
AcDbEntity
  8
1
  6
Continuous
 62
     7
100
AcDbLine
 10
-68.80177865188125
 20
75.37660009231135
 30
0.0
 11
-78.80177865188125
 21
75.37660009231135
 31
0.0
  0
LINE
  5
63
330
1F
100
AcDbEntity
  8
1
  6
DOT_CENTER
 62
     2
100
AcDbLine
 10
-68.80177865188125
 20
-94.62339990768865
 30
0.0
 11
-55.80177865188119
 21
-94.62339990768865
 31
0.0
  0
LINE
  5
64
330
1F
100
AcDbEntity
  8
1
  6
DOT_CENTER
 62
     2
100
AcDbLine
 10
-68.80177865188125
 20
105.3766000923113
 30
0.0
 11
-55.80177865188119
 21
105.3766000923113
 31
0.0
  0
LINE
  5
65
330
1F
100
AcDbEntity
  8
1
  6
Continuous
 62
     7
100
AcDbLine
 10
-68.80177865188125
 20
105.3766000923113
 30
0.0
 11
-68.80177865188125
 21
75.37660009231135
 31
0.0
  0
LINE
  5
66
330
1F
100
AcDbEntity
  8
1
  6
DOT_CENTER
 62
     2
100
AcDbLine
 10
-55.80177865188119
 20
-94.62339990768865
 30
0.0
 11
-51.29189472598307
 21
-94.62339990768865
 31
0.0
  0
LINE
  5
67
330
1F
100
AcDbEntity
  8
1
  6
DOT_CENTER
 62
     2
100
AcDbLine
 10
-55.80177865188119
 20
105.3766000923113
 30
0.0
 11
-51.29189472598307
 21
105.3766000923113
 31
0.0
  0
LINE
  5
68
330
1F
100
AcDbEntity
  8
1
  6
Continuous
 62
     7
100
AcDbLine
 10
-55.80177865188119
 20
-94.62339990768865
 30
0.0
 11
-55.80177865188119
 21
105.3766000923113
 31
0.0
  0
LINE
  5
69
330
1F
100
AcDbEntity
  8
1
  6
DOT_CENTER
 62
     2
100
AcDbLine
 10
-108.8017786518813
 20
-94.62339990768865
 30
0.0
 11
-68.80177865188125
 21
-94.62339990768865
 31
0.0
  0
LINE
  5
6A
330
1F
100
AcDbEntity
  8
1
  6
DOT_CENTER
 62
     2
100
AcDbLine
 10
-108.8017786518813
 20
105.3766000923113
 30
0.0
 11
-68.80177865188125
 21
105.3766000923113
 31
0.0
  0
LINE
  5
6B
330
1F
100
AcDbEntity
  8
1
  6
Continuous
 62
     7
100
AcDbLine
 10
-108.8017786518813
 20
105.3766000923113
 30
0.0
 11
-108.8017786518813
 21
-94.62339990768865
 31
0.0
  0
LINE
  5
6C
330
1F
100
AcDbEntity
  8
1
  6
DOT_CENTER
 62
     2
100
AcDbLine
 10
-114.5635309971518
 20
-94.62339990768865
 30
0.0
 11
-108.8017786518813
 21
-94.62339990768865
 31
0.0
  0
LINE
  5
6D
330
1F
100
AcDbEntity
  8
1
  6
DOT_CENTER
 62
     2
100
AcDbLine
 10
-114.5635309971518
 20
5.37660009231135
 30
0.0
 11
-51.29189472598307
 21
5.37660009231135
 31
0.0
  0
LINE
  5
6E
330
1F
100
AcDbEntity
  8
1
  6
DOT_CENTER
 62
     2
100
AcDbLine
 10
-114.5635309971518
 20
105.3766000923113
 30
0.0
 11
-108.8017786518813
 21
105.3766000923113
 31
0.0
  0
LINE
  5
6F
330
1F
100
AcDbEntity
  8
1
  6
DOT_CENTER
 62
     2
100
AcDbLine
 10
-163.1092983114338
 20
-94.62339990768865
 30
0.0
 11
-142.4897709387598
 21
-94.62339990768866
 31
0.0
  0
LINE
  5
70
330
1F
100
AcDbEntity
  8
1
  6
DOT_CENTER
 62
     2
100
AcDbLine
 10
-163.1092983114338
 20
105.3766000923113
 30
0.0
 11
-142.4897709387598
 21
105.3766000923113
 31
0.0
  0
LINE
  5
71
330
1F
100
AcDbEntity
  8
1
  6
Continuous
 62
     7
100
AcDbLine
 10
-163.1092983114338
 20
105.3766000923113
 30
0.0
 11
-163.1092983114338
 21
-94.62339990768865
 31
0.0
  0
LINE
  5
72
330
1F
100
AcDbEntity
  8
1
  6
DOT_CENTER
 62
     2
100
AcDbLine
 10
-192.1092983114338
 20
-94.62339990768865
 30
0.0
 11
-163.1092983114338
 21
-94.62339990768865
 31
0.0
  0
LINE
  5
73
330
1F
100
AcDbEntity
  8
1
  6
DOT_CENTER
 62
     2
100
AcDbLine
 10
-192.1092983114338
 20
105.3766000923113
 30
0.0
 11
-163.1092983114338
 21
105.3766000923113
 31
0.0
  0
LINE
  5
74
330
1F
100
AcDbEntity
  8
1
  6
Continuous
 62
     7
100
AcDbLine
 10
-192.1092983114338
 20
105.3766000923113
 30
0.0
 11
-192.1092983114338
 21
-94.62339990768865
 31
0.0
  0
LINE
  5
75
330
1F
100
AcDbEntity
  8
1
  6
DOT_CENTER
 62
     2
100
AcDbLine
 10
-142.4897709387598
 20
105.3766000923113
 30
0.0
 11
-142.4897709387598
 21
109.761881720986
 31
0.0
  0
LINE
  5
76
330
1F
100
AcDbEntity
  8
1
  6
DOT_CENTER
 62
     2
100
AcDbLine
 10
-142.4897709387598
 20
-94.62339990768866
 30
0.0
 11
-142.4897709387598
 21
-99.90359801694666
 31
0.0
  0
LINE
  5
77
330
1F
100
AcDbEntity
  8
1
  6
DOT_CENTER
 62
     2
100
AcDbLine
 10
-142.4897709387598
 20
-94.62339990768866
 30
0.0
 11
-137.5343223151126
 21
-94.62339990768865
 31
0.0
  0
LINE
  5
78
330
1F
100
AcDbEntity
  8
1
  6
DOT_CENTER
 62
     2
100
AcDbLine
 10
-142.4897709387598
 20
105.3766000923113
 30
0.0
 11
-137.5343223151126
 21
105.3766000923113
 31
0.0
  0
LINE
  5
79
330
1F
100
AcDbEntity
  8
1
  6
DOT_CENTER
 62
     2
100
AcDbLine
 10
-142.4897709387598
 20
105.3766000923113
 30
0.0
 11
-142.4897709387598
 21
-94.62339990768866
 31
0.0
  0
LINE
  5
7A
330
1F
100
AcDbEntity
  8
1
  6
DOT_CENTER
 62
     2
100
AcDbLine
 10
-196.6000806359427
 20
-94.62339990768865
 30
0.0
 11
-192.1092983114338
 21
-94.62339990768865
 31
0.0
  0
LINE
  5
7B
330
1F
100
AcDbEntity
  8
1
  6
DOT_CENTER
 62
     2
100
AcDbLine
 10
-194.6000806359427
 20
105.3766000923113
 30
0.0
 11
-192.1092983114338
 21
105.3766000923113
 31
0.0
  0
LINE
  5
7C
330
1F
100
AcDbEntity
  8
1
  6
Continuous
 62
     7
100
AcDbLine
 10
-1.11320632733307
 20
-66.6979399702632
 30
0.0
 11
-44.11320632733307
 21
-66.69793997026322
 31
0.0
  0
LINE
  5
7D
330
1F
100
AcDbEntity
  8
1
  6
DOT_CENTER
 62
     2
100
AcDbLine
 10
11.88679367266695
 20
-5.13242320594023
 30
0.0
 11
-44.11320632733307
 21
-5.13242320594023
 31
0.0
  0
LINE
  5
7E
330
1F
100
AcDbEntity
  8
1
  6
Continuous
 62
     7
100
AcDbLine
 10
11.88679367266695
 20
-37.69793997026319
 30
0.0
 11
11.88679367266695
 21
-5.13242320594023
 31
0.0
  0
LINE
  5
7F
330
1F
100
AcDbEntity
  8
1
  6
Continuous
 62
     7
100
AcDbLine
 10
-1.11320632733307
 20
-37.69793997026319
 30
0.0
 11
11.88679367266695
 21
-37.69793997026319
 31
0.0
  0
LINE
  5
80
330
1F
100
AcDbEntity
  8
1
  6
Continuous
 62
     7
100
AcDbLine
 10
-1.11320632733308
 20
-63.69793997026321
 30
0.0
 11
-1.11320632733315
 21
-42.6979399702632
 31
0.0
  0
LINE
  5
81
330
1F
100
AcDbEntity
  8
1
  6
Continuous
 62
     7
100
AcDbLine
 10
-44.11320632733307
 20
-5.13242320594023
 30
0.0
 11
-44.11320632733307
 21
-66.69793997026322
 31
0.0
  0
LINE
  5
82
330
1F
100
AcDbEntity
  8
1
  6
Continuous
 62
     7
100
AcDbLine
 10
-25.11320632733315
 20
-42.69793997026332
 30
0.0
 11
-11.1132063273332
 21
-42.6979399702632
 31
0.0
  0
LINE
  5
83
330
1F
100
AcDbEntity
  8
1
  6
Continuous
 62
     7
100
AcDbLine
 10
-1.11320632733308
 20
-63.69793997026321
 30
0.0
 11
-11.11320632733307
 21
-63.69793997026324
 31
0.0
  0
LINE
  5
84
330
1F
100
AcDbEntity
  8
1
  6
Continuous
 62
     7
100
AcDbLine
 10
-0.11320632733307
 20
-39.42999077783213
 30
0.0
 11
-0.11320632733307
 21
-38.69793997026321
 31
0.0
  0
LINE
  5
85
330
1F
100
AcDbEntity
  8
1
  6
Continuous
 62
     7
100
AcDbLine
 10
1.19619474942533
 20
-41.69793997026321
 30
0.0
 11
-0.11320632733307
 21
-39.42999077783213
 31
0.0
  0
LINE
  5
86
330
1F
100
AcDbEntity
  8
1
  6
Continuous
 62
     7
100
AcDbLine
 10
9.57739259590841
 20
-41.69793997026321
 30
0.0
 11
1.19619474942533
 21
-41.69793997026321
 31
0.0
  0
LINE
  5
87
330
1F
100
AcDbEntity
  8
1
  6
Continuous
 62
     7
100
AcDbLine
 10
10.88679367266695
 20
-39.42999077783213
 30
0.0
 11
9.57739259590841
 21
-41.69793997026321
 31
0.0
  0
LINE
  5
88
330
1F
100
AcDbEntity
  8
1
  6
Continuous
 62
     7
100
AcDbLine
 10
10.88679367266695
 20
-38.69793997026321
 30
0.0
 11
10.88679367266695
 21
-39.42999077783213
 31
0.0
  0
LINE
  5
89
330
1F
100
AcDbEntity
  8
1
  6
Continuous
 62
     7
100
AcDbLine
 10
-0.11320632733307
 20
-38.69793997026321
 30
0.0
 11
10.88679367266695
 21
-38.69793997026321
 31
0.0
  0
LINE
  5
8A
330
1F
100
AcDbEntity
  8
1
  6
Continuous
 62
     7
100
AcDbLine
 10
11.88679367266695
 20
-39.69793997026321
 30
0.0
 11
11.88679367266695
 21
-37.69793997026319
 31
0.0
  0
LINE
  5
8B
330
1F
100
AcDbEntity
  8
1
  6
Continuous
 62
     7
100
AcDbLine
 10
10.15474286509806
 20
-42.69793997026321
 30
0.0
 11
11.88679367266695
 21
-39.69793997026321
 31
0.0
  0
LINE
  5
8C
330
1F
100
AcDbEntity
  8
1
  6
Continuous
 62
     7
100
AcDbLine
 10
0.61884448023571
 20
-42.69793997026321
 30
0.0
 11
10.15474286509806
 21
-42.69793997026321
 31
0.0
  0
LINE
  5
8D
330
1F
100
AcDbEntity
  8
1
  6
Continuous
 62
     7
100
AcDbLine
 10
-1.11320632733307
 20
-39.69793997026321
 30
0.0
 11
0.61884448023571
 21
-42.69793997026321
 31
0.0
  0
LINE
  5
8E
330
1F
100
AcDbEntity
  8
1
  6
DOT_CENTER
 62
     2
100
AcDbLine
 10
-44.11320632733307
 20
-5.13242320594023
 30
0.0
 11
-48.58147486355819
 21
-5.13242320594023
 31
0.0
  0
LINE
  5
8F
330
1F
100
AcDbEntity
  8
1
  6
DOT_CENTER
 62
     2
100
AcDbLine
 10
11.88679367266695
 20
-5.13242320594023
 30
0.0
 11
18.90126688979785
 21
-5.13242320594023
 31
0.0
  0
LINE
  5
90
330
1F
100
AcDbEntity
  8
1
  6
Continuous
 62
     7
100
AcDbLine
 10
-1.11320632733315
 20
-42.6979399702632
 30
0.0
 11
-1.11320632733307
 21
-37.69793997026319
 31
0.0
  0
LINE
  5
91
330
1F
100
AcDbEntity
  8
1
  6
Continuous
 62
     7
100
AcDbLine
 10
-1.11320632733308
 20
-63.69793997026321
 30
0.0
 11
-1.11320632733307
 21
-66.6979399702632
 31
0.0
  0
LINE
  5
92
330
1F
100
AcDbEntity
  8
1
  6
DOT_CENTER
 62
     2
100
AcDbLine
 10
84.6986003432113
 20
-59.87339990768867
 30
0.0
 11
84.6986003432113
 21
-55.37339990768867
 31
0.0
  0
LINE
  5
93
330
1F
100
AcDbEntity
  8
1
  6
DOT_CENTER
 62
     2
100
AcDbLine
 10
82.4486003432113
 20
-57.62339990768867
 30
0.0
 11
86.9486003432113
 21
-57.62339990768867
 31
0.0
  0
LINE
  5
94
330
1F
100
AcDbEntity
  8
1
  6
DOT_CENTER
 62
     2
100
AcDbLine
 10
91.6986003432113
 20
-52.87339990768865
 30
0.0
 11
91.6986003432113
 21
-48.37339990768865
 31
0.0
  0
LINE
  5
95
330
1F
100
AcDbEntity
  8
1
  6
DOT_CENTER
 62
     2
100
AcDbLine
 10
89.4486003432113
 20
-50.62339990768865
 30
0.0
 11
93.9486003432113
 21
-50.62339990768865
 31
0.0
  0
LINE
  5
96
330
1F
100
AcDbEntity
  8
1
  6
DOT_CENTER
 62
     2
100
AcDbLine
 10
91.6986003432113
 20
59.12660009231134
 30
0.0
 11
91.6986003432113
 21
63.62660009231134
 31
0.0
  0
LINE
  5
97
330
1F
100
AcDbEntity
  8
1
  6
DOT_CENTER
 62
     2
100
AcDbLine
 10
89.4486003432113
 20
61.37660009231134
 30
0.0
 11
93.9486003432113
 21
61.37660009231134
 31
0.0
  0
LINE
  5
98
330
1F
100
AcDbEntity
  8
1
  6
DOT_CENTER
 62
     2
100
AcDbLine
 10
84.6986003432113
 20
66.12660009231134
 30
0.0
 11
84.6986003432113
 21
70.62660009231134
 31
0.0
  0
LINE
  5
99
330
1F
100
AcDbEntity
  8
1
  6
DOT_CENTER
 62
     2
100
AcDbLine
 10
82.4486003432113
 20
68.37660009231134
 30
0.0
 11
86.9486003432113
 21
68.37660009231134
 31
0.0
  0
LINE
  5
9A
330
1F
100
AcDbEntity
  8
1
  6
DOT_CENTER
 62
     2
100
AcDbLine
 10
77.974028109067
 20
-31.87339990768865
 30
0.0
 11
96.2536929180181
 21
-31.87339990768865
 31
0.0
  0
LINE
  5
9B
330
1F
100
AcDbEntity
  8
1
  6
DOT_CENTER
 62
     2
100
AcDbLine
 10
77.9302363320646
 20
42.62660009231135
 30
0.0
 11
96.6092227685969
 21
42.62660009231135
 31
0.0
  0
LINE
  5
9C
330
1F
100
AcDbEntity
  8
1
  6
DOT_CENTER
 62
     2
100
AcDbLine
 10
87.19860034321128
 20
-43.3650398396088
 30
0.0
 11
87.19860034321128
 21
13.98807882745509
 31
0.0
  0
LINE
  5
9D
330
1F
100
AcDbEntity
  8
1
  6
DOT_CENTER
 62
     2
100
AcDbLine
 10
14.580883670625
 20
-53.6979399702632
 30
0.0
 11
0.36388297763503
 21
-53.6979399702632
 31
0.0
  0
LINE
  5
9E
330
1F
100
AcDbEntity
  8
1
  6
DOT_CENTER
 62
     2
100
AcDbLine
 10
61.1986003432113
 20
105.3766000923114
 30
0.0
 11
77.1986003432113
 21
105.3766000923114
 31
0.0
  0
LINE
  5
9F
330
1F
100
AcDbEntity
  8
1
  6
DOT_CENTER
 62
     2
100
AcDbLine
 10
61.1986003432113
 20
-94.62339990768866
 30
0.0
 11
77.1986003432113
 21
-94.62339990768866
 31
0.0
  0
LINE
  5
A0
330
1F
100
AcDbEntity
  8
1
  6
Continuous
 62
     7
100
AcDbLine
 10
61.1986003432113
 20
105.3766000923114
 30
0.0
 11
61.1986003432113
 21
-94.62339990768866
 31
0.0
  0
LINE
  5
A1
330
1F
100
AcDbEntity
  8
1
  6
Continuous
 62
     7
100
AcDbLine
 10
27.38679367266664
 20
-60.69793997026319
 30
0.0
 11
27.38679367266664
 21
-44.69793997026326
 31
0.0
  0
LINE
  5
A2
330
1F
100
AcDbEntity
  8
1
  6
Continuous
 62
     7
100
AcDbLine
 10
12.38679367266665
 20
-60.69793997026319
 30
0.0
 11
12.38679367266663
 21
-62.69793997026319
 31
0.0
  0
LINE
  5
A3
330
1F
100
AcDbEntity
  8
1
  6
Continuous
 62
     7
100
AcDbLine
 10
12.38679367266665
 20
-60.69793997026319
 30
0.0
 11
27.38679367266664
 21
-60.69793997026319
 31
0.0
  0
LINE
  5
A4
330
1F
100
AcDbEntity
  8
1
  6
DOT_CENTER
 62
     2
100
AcDbLine
 10
101.1986003432113
 20
-55.62339990768865
 30
0.0
 11
72.5349461857596
 21
-55.62339990768865
 31
0.0
  0
LINE
  5
A5
330
1F
100
AcDbEntity
  8
1
  6
DOT_CENTER
 62
     2
100
AcDbLine
 10
88.19860034321128
 20
5.37660009231135
 30
0.0
 11
88.19860034321128
 21
-69.62339990768865
 31
0.0
  0
LINE
  5
A6
330
1F
100
AcDbEntity
  8
1
  6
Continuous
 62
     7
100
AcDbLine
 10
97.19860034321128
 20
5.37660009231135
 30
0.0
 11
97.19860034321128
 21
-55.62339990768865
 31
0.0
  0
LINE
  5
A7
330
1F
100
AcDbEntity
  8
1
  6
Continuous
 62
     7
100
AcDbLine
 10
79.19860034321128
 20
5.37660009231135
 30
0.0
 11
79.19860034321128
 21
-55.62339990768865
 31
0.0
  0
LINE
  5
A8
330
1F
100
AcDbEntity
  8
1
  6
Continuous
 62
     7
100
AcDbLine
 10
95.19860034321128
 20
5.37660009231135
 30
0.0
 11
95.19860034321128
 21
-31.87339990768865
 31
0.0
  0
LINE
  5
A9
330
1F
100
AcDbEntity
  8
1
  6
Continuous
 62
     7
100
AcDbLine
 10
101.1986003432113
 20
-55.62339990768865
 30
0.0
 11
101.1986003432113
 21
105.3766000923114
 31
0.0
  0
LINE
  5
AA
330
1F
100
AcDbEntity
  8
1
  6
DOT_CENTER
 62
     2
100
AcDbLine
 10
95.19860034321128
 20
5.37660009231135
 30
0.0
 11
103.8813092857647
 21
5.37660009231135
 31
0.0
  0
LINE
  5
AB
330
1F
100
AcDbEntity
  8
1
  6
Continuous
 62
     7
100
AcDbLine
 10
95.19860034321128
 20
42.62660009231135
 30
0.0
 11
95.19860034321128
 21
5.37660009231135
 31
0.0
  0
LINE
  5
AC
330
1F
100
AcDbEntity
  8
1
  6
DOT_CENTER
 62
     2
100
AcDbLine
 10
88.19860034321128
 20
5.37660009231135
 30
0.0
 11
95.19860034321128
 21
5.37660009231135
 31
0.0
  0
LINE
  5
AD
330
1F
100
AcDbEntity
  8
1
  6
Continuous
 62
     7
100
AcDbLine
 10
101.1986003432113
 20
66.37660009231135
 30
0.0
 11
101.1986003432113
 21
105.3766000923114
 31
0.0
  0
LINE
  5
AE
330
1F
100
AcDbEntity
  8
1
  6
DOT_CENTER
 62
     2
100
AcDbLine
 10
72.5349461857596
 20
66.37660009231135
 30
0.0
 11
101.1986003432113
 21
66.37660009231135
 31
0.0
  0
LINE
  5
AF
330
1F
100
AcDbEntity
  8
1
  6
Continuous
 62
     7
100
AcDbLine
 10
79.19860034321128
 20
66.37660009231135
 30
0.0
 11
79.19860034321128
 21
5.37660009231135
 31
0.0
  0
LINE
  5
B0
330
1F
100
AcDbEntity
  8
1
  6
PHANTOM
 62
     2
100
AcDbLine
 10
47.38679367266684
 20
-26.69793997026321
 30
0.0
 11
47.38679367266686
 21
-23.65515166616186
 31
0.0
  0
LINE
  5
B1
330
1F
100
AcDbEntity
  8
1
  6
Continuous
 62
     7
100
AcDbLine
 10
15.38679367266695
 20
-26.69793997026321
 30
0.0
 11
47.38679367266684
 21
-26.69793997026321
 31
0.0
  0
LINE
  5
B2
330
1F
100
AcDbEntity
  8
1
  6
Continuous
 62
     7
100
AcDbLine
 10
15.38679367266695
 20
-42.69793997026321
 30
0.0
 11
15.38679367266695
 21
-26.69793997026321
 31
0.0
  0
LINE
  5
B3
330
1F
100
AcDbEntity
  8
1
  6
Continuous
 62
     7
100
AcDbLine
 10
11.88679367266695
 20
-42.69793997026321
 30
0.0
 11
15.38679367266695
 21
-42.69793997026321
 31
0.0
  0
LINE
  5
B4
330
1F
100
AcDbEntity
  8
1
  6
Continuous
 62
     7
100
AcDbLine
 10
2.38679367266684
 20
-42.69793997026321
 30
0.0
 11
11.88679367266695
 21
-42.69793997026321
 31
0.0
  0
LINE
  5
B5
330
1F
100
AcDbEntity
  8
1
  6
PHANTOM
 62
     2
100
AcDbLine
 10
47.38679367266684
 20
-68.47367057736668
 30
0.0
 11
47.38679367266684
 21
-66.6979399702632
 31
0.0
  0
LINE
  5
B6
330
1F
100
AcDbEntity
  8
1
  6
PHANTOM
 62
     2
100
AcDbLine
 10
47.38679367266684
 20
-66.6979399702632
 30
0.0
 11
47.38679367266684
 21
-26.69793997026321
 31
0.0
  0
LINE
  5
B7
330
1F
100
AcDbEntity
  8
1
  6
Continuous
 62
     7
100
AcDbLine
 10
2.38679367266681
 20
-44.69793997026316
 30
0.0
 11
2.38679367266684
 21
-42.69793997026321
 31
0.0
  0
LINE
  5
B8
330
1F
100
AcDbEntity
  8
1
  6
Continuous
 62
     7
100
AcDbLine
 10
27.38679367266664
 20
-44.69793997026326
 30
0.0
 11
12.38679367266682
 21
-44.69793997026319
 31
0.0
  0
LINE
  5
B9
330
1F
100
AcDbEntity
  8
1
  6
Continuous
 62
     7
100
AcDbLine
 10
2.38679367266664
 20
-62.69793997026319
 30
0.0
 11
12.38679367266663
 21
-62.69793997026319
 31
0.0
  0
LINE
  5
BA
330
1F
100
AcDbEntity
  8
1
  6
Continuous
 62
     7
100
AcDbLine
 10
2.38679367266664
 20
-66.6979399702632
 30
0.0
 11
2.38679367266664
 21
-62.69793997026319
 31
0.0
  0
LINE
  5
BB
330
1F
100
AcDbEntity
  8
1
  6
Continuous
 62
     7
100
AcDbLine
 10
47.38679367266684
 20
-66.6979399702632
 30
0.0
 11
2.38679367266664
 21
-66.6979399702632
 31
0.0
  0
LINE
  5
BC
330
1F
100
AcDbEntity
  8
1
  6
DOT_CENTER
 62
     2
100
AcDbLine
 10
58.69011583963371
 20
105.3766000923114
 30
0.0
 11
61.1986003432113
 21
105.3766000923114
 31
0.0
  0
LINE
  5
BD
330
1F
100
AcDbEntity
  8
1
  6
DOT_CENTER
 62
     2
100
AcDbLine
 10
58.69011583963371
 20
-94.62339990768868
 30
0.0
 11
61.1986003432113
 21
-94.62339990768866
 31
0.0
  0
LINE
  5
BE
330
1F
100
AcDbEntity
  8
1
  6
Continuous
 62
     7
100
AcDbLine
 10
77.1986003432113
 20
-94.62339990768866
 30
0.0
 11
77.1986003432113
 21
105.3766000923114
 31
0.0
  0
LINE
  5
BF
330
1F
100
AcDbEntity
  8
1
  6
DOT_CENTER
 62
     2
100
AcDbLine
 10
77.1986003432113
 20
105.3766000923114
 30
0.0
 11
101.1986003432113
 21
105.3766000923114
 31
0.0
  0
LINE
  5
C0
330
1F
100
AcDbEntity
  8
1
  6
DOT_CENTER
 62
     2
100
AcDbLine
 10
77.1986003432113
 20
-94.62339990768866
 30
0.0
 11
101.1986003432113
 21
-94.62339990768866
 31
0.0
  0
LINE
  5
C1
330
1F
100
AcDbEntity
  8
1
  6
Continuous
 62
     7
100
AcDbLine
 10
101.1986003432113
 20
-94.62339990768866
 30
0.0
 11
101.1986003432113
 21
66.37660009231135
 31
0.0
  0
LINE
  5
C2
330
1F
100
AcDbEntity
  8
1
  6
DOT_CENTER
 62
     2
100
AcDbLine
 10
101.1986003432113
 20
105.3766000923114
 30
0.0
 11
107.8813092857647
 21
105.3766000923114
 31
0.0
  0
LINE
  5
C3
330
1F
100
AcDbEntity
  8
1
  6
DOT_CENTER
 62
     2
100
AcDbLine
 10
101.1986003432113
 20
-94.62339990768866
 30
0.0
 11
107.8813092857647
 21
-94.62339990768866
 31
0.0
  0
LINE
  5
C4
330
1F
100
AcDbEntity
  8
1
  6
DOT_CENTER
 62
     2
100
AcDbLine
 10
55.0594379311456
 20
5.37660009231135
 30
0.0
 11
88.19860034321128
 21
5.37660009231135
 31
0.0
  0
LINE
  5
C5
330
1F
100
AcDbEntity
  8
1
  6
Continuous
 62
     7
100
AcDbLine
 10
12.38679367266682
 20
-44.69793997026319
 30
0.0
 11
12.38679367266665
 21
-60.69793997026319
 31
0.0
  0
LINE
  5
C6
330
1F
100
AcDbEntity
  8
1
  6
Continuous
 62
     7
100
AcDbLine
 10
12.38679367266682
 20
-44.69793997026319
 30
0.0
 11
2.38679367266681
 21
-44.69793997026316
 31
0.0
  0
LINE
  5
C7
330
1F
100
AcDbEntity
  8
1
  6
DOT_CENTER
 62
     2
100
AcDbLine
 10
134.7727714248735
 20
105.3766000923114
 30
0.0
 11
140.9119338369392
 21
105.3766000923114
 31
0.0
  0
LINE
  5
C8
330
1F
100
AcDbEntity
  8
1
  6
DOT_CENTER
 62
     2
100
AcDbLine
 10
135.9119338369392
 20
105.3766000923114
 30
0.0
 11
180.9119338369392
 21
105.3766000923114
 31
0.0
  0
LINE
  5
C9
330
1F
100
AcDbEntity
  8
1
  6
DOT_CENTER
 62
     2
100
AcDbLine
 10
180.9119338369392
 20
105.3766000923114
 30
0.0
 11
182.976855797002
 21
105.3766000923114
 31
0.0
  0
LINE
  5
CA
330
1F
100
AcDbEntity
  8
1
  6
DOT_CENTER
 62
     2
100
AcDbLine
 10
134.7727714248735
 20
-94.62339990768866
 30
0.0
 11
140.9119338369392
 21
-94.62339990768866
 31
0.0
  0
LINE
  5
CB
330
1F
100
AcDbEntity
  8
1
  6
DOT_CENTER
 62
     2
100
AcDbLine
 10
135.9119338369392
 20
-94.62339990768866
 30
0.0
 11
180.9119338369392
 21
-94.62339990768866
 31
0.0
  0
LINE
  5
CC
330
1F
100
AcDbEntity
  8
1
  6
DOT_CENTER
 62
     2
100
AcDbLine
 10
180.9119338369392
 20
-94.62339990768866
 30
0.0
 11
182.976855797002
 21
-94.62339990768866
 31
0.0
  0
LINE
  5
CD
330
1F
100
AcDbEntity
  8
1
  6
Continuous
 62
     7
100
AcDbLine
 10
180.9119338369392
 20
105.3766000923114
 30
0.0
 11
180.9119338369392
 21
75.37660009231134
 31
0.0
  0
LINE
  5
CE
330
1F
100
AcDbEntity
  8
1
  6
Continuous
 62
     7
100
AcDbLine
 10
180.9119338369392
 20
75.37660009231134
 30
0.0
 11
170.9119338369392
 21
75.37660009231136
 31
0.0
  0
LINE
  5
CF
330
1F
100
AcDbEntity
  8
1
  6
Continuous
 62
     7
100
AcDbLine
 10
180.9119338369392
 20
75.37660009231134
 30
0.0
 11
180.9119338369392
 21
-64.62339990768865
 31
0.0
  0
LINE
  5
D0
330
1F
100
AcDbEntity
  8
1
  6
Continuous
 62
     7
100
AcDbLine
 10
170.9119338369392
 20
75.37660009231136
 30
0.0
 11
170.9119338369392
 21
50.62660009231136
 31
0.0
  0
LINE
  5
D1
330
1F
100
AcDbEntity
  8
1
  6
Continuous
 62
     7
100
AcDbLine
 10
170.9119338369392
 20
50.62660009231136
 30
0.0
 11
155.9119338369392
 21
50.62660009231135
 31
0.0
  0
LINE
  5
D2
330
1F
100
AcDbEntity
  8
1
  6
Continuous
 62
     7
100
AcDbLine
 10
155.9119338369392
 20
50.62660009231135
 30
0.0
 11
155.9119338369392
 21
-39.87339990768866
 31
0.0
  0
LINE
  5
D3
330
1F
100
AcDbEntity
  8
1
  6
Continuous
 62
     7
100
AcDbLine
 10
155.9119338369392
 20
-39.87339990768866
 30
0.0
 11
170.9119338369392
 21
-39.87339990768866
 31
0.0
  0
LINE
  5
D4
330
1F
100
AcDbEntity
  8
1
  6
Continuous
 62
     7
100
AcDbLine
 10
170.9119338369392
 20
-39.87339990768866
 30
0.0
 11
170.9119338369392
 21
-64.62339990768865
 31
0.0
  0
LINE
  5
D5
330
1F
100
AcDbEntity
  8
1
  6
Continuous
 62
     7
100
AcDbLine
 10
170.9119338369392
 20
-64.62339990768865
 30
0.0
 11
180.9119338369392
 21
-64.62339990768865
 31
0.0
  0
LINE
  5
D6
330
1F
100
AcDbEntity
  8
1
  6
Continuous
 62
     7
100
AcDbLine
 10
180.9119338369392
 20
-64.62339990768865
 30
0.0
 11
180.9119338369392
 21
-94.62339990768866
 31
0.0
  0
LINE
  5
D7
330
1F
100
AcDbEntity
  8
1
  6
DOT_CENTER
 62
     2
100
AcDbLine
 10
135.9119338369392
 20
105.3766000923114
 30
0.0
 11
135.9119338369392
 21
-94.62339990768866
 31
0.0
  0
LINE
  5
D8
330
1F
100
AcDbEntity
  8
1
  6
DOT_CENTER
 62
     2
100
AcDbLine
 10
135.9119338369392
 20
-94.62339990768866
 30
0.0
 11
135.9119338369392
 21
-104.1112895265787
 31
0.0
  0
LINE
  5
D9
330
1F
100
AcDbEntity
  8
1
  6
DOT_CENTER
 62
     2
100
AcDbLine
 10
135.9119338369392
 20
105.3766000923114
 30
0.0
 11
135.9119338369392
 21
109.4193999621323
 31
0.0
  0
LINE
  5
DA
330
1F
100
AcDbEntity
  8
1
  6
DOT_CENTER
 62
     2
100
AcDbLine
 10
131.8074741741899
 20
5.37660009231135
 30
0.0
 11
183.144101125991
 21
5.37660009231135
 31
0.0
  0
LINE
  5
DB
330
1F
100
AcDbEntity
  8
1
  6
DOT_CENTER
 62
     2
100
AcDbLine
 10
28.9934370356065
 20
-52.69793997026323
 30
0.0
 11
10.2442424891523
 21
-52.69793997026323
 31
0.0
  0
LINE
  5
DC
330
1F
100
AcDbEntity
  8
1
  6
Continuous
 62
     7
100
AcDbLine
 10
170.9119338369392
 20
-39.87339990768866
 30
0.0
 11
170.9119338369392
 21
50.62660009231136
 31
0.0
  0
LINE
  5
DD
330
1F
100
AcDbEntity
  8
1
  6
Continuous
 62
     7
100
AcDbLine
 10
2.38679367266664
 20
-62.69793997026319
 30
0.0
 11
2.38679367266681
 21
-44.69793997026316
 31
0.0
  0
LINE
  5
DE
330
1F
100
AcDbEntity
  8
1
  6
Continuous
 62
     7
100
AcDbLine
 10
97.19860034321128
 20
66.37660009231135
 30
0.0
 11
97.19860034321128
 21
5.37660009231135
 31
0.0
  0
LINE
  5
DF
330
1F
100
AcDbEntity
  8
1
  6
DOT_CENTER
 62
     2
100
AcDbLine
 10
85.94860034321128
 20
54.37660009231135
 30
0.0
 11
90.44860034321128
 21
54.37660009231135
 31
0.0
  0
LINE
  5
E0
330
1F
100
AcDbEntity
  8
1
  6
DOT_CENTER
 62
     2
100
AcDbLine
 10
85.94860034321128
 20
-43.62339990768865
 30
0.0
 11
90.44860034321128
 21
-43.62339990768865
 31
0.0
  0
LINE
  5
E1
330
1F
100
AcDbEntity
  8
1
  6
DOT_CENTER
 62
     2
100
AcDbLine
 10
87.19860034321128
 20
23.9064781914974
 30
0.0
 11
87.19860034321128
 21
55.1257461941449
 31
0.0
  0
LINE
  5
E2
330
1F
100
AcDbEntity
  8
1
  6
DOT_CENTER
 62
     2
100
AcDbLine
 10
88.19860034321128
 20
80.9334180606021
 30
0.0
 11
88.19860034321128
 21
23.7953625217101
 31
0.0
  0
LINE
  5
E3
330
1F
100
AcDbEntity
  8
1
  6
DOT_CENTER
 62
     2
100
AcDbLine
 10
88.19860034321128
 20
13.7329803655398
 30
0.0
 11
88.19860034321128
 21
5.37660009231135
 31
0.0
  0
ARC
  5
E4
330
1F
100
AcDbEntity
  8
1
  6
Continuous
 62
     7
100
AcDbCircle
 10
87.19860034321128
 20
-31.87339990768865
 30
0.0
 40
8.0
100
AcDbArc
 50
180.0
 51
-90.0
  0
ARC
  5
E5
330
1F
100
AcDbEntity
  8
1
  6
Continuous
 62
     7
100
AcDbCircle
 10
87.19860034321128
 20
42.62660009231135
 30
0.0
 40
8.0
100
AcDbArc
 50
0.0
 51
90.0
  0
ARC
  5
E6
330
1F
100
AcDbEntity
  8
1
  6
Continuous
 62
     7
100
AcDbCircle
 10
88.19860034321128
 20
-55.62339990768865
 30
0.0
 40
9.0
100
AcDbArc
 50
180.0
 51
-90.0
  0
ARC
  5
E7
330
1F
100
AcDbEntity
  8
1
  6
Continuous
 62
     7
100
AcDbCircle
 10
88.19860034321128
 20
66.37660009231135
 30
0.0
 40
9.0
100
AcDbArc
 50
0.0
 51
90.0
  0
ARC
  5
E8
330
1F
100
AcDbEntity
  8
1
  6
Continuous
 62
     7
100
AcDbCircle
 10
88.19860034321128
 20
-55.62339990768865
 30
0.0
 40
9.0
100
AcDbArc
 50
-90.0
 51
0.0
  0
ARC
  5
E9
330
1F
100
AcDbEntity
  8
1
  6
Continuous
 62
     7
100
AcDbCircle
 10
87.19860034321128
 20
-31.87339990768865
 30
0.0
 40
8.0
100
AcDbArc
 50
-90.0
 51
0.0
  0
ARC
  5
EA
330
1F
100
AcDbEntity
  8
1
  6
Continuous
 62
     7
100
AcDbCircle
 10
87.19860034321128
 20
42.62660009231135
 30
0.0
 40
8.0
100
AcDbArc
 50
90.0
 51
180.0
  0
ARC
  5
EB
330
1F
100
AcDbEntity
  8
1
  6
Continuous
 62
     7
100
AcDbCircle
 10
88.19860034321128
 20
66.37660009231135
 30
0.0
 40
9.0
100
AcDbArc
 50
90.0
 51
180.0
  0
CIRCLE
  5
EC
330
1F
100
AcDbEntity
  8
1
  6
Continuous
 62
     7
100
AcDbCircle
 10
-179.1092983114338
 20
-54.12339990768865
 30
0.0
 40
1.5
  0
CIRCLE
  5
ED
330
1F
100
AcDbEntity
  8
1
  6
Continuous
 62
     7
100
AcDbCircle
 10
-179.1092983114338
 20
-47.87339990768865
 30
0.0
 40
1.5
  0
CIRCLE
  5
EE
330
1F
100
AcDbEntity
  8
1
  6
Continuous
 62
     7
100
AcDbCircle
 10
-179.1092983114338
 20
58.62660009231135
 30
0.0
 40
1.5
  0
CIRCLE
  5
EF
330
1F
100
AcDbEntity
  8
1
  6
Continuous
 62
     7
100
AcDbCircle
 10
-179.1092983114338
 20
64.87660009231135
 30
0.0
 40
1.5
  0
CIRCLE
  5
F0
330
1F
100
AcDbEntity
  8
1
  6
DOT_CENTER
 62
     2
100
AcDbCircle
 10
-176.1092983114338
 20
-54.68473779587944
 30
0.0
 40
8.0
  0
CIRCLE
  5
F1
330
1F
100
AcDbEntity
  8
1
  6
Continuous
 62
     7
100
AcDbCircle
 10
84.6986003432113
 20
-57.62339990768867
 30
0.0
 40
1.5
  0
CIRCLE
  5
F2
330
1F
100
AcDbEntity
  8
1
  6
Continuous
 62
     7
100
AcDbCircle
 10
91.6986003432113
 20
-50.62339990768865
 30
0.0
 40
1.5
  0
CIRCLE
  5
F3
330
1F
100
AcDbEntity
  8
1
  6
Continuous
 62
     7
100
AcDbCircle
 10
91.6986003432113
 20
61.37660009231134
 30
0.0
 40
1.5
  0
CIRCLE
  5
F4
330
1F
100
AcDbEntity
  8
1
  6
Continuous
 62
     7
100
AcDbCircle
 10
84.6986003432113
 20
68.37660009231134
 30
0.0
 40
1.5
  0
CIRCLE
  5
F5
330
1F
100
AcDbEntity
  8
1
  6
DOT_CENTER
 62
     2
100
AcDbCircle
 10
87.19860034321128
 20
-54.6844498229462
 30
0.0
 40
8.0
  0
CIRCLE
  5
F6
330
1F
100
AcDbEntity
  8
1
  6
Continuous
 62
     7
100
AcDbCircle
 10
88.19860034321128
 20
54.37660009231135
 30
0.0
 40
1.5
  0
CIRCLE
  5
F7
330
1F
100
AcDbEntity
  8
1
  6
Continuous
 62
     7
100
AcDbCircle
 10
88.19860034321128
 20
-43.62339990768865
 30
0.0
 40
1.5
  0
XLINE
  5
F8
330
1F
100
AcDbEntity
  8
1
  6
DOT_CENTER
 62
     3
 60
     1
100
AcDbXline
 10
88.19860034321128
 20
5.37660009231135
 30
0.0
 11
1.0
 21
0.0
 31
0.0
  0
XLINE
  5
F9
330
1F
100
AcDbEntity
  8
1
  6
DOT_CENTER
 62
     3
 60
     1
100
AcDbXline
 10
88.19860034321128
 20
5.37660009231135
 30
0.0
 11
1.0
 21
0.0
 31
0.0
  0
XLINE
  5
FA
330
1F
100
AcDbEntity
  8
1
  6
DOT_CENTER
 62
     3
 60
     1
100
AcDbXline
 10
88.19860034321128
 20
5.37660009231135
 30
0.0
 11
1.0
 21
0.0
 31
0.0
  0
ARC
  5
FB
330
1F
100
AcDbEntity
  8
1
  6
Continuous
 62
     7
100
AcDbCircle
 10
-178.6092983114338
 20
-54.12339990768865
 30
0.0
 40
10.5
100
AcDbArc
 50
-90.0
 51
0.0
  0
ARC
  5
FC
330
1F
100
AcDbEntity
  8
1
  6
Continuous
 62
     7
100
AcDbCircle
 10
-178.6092983114338
 20
-54.12339990768865
 30
0.0
 40
10.5
100
AcDbArc
 50
180.0
 51
-90.0
  0
ARC
  5
FD
330
1F
100
AcDbEntity
  8
1
  6
Continuous
 62
     7
100
AcDbCircle
 10
-178.6092983114338
 20
64.87660009231135
 30
0.0
 40
10.5
100
AcDbArc
 50
90.0
 51
180.0
  0
ARC
  5
FE
330
1F
100
AcDbEntity
  8
1
  6
Continuous
 62
     7
100
AcDbCircle
 10
-178.6092983114338
 20
64.87660009231135
 30
0.0
 40
10.5
100
AcDbArc
 50
0.0
 51
90.0
  0
ARC
  5
FF
330
1F
100
AcDbEntity
  8
1
  6
Continuous
 62
     7
100
AcDbCircle
 10
-176.6092983114338
 20
-34.62339990768865
 30
0.0
 40
8.5
100
AcDbArc
 50
-90.0
 51
0.0
  0
ARC
  5
100
330
1F
100
AcDbEntity
  8
1
  6
Continuous
 62
     7
100
AcDbCircle
 10
-176.6092983114338
 20
-34.62339990768865
 30
0.0
 40
8.5
100
AcDbArc
 50
180.0
 51
-90.0
  0
ARC
  5
101
330
1F
100
AcDbEntity
  8
1
  6
Continuous
 62
     7
100
AcDbCircle
 10
-176.6092983114338
 20
45.37660009231135
 30
0.0
 40
8.5
100
AcDbArc
 50
0.0
 51
90.0
  0
ARC
  5
102
330
1F
100
AcDbEntity
  8
1
  6
Continuous
 62
     7
100
AcDbCircle
 10
-176.6092983114338
 20
45.37660009231135
 30
0.0
 40
8.5
100
AcDbArc
 50
90.0
 51
180.0
  0
MTEXT
  5
104
330
1F
100
AcDbEntity
  8
1
 62
     3
100
AcDbMText
 10
18.40554988135929
 20
-94.8598745247702
 30
0.0
 40
5.0
 41
0.0
 71
     4
 72
     1
  1
Fräsbild\PFlügel
  7
CONVERTER_11
 73
     1
 44
1.32052821128451
  0
MTEXT
  5
105
330
1F
100
AcDbEntity
  8
1
 62
     3
100
AcDbMText
 10
-43.76073053579021
 20
-99.7574994986811
 30
0.0
 40
5.0
 41
0.0
 71
     4
 72
     1
  1
Fräsbild\PBlockzarge\PRahmen
  7
CONVERTER_11
 73
     1
 44
1.32052821128451
  0
DIMENSION
  5
112
330
1F
100
AcDbEntity
  8
1
100
AcDbDimension
  2
*D1
 10
84.6986003432113
 20
84.0181754211378
 30
0.0
 11
88.5076030440485
 21
87.7681754211378
 31
0.0
 70
    32
  1
<>
 71
     5
 42
-1.0
 53
0.00013888888889
  3
ME10_DIM_10
100
AcDbAlignedDimension
 13
91.6986003432113
 23
63.62660009231134
 33
0.0
 14
84.6986003432113
 24
70.62660009231134
 34
0.0
100
AcDbRotatedDimension
  0
DIMENSION
  5
11D
330
1F
100
AcDbEntity
  8
1
100
AcDbDimension
  2
*D2
 10
121.714431803987
 20
68.37660009231134
 30
0.0
 11
117.964431803987
 21
2.36906254541062
 31
0.0
 70
    32
  1
<>
 71
     5
 42
-1.0
 53
90.0
  3
ME10_DIM_11
100
AcDbAlignedDimension
 13
86.9486003432113
 23
-57.62339990768867
 33
0.0
 14
86.9486003432113
 24
68.37660009231134
 34
0.0
 50
90.0
100
AcDbRotatedDimension
  0
DIMENSION
  5
128
330
1F
100
AcDbEntity
  8
1
100
AcDbDimension
  2
*D3
 10
114.85018505681
 20
61.37660009231134
 30
0.0
 11
111.10018505681
 21
5.48257370063364
 31
0.0
 70
    32
  1
<>
 71
     5
 42
-1.0
 53
90.0
  3
ME10_DIM_12
100
AcDbAlignedDimension
 13
93.9486003432113
 23
-50.62339990768865
 33
0.0
 14
93.9486003432113
 24
61.37660009231134
 34
0.0
 50
90.0
100
AcDbRotatedDimension
  0
DIMENSION
  5
133
330
1F
100
AcDbEntity
  8
1
100
AcDbDimension
  2
*D4
 10
-185.1092983114338
 20
28.4188748070954
 30
0.0
 11
-173.249200137177
 21
32.1688748070954
 31
0.0
 70
    32
  1
<>
 71
     5
 42
-1.0
 53
0.00013888888889
  3
ME10_DIM_13
100
AcDbAlignedDimension
 13
-168.1092983114338
 23
64.87660009231135
 33
0.0
 14
-185.1092983114338
 24
45.37660009231135
 34
0.0
100
AcDbRotatedDimension
  0
DIMENSION
  5
140
330
1F
100
AcDbEntity
  8
1
100
AcDbDimension
  2
*D5
 10
-192.1092983114338
 20
-107.064073241939
 30
0.0
 11
-197.213916223329
 21
-103.314073241939
 31
0.0
 70
    32
  1
<>
 71
     5
 42
-1.0
 53
0.00013888888889
  3
ME10_DIM_14
100
AcDbAlignedDimension
 13
-189.1092983114338
 23
-54.12339990768865
 33
0.0
 14
-192.1092983114338
 24
-94.62339990768865
 34
0.0
100
AcDbRotatedDimension
  0
DIMENSION
  5
14B
330
1F
100
AcDbEntity
  8
1
100
AcDbDimension
  2
*D6
 10
-168.1092983114338
 20
-107.064073241939
 30
0.0
 11
-178.8452342178087
 21
-103.314073241939
 31
0.0
 70
    32
  1
<>
 71
     5
 42
-1.0
 53
0.00013888888889
  3
ME10_DIM_15
100
AcDbAlignedDimension
 13
-189.1092983114338
 23
-54.12339990768865
 33
0.0
 14
-168.1092983114338
 24
-54.12339990768865
 34
0.0
100
AcDbRotatedDimension
  0
DIMENSION
  5
158
330
1F
100
AcDbEntity
  8
1
100
AcDbDimension
  2
*D7
 10
101.1986003432113
 20
-105.781584343866
 30
0.0
 11
107.590539035212
 21
-102.031584343866
 31
0.0
 70
    32
  1
<>
 71
     5
 42
-1.0
 53
0.00013888888889
  3
ME10_DIM_16
100
AcDbAlignedDimension
 13
97.19860034321128
 23
-55.62339990768865
 33
0.0
 14
101.1986003432113
 24
-94.62339990768866
 34
0.0
100
AcDbRotatedDimension
  0
DIMENSION
  5
163
330
1F
100
AcDbEntity
  8
1
100
AcDbDimension
  2
*D8
 10
97.19860034321128
 20
-105.781584343866
 30
0.0
 11
86.890868300829
 21
-102.031584343866
 31
0.0
 70
    32
  1
<>
 71
     5
 42
-1.0
 53
0.00013888888889
  3
ME10_DIM_17
100
AcDbAlignedDimension
 13
79.19860034321128
 23
-55.62339990768865
 33
0.0
 14
97.19860034321128
 24
-55.62339990768865
 34
0.0
100
AcDbRotatedDimension
  0
DIMENSION
  5
16E
330
1F
100
AcDbEntity
  8
1
100
AcDbDimension
  2
*D9
 10
95.19860034321128
 20
16.3048182481224
 30
0.0
 11
84.7020811065338
 21
20.0548182481224
 31
0.0
 70
    32
  1
<>
 71
     5
 42
-1.0
 53
0.00013888888889
  3
ME10_DIM_18
100
AcDbAlignedDimension
 13
79.19860034321128
 23
5.37660009231135
 33
0.0
 14
95.19860034321128
 24
-31.87339990768865
 34
0.0
100
AcDbRotatedDimension
  0
DIMENSION
  5
179
330
1F
100
AcDbEntity
  8
1
100
AcDbDimension
  2
*D10
 10
129.164495411211
 20
-64.62339990768865
 30
0.0
 11
125.414495411211
 21
6.16763469910252
 31
0.0
 70
    32
  1
<>
 71
     5
 42
-1.0
 53
90.0
  3
ME10_DIM_19
100
AcDbAlignedDimension
 13
88.19860034321128
 23
75.37660009231135
 33
0.0
 14
88.19860034321128
 24
-64.62339990768865
 34
0.0
 50
90.0
100
AcDbRotatedDimension
  0
DIMENSION
  5
184
330
1F
100
AcDbEntity
  8
1
100
AcDbDimension
  2
*D11
 10
107.769916730974
 20
50.62660009231135
 30
0.0
 11
104.019916730974
 21
-0.96033357873547
 31
0.0
 70
    32
  1
<>
 71
     5
 42
-1.0
 53
90.0
  3
ME10_DIM_20
100
AcDbAlignedDimension
 13
87.19860034321128
 23
-39.87339990768865
 33
0.0
 14
87.19860034321128
 24
50.62660009231135
 34
0.0
 50
90.0
100
AcDbRotatedDimension
  0
DIMENSION
  5
18F
330
1F
100
AcDbEntity
  8
1
100
AcDbDimension
  2
*D12
 10
-68.80177865188125
 20
-118.2833961103276
 30
0.0
 11
-80.97599419807558
 21
-114.5333961103276
 31
0.0
 70
    32
  1
<>
 71
     5
 42
-1.0
 53
0.00013888888889
  3
ME10_DIM_21
100
AcDbAlignedDimension
 13
-92.80488390961864
 23
-43.12339990768863
 33
0.0
 14
-68.80177865188125
 24
-65.12339990768865
 34
0.0
100
AcDbRotatedDimension
  0
DIMENSION
  5
19A
330
1F
100
AcDbEntity
  8
1
100
AcDbDimension
  2
*D13
 10
-78.80177865188125
 20
-107.2653824624736
 30
0.0
 11
-73.73414482681312
 21
-103.5153824624736
 31
0.0
 70
    32
  1
<>
 71
     5
 42
-1.0
 53
0.00013888888889
  3
ME10_DIM_22
100
AcDbAlignedDimension
 13
-68.80177865188125
 23
-94.62339990768865
 33
0.0
 14
-78.80177865188125
 24
-65.12339990768865
 34
0.0
100
AcDbRotatedDimension
  0
DIMENSION
  5
1A5
330
1F
100
AcDbEntity
  8
1
100
AcDbDimension
  2
*D14
 10
170.9119338369392
 20
-103.785670014645
 30
0.0
 11
175.430422172949
 21
-100.035670014645
 31
0.0
 70
    32
  1
<>
 71
     5
 42
-1.0
 53
0.00013888888889
  3
ME10_DIM_23
100
AcDbAlignedDimension
 13
180.9119338369392
 23
-94.62339990768866
 33
0.0
 14
170.9119338369392
 24
-64.62339990768865
 34
0.0
100
AcDbRotatedDimension
  0
DIMENSION
  5
1B0
330
1F
100
AcDbEntity
  8
1
100
AcDbDimension
  2
*D15
 10
180.9119338369392
 20
-114.622960427562
 30
0.0
 11
168.3725708734655
 21
-110.872960427562
 31
0.0
 70
    32
  1
<>
 71
     5
 42
-1.0
 53
0.00013888888889
  3
ME10_DIM_24
100
AcDbAlignedDimension
 13
155.9119338369392
 23
-39.87339990768866
 33
0.0
 14
180.9119338369392
 24
-64.62339990768865
 34
0.0
100
AcDbRotatedDimension
  0
DIMENSION
  5
1BD
330
1F
100
AcDbEntity
  8
1
100
AcDbDimension
  2
*D16
 10
9.63953091356274
 20
-62.69793997026319
 30
0.0
 11
5.88953091356274
 21
-72.6886454488453
 31
0.0
 70
    32
  1
<>
 71
     5
 42
-1.0
 53
90.0
  3
ME10_DIM_25
100
AcDbAlignedDimension
 13
2.38679367266664
 23
-66.6979399702632
 33
0.0
 14
12.38679367266663
 24
-62.69793997026319
 34
0.0
 50
90.0
100
AcDbRotatedDimension
  0
DIMENSION
  5
1C8
330
1F
100
AcDbEntity
  8
1
100
AcDbDimension
  2
*D17
 10
56.5158341698211
 20
-42.69793997026321
 30
0.0
 11
52.7658341698211
 21
-54.7226779503028
 31
0.0
 70
    32
  1
<>
 71
     5
 42
-1.0
 53
90.0
  3
ME10_DIM_26
100
AcDbAlignedDimension
 13
47.38679367266684
 23
-66.6979399702632
 33
0.0
 14
15.38679367266695
 24
-42.69793997026321
 34
0.0
 50
90.0
100
AcDbRotatedDimension
  0
DIMENSION
  5
1D5
330
1F
100
AcDbEntity
  8
1
100
AcDbDimension
  2
*D18
 10
-7.155817394035
 20
-63.69793997026324
 30
0.0
 11
-10.905817394035
 21
-69.6483512587725
 31
0.0
 70
    32
  1
<>
 71
     5
 42
-1.0
 53
90.0
  3
ME10_DIM_27
100
AcDbAlignedDimension
 13
-1.11320632733307
 23
-66.6979399702632
 33
0.0
 14
-11.11320632733307
 24
-63.69793997026324
 34
0.0
 50
90.0
100
AcDbRotatedDimension
  0
DIMENSION
  5
1E0
330
1F
100
AcDbEntity
  8
1
100
AcDbDimension
  2
*D19
 10
-152.343632319825
 20
53.87660009231135
 30
0.0
 11
-156.093632319825
 21
-1.21640719138927
 31
0.0
 70
    32
  1
<>
 71
     5
 42
-1.0
 53
90.0
  3
ME10_DIM_28
100
AcDbAlignedDimension
 13
-176.6092983114338
 23
-43.12339990768865
 33
0.0
 14
-176.6092983114338
 24
53.87660009231135
 34
0.0
 50
90.0
100
AcDbRotatedDimension
  0
DIMENSION
  5
1ED
330
1F
100
AcDbEntity
  8
1
100
AcDbDimension
  2
*D20
 10
-120.474509002291
 20
75.37660009231135
 30
0.0
 11
-124.224509002291
 21
5.79479993846834
 31
0.0
 70
    32
  1
<>
 71
     5
 42
-1.0
 53
90.0
  3
ME10_DIM_29
100
AcDbAlignedDimension
 13
-178.6092983114338
 23
-64.62339990768865
 33
0.0
 14
-178.6092983114338
 24
75.37660009231135
 34
0.0
 50
90.0
100
AcDbRotatedDimension
  0
DIMENSION
  5
1F8
330
1F
100
AcDbEntity
  8
1
100
AcDbDimension
  2
*D21
 10
70.3887512679591
 20
54.37660009231135
 30
0.0
 11
66.6387512679591
 21
10.2057132807289
 31
0.0
 70
    32
  1
<>
 71
     5
 42
-1.0
 53
90.0
  3
ME10_DIM_30
100
AcDbAlignedDimension
 13
85.94860034321128
 23
-43.62339990768865
 33
0.0
 14
85.94860034321128
 24
54.37660009231135
 34
0.0
 50
90.0
100
AcDbRotatedDimension
  0
DIMENSION
  5
205
330
1F
100
AcDbEntity
  8
1
100
AcDbDimension
  2
*D22
 10
-129.185402709083
 20
64.87660009231135
 30
0.0
 11
-132.935402709083
 21
72.2950372610572
 31
0.0
 70
    32
  1
<>
 71
     5
 42
-1.0
 53
90.0
  3
ME10_DIM_31
100
AcDbAlignedDimension
 13
-176.8592983114338
 23
58.62660009231135
 33
0.0
 14
-166.856329904655
 24
64.87660009231135
 34
0.0
 50
90.0
100
AcDbRotatedDimension
  0
DIMENSION
  5
212
330
1F
100
AcDbEntity
  8
1
100
AcDbDimension
  2
*D23
 10
-129.185402709083
 20
-47.87339990768865
 30
0.0
 11
-132.935402709083
 21
-62.1926631389388
 31
0.0
 70
    32
  1
<>
 71
     5
 42
-1.0
 53
90.0
  3
ME10_DIM_32
100
AcDbAlignedDimension
 13
-166.18830624847
 23
-54.12339990768865
 33
0.0
 14
-176.8592983114338
 24
-47.87339990768865
 34
0.0
 50
90.0
100
AcDbRotatedDimension
  0
DIMENSION
  5
21D
330
1F
100
AcDbEntity
  8
1
100
AcDbDimension
  2
*D24
 10
-129.185402709083
 20
58.62660009231135
 30
0.0
 11
-132.935402709083
 21
7.06956487116972
 31
0.0
 70
    32
  1
<>
 71
     5
 42
-1.0
 53
90.0
  3
ME10_DIM_33
100
AcDbAlignedDimension
 13
-176.8592983114338
 23
-47.87339990768865
 33
0.0
 14
-176.8592983114338
 24
58.62660009231135
 34
0.0
 50
90.0
100
AcDbRotatedDimension
  0
INSERT
  5
224
330
1F
100
AcDbEntity
  8
1
100
AcDbBlockReference
  2
*D25
 10
0.0
 20
0.0
 30
0.0
  0
INSERT
  5
22C
330
1F
100
AcDbEntity
  8
1
100
AcDbBlockReference
  2
*D26
 10
0.0
 20
0.0
 30
0.0
  0
INSERT
  5
234
330
1F
100
AcDbEntity
  8
1
100
AcDbBlockReference
  2
*D27
 10
0.0
 20
0.0
 30
0.0
  0
INSERT
  5
23D
330
1F
100
AcDbEntity
  8
1
100
AcDbBlockReference
  2
*D28
 10
0.0
 20
0.0
 30
0.0
  0
INSERT
  5
246
330
1F
100
AcDbEntity
  8
1
100
AcDbBlockReference
  2
*D29
 10
0.0
 20
0.0
 30
0.0
  0
ENDSEC
  0
SECTION
  2
OBJECTS
  0
DICTIONARY
  5
C
330
0
100
AcDbDictionary
281
     1
  3
ACAD_GROUP
350
D
  3
ACAD_LAYOUT
350
1A
  3
ACAD_MLINESTYLE
350
17
  3
ACAD_PLOTSETTINGS
350
19
  3
ACAD_PLOTSTYLENAME
350
E
  0
DICTIONARY
  5
D
102
{ACAD_REACTORS
330
C
102
}
330
C
100
AcDbDictionary
281
     1
  0
DICTIONARY
  5
1A
102
{ACAD_REACTORS
330
C
102
}
330
C
100
AcDbDictionary
281
     1
  3
Layout1
350
1E
  3
Layout2
350
26
  3
Model
350
22
  0
DICTIONARY
  5
17
102
{ACAD_REACTORS
330
C
102
}
330
C
100
AcDbDictionary
281
     1
  3
Standard
350
18
  0
DICTIONARY
  5
19
102
{ACAD_REACTORS
330
C
102
}
330
C
100
AcDbDictionary
281
     1
  0
ACDBDICTIONARYWDFLT
  5
E
102
{ACAD_REACTORS
330
C
102
}
330
C
100
AcDbDictionary
281
     1
  3
Normal
350
F
100
AcDbDictionaryWithDefault
340
F
  0
LAYOUT
  5
1E
102
{ACAD_REACTORS
330
1A
102
}
330
1A
100
AcDbPlotSettings
  1

  2

  4

  6

 40
0.0
 41
0.0
 42
0.0
 43
0.0
 44
0.0
 45
0.0
 46
0.0
 47
0.0
 48
0.0
 49
0.0
140
0.0
141
0.0
142
1.0
143
1.0
 70
   688
 72
     0
 73
     0
 74
     5
  7

 75
    16
 76
     0
 77
     2
 78
   300
147
1.0
148
0.0
149
0.0
100
AcDbLayout
  1
Layout1
 70
     1
 71
     1
 10
0.0
 20
0.0
 11
0.0
 21
0.0
 12
0.0
 22
0.0
 32
0.0
 14
0.0
 24
0.0
 34
0.0
 15
0.0
 25
0.0
 35
0.0
146
0.0
 13
0.0
 23
0.0
 33
0.0
 16
1.0
 26
0.0
 36
0.0
 17
0.0
 27
1.0
 37
0.0
 76
     0
330
1B
  0
LAYOUT
  5
26
102
{ACAD_REACTORS
330
1A
102
}
330
1A
100
AcDbPlotSettings
  1

  2

  4

  6

 40
0.0
 41
0.0
 42
0.0
 43
0.0
 44
0.0
 45
0.0
 46
0.0
 47
0.0
 48
0.0
 49
0.0
140
0.0
141
0.0
142
1.0
143
1.0
 70
   688
 72
     0
 73
     0
 74
     5
  7

 75
    16
 76
     0
 77
     2
 78
   300
147
1.0
148
0.0
149
0.0
100
AcDbLayout
  1
Layout2
 70
     1
 71
     2
 10
0.0
 20
0.0
 11
0.0
 21
0.0
 12
0.0
 22
0.0
 32
0.0
 14
0.0
 24
0.0
 34
0.0
 15
0.0
 25
0.0
 35
0.0
146
0.0
 13
0.0
 23
0.0
 33
0.0
 16
1.0
 26
0.0
 36
0.0
 17
0.0
 27
1.0
 37
0.0
 76
     0
330
23
  0
LAYOUT
  5
22
102
{ACAD_REACTORS
330
1A
102
}
330
1A
100
AcDbPlotSettings
  1

  2

  4

  6

 40
0.0
 41
0.0
 42
0.0
 43
0.0
 44
0.0
 45
0.0
 46
0.0
 47
0.0
 48
0.0
 49
0.0
140
0.0
141
0.0
142
1.0
143
1.0
 70
  1712
 72
     0
 73
     0
 74
     0
  7

 75
     0
 76
     0
 77
     2
 78
   300
147
1.0
148
0.0
149
0.0
100
AcDbLayout
  1
Model
 70
     1
 71
     0
 10
0.0
 20
0.0
 11
0.0
 21
0.0
 12
0.0
 22
0.0
 32
0.0
 14
-206.5065863713548
 24
-120.2833961103276
 34
0.0
 15
183.144101125991
 25
109.761881720986
 35
0.0
146
0.0
 13
0.0
 23
0.0
 33
0.0
 16
1.0
 26
0.0
 36
0.0
 17
0.0
 27
1.0
 37
0.0
 76
     0
330
1F
  0
MLINESTYLE
  5
18
102
{ACAD_REACTORS
330
17
102
}
330
17
100
AcDbMlineStyle
  2
Standard
 70
     0
  3

 62
   256
 51
90.0
 52
90.0
 71
     2
 49
0.5
 62
   256
  6
BYLAYER
 49
-0.5
 62
   256
  6
BYLAYER
  0
ACDBPLACEHOLDER
  5
F
102
{ACAD_REACTORS
330
E
102
}
330
E
  0
ENDSEC
  0
EOF
