  0
SECTION
  2
HEADER
  9
$ACADVER
  1
AC1018
  9
$ACADMAINTVER
 70
     0
  9
$DWGCODEPAGE
  3
ANSI_1252
  9
$INSBASE
 10
0.0
 20
0.0
 30
0.0
  9
$EXTMIN
 10
62226.20743855706
 20
145154.237383103
 30
0.0
  9
$EXTMAX
 10
62390.54209437911
 20
145253.501582728
 30
0.0
  9
$LIMMIN
 10
0.0
 20
0.0
  9
$LIMMAX
 10
12.0
 20
9.0
  9
$ORTHOMODE
 70
     0
  9
$REGENMODE
 70
     1
  9
$FILLMODE
 70
     1
  9
$QTEXTMODE
 70
     0
  9
$MIRRTEXT
 70
     1
  9
$LTSCALE
 40
1.0
  9
$ATTMODE
 70
     1
  9
$TEXTSIZE
 40
0.2
  9
$TRACEWID
 40
0.05
  9
$TEXTSTYLE
  7
Standard
  9
$CLAYER
  8
0
  9
$CELTYPE
  6
ByLayer
  9
$CECOLOR
 62
   256
  9
$CELTSCALE
 40
1.0
  9
$DISPSILH
 70
     0
  9
$DIMSCALE
 40
1.0
  9
$DIMASZ
 40
0.18
  9
$DIMEXO
 40
0.0625
  9
$DIMDLI
 40
0.38
  9
$DIMRND
 40
0.0
  9
$DIMDLE
 40
0.0
  9
$DIMEXE
 40
0.18
  9
$DIMTP
 40
0.0
  9
$DIMTM
 40
0.0
  9
$DIMTXT
 40
0.18
  9
$DIMCEN
 40
0.09
  9
$DIMTSZ
 40
0.0
  9
$DIMTOL
 70
     0
  9
$DIMLIM
 70
     0
  9
$DIMTIH
 70
     1
  9
$DIMTOH
 70
     1
  9
$DIMSE1
 70
     0
  9
$DIMSE2
 70
     0
  9
$DIMTAD
 70
     0
  9
$DIMZIN
 70
     0
  9
$DIMBLK
  1

  9
$DIMASO
 70
     1
  9
$DIMSHO
 70
     1
  9
$DIMPOST
  1

  9
$DIMAPOST
  1

  9
$DIMALT
 70
     0
  9
$DIMALTD
 70
     2
  9
$DIMALTF
 40
25.4
  9
$DIMLFAC
 40
1.0
  9
$DIMTOFL
 70
     0
  9
$DIMTVP
 40
0.0
  9
$DIMTIX
 70
     0
  9
$DIMSOXD
 70
     0
  9
$DIMSAH
 70
     0
  9
$DIMBLK1
  1

  9
$DIMBLK2
  1

  9
$DIMSTYLE
  2
Standard
  9
$DIMCLRD
 70
     0
  9
$DIMCLRE
 70
     0
  9
$DIMCLRT
 70
     0
  9
$DIMTFAC
 40
1.0
  9
$DIMGAP
 40
0.09
  9
$DIMJUST
 70
     0
  9
$DIMSD1
 70
     0
  9
$DIMSD2
 70
     0
  9
$DIMTOLJ
 70
     1
  9
$DIMTZIN
 70
     0
  9
$DIMALTZ
 70
     0
  9
$DIMALTTZ
 70
     0
  9
$DIMUPT
 70
     0
  9
$DIMDEC
 70
     4
  9
$DIMTDEC
 70
     4
  9
$DIMALTU
 70
     2
  9
$DIMALTTD
 70
     2
  9
$DIMTXSTY
  7
Standard
  9
$DIMAUNIT
 70
     0
  9
$DIMADEC
 70
     0
  9
$DIMALTRND
 40
0.0
  9
$DIMAZIN
 70
     0
  9
$DIMDSEP
 70
    46
  9
$DIMATFIT
 70
     3
  9
$DIMFRAC
 70
     0
  9
$DIMLDRBLK
  1

  9
$DIMLUNIT
 70
     2
  9
$DIMLWD
 70
    -2
  9
$DIMLWE
 70
    -2
  9
$DIMTMOVE
 70
     0
  9
$LUNITS
 70
     2
  9
$LUPREC
 70
     4
  9
$SKETCHINC
 40
0.1
  9
$FILLETRAD
 40
0.5
  9
$AUNITS
 70
     0
  9
$AUPREC
 70
     0
  9
$MENU
  1
.
  9
$ELEVATION
 40
0.0
  9
$PELEVATION
 40
0.0
  9
$THICKNESS
 40
0.0
  9
$LIMCHECK
 70
     0
  9
$CHAMFERA
 40
0.5
  9
$CHAMFERB
 40
0.5
  9
$CHAMFERC
 40
1.0
  9
$CHAMFERD
 40
0.0
  9
$SKPOLY
 70
     0
  9
$TDCREATE
 40
2456960.610600625
  9
$TDUCREATE
 40
2456960.568933958
  9
$TDUPDATE
 40
2456960.610600637
  9
$TDUUPDATE
 40
2456960.56893397
  9
$TDINDWG
 40
0.0000000116
  9
$TDUSRTIMER
 40
0.0000000116
  9
$USRTIMER
 70
     1
  9
$ANGBASE
 50
0.0
  9
$ANGDIR
 70
     0
  9
$PDMODE
 70
     0
  9
$PDSIZE
 40
0.0
  9
$PLINEWID
 40
0.0
  9
$SPLFRAME
 70
     0
  9
$SPLINETYPE
 70
     6
  9
$SPLINESEGS
 70
     8
  9
$HANDSEED
  5
141
  9
$SURFTAB1
 70
     6
  9
$SURFTAB2
 70
     6
  9
$SURFTYPE
 70
     6
  9
$SURFU
 70
     6
  9
$SURFV
 70
     6
  9
$UCSBASE
  2

  9
$UCSNAME
  2

  9
$UCSORG
 10
0.0
 20
0.0
 30
0.0
  9
$UCSXDIR
 10
1.0
 20
0.0
 30
0.0
  9
$UCSYDIR
 10
0.0
 20
1.0
 30
0.0
  9
$UCSORTHOREF
  2

  9
$UCSORTHOVIEW
 70
     0
  9
$UCSORGTOP
 10
0.0
 20
0.0
 30
0.0
  9
$UCSORGBOTTOM
 10
0.0
 20
0.0
 30
0.0
  9
$UCSORGLEFT
 10
0.0
 20
0.0
 30
0.0
  9
$UCSORGRIGHT
 10
0.0
 20
0.0
 30
0.0
  9
$UCSORGFRONT
 10
0.0
 20
0.0
 30
0.0
  9
$UCSORGBACK
 10
0.0
 20
0.0
 30
0.0
  9
$PUCSBASE
  2

  9
$PUCSNAME
  2

  9
$PUCSORG
 10
0.0
 20
0.0
 30
0.0
  9
$PUCSXDIR
 10
1.0
 20
0.0
 30
0.0
  9
$PUCSYDIR
 10
0.0
 20
1.0
 30
0.0
  9
$PUCSORTHOREF
  2

  9
$PUCSORTHOVIEW
 70
     0
  9
$PUCSORGTOP
 10
0.0
 20
0.0
 30
0.0
  9
$PUCSORGBOTTOM
 10
0.0
 20
0.0
 30
0.0
  9
$PUCSORGLEFT
 10
0.0
 20
0.0
 30
0.0
  9
$PUCSORGRIGHT
 10
0.0
 20
0.0
 30
0.0
  9
$PUCSORGFRONT
 10
0.0
 20
0.0
 30
0.0
  9
$PUCSORGBACK
 10
0.0
 20
0.0
 30
0.0
  9
$USERI1
 70
     0
  9
$USERI2
 70
     0
  9
$USERI3
 70
     0
  9
$USERI4
 70
     0
  9
$USERI5
 70
     0
  9
$USERR1
 40
14.5
  9
$USERR2
 40
0.0
  9
$USERR3
 40
0.0
  9
$USERR4
 40
0.0
  9
$USERR5
 40
0.0
  9
$WORLDVIEW
 70
     1
  9
$SHADEDGE
 70
     3
  9
$SHADEDIF
 70
    70
  9
$TILEMODE
 70
     1
  9
$MAXACTVP
 70
    64
  9
$PINSBASE
 10
0.0
 20
0.0
 30
0.0
  9
$PLIMCHECK
 70
     0
  9
$PEXTMIN
 10
1.00000000000000E+20
 20
1.00000000000000E+20
 30
1.00000000000000E+20
  9
$PEXTMAX
 10
-1.00000000000000E+20
 20
-1.00000000000000E+20
 30
-1.00000000000000E+20
  9
$PLIMMIN
 10
0.0
 20
0.0
  9
$PLIMMAX
 10
12.0
 20
9.0
  9
$UNITMODE
 70
     0
  9
$VISRETAIN
 70
     1
  9
$PLINEGEN
 70
     0
  9
$PSLTSCALE
 70
     1
  9
$TREEDEPTH
 70
  3020
  9
$CMLSTYLE
  2
Standard
  9
$CMLJUST
 70
     0
  9
$CMLSCALE
 40
1.0
  9
$PROXYGRAPHICS
 70
     1
  9
$MEASUREMENT
 70
     1
  9
$CELWEIGHT
370
    -1
  9
$ENDCAPS
280
     0
  9
$JOINSTYLE
280
     0
  9
$LWDISPLAY
290
     0
  9
$INSUNITS
 70
     1
  9
$HYPERLINKBASE
  1

  9
$STYLESHEET
  1

  9
$XEDIT
290
     1
  9
$CEPSNTYPE
380
     0
  9
$PSTYLEMODE
290
     1
  9
$FINGERPRINTGUID
  2
{C9B992DE-4078-4142-B9C5-7F62949AF3CE}
  9
$VERSIONGUID
  2
{FAEB1C32-E019-11D5-929B-00C0DF256EC4}
  9
$EXTNAMES
290
     1
  9
$PSVPSCALE
 40
0.0
  9
$OLESTARTUP
290
     0
  9
$SORTENTS
280
   127
  9
$INDEXCTL
280
     0
  9
$HIDETEXT
280
     1
  9
$XCLIPFRAME
290
     0
  9
$HALOGAP
280
     0
  9
$OBSCOLOR
 70
   257
  9
$OBSLTYPE
280
     0
  9
$INTERSECTIONDISPLAY
280
     0
  9
$INTERSECTIONCOLOR
 70
   257
  9
$DIMASSOC
280
     2
  9
$PROJECTNAME
  1

  0
ENDSEC
  0
SECTION
  2
CLASSES
  0
CLASS
  1
ACDBDICTIONARYWDFLT
  2
AcDbDictionaryWithDefault
  3
ObjectDBX Classes
 90
        0
 91
        3
280
     0
281
     0
  0
CLASS
  1

  2
exOdDbCircle
  3

 90
        0
 91
        3
280
     0
281
     1
  0
CLASS
  1

  2
exOdDbSpline
  3

 90
        0
 91
        3
280
     0
281
     1
  0
CLASS
  1

  2
exOdDbPolyline
  3

 90
        0
 91
        3
280
     0
281
     1
  0
ENDSEC
  0
SECTION
  2
TABLES
  0
TABLE
  2
VPORT
  5
8
330
0
100
AcDbSymbolTable
 70
     1
  0
VPORT
  5
29
330
8
100
AcDbSymbolTableRecord
100
AcDbViewportTableRecord
  2
*Active
 70
     0
 10
0.0
 20
0.0
 11
1.0
 21
1.0
 12
62308.37476646808
 22
145203.8694829155
 13
0.0
 23
0.0
 14
0.5
 24
0.5
 15
0.5
 25
0.5
 16
0.0
 26
0.0
 36
1.0
 17
0.0
 27
0.0
 37
0.0
 40
112.7912512383103
 41
1.60267857142857
 42
50.0
 43
0.0
 44
0.0
 50
0.0
 51
0.0
 71
     0
 72
   100
 73
     1
 74
     3
 75
     0
 76
     0
 77
     0
 78
     0
281
     0
 65
     1
110
0.0
120
0.0
130
0.0
111
1.0
121
0.0
131
0.0
112
0.0
122
1.0
132
0.0
 79
     0
146
0.0
  0
ENDTAB
  0
TABLE
  2
LTYPE
  5
5
330
0
100
AcDbSymbolTable
 70
     8
  0
LTYPE
  5
14
330
5
100
AcDbSymbolTableRecord
100
AcDbLinetypeTableRecord
  2
ByBlock
 70
     0
  3

 72
    65
 73
     0
 40
0.0
  0
LTYPE
  5
15
330
5
100
AcDbSymbolTableRecord
100
AcDbLinetypeTableRecord
  2
ByLayer
 70
     0
  3

 72
    65
 73
     0
 40
0.0
  0
LTYPE
  5
16
330
5
100
AcDbSymbolTableRecord
100
AcDbLinetypeTableRecord
  2
Continuous
 70
     0
  3
Solid line
 72
    65
 73
     0
 40
0.0
  0
LTYPE
  5
2A
330
5
100
AcDbSymbolTableRecord
100
AcDbLinetypeTableRecord
  2
DASHED
 70
     0
  3
Dashed
 72
    65
 73
     2
 40
15.0
 49
7.0
 74
     0
 49
-8.0
 74
     0
  0
LTYPE
  5
2B
330
5
100
AcDbSymbolTableRecord
100
AcDbLinetypeTableRecord
  2
DOTTED
 70
     0
  3
Dotted
 72
    65
 73
     2
 40
1.0
 49
0.0
 74
     0
 49
-1.0
 74
     0
  0
LTYPE
  5
2C
330
5
100
AcDbSymbolTableRecord
100
AcDbLinetypeTableRecord
  2
DOT_CENTER
 70
     0
  3
Dot_Center
 72
    65
 73
     4
 40
14.0
 49
12.0
 74
     0
 49
-1.0
 74
     0
 49
0.0
 74
     0
 49
-1.0
 74
     0
  0
LTYPE
  5
2D
330
5
100
AcDbSymbolTableRecord
100
AcDbLinetypeTableRecord
  2
LONG_DASHED
 70
     0
  3
Long_Dashed
 72
    65
 73
     2
 40
15.0
 49
10.0
 74
     0
 49
-5.0
 74
     0
  0
LTYPE
  5
2E
330
5
100
AcDbSymbolTableRecord
100
AcDbLinetypeTableRecord
  2
DASH_CENTER
 70
     0
  3
Dash_Center
 72
    65
 73
     4
 40
14.0
 49
11.0
 74
     0
 49
-1.0
 74
     0
 49
1.0
 74
     0
 49
-1.0
 74
     0
  0
LTYPE
  5
2F
330
5
100
AcDbSymbolTableRecord
100
AcDbLinetypeTableRecord
  2
PHANTOM
 70
     0
  3
Phantom
 72
    65
 73
     6
 40
13.0
 49
10.0
 74
     0
 49
-1.0
 74
     0
 49
0.0
 74
     0
 49
-1.0
 74
     0
 49
0.0
 74
     0
 49
-1.0
 74
     0
  0
LTYPE
  5
30
330
5
100
AcDbSymbolTableRecord
100
AcDbLinetypeTableRecord
  2
CENTER_DASH_DASH
 70
     0
  3
Center_Dash_Dash
 72
    65
 73
     6
 40
14.0
 49
9.0
 74
     0
 49
-1.0
 74
     0
 49
1.0
 74
     0
 49
-1.0
 74
     0
 49
1.0
 74
     0
 49
-1.0
 74
     0
  0
ENDTAB
  0
TABLE
  2
LAYER
  5
2
330
0
100
AcDbSymbolTable
 70
     6
  0
LAYER
  5
10
330
2
100
AcDbSymbolTableRecord
100
AcDbLayerTableRecord
  2
0
 70
     0
 62
     7
  6
Continuous
370
    -3
390
F
  0
LAYER
  5
31
330
2
100
AcDbSymbolTableRecord
100
AcDbLayerTableRecord
  2
1
 70
     0
 62
     7
  6
Continuous
370
    -3
390
F
  0
LAYER
  5
32
330
2
100
AcDbSymbolTableRecord
100
AcDbLayerTableRecord
  2
A_ACHSEN
 70
     0
 62
     7
  6
Continuous
370
    -3
390
F
  0
LAYER
  5
33
330
2
100
AcDbSymbolTableRecord
100
AcDbLayerTableRecord
  2
A_BEMASSUNGEN
 70
     0
 62
     7
  6
Continuous
370
    -3
390
F
  0
LAYER
  5
34
330
2
100
AcDbSymbolTableRecord
100
AcDbLayerTableRecord
  2
A_RUNDUNGEN
 70
     0
 62
     7
  6
Continuous
370
    -3
390
F
  0
LAYER
  5
35
330
2
100
AcDbSymbolTableRecord
100
AcDbLayerTableRecord
  2
DEFAULT_2
 70
     0
 62
     7
  6
Continuous
370
    -3
390
F
  0
ENDTAB
  0
TABLE
  2
STYLE
  5
3
330
0
100
AcDbSymbolTable
 70
     2
  0
STYLE
  5
11
330
3
100
AcDbSymbolTableRecord
100
AcDbTextStyleTableRecord
  2
Standard
 70
     0
 40
0.0
 41
1.0
 50
0.0
 71
     0
 42
0.2
  3
txt
  4

  0
STYLE
  5
BB
330
3
100
AcDbSymbolTableRecord
100
AcDbTextStyleTableRecord
  2
CONVERTER_11
 70
     0
 40
0.0
 41
0.9
 50
0.0
 71
     0
 42
0.2
  3
txt.shx
  4

  0
ENDTAB
  0
TABLE
  2
VIEW
  5
6
330
0
100
AcDbSymbolTable
 70
     0
  0
ENDTAB
  0
TABLE
  2
UCS
  5
7
330
0
100
AcDbSymbolTable
 70
     0
  0
ENDTAB
  0
TABLE
  2
APPID
  5
9
330
0
100
AcDbSymbolTable
 70
     1
  0
APPID
  5
12
330
9
100
AcDbSymbolTableRecord
100
AcDbRegAppTableRecord
  2
ACAD
 70
     0
  0
ENDTAB
  0
TABLE
  2
DIMSTYLE
  5
A
330
0
100
AcDbSymbolTable
 70
    13
100
AcDbDimStyleTable
  0
DIMSTYLE
105
27
330
A
100
AcDbSymbolTableRecord
100
AcDbDimStyleTableRecord
  2
Standard
 70
     0
340
11
  0
DIMSTYLE
105
BF
102
{ACAD_REACTORS
330
C0
102
}
330
A
100
AcDbSymbolTableRecord
100
AcDbDimStyleTableRecord
  2
ME10_DIM_10
 70
     0
 41
3.5
 42
0.0
 44
2.0
 73
     0
 74
     0
 77
     1
 78
     8
140
3.5
147
2.0
172
     1
173
     1
176
     2
177
     2
178
     2
271
     3
340
BB
  0
DIMSTYLE
105
CC
102
{ACAD_REACTORS
330
CD
102
}
330
A
100
AcDbSymbolTableRecord
100
AcDbDimStyleTableRecord
  2
ME10_DIM_11
 70
     0
 41
3.5
 42
0.0
 44
2.0
 73
     0
 74
     0
 77
     1
 78
     8
140
3.5
147
2.0
172
     1
173
     1
176
     2
177
     2
178
     2
271
     3
340
BB
  0
DIMSTYLE
105
D8
102
{ACAD_REACTORS
330
D9
102
}
330
A
100
AcDbSymbolTableRecord
100
AcDbDimStyleTableRecord
  2
ME10_DIM_12
 70
     0
 41
3.5
 42
0.0
 44
2.0
 73
     0
 74
     0
 77
     1
 78
     8
140
3.5
147
2.0
172
     1
173
     1
176
     2
177
     2
178
     2
271
     3
340
BB
  0
DIMSTYLE
105
E3
102
{ACAD_REACTORS
330
E4
102
}
330
A
100
AcDbSymbolTableRecord
100
AcDbDimStyleTableRecord
  2
ME10_DIM_13
 70
     0
 41
3.5
 42
0.0
 44
2.0
 73
     0
 74
     0
 77
     1
 78
     8
140
3.5
147
2.0
172
     1
173
     1
176
     2
177
     2
178
     2
271
     3
340
BB
  0
DIMSTYLE
105
EE
102
{ACAD_REACTORS
330
EF
102
}
330
A
100
AcDbSymbolTableRecord
100
AcDbDimStyleTableRecord
  2
ME10_DIM_14
 70
     0
 41
3.5
 42
0.0
 44
2.0
 73
     0
 74
     0
 77
     1
 78
     8
140
3.5
147
2.0
172
     1
173
     1
176
     2
177
     2
178
     2
271
     3
340
BB
  0
DIMSTYLE
105
F9
102
{ACAD_REACTORS
330
FA
102
}
330
A
100
AcDbSymbolTableRecord
100
AcDbDimStyleTableRecord
  2
ME10_DIM_15
 70
     0
 41
3.5
 42
0.0
 44
2.0
 73
     0
 74
     0
 77
     1
 78
     8
140
3.5
147
2.0
172
     1
173
     1
176
     2
177
     2
178
     2
271
     3
340
BB
  0
DIMSTYLE
105
104
102
{ACAD_REACTORS
330
105
102
}
330
A
100
AcDbSymbolTableRecord
100
AcDbDimStyleTableRecord
  2
ME10_DIM_16
 70
     0
 41
3.5
 42
0.0
 44
2.0
 73
     0
 74
     0
 77
     1
 78
     8
140
3.5
147
2.0
172
     1
173
     1
176
     2
177
     2
178
     2
271
     3
340
BB
  0
DIMSTYLE
105
111
102
{ACAD_REACTORS
330
112
102
}
330
A
100
AcDbSymbolTableRecord
100
AcDbDimStyleTableRecord
  2
ME10_DIM_17
 70
     0
 41
3.5
 42
0.0
 44
2.0
 73
     0
 74
     0
 77
     1
 78
     8
140
3.5
147
2.0
172
     1
173
     1
176
     2
177
     2
178
     2
271
     3
340
BB
  0
DIMSTYLE
105
11C
102
{ACAD_REACTORS
330
11D
102
}
330
A
100
AcDbSymbolTableRecord
100
AcDbDimStyleTableRecord
  2
ME10_DIM_18
 70
     0
 41
3.5
 42
0.0
 44
2.0
 73
     0
 74
     0
 77
     1
 78
     8
140
3.5
147
2.0
172
     1
173
     1
176
     2
177
     2
178
     2
271
     3
340
BB
  0
DIMSTYLE
105
127
102
{ACAD_REACTORS
330
128
102
}
330
A
100
AcDbSymbolTableRecord
100
AcDbDimStyleTableRecord
  2
ME10_DIM_19
 70
     0
 41
3.5
 42
0.0
 44
2.0
 73
     0
 74
     0
 77
     1
 78
     8
140
3.5
147
2.0
172
     1
173
     1
176
     2
177
     2
178
     2
271
     3
340
BB
  0
DIMSTYLE
105
134
102
{ACAD_REACTORS
330
135
102
}
330
A
100
AcDbSymbolTableRecord
100
AcDbDimStyleTableRecord
  2
ME10_DIM_20
 70
     0
 41
3.5
 42
0.0
 44
2.0
 73
     0
 74
     0
 77
     1
 78
     8
140
3.5
147
2.0
172
     1
173
     1
176
     2
177
     2
178
     2
271
     3
340
BB
  0
DIMSTYLE
105
13F
102
{ACAD_REACTORS
330
140
102
}
330
A
100
AcDbSymbolTableRecord
100
AcDbDimStyleTableRecord
  2
ME10_DIM_21
 70
     0
 41
3.5
 42
0.0
 44
2.0
 73
     0
 74
     0
 77
     1
 78
     8
140
3.5
147
2.0
172
     1
173
     1
176
     2
177
     2
178
     2
271
     3
340
BB
  0
ENDTAB
  0
TABLE
  2
BLOCK_RECORD
  5
1
330
0
100
AcDbSymbolTable
 70
    13
  0
BLOCK_RECORD
  5
1F
330
1
100
AcDbSymbolTableRecord
100
AcDbBlockTableRecord
  2
*Model_Space
340
22
  0
BLOCK_RECORD
  5
1B
330
1
100
AcDbSymbolTableRecord
100
AcDbBlockTableRecord
  2
*Paper_Space
340
1E
  0
BLOCK_RECORD
  5
23
330
1
100
AcDbSymbolTableRecord
100
AcDbBlockTableRecord
  2
*Paper_Space0
340
26
  0
BLOCK_RECORD
  5
B3
330
1
100
AcDbSymbolTableRecord
100
AcDbBlockTableRecord
  2
*D1
340
0
  0
BLOCK_RECORD
  5
C1
330
1
100
AcDbSymbolTableRecord
100
AcDbBlockTableRecord
  2
*D2
340
0
  0
BLOCK_RECORD
  5
CE
330
1
100
AcDbSymbolTableRecord
100
AcDbBlockTableRecord
  2
*D3
340
0
  0
BLOCK_RECORD
  5
DA
330
1
100
AcDbSymbolTableRecord
100
AcDbBlockTableRecord
  2
*D4
340
0
  0
BLOCK_RECORD
  5
E5
330
1
100
AcDbSymbolTableRecord
100
AcDbBlockTableRecord
  2
*D5
340
0
  0
BLOCK_RECORD
  5
F0
330
1
100
AcDbSymbolTableRecord
100
AcDbBlockTableRecord
  2
*D6
340
0
  0
BLOCK_RECORD
  5
FB
330
1
100
AcDbSymbolTableRecord
100
AcDbBlockTableRecord
  2
*D7
340
0
  0
BLOCK_RECORD
  5
106
330
1
100
AcDbSymbolTableRecord
100
AcDbBlockTableRecord
  2
*D8
340
0
  0
BLOCK_RECORD
  5
113
330
1
100
AcDbSymbolTableRecord
100
AcDbBlockTableRecord
  2
*D9
340
0
  0
BLOCK_RECORD
  5
11E
330
1
100
AcDbSymbolTableRecord
100
AcDbBlockTableRecord
  2
*D10
340
0
  0
BLOCK_RECORD
  5
129
330
1
100
AcDbSymbolTableRecord
100
AcDbBlockTableRecord
  2
*D11
340
0
  0
BLOCK_RECORD
  5
136
330
1
100
AcDbSymbolTableRecord
100
AcDbBlockTableRecord
  2
*D12
340
0
  0
ENDTAB
  0
ENDSEC
  0
SECTION
  2
BLOCKS
  0
BLOCK
  5
20
330
1F
100
AcDbEntity
  8
0
100
AcDbBlockBegin
  2
*Model_Space
 70
     0
 71
     0
 10
0.0
 20
0.0
 30
0.0
  3
*Model_Space
  1

  0
ENDBLK
  5
21
330
1F
100
AcDbEntity
  8
0
100
AcDbBlockEnd
  0
BLOCK
  5
1C
330
1B
100
AcDbEntity
 67
     1
  8
0
100
AcDbBlockBegin
  2
*Paper_Space
 70
     0
 71
     0
 10
0.0
 20
0.0
 30
0.0
  3
*Paper_Space
  1

  0
ENDBLK
  5
1D
330
1B
100
AcDbEntity
 67
     1
  8
0
100
AcDbBlockEnd
  0
BLOCK
  5
24
330
23
100
AcDbEntity
  8
0
100
AcDbBlockBegin
  2
*Paper_Space0
 70
     0
 71
     0
 10
0.0
 20
0.0
 30
0.0
  3
*Paper_Space0
  1

  0
ENDBLK
  5
25
330
23
100
AcDbEntity
  8
0
100
AcDbBlockEnd
  0
BLOCK
  5
BD
330
B3
100
AcDbEntity
  8
0
100
AcDbBlockBegin
  2
*D1
 70
     1
 71
     0
 10
0.0
 20
0.0
 30
0.0
  3
*D1
  1

  0
LINE
  5
B4
330
B3
100
AcDbEntity
  8
1
  6
Continuous
 62
     2
100
AcDbLine
 10
62318.70743855707
 20
145166.741615314
 30
0.0
 11
62311.70743855707
 21
145166.741615314
 31
0.0
  0
LINE
  5
B5
330
B3
100
AcDbEntity
  8
1
  6
Continuous
 62
     2
100
AcDbLine
 10
62311.70743855707
 20
145166.741615314
 30
0.0
 11
62306.70785310725
 21
145166.741615314
 31
0.0
  0
LINE
  5
B6
330
B3
100
AcDbEntity
  8
1
  6
Continuous
 62
     2
100
AcDbLine
 10
62306.70785310725
 20
145166.741615314
 30
0.0
 11
62299.70785310725
 21
145166.741615314
 31
0.0
  0
LINE
  5
B7
330
B3
100
AcDbEntity
  8
1
  6
Continuous
 62
     2
100
AcDbLine
 10
62311.70743855707
 20
145186.394545879
 30
0.0
 11
62311.70743855707
 21
145164.741615314
 31
0.0
  0
LINE
  5
B8
330
B3
100
AcDbEntity
  8
1
  6
Continuous
 62
     2
100
AcDbLine
 10
62306.70785310725
 20
145195.5118106045
 30
0.0
 11
62306.70785310725
 21
145164.741615314
 31
0.0
  0
SOLID
  5
B9
330
B3
100
AcDbEntity
  8
1
 62
     2
100
AcDbTrace
 10
62315.20743855707
 20
145167.2023990556
 30
0.0
 11
62315.20743855707
 21
145166.2808315725
 31
0.0
 12
62311.70743855707
 22
145166.741615314
 32
0.0
 13
62311.70743855707
 23
145166.741615314
 33
0.0
  0
SOLID
  5
BA
330
B3
100
AcDbEntity
  8
1
 62
     2
100
AcDbTrace
 10
62303.20785310725
 20
145166.2808315725
 30
0.0
 11
62303.20785310725
 21
145167.2023990556
 31
0.0
 12
62306.70785310725
 22
145166.741615314
 32
0.0
 13
62306.70785310725
 23
145166.741615314
 33
0.0
  0
MTEXT
  5
BC
330
B3
100
AcDbEntity
  8
1
 62
     2
100
AcDbMText
 10
62307.78824566628
 20
145168.741615314
 30
0.0
 40
3.5
 41
0.0
 71
     7
 72
     1
  1
5
  7
CONVERTER_11
 11
0.9999999999970621
 21
2.424068405545307E-6
 31
0.0
 73
     1
 44
0.60024009603842
  0
ENDBLK
  5
BE
330
B3
100
AcDbEntity
  8
0
100
AcDbBlockEnd
  0
BLOCK
  5
CA
330
C1
100
AcDbEntity
  8
0
100
AcDbBlockBegin
  2
*D2
 70
     1
 71
     0
 10
0.0
 20
0.0
 30
0.0
  3
*D2
  1

  0
LINE
  5
C2
330
C1
100
AcDbEntity
  8
1
  6
Continuous
 62
     2
100
AcDbLine
 10
62241.70743855706
 20
145189.894545879
 30
0.0
 11
62241.70743855706
 21
145182.894545879
 31
0.0
  0
LINE
  5
C3
330
C1
100
AcDbEntity
  8
1
  6
Continuous
 62
     2
100
AcDbLine
 10
62241.70743855706
 20
145190.394545879
 30
0.0
 11
62241.70743855706
 21
145189.894545879
 31
0.0
  0
LINE
  5
C4
330
C1
100
AcDbEntity
  8
1
  6
Continuous
 62
     2
100
AcDbLine
 10
62241.70743855706
 20
145200.133116662
 30
0.0
 11
62241.70743855706
 21
145190.394545879
 31
0.0
  0
LINE
  5
C5
330
C1
100
AcDbEntity
  8
1
  6
Continuous
 62
     2
100
AcDbLine
 10
62297.26382010726
 20
145189.894545879
 30
0.0
 11
62239.70743855706
 21
145189.894545879
 31
0.0
  0
LINE
  5
C6
330
C1
100
AcDbEntity
  8
1
  6
Continuous
 62
     2
100
AcDbLine
 10
62296.94651298644
 20
145190.394545879
 30
0.0
 11
62239.70743855706
 21
145190.394545879
 31
0.0
  0
SOLID
  5
C7
330
C1
100
AcDbEntity
  8
1
 62
     2
100
AcDbTrace
 10
62241.24665481551
 20
145193.894545879
 30
0.0
 11
62242.16822229861
 21
145193.894545879
 31
0.0
 12
62241.70743855706
 22
145190.394545879
 32
0.0
 13
62241.70743855706
 23
145190.394545879
 33
0.0
  0
SOLID
  5
C8
330
C1
100
AcDbEntity
  8
1
 62
     2
100
AcDbTrace
 10
62242.16822229861
 20
145186.394545879
 30
0.0
 11
62241.24665481551
 21
145186.394545879
 31
0.0
 12
62241.70743855706
 22
145189.894545879
 32
0.0
 13
62241.70743855706
 23
145189.894545879
 33
0.0
  0
MTEXT
  5
C9
330
C1
100
AcDbEntity
  8
1
 62
     2
100
AcDbMText
 10
62239.70743855706
 20
145193.745616662
 30
0.0
 40
3.5
 41
0.0
 71
     7
 72
     1
  1
0.5
  7
CONVERTER_11
 11
0.0
 21
1.0
 31
0.0
 73
     1
 44
0.60024009603842
  0
ENDBLK
  5
CB
330
C1
100
AcDbEntity
  8
0
100
AcDbBlockEnd
  0
BLOCK
  5
D6
330
CE
100
AcDbEntity
  8
0
100
AcDbBlockBegin
  2
*D3
 70
     1
 71
     0
 10
0.0
 20
0.0
 30
0.0
  3
*D3
  1

  0
LINE
  5
CF
330
CE
100
AcDbEntity
  8
1
  6
Continuous
 62
     2
100
AcDbLine
 10
62231.70743855706
 20
145217.394213879
 30
0.0
 11
62231.70743855706
 21
145186.394545879
 31
0.0
  0
LINE
  5
D0
330
CE
100
AcDbEntity
  8
1
  6
Continuous
 62
     2
100
AcDbLine
 10
62285.20785310725
 20
145186.394545879
 30
0.0
 11
62244.3602583072
 21
145186.394545879
 31
0.0
  0
LINE
  5
D1
330
CE
100
AcDbEntity
  8
1
  6
Continuous
 62
     2
100
AcDbLine
 10
62239.7778000504
 20
145186.394545879
 30
0.0
 11
62229.70743855706
 21
145186.394545879
 31
0.0
  0
LINE
  5
D2
330
CE
100
AcDbEntity
  8
1
  6
Continuous
 62
     2
100
AcDbLine
 10
62285.20737955706
 20
145217.394213879
 30
0.0
 11
62229.70743855706
 21
145217.394213879
 31
0.0
  0
SOLID
  5
D3
330
CE
100
AcDbEntity
  8
1
 62
     2
100
AcDbTrace
 10
62232.16822229861
 20
145213.894213879
 30
0.0
 11
62231.24665481551
 21
145213.894213879
 31
0.0
 12
62231.70743855706
 22
145217.394213879
 32
0.0
 13
62231.70743855706
 23
145217.394213879
 33
0.0
  0
SOLID
  5
D4
330
CE
100
AcDbEntity
  8
1
 62
     2
100
AcDbTrace
 10
62231.24665481551
 20
145189.894545879
 30
0.0
 11
62232.16822229861
 21
145189.894545879
 31
0.0
 12
62231.70743855706
 22
145186.394545879
 32
0.0
 13
62231.70743855706
 23
145186.394545879
 33
0.0
  0
MTEXT
  5
D5
330
CE
100
AcDbEntity
  8
1
 62
     2
100
AcDbMText
 10
62229.70743855706
 20
145199.665511612
 30
0.0
 40
3.5
 41
0.0
 71
     7
 72
     1
  1
31
  7
CONVERTER_11
 11
0.0
 21
1.0
 31
0.0
 73
     1
 44
0.60024009603842
  0
ENDBLK
  5
D7
330
CE
100
AcDbEntity
  8
0
100
AcDbBlockEnd
  0
BLOCK
  5
E1
330
DA
100
AcDbEntity
  8
0
100
AcDbBlockBegin
  2
*D4
 70
     1
 71
     0
 10
0.0
 20
0.0
 30
0.0
  3
*D4
  1

  0
LINE
  5
DB
330
DA
100
AcDbEntity
  8
1
  6
Continuous
 62
     2
100
AcDbLine
 10
62378.54209419104
 20
145212.394545879
 30
0.0
 11
62378.54209419104
 21
145196.3945268789
 31
0.0
  0
LINE
  5
DC
330
DA
100
AcDbEntity
  8
1
  6
Continuous
 62
     2
100
AcDbLine
 10
62313.70785310725
 20
145212.394545879
 30
0.0
 11
62380.54209419104
 21
145212.394545879
 31
0.0
  0
LINE
  5
DD
330
DA
100
AcDbEntity
  8
1
  6
Continuous
 62
     2
100
AcDbLine
 10
62355.49395110726
 20
145196.3945268789
 30
0.0
 11
62380.54209419104
 21
145196.3945268789
 31
0.0
  0
SOLID
  5
DE
330
DA
100
AcDbEntity
  8
1
 62
     2
100
AcDbTrace
 10
62379.00287793259
 20
145208.894545879
 30
0.0
 11
62378.08131044949
 21
145208.894545879
 31
0.0
 12
62378.54209419104
 22
145212.394545879
 32
0.0
 13
62378.54209419104
 23
145212.394545879
 33
0.0
  0
SOLID
  5
DF
330
DA
100
AcDbEntity
  8
1
 62
     2
100
AcDbTrace
 10
62378.08131044949
 20
145199.8945268789
 30
0.0
 11
62379.00287793259
 21
145199.8945268789
 31
0.0
 12
62378.54209419104
 22
145196.3945268789
 32
0.0
 13
62378.54209419104
 23
145196.3945268789
 33
0.0
  0
MTEXT
  5
E0
330
DA
100
AcDbEntity
  8
1
 62
     2
100
AcDbMText
 10
62376.54209419104
 20
145202.366216909
 30
0.0
 40
3.5
 41
0.0
 71
     7
 72
     1
  1
16
  7
CONVERTER_11
 11
0.0
 21
1.0
 31
0.0
 73
     1
 44
0.60024009603842
  0
ENDBLK
  5
E2
330
DA
100
AcDbEntity
  8
0
100
AcDbBlockEnd
  0
BLOCK
  5
EC
330
E5
100
AcDbEntity
  8
0
100
AcDbBlockBegin
  2
*D5
 70
     1
 71
     0
 10
0.0
 20
0.0
 30
0.0
  3
*D5
  1

  0
LINE
  5
E6
330
E5
100
AcDbEntity
  8
1
  6
Continuous
 62
     2
100
AcDbLine
 10
62388.54209437911
 20
145196.394545879
 30
0.0
 11
62388.54209437911
 21
145231.394545879
 31
0.0
  0
LINE
  5
E7
330
E5
100
AcDbEntity
  8
1
  6
Continuous
 62
     2
100
AcDbLine
 10
62333.70785310725
 20
145231.394545879
 30
0.0
 11
62390.54209437911
 21
145231.394545879
 31
0.0
  0
LINE
  5
E8
330
E5
100
AcDbEntity
  8
1
  6
Continuous
 62
     2
100
AcDbLine
 10
62334.20771210725
 20
145196.394545879
 30
0.0
 11
62390.54209437911
 21
145196.394545879
 31
0.0
  0
SOLID
  5
E9
330
E5
100
AcDbEntity
  8
1
 62
     2
100
AcDbTrace
 10
62388.08131063756
 20
145199.894545879
 30
0.0
 11
62389.00287812066
 21
145199.894545879
 31
0.0
 12
62388.54209437911
 22
145196.394545879
 32
0.0
 13
62388.54209437911
 23
145196.394545879
 33
0.0
  0
SOLID
  5
EA
330
E5
100
AcDbEntity
  8
1
 62
     2
100
AcDbTrace
 10
62389.00287812066
 20
145227.894545879
 30
0.0
 11
62388.08131063756
 21
145227.894545879
 31
0.0
 12
62388.54209437911
 22
145231.394545879
 32
0.0
 13
62388.54209437911
 23
145231.394545879
 33
0.0
  0
MTEXT
  5
EB
330
E5
100
AcDbEntity
  8
1
 62
     2
100
AcDbMText
 10
62386.54209437911
 20
145209.915120927
 30
0.0
 40
3.5
 41
0.0
 71
     7
 72
     1
  1
35
  7
CONVERTER_11
 11
0.0
 21
1.0
 31
0.0
 73
     1
 44
0.60024009603842
  0
ENDBLK
  5
ED
330
E5
100
AcDbEntity
  8
0
100
AcDbBlockEnd
  0
BLOCK
  5
F7
330
F0
100
AcDbEntity
  8
0
100
AcDbBlockBegin
  2
*D6
 70
     1
 71
     0
 10
0.0
 20
0.0
 30
0.0
  3
*D6
  1

  0
LINE
  5
F1
330
F0
100
AcDbEntity
  8
1
  6
Continuous
 62
     2
100
AcDbLine
 10
62313.70785310725
 20
145248.001582728
 30
0.0
 11
62333.70785310725
 21
145248.001582728
 31
0.0
  0
LINE
  5
F2
330
F0
100
AcDbEntity
  8
1
  6
Continuous
 62
     2
100
AcDbLine
 10
62313.70785310725
 20
145231.394545879
 30
0.0
 11
62313.70785310725
 21
145250.001582728
 31
0.0
  0
LINE
  5
F3
330
F0
100
AcDbEntity
  8
1
  6
Continuous
 62
     2
100
AcDbLine
 10
62333.70785310725
 20
145231.394545879
 30
0.0
 11
62333.70785310725
 21
145250.001582728
 31
0.0
  0
SOLID
  5
F4
330
F0
100
AcDbEntity
  8
1
 62
     2
100
AcDbTrace
 10
62317.20785310725
 20
145248.4623664696
 30
0.0
 11
62317.20785310725
 21
145247.5407989864
 31
0.0
 12
62313.70785310725
 22
145248.001582728
 32
0.0
 13
62313.70785310725
 23
145248.001582728
 33
0.0
  0
SOLID
  5
F5
330
F0
100
AcDbEntity
  8
1
 62
     2
100
AcDbTrace
 10
62330.20785310725
 20
145247.5407989864
 30
0.0
 11
62330.20785310725
 21
145248.4623664696
 31
0.0
 12
62333.70785310725
 22
145248.001582728
 32
0.0
 13
62333.70785310725
 23
145248.001582728
 33
0.0
  0
MTEXT
  5
F6
330
F0
100
AcDbEntity
  8
1
 62
     2
100
AcDbMText
 10
62319.9681857688
 20
145250.001582728
 30
0.0
 40
3.5
 41
0.0
 71
     7
 72
     1
  1
20
  7
CONVERTER_11
 11
0.9999999999970621
 21
2.424068405545307E-6
 31
0.0
 73
     1
 44
0.60024009603842
  0
ENDBLK
  5
F8
330
F0
100
AcDbEntity
  8
0
100
AcDbBlockEnd
  0
BLOCK
  5
102
330
FB
100
AcDbEntity
  8
0
100
AcDbBlockBegin
  2
*D7
 70
     1
 71
     0
 10
0.0
 20
0.0
 30
0.0
  3
*D7
  1

  0
LINE
  5
FC
330
FB
100
AcDbEntity
  8
1
  6
Continuous
 62
     2
100
AcDbLine
 10
62303.70761210725
 20
145248.001582728
 30
0.0
 11
62313.70785310725
 21
145248.001582728
 31
0.0
  0
LINE
  5
FD
330
FB
100
AcDbEntity
  8
1
  6
Continuous
 62
     2
100
AcDbLine
 10
62303.70761210725
 20
145215.394544807
 30
0.0
 11
62303.70761210725
 21
145250.001582728
 31
0.0
  0
LINE
  5
FE
330
FB
100
AcDbEntity
  8
1
  6
Continuous
 62
     2
100
AcDbLine
 10
62313.70785310725
 20
145231.394545879
 30
0.0
 11
62313.70785310725
 21
145250.001582728
 31
0.0
  0
SOLID
  5
FF
330
FB
100
AcDbEntity
  8
1
 62
     2
100
AcDbTrace
 10
62307.20761210725
 20
145248.4623664696
 30
0.0
 11
62307.20761210725
 21
145247.5407989864
 31
0.0
 12
62303.70761210725
 22
145248.001582728
 32
0.0
 13
62303.70761210725
 23
145248.001582728
 33
0.0
  0
SOLID
  5
100
330
FB
100
AcDbEntity
  8
1
 62
     2
100
AcDbTrace
 10
62310.20785310725
 20
145247.5407989864
 30
0.0
 11
62310.20785310725
 21
145248.4623664696
 31
0.0
 12
62313.70785310725
 22
145248.001582728
 32
0.0
 13
62313.70785310725
 23
145248.001582728
 33
0.0
  0
MTEXT
  5
101
330
FB
100
AcDbEntity
  8
1
 62
     2
100
AcDbMText
 10
62306.93875273997
 20
145250.001582728
 30
0.0
 40
3.5
 41
0.0
 71
     7
 72
     1
  1
10
  7
CONVERTER_11
 11
0.9999999999970621
 21
2.424068405545307E-6
 31
0.0
 73
     1
 44
0.60024009603842
  0
ENDBLK
  5
103
330
FB
100
AcDbEntity
  8
0
100
AcDbBlockEnd
  0
BLOCK
  5
10F
330
106
100
AcDbEntity
  8
0
100
AcDbBlockBegin
  2
*D8
 70
     1
 71
     0
 10
0.0
 20
0.0
 30
0.0
  3
*D8
  1

  0
LINE
  5
107
330
106
100
AcDbEntity
  8
1
  6
Continuous
 62
     2
100
AcDbLine
 10
62368.54209400123
 20
145203.394545879
 30
0.0
 11
62368.54209400123
 21
145196.394545879
 31
0.0
  0
LINE
  5
108
330
106
100
AcDbEntity
  8
1
  6
Continuous
 62
     2
100
AcDbLine
 10
62368.54209400123
 20
145196.394545879
 30
0.0
 11
62368.54209400123
 21
145190.394545879
 31
0.0
  0
LINE
  5
109
330
106
100
AcDbEntity
  8
1
  6
Continuous
 62
     2
100
AcDbLine
 10
62368.54209400123
 20
145190.394545879
 30
0.0
 11
62368.54209400123
 21
145183.394545879
 31
0.0
  0
LINE
  5
10A
330
106
100
AcDbEntity
  8
1
  6
Continuous
 62
     2
100
AcDbLine
 10
62334.20771210725
 20
145196.394545879
 30
0.0
 11
62370.54209400123
 21
145196.394545879
 31
0.0
  0
LINE
  5
10B
330
106
100
AcDbEntity
  8
1
  6
Continuous
 62
     2
100
AcDbLine
 10
62311.70743855706
 20
145190.394545879
 30
0.0
 11
62370.54209400123
 21
145190.394545879
 31
0.0
  0
SOLID
  5
10C
330
106
100
AcDbEntity
  8
1
 62
     2
100
AcDbTrace
 10
62368.08131025968
 20
145199.894545879
 30
0.0
 11
62369.00287774279
 21
145199.894545879
 31
0.0
 12
62368.54209400123
 22
145196.394545879
 32
0.0
 13
62368.54209400123
 23
145196.394545879
 33
0.0
  0
SOLID
  5
10D
330
106
100
AcDbEntity
  8
1
 62
     2
100
AcDbTrace
 10
62369.00287774279
 20
145186.894545879
 30
0.0
 11
62368.08131025968
 21
145186.894545879
 31
0.0
 12
62368.54209400123
 22
145190.394545879
 32
0.0
 13
62368.54209400123
 23
145190.394545879
 33
0.0
  0
MTEXT
  5
10E
330
106
100
AcDbEntity
  8
1
 62
     2
100
AcDbMText
 10
62366.54209400123
 20
145192.3687577834
 30
0.0
 40
3.5
 41
0.0
 71
     7
 72
     1
  1
6
  7
CONVERTER_11
 11
0.0
 21
1.0
 31
0.0
 73
     1
 44
0.60024009603842
  0
ENDBLK
  5
110
330
106
100
AcDbEntity
  8
0
100
AcDbBlockEnd
  0
BLOCK
  5
11A
330
113
100
AcDbEntity
  8
0
100
AcDbBlockBegin
  2
*D9
 70
     1
 71
     0
 10
0.0
 20
0.0
 30
0.0
  3
*D9
  1

  0
LINE
  5
114
330
113
100
AcDbEntity
  8
1
  6
Continuous
 62
     2
100
AcDbLine
 10
62378.54209391669
 20
145181.394545879
 30
0.0
 11
62378.54209391669
 21
145196.394545879
 31
0.0
  0
LINE
  5
115
330
113
100
AcDbEntity
  8
1
  6
Continuous
 62
     2
100
AcDbLine
 10
62336.12535310729
 20
145181.394545879
 30
0.0
 11
62380.54209391669
 21
145181.394545879
 31
0.0
  0
LINE
  5
116
330
113
100
AcDbEntity
  8
1
  6
Continuous
 62
     2
100
AcDbLine
 10
62334.20771210725
 20
145196.394545879
 30
0.0
 11
62380.54209391669
 21
145196.394545879
 31
0.0
  0
SOLID
  5
117
330
113
100
AcDbEntity
  8
1
 62
     2
100
AcDbTrace
 10
62378.08131017513
 20
145184.894545879
 30
0.0
 11
62379.00287765824
 21
145184.894545879
 31
0.0
 12
62378.54209391669
 22
145181.394545879
 32
0.0
 13
62378.54209391669
 23
145181.394545879
 33
0.0
  0
SOLID
  5
118
330
113
100
AcDbEntity
  8
1
 62
     2
100
AcDbTrace
 10
62379.00287765824
 20
145192.894545879
 30
0.0
 11
62378.08131017513
 21
145192.894545879
 31
0.0
 12
62378.54209391669
 22
145196.394545879
 32
0.0
 13
62378.54209391669
 23
145196.394545879
 33
0.0
  0
MTEXT
  5
119
330
113
100
AcDbEntity
  8
1
 62
     2
100
AcDbMText
 10
62376.54209391669
 20
145187.6037319154
 30
0.0
 40
3.5
 41
0.0
 71
     7
 72
     1
  1
15
  7
CONVERTER_11
 11
0.0
 21
1.0
 31
0.0
 73
     1
 44
0.60024009603842
  0
ENDBLK
  5
11B
330
113
100
AcDbEntity
  8
0
100
AcDbBlockEnd
  0
BLOCK
  5
125
330
11E
100
AcDbEntity
  8
0
100
AcDbBlockBegin
  2
*D10
 70
     1
 71
     0
 10
0.0
 20
0.0
 30
0.0
  3
*D10
  1

  0
LINE
  5
11F
330
11E
100
AcDbEntity
  8
1
  6
Continuous
 62
     2
100
AcDbLine
 10
62311.70743855706
 20
145156.237383103
 30
0.0
 11
62291.70765310724
 21
145156.237383103
 31
0.0
  0
LINE
  5
120
330
11E
100
AcDbEntity
  8
1
  6
Continuous
 62
     2
100
AcDbLine
 10
62311.70743855706
 20
145186.394545879
 30
0.0
 11
62311.70743855706
 21
145154.237383103
 31
0.0
  0
LINE
  5
121
330
11E
100
AcDbEntity
  8
1
  6
Continuous
 62
     2
100
AcDbLine
 10
62291.70765310724
 20
145196.391879879
 30
0.0
 11
62291.70765310724
 21
145154.237383103
 31
0.0
  0
SOLID
  5
122
330
11E
100
AcDbEntity
  8
1
 62
     2
100
AcDbTrace
 10
62308.20743855706
 20
145155.7765993614
 30
0.0
 11
62308.20743855706
 21
145156.6981668446
 31
0.0
 12
62311.70743855706
 22
145156.237383103
 32
0.0
 13
62311.70743855706
 23
145156.237383103
 33
0.0
  0
SOLID
  5
123
330
11E
100
AcDbEntity
  8
1
 62
     2
100
AcDbTrace
 10
62295.20765310724
 20
145156.6981668446
 30
0.0
 11
62295.20765310724
 21
145155.7765993614
 31
0.0
 12
62291.70765310724
 22
145156.237383103
 32
0.0
 13
62291.70765310724
 23
145156.237383103
 33
0.0
  0
MTEXT
  5
124
330
11E
100
AcDbEntity
  8
1
 62
     2
100
AcDbMText
 10
62299.5818567968
 20
145158.237383103
 30
0.0
 40
3.5
 41
0.0
 71
     7
 72
     1
  1
20
  7
CONVERTER_11
 11
0.9999999999970621
 21
2.424068405545307E-6
 31
0.0
 73
     1
 44
0.60024009603842
  0
ENDBLK
  5
126
330
11E
100
AcDbEntity
  8
0
100
AcDbBlockEnd
  0
BLOCK
  5
132
330
129
100
AcDbEntity
  8
0
100
AcDbBlockBegin
  2
*D11
 70
     1
 71
     0
 10
0.0
 20
0.0
 30
0.0
  3
*D11
  1

  0
LINE
  5
12A
330
129
100
AcDbEntity
  8
1
  6
Continuous
 62
     2
100
AcDbLine
 10
62298.70765310724
 20
145156.237383103
 30
0.0
 11
62291.70765310724
 21
145156.237383103
 31
0.0
  0
LINE
  5
12B
330
129
100
AcDbEntity
  8
1
  6
Continuous
 62
     2
100
AcDbLine
 10
62291.70765310724
 20
145156.237383103
 30
0.0
 11
62285.20785310725
 21
145156.237383103
 31
0.0
  0
LINE
  5
12C
330
129
100
AcDbEntity
  8
1
  6
Continuous
 62
     2
100
AcDbLine
 10
62285.20785310725
 20
145156.237383103
 30
0.0
 11
62276.0109513061
 21
145156.237383103
 31
0.0
  0
LINE
  5
12D
330
129
100
AcDbEntity
  8
1
  6
Continuous
 62
     2
100
AcDbLine
 10
62291.70765310724
 20
145196.391879879
 30
0.0
 11
62291.70765310724
 21
145154.237383103
 31
0.0
  0
LINE
  5
12E
330
129
100
AcDbEntity
  8
1
  6
Continuous
 62
     2
100
AcDbLine
 10
62285.20785310725
 20
145186.394545879
 30
0.0
 11
62285.20785310725
 21
145154.237383103
 31
0.0
  0
SOLID
  5
12F
330
129
100
AcDbEntity
  8
1
 62
     2
100
AcDbTrace
 10
62295.20765310724
 20
145156.6981668446
 30
0.0
 11
62295.20765310724
 21
145155.7765993614
 31
0.0
 12
62291.70765310724
 22
145156.237383103
 32
0.0
 13
62291.70765310724
 23
145156.237383103
 33
0.0
  0
SOLID
  5
130
330
129
100
AcDbEntity
  8
1
 62
     2
100
AcDbTrace
 10
62281.70785310725
 20
145155.7765993614
 30
0.0
 11
62281.70785310725
 21
145156.6981668446
 31
0.0
 12
62285.20785310725
 22
145156.237383103
 32
0.0
 13
62285.20785310725
 23
145156.237383103
 33
0.0
  0
MTEXT
  5
131
330
129
100
AcDbEntity
  8
1
 62
     2
100
AcDbMText
 10
62276.0109513061
 20
145158.237383103
 30
0.0
 40
3.5
 41
0.0
 71
     7
 72
     1
  1
6.5
  7
CONVERTER_11
 11
0.9999999999970621
 21
2.424068405545307E-6
 31
0.0
 73
     1
 44
0.60024009603842
  0
ENDBLK
  5
133
330
129
100
AcDbEntity
  8
0
100
AcDbBlockEnd
  0
BLOCK
  5
13D
330
136
100
AcDbEntity
  8
0
100
AcDbBlockBegin
  2
*D12
 70
     1
 71
     0
 10
0.0
 20
0.0
 30
0.0
  3
*D12
  1

  0
LINE
  5
137
330
136
100
AcDbEntity
  8
1
  6
Continuous
 62
     2
100
AcDbLine
 10
62303.70761210725
 20
145248.001582728
 30
0.0
 11
62291.70765310724
 21
145248.001582728
 31
0.0
  0
LINE
  5
138
330
136
100
AcDbEntity
  8
1
  6
Continuous
 62
     2
100
AcDbLine
 10
62303.70761210725
 20
145215.394544807
 30
0.0
 11
62303.70761210725
 21
145250.001582728
 31
0.0
  0
LINE
  5
139
330
136
100
AcDbEntity
  8
1
  6
Continuous
 62
     2
100
AcDbLine
 10
62291.70765310724
 20
145217.3942901505
 30
0.0
 11
62291.70765310724
 21
145250.001582728
 31
0.0
  0
SOLID
  5
13A
330
136
100
AcDbEntity
  8
1
 62
     2
100
AcDbTrace
 10
62300.20761210725
 20
145247.5407989864
 30
0.0
 11
62300.20761210725
 21
145248.4623664696
 31
0.0
 12
62303.70761210725
 22
145248.001582728
 32
0.0
 13
62303.70761210725
 23
145248.001582728
 33
0.0
  0
SOLID
  5
13B
330
136
100
AcDbEntity
  8
1
 62
     2
100
AcDbTrace
 10
62295.20765310724
 20
145248.4623664696
 30
0.0
 11
62295.20765310724
 21
145247.5407989864
 31
0.0
 12
62291.70765310724
 22
145248.001582728
 32
0.0
 13
62291.70765310724
 23
145248.001582728
 33
0.0
  0
MTEXT
  5
13C
330
136
100
AcDbEntity
  8
1
 62
     2
100
AcDbMText
 10
62295.0045122005
 20
145250.001582728
 30
0.0
 40
3.5
 41
0.0
 71
     7
 72
     1
  1
12
  7
CONVERTER_11
 11
0.9999999999970621
 21
2.424068405545307E-6
 31
0.0
 73
     1
 44
0.60024009603842
  0
ENDBLK
  5
13E
330
136
100
AcDbEntity
  8
0
100
AcDbBlockEnd
  0
ENDSEC
  0
SECTION
  2
ENTITIES
  0
POINT
  5
36
330
1F
100
AcDbEntity
  8
1
 62
     3
 60
     1
100
AcDbPoint
 10
62311.70743855706
 20
145186.394545879
 30
0.0
  0
POINT
  5
37
330
1F
100
AcDbEntity
  8
1
 62
     3
 60
     1
100
AcDbPoint
 10
62251.70743855706
 20
145174.954690002
 30
0.0
  0
POINT
  5
38
330
1F
100
AcDbEntity
  8
A_BEMASSUNGEN
 62
     7
100
AcDbPoint
 10
62355.49395110726
 20
145196.3945268789
 30
0.0
  0
POINT
  5
39
330
1F
100
AcDbEntity
  8
A_BEMASSUNGEN
 62
     7
100
AcDbPoint
 10
62334.20785310725
 20
145195.394545879
 30
0.0
  0
POINT
  5
3A
330
1F
100
AcDbEntity
  8
A_BEMASSUNGEN
 62
     7
100
AcDbPoint
 10
62334.70785310725
 20
145196.394545879
 30
0.0
  0
POINT
  5
3B
330
1F
100
AcDbEntity
  8
1
 62
     3
 60
     1
100
AcDbPoint
 10
62291.77237955706
 20
145217.3942901504
 30
0.0
  0
POINT
  5
3C
330
1F
100
AcDbEntity
  8
1
 62
     3
 60
     1
100
AcDbPoint
 10
62291.77237955706
 20
145217.3942901504
 30
0.0
  0
POINT
  5
3D
330
1F
100
AcDbEntity
  8
A_BEMASSUNGEN
 62
     7
100
AcDbPoint
 10
62310.95574269594
 20
145190.394545879
 30
0.0
  0
LINE
  5
3E
330
1F
100
AcDbEntity
  8
0
  6
Continuous
 62
     7
100
AcDbLine
 10
62311.70743855706
 20
145186.394545879
 30
0.0
 11
62313.80785310725
 21
145186.394545879
 31
0.0
  0
LINE
  5
3F
330
1F
100
AcDbEntity
  8
1
  6
Continuous
 62
     7
100
AcDbLine
 10
62311.70743855706
 20
145178.715354879
 30
0.0
 11
62311.70743855706
 21
145186.394545879
 31
0.0
  0
LINE
  5
40
330
1F
100
AcDbEntity
  8
1
  6
DOT_CENTER
 62
     2
100
AcDbLine
 10
62323.70785310725
 20
145232.394545879
 30
0.0
 11
62323.70785310725
 21
145196.394545879
 31
0.0
  0
LINE
  5
41
330
1F
100
AcDbEntity
  8
0
  6
Continuous
 62
     7
100
AcDbLine
 10
62313.69609510726
 20
145215.394544807
 30
0.0
 11
62303.70761210725
 21
145215.394544807
 31
0.0
  0
LINE
  5
42
330
1F
100
AcDbEntity
  8
1
  6
DOT_CENTER
 62
     2
100
AcDbLine
 10
62251.70743855706
 20
145239.667211879
 30
0.0
 11
62251.70743855706
 21
145173.667211879
 31
0.0
  0
LINE
  5
43
330
1F
100
AcDbEntity
  8
1
  6
DOT_CENTER
 62
     2
100
AcDbLine
 10
62249.70743855706
 20
145238.001582728
 30
0.0
 11
62277.37098010727
 21
145238.001582728
 31
0.0
  0
LINE
  5
44
330
1F
100
AcDbEntity
  8
0
  6
Continuous
 62
     7
100
AcDbLine
 10
62275.24740555708
 20
145220.3733117401
 30
0.0
 11
62275.24740555708
 21
145238.001582728
 31
0.0
  0
LINE
  5
45
330
1F
100
AcDbEntity
  8
1
  6
Continuous
 62
     7
100
AcDbLine
 10
62291.77237955706
 20
145218.849240879
 30
0.0
 11
62291.77237955706
 21
145217.3942901504
 31
0.0
  0
LINE
  5
46
330
1F
100
AcDbEntity
  8
1
  6
Continuous
 62
     7
100
AcDbLine
 10
62285.20737955706
 20
145190.394545879
 30
0.0
 11
62285.20785310725
 21
145186.394545879
 31
0.0
  0
LINE
  5
47
330
1F
100
AcDbEntity
  8
1
  6
Continuous
 62
     7
100
AcDbLine
 10
62289.20785310725
 20
145186.394545879
 30
0.0
 11
62285.20785310725
 21
145186.394545879
 31
0.0
  0
LINE
  5
48
330
1F
100
AcDbEntity
  8
1
  6
Continuous
 62
     7
100
AcDbLine
 10
62296.94651298644
 20
145190.394545879
 30
0.0
 11
62311.47327435461
 21
145190.394545879
 31
0.0
  0
LINE
  5
49
330
1F
100
AcDbEntity
  8
1
  6
Continuous
 62
     7
100
AcDbLine
 10
62311.47327435461
 20
145190.394545879
 30
0.0
 11
62311.70743855706
 21
145190.394545879
 31
0.0
  0
LINE
  5
4A
330
1F
100
AcDbEntity
  8
1
  6
Continuous
 62
     7
100
AcDbLine
 10
62311.70743855706
 20
145190.394545879
 30
0.0
 11
62311.70743855706
 21
145189.894545879
 31
0.0
  0
LINE
  5
4B
330
1F
100
AcDbEntity
  8
0
  6
Continuous
 62
     7
100
AcDbLine
 10
62251.70743855706
 20
145175.667211879
 30
0.0
 11
62308.65929555707
 21
145175.667211879
 31
0.0
  0
LINE
  5
4C
330
1F
100
AcDbEntity
  8
1
  6
DOT_CENTER
 62
     2
100
AcDbLine
 10
62294.70257210727
 20
145238.001582728
 30
0.0
 11
62360.54209410725
 21
145238.001582728
 31
0.0
  0
LINE
  5
4D
330
1F
100
AcDbEntity
  8
0
  6
Continuous
 62
     7
100
AcDbLine
 10
62296.59527810726
 20
145238.001582728
 30
0.0
 11
62296.59527810726
 21
145218.2395538789
 31
0.0
  0
LINE
  5
4E
330
1F
100
AcDbEntity
  8
0
  6
Continuous
 62
     7
100
AcDbLine
 10
62298.11934910726
 20
145216.7154818789
 30
0.0
 11
62302.19713812134
 21
145216.7154818789
 31
0.0
  0
LINE
  5
4F
330
1F
100
AcDbEntity
  8
0
  6
Continuous
 62
     7
100
AcDbLine
 10
62303.70761210725
 20
145209.394544807
 30
0.0
 11
62313.69609510726
 21
145209.394544807
 31
0.0
  0
LINE
  5
50
330
1F
100
AcDbEntity
  8
1
  6
DOT_CENTER
 62
     2
100
AcDbLine
 10
62302.70771210725
 20
145212.394545879
 30
0.0
 11
62313.70785310725
 21
145212.394545879
 31
0.0
  0
LINE
  5
51
330
1F
100
AcDbEntity
  8
0
  6
Continuous
 62
     7
100
AcDbLine
 10
62303.70761210725
 20
145215.394544807
 30
0.0
 11
62303.70761210725
 21
145209.394544807
 31
0.0
  0
LINE
  5
52
330
1F
100
AcDbEntity
  8
0
  6
Continuous
 62
     7
100
AcDbLine
 10
62307.07382510725
 20
145196.394545879
 30
0.0
 11
62312.70785310725
 21
145196.394545879
 31
0.0
  0
LINE
  5
53
330
1F
100
AcDbEntity
  8
0
  6
Continuous
 62
     7
100
AcDbLine
 10
62334.20771210725
 20
145196.394545879
 30
0.0
 11
62355.49395110726
 21
145196.3945268789
 31
0.0
  0
LINE
  5
54
330
1F
100
AcDbEntity
  8
0
  6
Continuous
 62
     7
100
AcDbLine
 10
62358.54209410725
 20
145199.442669879
 30
0.0
 11
62358.54209479725
 21
145238.001582728
 31
0.0
  0
LINE
  5
55
330
1F
100
AcDbEntity
  8
A_ACHSEN
  6
DOT_CENTER
 62
     2
100
AcDbLine
 10
62269.52909202318
 20
145209.3946221505
 30
0.0
 11
62295.44175232345
 21
145209.3946221505
 31
0.0
  0
LINE
  5
56
330
1F
100
AcDbEntity
  8
A_ACHSEN
  6
DOT_CENTER
 62
     2
100
AcDbLine
 10
62269.52909202318
 20
145199.3946221505
 30
0.0
 11
62291.70765310724
 21
145199.3946221505
 31
0.0
  0
LINE
  5
57
330
1F
100
AcDbEntity
  8
0
  6
Continuous
 62
     7
100
AcDbLine
 10
62296.94651298644
 20
145190.394545879
 30
0.0
 11
62296.94627360725
 21
145192.8944696075
 31
0.0
  0
LINE
  5
58
330
1F
100
AcDbEntity
  8
1
  6
Continuous
 62
     7
100
AcDbLine
 10
62285.20737955706
 20
145217.394213879
 30
0.0
 11
62285.20737955706
 21
145190.394545879
 31
0.0
  0
LINE
  5
59
330
1F
100
AcDbEntity
  8
0
  6
Continuous
 62
     7
100
AcDbLine
 10
62323.70785310725
 20
145193.812045879
 30
0.0
 11
62323.70785310725
 21
145195.394545879
 31
0.0
  0
LINE
  5
5A
330
1F
100
AcDbEntity
  8
0
  6
Continuous
 62
     7
100
AcDbLine
 10
62327.20785310725
 20
145195.394545879
 30
0.0
 11
62334.20785310725
 21
145195.394545879
 31
0.0
  0
LINE
  5
5B
330
1F
100
AcDbEntity
  8
1
  6
DOT_CENTER
 62
     2
100
AcDbLine
 10
62336.12535310729
 20
145181.394545879
 30
0.0
 11
62311.29035310724
 21
145181.394545879
 31
0.0
  0
LINE
  5
5C
330
1F
100
AcDbEntity
  8
1
  6
DOT_CENTER
 62
     2
100
AcDbLine
 10
62323.70785310725
 20
145193.812045879
 30
0.0
 11
62323.70785310725
 21
145168.9770458789
 31
0.0
  0
LINE
  5
5D
330
1F
100
AcDbEntity
  8
0
  6
Continuous
 62
     7
100
AcDbLine
 10
62313.70785310725
 20
145231.394545879
 30
0.0
 11
62313.70785310725
 21
145196.394545879
 31
0.0
  0
LINE
  5
5E
330
1F
100
AcDbEntity
  8
0
  6
Continuous
 62
     7
100
AcDbLine
 10
62289.20785310725
 20
145186.394545879
 30
0.0
 11
62311.70743855706
 21
145186.394545879
 31
0.0
  0
LINE
  5
5F
330
1F
100
AcDbEntity
  8
0
  6
Continuous
 62
     7
100
AcDbLine
 10
62334.70785310725
 20
145196.394545879
 30
0.0
 11
62334.20771210725
 21
145196.394545879
 31
0.0
  0
LINE
  5
60
330
1F
100
AcDbEntity
  8
0
  6
Continuous
 62
     7
100
AcDbLine
 10
62330.70785310725
 20
145196.394545879
 30
0.0
 11
62330.70785310725
 21
145195.394545879
 31
0.0
  0
LINE
  5
61
330
1F
100
AcDbEntity
  8
0
  6
Continuous
 62
     7
100
AcDbLine
 10
62334.70785310725
 20
145195.894545879
 30
0.0
 11
62334.70785310725
 21
145196.394545879
 31
0.0
  0
LINE
  5
62
330
1F
100
AcDbEntity
  8
0
  6
Continuous
 62
     7
100
AcDbLine
 10
62320.70785310725
 20
145196.394545879
 30
0.0
 11
62320.70785310725
 21
145195.394545879
 31
0.0
  0
LINE
  5
63
330
1F
100
AcDbEntity
  8
A_RUNDUNGEN
  6
Continuous
 62
     7
100
AcDbLine
 10
62297.26382010726
 20
145189.894545879
 30
0.0
 11
62313.20745510726
 21
145189.894545879
 31
0.0
  0
LINE
  5
64
330
1F
100
AcDbEntity
  8
A_RUNDUNGEN
  6
Continuous
 62
     7
100
AcDbLine
 10
62289.20785310725
 20
145189.894545879
 30
0.0
 11
62297.26382010726
 21
145189.894545879
 31
0.0
  0
LINE
  5
65
330
1F
100
AcDbEntity
  8
0
  6
Continuous
 62
     7
100
AcDbLine
 10
62313.20745510726
 20
145189.894545879
 30
0.0
 11
62313.80785310725
 21
145189.894545879
 31
0.0
  0
LINE
  5
66
330
1F
100
AcDbEntity
  8
0
  6
Continuous
 62
     7
100
AcDbLine
 10
62313.88383992965
 20
145189.9003536058
 30
0.0
 11
62322.20331402366
 21
145191.1795528869
 31
0.0
  0
LINE
  5
67
330
1F
100
AcDbEntity
  8
0
  6
Continuous
 62
     7
100
AcDbLine
 10
62314.41574768655
 20
145186.4410076939
 30
0.0
 11
62322.73522178046
 21
145187.720206975
 31
0.0
  0
LINE
  5
68
330
1F
100
AcDbEntity
  8
0
  6
Continuous
 62
     7
100
AcDbLine
 10
62318.20935914676
 20
145184.6696892599
 30
0.0
 11
62315.18089177
 21
145186.4735768253
 31
0.0
  0
LINE
  5
69
330
1F
100
AcDbEntity
  8
0
  6
Continuous
 62
     7
100
AcDbLine
 10
62292.19651210724
 20
145192.894545879
 30
0.0
 11
62306.70785310723
 21
145192.894545879
 31
0.0
  0
LINE
  5
6A
330
1F
100
AcDbEntity
  8
0
  6
Continuous
 62
     7
100
AcDbLine
 10
62306.70785310724
 20
145195.891879879
 30
0.0
 11
62292.20765310724
 21
145195.891879879
 31
0.0
  0
LINE
  5
6B
330
1F
100
AcDbEntity
  8
0
  6
DASHED
 62
     2
100
AcDbLine
 10
62327.74589719615
 20
145186.4241283603
 30
0.0
 11
62325.20363971876
 21
145188.465201912
 31
0.0
  0
LINE
  5
6C
330
1F
100
AcDbEntity
  8
0
  6
Continuous
 62
     7
100
AcDbLine
 10
62323.70785310725
 20
145195.394545879
 30
0.0
 11
62313.20785310725
 21
145195.394545879
 31
0.0
  0
LINE
  5
6D
330
1F
100
AcDbEntity
  8
0
  6
Continuous
 62
     7
100
AcDbLine
 10
62329.93708391106
 20
145189.1533591641
 30
0.0
 11
62327.39482643365
 21
145191.1944327158
 31
0.0
  0
LINE
  5
6E
330
1F
100
AcDbEntity
  8
0
  6
Continuous
 62
     7
100
AcDbLine
 10
62313.70785310725
 20
145231.394545879
 30
0.0
 11
62333.70785310725
 21
145231.394545879
 31
0.0
  0
LINE
  5
6F
330
1F
100
AcDbEntity
  8
0
  6
Continuous
 62
     7
100
AcDbLine
 10
62288.70785310725
 20
145217.3946221505
 30
0.0
 11
62288.70785310725
 21
145190.3946221505
 31
0.0
  0
LINE
  5
70
330
1F
100
AcDbEntity
  8
0
  6
Continuous
 62
     7
100
AcDbLine
 10
62323.70785310725
 20
145191.319545879
 30
0.0
 11
62323.70785310725
 21
145191.8226551869
 31
0.0
  0
LINE
  5
71
330
1F
100
AcDbEntity
  8
0
  6
Continuous
 62
     7
100
AcDbLine
 10
62327.20785310725
 20
145191.5843228306
 30
0.0
 11
62327.20785310725
 21
145196.394545879
 31
0.0
  0
LINE
  5
72
330
1F
100
AcDbEntity
  8
0
  6
Continuous
 62
     7
100
AcDbLine
 10
62312.70785310725
 20
145195.894545879
 30
0.0
 11
62312.70785310725
 21
145196.394545879
 31
0.0
  0
LINE
  5
73
330
1F
100
AcDbEntity
  8
0
  6
Continuous
 62
     7
100
AcDbLine
 10
62291.70765310724
 20
145217.3942901505
 30
0.0
 11
62291.70765310724
 21
145196.391879879
 31
0.0
  0
LINE
  5
74
330
1F
100
AcDbEntity
  8
0
  6
Continuous
 62
     7
100
AcDbLine
 10
62323.70785310725
 20
145191.8226551869
 30
0.0
 11
62323.70785310725
 21
145196.394545879
 31
0.0
  0
LINE
  5
75
330
1F
100
AcDbEntity
  8
0
  6
Continuous
 62
     7
100
AcDbLine
 10
62306.70785310723
 20
145192.894545879
 30
0.0
 11
62306.70785310724
 21
145195.891879879
 31
0.0
  0
LINE
  5
76
330
1F
100
AcDbEntity
  8
0
  6
Continuous
 62
     7
100
AcDbLine
 10
62333.70785310725
 20
145196.394545879
 30
0.0
 11
62334.20771210725
 21
145196.394545879
 31
0.0
  0
LINE
  5
77
330
1F
100
AcDbEntity
  8
0
  6
Continuous
 62
     7
100
AcDbLine
 10
62330.70785310725
 20
145196.394545879
 30
0.0
 11
62327.20785310725
 21
145196.394545879
 31
0.0
  0
LINE
  5
78
330
1F
100
AcDbEntity
  8
0
  6
Continuous
 62
     7
100
AcDbLine
 10
62320.70785310725
 20
145196.394545879
 30
0.0
 11
62313.70785310725
 21
145196.394545879
 31
0.0
  0
LINE
  5
79
330
1F
100
AcDbEntity
  8
0
  6
Continuous
 62
     7
100
AcDbLine
 10
62313.70785310725
 20
145196.394545879
 30
0.0
 11
62312.70785310725
 21
145196.394545879
 31
0.0
  0
LINE
  5
7A
330
1F
100
AcDbEntity
  8
0
  6
Continuous
 62
     7
100
AcDbLine
 10
62333.70785310725
 20
145231.394545879
 30
0.0
 11
62333.70785310725
 21
145196.394545879
 31
0.0
  0
LINE
  5
7B
330
1F
100
AcDbEntity
  8
1
  6
Continuous
 62
     7
100
AcDbLine
 10
62285.20737955706
 20
145217.394213879
 30
0.0
 11
62291.77237955706
 21
145217.3942901504
 31
0.0
  0
LINE
  5
7C
330
1F
100
AcDbEntity
  8
0
  6
Continuous
 62
     7
100
AcDbLine
 10
62333.70785310725
 20
145196.394545879
 30
0.0
 11
62330.70785310725
 21
145196.394545879
 31
0.0
  0
LINE
  5
7D
330
1F
100
AcDbEntity
  8
0
  6
Continuous
 62
     7
100
AcDbLine
 10
62290.24830755706
 20
145220.373312879
 30
0.0
 11
62275.24740555708
 21
145220.3733117401
 31
0.0
  0
LINE
  5
7E
330
1F
100
AcDbEntity
  8
0
  6
Continuous
 62
     7
100
AcDbLine
 10
62327.20785310725
 20
145196.394545879
 30
0.0
 11
62323.70785310725
 21
145196.394545879
 31
0.0
  0
LINE
  5
7F
330
1F
100
AcDbEntity
  8
0
  6
Continuous
 62
     7
100
AcDbLine
 10
62323.70785310725
 20
145196.394545879
 30
0.0
 11
62320.70785310725
 21
145196.394545879
 31
0.0
  0
LINE
  5
80
330
1F
100
AcDbEntity
  8
0
  6
Continuous
 62
     7
100
AcDbLine
 10
62306.70785310725
 20
145195.5118106045
 30
0.0
 11
62306.70785310725
 21
145191.647170861
 31
0.0
  0
LINE
  5
81
330
1F
100
AcDbEntity
  8
0
  6
Continuous
 62
     7
100
AcDbLine
 10
62306.70785310724
 20
145195.6098415476
 30
0.0
 11
62306.70785310725
 21
145195.5118106045
 31
0.0
  0
LINE
  5
82
330
1F
100
AcDbEntity
  8
0
  6
Continuous
 62
     7
100
AcDbLine
 10
62311.42271728088
 20
145196.394545879
 30
0.0
 11
62307.17128410652
 21
145196.394545879
 31
0.0
  0
LINE
  5
83
330
1F
100
AcDbEntity
  8
DEFAULT_2
  6
Continuous
 62
     7
100
AcDbLine
 10
62298.10206294177
 20
145190.405817876
 30
0.0
 11
62311.06178551469
 21
145190.405817876
 31
0.0
  0
LINE
  5
84
330
1F
100
AcDbEntity
  8
0
  6
Continuous
 62
     7
100
AcDbLine
 10
62304.18702638034
 20
145191.6972879023
 30
0.0
 11
62305.14110695915
 21
145192.894545879
 31
0.0
  0
LINE
  5
85
330
1F
100
AcDbEntity
  8
0
  6
Continuous
 62
     7
100
AcDbLine
 10
62304.18640818375
 20
145190.8972886155
 30
0.0
 11
62304.18702638034
 21
145191.6972879023
 31
0.0
  0
LINE
  5
86
330
1F
100
AcDbEntity
  8
0
  6
Continuous
 62
     7
100
AcDbLine
 10
62305.03530268664
 20
145191.6966328581
 30
0.0
 11
62306.05072905285
 21
145191.6958496631
 31
0.0
  0
LINE
  5
87
330
1F
100
AcDbEntity
  8
0
  6
Continuous
 62
     7
100
AcDbLine
 10
62305.76374967425
 20
145192.894545879
 30
0.0
 11
62305.03530268664
 21
145191.6966328581
 31
0.0
  0
LINE
  5
88
330
1F
100
AcDbEntity
  8
0
  6
Continuous
 62
     7
100
AcDbLine
 10
62306.05072905285
 20
145191.6958496631
 30
0.0
 11
62306.90528971794
 21
145193.2287970902
 31
0.0
  0
LINE
  5
89
330
1F
100
AcDbEntity
  8
0
  6
Continuous
 62
     7
100
AcDbLine
 10
62307.38631536485
 20
145193.099508949
 30
0.0
 11
62306.89900535915
 21
145191.6951946189
 31
0.0
  0
LINE
  5
8A
330
1F
100
AcDbEntity
  8
0
  6
Continuous
 62
     7
100
AcDbLine
 10
62306.89900535915
 20
145191.6951946189
 30
0.0
 11
62307.79078485235
 21
145191.6945059319
 31
0.0
  0
LINE
  5
8B
330
1F
100
AcDbEntity
  8
0
  6
Continuous
 62
     7
100
AcDbLine
 10
62308.79155660615
 20
145192.6948812016
 30
0.0
 11
62308.79139458485
 21
145193.1257834015
 31
0.0
  0
LINE
  5
8C
330
1F
100
AcDbEntity
  8
0
  6
Continuous
 62
     7
100
AcDbLine
 10
62308.40610343334
 20
145195.1638983235
 30
0.0
 11
62308.78366332955
 21
145194.7866222491
 31
0.0
  0
LINE
  5
8D
330
1F
100
AcDbEntity
  8
0
  6
Continuous
 62
     7
100
AcDbLine
 10
62308.65723150835
 20
145193.6257347324
 30
0.0
 11
62307.70584846495
 21
145195.2721482485
 31
0.0
  0
LINE
  5
8E
330
1F
100
AcDbEntity
  8
0
  6
Continuous
 62
     7
100
AcDbLine
 10
62310.48459643405
 20
145195.602536094
 30
0.0
 11
62308.31582637335
 21
145195.793683643
 31
0.0
  0
LINE
  5
8F
330
1F
100
AcDbEntity
  8
0
  6
Continuous
 62
     7
100
AcDbLine
 10
62311.70596698755
 20
145195.8512642401
 30
0.0
 11
62311.25449768435
 21
145190.6685109969
 31
0.0
  0
LINE
  5
90
330
1F
100
AcDbEntity
  8
0
  6
Continuous
 62
     7
100
AcDbLine
 10
62303.70761210725
 20
145209.394544807
 30
0.0
 11
62303.70761210725
 21
145197.9185988789
 31
0.0
  0
LINE
  5
91
330
1F
100
AcDbEntity
  8
0
  6
Continuous
 62
     7
100
AcDbLine
 10
62305.07382510725
 20
145196.394545879
 30
0.0
 11
62313.70785310725
 21
145196.394545879
 31
0.0
  0
LINE
  5
92
330
1F
100
AcDbEntity
  8
1
  6
Continuous
 62
     7
100
AcDbLine
 10
62306.90528971794
 20
145193.2287970902
 30
0.0
 11
62307.38631536485
 21
145193.099508949
 31
0.0
  0
ARC
  5
93
330
1F
100
AcDbEntity
  8
0
  6
Continuous
 62
     7
100
AcDbCircle
 10
62355.49395110726
 20
145199.442669879
 30
0.0
 40
3.048143000109121
100
AcDbArc
 50
-90.0
 51
0.0
  0
ARC
  5
94
330
1F
100
AcDbEntity
  8
0
  6
Continuous
 62
     7
100
AcDbCircle
 10
62323.70785310725
 20
145181.394545879
 30
0.0
 40
9.925000000010035
100
AcDbArc
 50
149.2201231651592
 51
90.0
  0
ARC
  5
95
330
1F
100
AcDbEntity
  8
0
  6
Continuous
 62
     7
100
AcDbCircle
 10
62313.20785310725
 20
145195.894545879
 30
0.0
 40
0.5
100
AcDbArc
 50
180.0
 51
-90.0
  0
ARC
  5
96
330
1F
100
AcDbEntity
  8
0
  6
Continuous
 62
     7
100
AcDbCircle
 10
62289.20761633216
 20
145190.3947826541
 30
0.0
 40
4.000236782107738
100
AcDbArc
 50
-179.9966086474735
 51
-89.99660864747342
  0
ARC
  5
97
330
1F
100
AcDbEntity
  8
0
  6
Continuous
 62
     7
100
AcDbCircle
 10
62313.80785310725
 20
145190.394545879
 30
0.0
 40
0.5
100
AcDbArc
 50
-90.0
 51
-81.25868047896954
  0
ARC
  5
98
330
1F
100
AcDbEntity
  8
0
  6
Continuous
 62
     7
100
AcDbCircle
 10
62313.80785310725
 20
145190.394545879
 30
0.0
 40
4.0
100
AcDbArc
 50
-90.0
 51
-81.25868047605428
  0
ARC
  5
99
330
1F
100
AcDbEntity
  8
0
  6
DASHED
 62
     2
100
AcDbCircle
 10
62327.7031374908
 20
145191.5941323916
 30
0.0
 40
4.00470911033117
100
AcDbArc
 50
-176.0683781834549
 51
-128.6190684179235
  0
ARC
  5
9A
330
1F
100
AcDbEntity
  8
0
  6
Continuous
 62
     7
100
AcDbCircle
 10
62327.70785310725
 20
145191.5843228306
 30
0.0
 40
0.5
100
AcDbArc
 50
180.0
 51
-128.7595421655556
  0
ARC
  5
9B
330
1F
100
AcDbEntity
  8
0
  6
Continuous
 62
     7
100
AcDbCircle
 10
62334.20785310725
 20
145195.894545879
 30
0.0
 40
0.5
100
AcDbArc
 50
-90.0
 51
0.0
  0
ARC
  5
9C
330
1F
100
AcDbEntity
  8
0
  6
Continuous
 62
     7
100
AcDbCircle
 10
62323.70567082329
 20
145181.4194894989
 30
0.0
 40
9.900056620631187
100
AcDbArc
 50
89.98737020744994
 51
100.0126297926048
  0
ARC
  5
9D
330
1F
100
AcDbEntity
  8
0
  6
Continuous
 62
     7
100
AcDbCircle
 10
62289.20789124152
 20
145190.3945840133
 30
0.0
 40
0.5000381357304449
100
AcDbArc
 50
179.995630132801
 51
-90.00436953288532
  0
ARC
  5
9E
330
1F
100
AcDbEntity
  8
0
  6
Continuous
 62
     7
100
AcDbCircle
 10
62292.20765310724
 20
145196.391879879
 30
0.0
 40
0.5
100
AcDbArc
 50
180.0
 51
-90.0
  0
ARC
  5
9F
330
1F
100
AcDbEntity
  8
0
  6
Continuous
 62
     7
100
AcDbCircle
 10
62292.2035390414
 20
145196.3904250536
 30
0.0
 40
3.49588623687947
100
AcDbArc
 50
179.9761561589117
 51
-90.11516791854467
  0
ARC
  5
A0
330
1F
100
AcDbEntity
  8
0
  6
Continuous
 62
     7
100
AcDbCircle
 10
62304.68640799045
 20
145190.8969022424
 30
0.0
 40
0.4999999559838277
100
AcDbArc
 50
179.9557248978971
 51
-90.02153536457621
  0
ARC
  5
A1
330
1F
100
AcDbEntity
  8
0
  6
Continuous
 62
     7
100
AcDbCircle
 10
62307.79139130285
 20
145193.1254073956
 30
0.0
 40
1.000003352685296
100
AcDbArc
 50
0.021543480507
 51
30.02154779004192
  0
ARC
  5
A2
330
1F
100
AcDbEntity
  8
0
  6
Continuous
 62
     7
100
AcDbCircle
 10
62307.79155711335
 20
145192.6945051971
 30
0.0
 40
0.9999995634092952
100
AcDbArc
 50
-90.04424731984567
 51
0.02154348043064
  0
ARC
  5
A3
330
1F
100
AcDbEntity
  8
0
  6
Continuous
 62
     7
100
AcDbCircle
 10
62309.49050430435
 20
145195.4939949749
 30
0.0
 40
1.000000168424634
100
AcDbArc
 50
-134.9784565185409
 51
6.23122325402555
  0
ARC
  5
A4
330
1F
100
AcDbEntity
  8
0
  6
Continuous
 62
     7
100
AcDbCircle
 10
62307.98199881885
 20
145194.7394746585
 30
0.0
 40
0.600000142862034
100
AcDbArc
 50
45.02154347229369
 51
117.4032717141327
  0
ARC
  5
A5
330
1F
100
AcDbEntity
  8
0
  6
Continuous
 62
     7
100
AcDbCircle
 10
62308.34216520355
 20
145196.0925253842
 30
0.0
 40
0.3000002005196377
100
AcDbArc
 50
90.04257795762591
 51
-95.03682761864656
  0
ARC
  5
A6
330
1F
100
AcDbEntity
  8
0
  6
Continuous
 62
     7
100
AcDbCircle
 10
62311.20785310725
 20
145195.8946549083
 30
0.0
 40
0.5000001878394272
100
AcDbArc
 50
-4.97846463227618
 51
90.04257795980487
  0
ARC
  5
A7
330
1F
100
AcDbEntity
  8
0
  6
Continuous
 62
     7
100
AcDbCircle
 10
62310.95562998095
 20
145190.6945453434
 30
0.0
 40
0.2999994855650539
100
AcDbArc
 50
-89.97847298417682
 51
-4.97846463127658
  0
CIRCLE
  5
A8
330
1F
100
AcDbEntity
  8
1
  6
Continuous
 62
     7
100
AcDbCircle
 10
62323.70785310725
 20
145181.394545879
 30
0.0
 40
6.425000000024738
  0
CIRCLE
  5
A9
330
1F
100
AcDbEntity
  8
A_RUNDUNGEN
  6
DASHED
 62
     2
100
AcDbCircle
 10
62323.70785310725
 20
145181.394545879
 30
0.0
 40
5.025000000023283
  0
SPLINE
  5
AA
330
1F
100
AcDbEntity
  8
0
  6
Continuous
 62
     7
100
AcDbSpline
210
0.0
220
0.0
230
1.0
 70
     8
 71
     3
 72
     9
 73
     5
 74
     3
 42
0.0000000001
 43
0.0000000001
 44
0.00000001
 40
0.0
 40
0.0
 40
0.0
 40
0.0
 40
2.399694762515564
 40
4.736645983804737
 40
4.736645983804737
 40
4.736645983804737
 40
4.736645983804737
 10
62308.65929555707
 20
145175.667211879
 30
0.0
 10
62309.52624632854
 20
145175.833991751
 30
0.0
 10
62311.23748017126
 20
145176.1631907903
 30
0.0
 10
62311.55217528834
 20
145177.8721795029
 30
0.0
 10
62311.70743855706
 20
145178.715354879
 30
0.0
 11
62308.65929555707
 21
145175.667211879
 31
0.0
 11
62310.90170236806
 21
145176.521698068
 31
0.0
 11
62311.70743855706
 21
145178.715354879
 31
0.0
  0
SPLINE
  5
AB
330
1F
100
AcDbEntity
  8
0
  6
Continuous
 62
     7
100
AcDbSpline
210
0.0
220
0.0
230
1.0
 70
     8
 71
     3
 72
     9
 73
     5
 74
     3
 42
0.0000000001
 43
0.0000000001
 44
0.00000001
 40
0.0
 40
0.0
 40
0.0
 40
0.0
 40
1.078401613591477
 40
2.156803227210067
 40
2.156803227210067
 40
2.156803227210067
 40
2.156803227210067
 10
62303.70761210725
 20
145215.394544807
 30
0.0
 10
62303.58601522302
 20
145215.7635243859
 30
0.0
 10
62303.34282145456
 20
145216.5014835438
 30
0.0
 10
62302.57903256574
 20
145216.6441491006
 30
0.0
 10
62302.19713812134
 20
145216.7154818789
 30
0.0
 11
62303.70761210725
 21
145215.394544807
 31
0.0
 11
62303.21267267446
 21
145216.3526601435
 31
0.0
 11
62302.19713812134
 21
145216.7154818789
 31
0.0
  0
SPLINE
  5
AC
330
1F
100
AcDbEntity
  8
0
  6
Continuous
 62
     7
100
AcDbSpline
210
0.0
220
0.0
230
1.0
 70
     8
 71
     3
 72
     9
 73
     5
 74
     3
 42
0.0000000001
 43
0.0000000001
 44
0.00000001
 40
0.0
 40
0.0
 40
0.0
 40
0.0
 40
1.177101770453824
 40
2.354203742022907
 40
2.354203742022907
 40
2.354203742022907
 40
2.354203742022907
 10
62296.59527810726
 20
145218.2395538789
 30
0.0
 10
62296.68189368814
 20
145217.8181457922
 30
0.0
 10
62296.8551248647
 20
145216.975329547
 30
0.0
 10
62297.69794100241
 20
145216.8020977732
 30
0.0
 10
62298.11934910726
 20
145216.7154818789
 30
0.0
 11
62296.59527810726
 21
145218.2395538789
 31
0.0
 11
62297.02252106159
 21
145217.1427257082
 31
0.0
 11
62298.11934910726
 21
145216.7154818789
 31
0.0
  0
SPLINE
  5
AD
330
1F
100
AcDbEntity
  8
0
  6
Continuous
 62
     7
100
AcDbSpline
210
0.0
220
0.0
230
1.0
 70
     8
 71
     3
 72
     9
 73
     5
 74
     3
 42
0.0000000001
 43
0.0000000001
 44
0.00000001
 40
0.0
 40
0.0
 40
0.0
 40
0.0
 40
1.177102426309538
 40
2.354204852602876
 40
2.354204852602876
 40
2.354204852602876
 40
2.354204852602876
 10
62291.77237955706
 20
145218.849240879
 30
0.0
 10
62291.68576393971
 20
145219.2706492617
 30
0.0
 10
62291.51253270503
 20
145220.113466027
 30
0.0
 10
62290.66971593971
 20
145220.2866972616
 30
0.0
 10
62290.24830755706
 20
145220.373312879
 30
0.0
 11
62291.77237955706
 21
145218.849240879
 31
0.0
 11
62291.34513632237
 21
145219.9460696443
 31
0.0
 11
62290.24830755706
 21
145220.373312879
 31
0.0
  0
SPLINE
  5
AE
330
1F
100
AcDbEntity
  8
0
  6
Continuous
 62
     7
100
AcDbSpline
210
0.0
220
0.0
230
1.0
 70
     8
 71
     3
 72
     9
 73
     5
 74
     3
 42
0.0000000001
 43
0.0000000001
 44
0.00000001
 40
0.0
 40
0.0
 40
0.0
 40
0.0
 40
1.17342636469289
 40
2.220396438660408
 40
2.220396438660408
 40
2.220396438660408
 40
2.220396438660408
 10
62303.70761210725
 20
145197.9185988789
 30
0.0
 10
62303.78549765734
 20
145197.496997749
 30
0.0
 10
62303.93287528851
 20
145196.699230053
 30
0.0
 10
62304.70822782531
 20
145196.4921765583
 30
0.0
 10
62305.07382510725
 20
145196.394545879
 30
0.0
 11
62303.70761210725
 21
145197.9185988789
 31
0.0
 11
62304.11665395195
 21
145196.8187742553
 31
0.0
 11
62305.07382510725
 21
145196.394545879
 31
0.0
  0
XLINE
  5
AF
330
1F
100
AcDbEntity
  8
1
  6
DOT_CENTER
 62
     3
 60
     1
100
AcDbXline
 10
62291.77237955706
 20
145217.3942901504
 30
0.0
 11
0.0
 21
1.0
 31
0.0
  0
LWPOLYLINE
  5
B0
330
1F
100
AcDbEntity
  8
1
  6
Continuous
 62
     3
 60
     1
100
AcDbPolyline
 90
        9
 70
     0
 43
0.0
 10
62311.64243855706
 20
145186.7256539945
 10
62285.14257955706
 20
145186.7229879944
 10
62285.14257955706
 20
145217.7229879944
 10
62291.70737955706
 20
145217.7226559944
 10
62291.60123367648
 20
145219.7759008766
 10
62291.14419018479
 20
145220.3937271593
 10
62290.18330755706
 20
145220.7017549944
 10
62290.06029255706
 20
145220.3638535261
 10
62277.01129155708
 20
145220.7017539945
  0
LWPOLYLINE
  5
B1
330
1F
100
AcDbEntity
  8
1
  6
Continuous
 62
     7
 60
     1
100
AcDbPolyline
 90
        5
 70
     0
 43
0.0
 10
62291.70737955706
 20
145219.1776829944
 10
62291.70737955706
 20
145217.7226559944
 10
62285.14257955706
 20
145217.7229879944
 10
62285.14257955706
 20
145186.7229879944
 10
62311.64243855706
 20
145186.7256539945
  0
LWPOLYLINE
  5
B2
330
1F
100
AcDbEntity
  8
1
  6
Continuous
 62
     7
 60
     1
100
AcDbPolyline
 90
        2
 70
     0
 43
0.0
 10
62311.64243855706
 20
145179.0437969944
 10
62311.64243855706
 20
145186.7256539945
  0
DIMENSION
  5
C0
330
1F
100
AcDbEntity
  8
1
100
AcDbDimension
  2
*D1
 10
62311.70743855707
 20
145166.741615314
 30
0.0
 11
62308.83824566629
 21
145170.491615314
 31
0.0
 70
    32
  1
<>
 71
     5
 42
-1.0
 53
0.00013888888889
  3
ME10_DIM_10
100
AcDbAlignedDimension
 13
62306.70785310725
 23
145195.5118106045
 33
0.0
 14
62311.70743855706
 24
145186.394545879
 34
0.0
100
AcDbRotatedDimension
  0
DIMENSION
  5
CD
330
1F
100
AcDbEntity
  8
1
100
AcDbDimension
  2
*D2
 10
62241.70743855706
 20
145190.394545879
 30
0.0
 11
62237.95743855706
 21
145196.939366662
 31
0.0
 70
    32
  1
<>
 71
     5
 42
-1.0
 53
90.0
  3
ME10_DIM_11
100
AcDbAlignedDimension
 13
62297.26382010726
 23
145189.894545879
 33
0.0
 14
62296.94651298644
 24
145190.394545879
 34
0.0
 50
90.0
100
AcDbRotatedDimension
  0
DIMENSION
  5
D9
330
1F
100
AcDbEntity
  8
1
100
AcDbDimension
  2
*D3
 10
62231.70743855706
 20
145217.394213879
 30
0.0
 11
62227.95743855706
 21
145201.765511612
 31
0.0
 70
    32
  1
<>
 71
     5
 42
-1.0
 53
90.0
  3
ME10_DIM_12
100
AcDbAlignedDimension
 13
62285.20785310725
 23
145186.394545879
 33
0.0
 14
62285.20737955706
 24
145217.394213879
 34
0.0
 50
90.0
100
AcDbRotatedDimension
  0
DIMENSION
  5
E4
330
1F
100
AcDbEntity
  8
1
100
AcDbDimension
  2
*D4
 10
62378.54209419104
 20
145212.394545879
 30
0.0
 11
62374.79209419104
 21
145204.466216909
 31
0.0
 70
    32
  1
<>
 71
     5
 42
-1.0
 53
90.0
  3
ME10_DIM_13
100
AcDbAlignedDimension
 13
62355.49395110726
 23
145196.3945268789
 33
0.0
 14
62313.70785310725
 24
145212.394545879
 34
0.0
 50
90.0
100
AcDbRotatedDimension
  0
DIMENSION
  5
EF
330
1F
100
AcDbEntity
  8
1
100
AcDbDimension
  2
*D5
 10
62388.54209437911
 20
145196.394545879
 30
0.0
 11
62384.79209437911
 21
145212.540120927
 31
0.0
 70
    32
  1
<>
 71
     5
 42
-1.0
 53
90.0
  3
ME10_DIM_14
100
AcDbAlignedDimension
 13
62333.70785310725
 23
145231.394545879
 33
0.0
 14
62334.20771210725
 24
145196.394545879
 34
0.0
 50
90.0
100
AcDbRotatedDimension
  0
DIMENSION
  5
FA
330
1F
100
AcDbEntity
  8
1
100
AcDbDimension
  2
*D6
 10
62313.70785310725
 20
145248.001582728
 30
0.0
 11
62322.5931857688
 21
145251.751582728
 31
0.0
 70
    32
  1
<>
 71
     5
 42
-1.0
 53
0.00013888888889
  3
ME10_DIM_15
100
AcDbAlignedDimension
 13
62333.70785310725
 23
145231.394545879
 33
0.0
 14
62313.70785310725
 24
145231.394545879
 34
0.0
100
AcDbRotatedDimension
  0
DIMENSION
  5
105
330
1F
100
AcDbEntity
  8
1
100
AcDbDimension
  2
*D7
 10
62303.70761210725
 20
145248.001582728
 30
0.0
 11
62309.03875273997
 21
145251.751582728
 31
0.0
 70
    32
  1
<>
 71
     5
 42
-1.0
 53
0.00013888888889
  3
ME10_DIM_16
100
AcDbAlignedDimension
 13
62313.70785310725
 23
145231.394545879
 33
0.0
 14
62303.70761210725
 24
145215.394544807
 34
0.0
100
AcDbRotatedDimension
  0
DIMENSION
  5
112
330
1F
100
AcDbEntity
  8
1
100
AcDbDimension
  2
*D8
 10
62368.54209400123
 20
145196.394545879
 30
0.0
 11
62364.79209400123
 21
145193.4187577834
 31
0.0
 70
    32
  1
<>
 71
     5
 42
-1.0
 53
90.0
  3
ME10_DIM_17
100
AcDbAlignedDimension
 13
62311.70743855706
 23
145190.394545879
 33
0.0
 14
62334.20771210725
 24
145196.394545879
 34
0.0
 50
90.0
100
AcDbRotatedDimension
  0
DIMENSION
  5
11D
330
1F
100
AcDbEntity
  8
1
100
AcDbDimension
  2
*D9
 10
62378.54209391669
 20
145181.394545879
 30
0.0
 11
62374.79209391669
 21
145189.7037319154
 31
0.0
 70
    32
  1
<>
 71
     5
 42
-1.0
 53
90.0
  3
ME10_DIM_18
100
AcDbAlignedDimension
 13
62334.20771210725
 23
145196.394545879
 33
0.0
 14
62336.12535310729
 24
145181.394545879
 34
0.0
 50
90.0
100
AcDbRotatedDimension
  0
DIMENSION
  5
128
330
1F
100
AcDbEntity
  8
1
100
AcDbDimension
  2
*D10
 10
62311.70743855706
 20
145156.237383103
 30
0.0
 11
62302.2068567968
 21
145159.987383103
 31
0.0
 70
    32
  1
<>
 71
     5
 42
-1.0
 53
0.00013888888889
  3
ME10_DIM_19
100
AcDbAlignedDimension
 13
62291.70765310724
 23
145196.391879879
 33
0.0
 14
62311.70743855706
 24
145186.394545879
 34
0.0
100
AcDbRotatedDimension
  0
DIMENSION
  5
135
330
1F
100
AcDbEntity
  8
1
100
AcDbDimension
  2
*D11
 10
62291.70765310724
 20
145156.237383103
 30
0.0
 11
62279.2047013061
 21
145159.987383103
 31
0.0
 70
    32
  1
<>
 71
     5
 42
-1.0
 53
0.00013888888889
  3
ME10_DIM_20
100
AcDbAlignedDimension
 13
62285.20785310725
 23
145186.394545879
 33
0.0
 14
62291.70765310724
 24
145196.391879879
 34
0.0
100
AcDbRotatedDimension
  0
DIMENSION
  5
140
330
1F
100
AcDbEntity
  8
1
100
AcDbDimension
  2
*D12
 10
62303.70761210725
 20
145248.001582728
 30
0.0
 11
62297.1045122005
 21
145251.751582728
 31
0.0
 70
    32
  1
<>
 71
     5
 42
-1.0
 53
0.00013888888889
  3
ME10_DIM_21
100
AcDbAlignedDimension
 13
62291.70765310724
 23
145217.3942901505
 33
0.0
 14
62303.70761210725
 24
145215.394544807
 34
0.0
100
AcDbRotatedDimension
  0
ENDSEC
  0
SECTION
  2
OBJECTS
  0
DICTIONARY
  5
C
330
0
100
AcDbDictionary
281
     1
  3
ACAD_GROUP
350
D
  3
ACAD_LAYOUT
350
1A
  3
ACAD_MLINESTYLE
350
17
  3
ACAD_PLOTSETTINGS
350
19
  3
ACAD_PLOTSTYLENAME
350
E
  0
DICTIONARY
  5
D
102
{ACAD_REACTORS
330
C
102
}
330
C
100
AcDbDictionary
281
     1
  0
DICTIONARY
  5
1A
102
{ACAD_REACTORS
330
C
102
}
330
C
100
AcDbDictionary
281
     1
  3
Layout1
350
1E
  3
Layout2
350
26
  3
Model
350
22
  0
DICTIONARY
  5
17
102
{ACAD_REACTORS
330
C
102
}
330
C
100
AcDbDictionary
281
     1
  3
Standard
350
18
  0
DICTIONARY
  5
19
102
{ACAD_REACTORS
330
C
102
}
330
C
100
AcDbDictionary
281
     1
  0
ACDBDICTIONARYWDFLT
  5
E
102
{ACAD_REACTORS
330
C
102
}
330
C
100
AcDbDictionary
281
     1
  3
Normal
350
F
100
AcDbDictionaryWithDefault
340
F
  0
LAYOUT
  5
1E
102
{ACAD_REACTORS
330
1A
102
}
330
1A
100
AcDbPlotSettings
  1

  2

  4

  6

 40
0.0
 41
0.0
 42
0.0
 43
0.0
 44
0.0
 45
0.0
 46
0.0
 47
0.0
 48
0.0
 49
0.0
140
0.0
141
0.0
142
1.0
143
1.0
 70
   688
 72
     0
 73
     0
 74
     5
  7

 75
    16
 76
     0
 77
     2
 78
   300
147
1.0
148
0.0
149
0.0
100
AcDbLayout
  1
Layout1
 70
     1
 71
     1
 10
0.0
 20
0.0
 11
0.0
 21
0.0
 12
0.0
 22
0.0
 32
0.0
 14
0.0
 24
0.0
 34
0.0
 15
0.0
 25
0.0
 35
0.0
146
0.0
 13
0.0
 23
0.0
 33
0.0
 16
1.0
 26
0.0
 36
0.0
 17
0.0
 27
1.0
 37
0.0
 76
     0
330
1B
  0
LAYOUT
  5
26
102
{ACAD_REACTORS
330
1A
102
}
330
1A
100
AcDbPlotSettings
  1

  2

  4

  6

 40
0.0
 41
0.0
 42
0.0
 43
0.0
 44
0.0
 45
0.0
 46
0.0
 47
0.0
 48
0.0
 49
0.0
140
0.0
141
0.0
142
1.0
143
1.0
 70
   688
 72
     0
 73
     0
 74
     5
  7

 75
    16
 76
     0
 77
     2
 78
   300
147
1.0
148
0.0
149
0.0
100
AcDbLayout
  1
Layout2
 70
     1
 71
     2
 10
0.0
 20
0.0
 11
0.0
 21
0.0
 12
0.0
 22
0.0
 32
0.0
 14
0.0
 24
0.0
 34
0.0
 15
0.0
 25
0.0
 35
0.0
146
0.0
 13
0.0
 23
0.0
 33
0.0
 16
1.0
 26
0.0
 36
0.0
 17
0.0
 27
1.0
 37
0.0
 76
     0
330
23
  0
LAYOUT
  5
22
102
{ACAD_REACTORS
330
1A
102
}
330
1A
100
AcDbPlotSettings
  1

  2

  4

  6

 40
0.0
 41
0.0
 42
0.0
 43
0.0
 44
0.0
 45
0.0
 46
0.0
 47
0.0
 48
0.0
 49
0.0
140
0.0
141
0.0
142
1.0
143
1.0
 70
  1712
 72
     0
 73
     0
 74
     0
  7

 75
     0
 76
     0
 77
     2
 78
   300
147
1.0
148
0.0
149
0.0
100
AcDbLayout
  1
Model
 70
     1
 71
     0
 10
0.0
 20
0.0
 11
0.0
 21
0.0
 12
0.0
 22
0.0
 32
0.0
 14
62226.20743855706
 24
145154.237383103
 34
0.0
 15
62390.54209437911
 25
145253.501582728
 35
0.0
146
0.0
 13
0.0
 23
0.0
 33
0.0
 16
1.0
 26
0.0
 36
0.0
 17
0.0
 27
1.0
 37
0.0
 76
     0
330
1F
  0
MLINESTYLE
  5
18
102
{ACAD_REACTORS
330
17
102
}
330
17
100
AcDbMlineStyle
  2
Standard
 70
     0
  3

 62
   256
 51
90.0
 52
90.0
 71
     2
 49
0.5
 62
   256
  6
BYLAYER
 49
-0.5
 62
   256
  6
BYLAYER
  0
ACDBPLACEHOLDER
  5
F
102
{ACAD_REACTORS
330
E
102
}
330
E
  0
ENDSEC
  0
EOF
