  0
SECTION
  2
HEADER
  9
$ACADVER
  1
AC1018
  9
$ACADMAINTVER
 70
     0
  9
$DWGCODEPAGE
  3
ANSI_1252
  9
$INSBASE
 10
0.0
 20
0.0
 30
0.0
  9
$EXTMIN
 10
156.155016578542
 20
140.7458747368
 30
0.0
  9
$EXTMAX
 10
282.397193782129
 20
284.7458747368
 30
0.0
  9
$LIMMIN
 10
0.0
 20
0.0
  9
$LIMMAX
 10
12.0
 20
9.0
  9
$ORTHOMODE
 70
     0
  9
$REGENMODE
 70
     1
  9
$FILLMODE
 70
     1
  9
$QTEXTMODE
 70
     0
  9
$MIRRTEXT
 70
     1
  9
$LTSCALE
 40
1.0
  9
$ATTMODE
 70
     1
  9
$TEXTSIZE
 40
0.2
  9
$TRACEWID
 40
0.05
  9
$TEXTSTYLE
  7
Standard
  9
$CLAYER
  8
0
  9
$CELTYPE
  6
ByLayer
  9
$CECOLOR
 62
   256
  9
$CELTSCALE
 40
1.0
  9
$DISPSILH
 70
     0
  9
$DIMSCALE
 40
1.0
  9
$DIMASZ
 40
0.18
  9
$DIMEXO
 40
0.0625
  9
$DIMDLI
 40
0.38
  9
$DIMRND
 40
0.0
  9
$DIMDLE
 40
0.0
  9
$DIMEXE
 40
0.18
  9
$DIMTP
 40
0.0
  9
$DIMTM
 40
0.0
  9
$DIMTXT
 40
0.18
  9
$DIMCEN
 40
0.09
  9
$DIMTSZ
 40
0.0
  9
$DIMTOL
 70
     0
  9
$DIMLIM
 70
     0
  9
$DIMTIH
 70
     1
  9
$DIMTOH
 70
     1
  9
$DIMSE1
 70
     0
  9
$DIMSE2
 70
     0
  9
$DIMTAD
 70
     0
  9
$DIMZIN
 70
     0
  9
$DIMBLK
  1

  9
$DIMASO
 70
     1
  9
$DIMSHO
 70
     1
  9
$DIMPOST
  1

  9
$DIMAPOST
  1

  9
$DIMALT
 70
     0
  9
$DIMALTD
 70
     2
  9
$DIMALTF
 40
25.4
  9
$DIMLFAC
 40
1.0
  9
$DIMTOFL
 70
     0
  9
$DIMTVP
 40
0.0
  9
$DIMTIX
 70
     0
  9
$DIMSOXD
 70
     0
  9
$DIMSAH
 70
     0
  9
$DIMBLK1
  1

  9
$DIMBLK2
  1

  9
$DIMSTYLE
  2
Standard
  9
$DIMCLRD
 70
     0
  9
$DIMCLRE
 70
     0
  9
$DIMCLRT
 70
     0
  9
$DIMTFAC
 40
1.0
  9
$DIMGAP
 40
0.09
  9
$DIMJUST
 70
     0
  9
$DIMSD1
 70
     0
  9
$DIMSD2
 70
     0
  9
$DIMTOLJ
 70
     1
  9
$DIMTZIN
 70
     0
  9
$DIMALTZ
 70
     0
  9
$DIMALTTZ
 70
     0
  9
$DIMUPT
 70
     0
  9
$DIMDEC
 70
     4
  9
$DIMTDEC
 70
     4
  9
$DIMALTU
 70
     2
  9
$DIMALTTD
 70
     2
  9
$DIMTXSTY
  7
Standard
  9
$DIMAUNIT
 70
     0
  9
$DIMADEC
 70
     0
  9
$DIMALTRND
 40
0.0
  9
$DIMAZIN
 70
     0
  9
$DIMDSEP
 70
    46
  9
$DIMATFIT
 70
     3
  9
$DIMFRAC
 70
     0
  9
$DIMLDRBLK
  1

  9
$DIMLUNIT
 70
     2
  9
$DIMLWD
 70
    -2
  9
$DIMLWE
 70
    -2
  9
$DIMTMOVE
 70
     0
  9
$LUNITS
 70
     2
  9
$LUPREC
 70
     4
  9
$SKETCHINC
 40
0.1
  9
$FILLETRAD
 40
0.5
  9
$AUNITS
 70
     0
  9
$AUPREC
 70
     0
  9
$MENU
  1
.
  9
$ELEVATION
 40
0.0
  9
$PELEVATION
 40
0.0
  9
$THICKNESS
 40
0.0
  9
$LIMCHECK
 70
     0
  9
$CHAMFERA
 40
0.5
  9
$CHAMFERB
 40
0.5
  9
$CHAMFERC
 40
1.0
  9
$CHAMFERD
 40
0.0
  9
$SKPOLY
 70
     0
  9
$TDCREATE
 40
2456624.404643391
  9
$TDUCREATE
 40
2456624.362976725
  9
$TDUPDATE
 40
2456624.404643403
  9
$TDUUPDATE
 40
2456624.362976736
  9
$TDINDWG
 40
0.0000000116
  9
$TDUSRTIMER
 40
0.0000000116
  9
$USRTIMER
 70
     1
  9
$ANGBASE
 50
0.0
  9
$ANGDIR
 70
     0
  9
$PDMODE
 70
     0
  9
$PDSIZE
 40
0.0
  9
$PLINEWID
 40
0.0
  9
$SPLFRAME
 70
     0
  9
$SPLINETYPE
 70
     6
  9
$SPLINESEGS
 70
     8
  9
$HANDSEED
  5
190
  9
$SURFTAB1
 70
     6
  9
$SURFTAB2
 70
     6
  9
$SURFTYPE
 70
     6
  9
$SURFU
 70
     6
  9
$SURFV
 70
     6
  9
$UCSBASE
  2

  9
$UCSNAME
  2

  9
$UCSORG
 10
0.0
 20
0.0
 30
0.0
  9
$UCSXDIR
 10
1.0
 20
0.0
 30
0.0
  9
$UCSYDIR
 10
0.0
 20
1.0
 30
0.0
  9
$UCSORTHOREF
  2

  9
$UCSORTHOVIEW
 70
     0
  9
$UCSORGTOP
 10
0.0
 20
0.0
 30
0.0
  9
$UCSORGBOTTOM
 10
0.0
 20
0.0
 30
0.0
  9
$UCSORGLEFT
 10
0.0
 20
0.0
 30
0.0
  9
$UCSORGRIGHT
 10
0.0
 20
0.0
 30
0.0
  9
$UCSORGFRONT
 10
0.0
 20
0.0
 30
0.0
  9
$UCSORGBACK
 10
0.0
 20
0.0
 30
0.0
  9
$PUCSBASE
  2

  9
$PUCSNAME
  2

  9
$PUCSORG
 10
0.0
 20
0.0
 30
0.0
  9
$PUCSXDIR
 10
1.0
 20
0.0
 30
0.0
  9
$PUCSYDIR
 10
0.0
 20
1.0
 30
0.0
  9
$PUCSORTHOREF
  2

  9
$PUCSORTHOVIEW
 70
     0
  9
$PUCSORGTOP
 10
0.0
 20
0.0
 30
0.0
  9
$PUCSORGBOTTOM
 10
0.0
 20
0.0
 30
0.0
  9
$PUCSORGLEFT
 10
0.0
 20
0.0
 30
0.0
  9
$PUCSORGRIGHT
 10
0.0
 20
0.0
 30
0.0
  9
$PUCSORGFRONT
 10
0.0
 20
0.0
 30
0.0
  9
$PUCSORGBACK
 10
0.0
 20
0.0
 30
0.0
  9
$USERI1
 70
     0
  9
$USERI2
 70
     0
  9
$USERI3
 70
     0
  9
$USERI4
 70
     0
  9
$USERI5
 70
     0
  9
$USERR1
 40
14.5
  9
$USERR2
 40
0.0
  9
$USERR3
 40
0.0
  9
$USERR4
 40
0.0
  9
$USERR5
 40
0.0
  9
$WORLDVIEW
 70
     1
  9
$SHADEDGE
 70
     3
  9
$SHADEDIF
 70
    70
  9
$TILEMODE
 70
     1
  9
$MAXACTVP
 70
    64
  9
$PINSBASE
 10
0.0
 20
0.0
 30
0.0
  9
$PLIMCHECK
 70
     0
  9
$PEXTMIN
 10
1.00000000000000E+20
 20
1.00000000000000E+20
 30
1.00000000000000E+20
  9
$PEXTMAX
 10
-1.00000000000000E+20
 20
-1.00000000000000E+20
 30
-1.00000000000000E+20
  9
$PLIMMIN
 10
0.0
 20
0.0
  9
$PLIMMAX
 10
12.0
 20
9.0
  9
$UNITMODE
 70
     0
  9
$VISRETAIN
 70
     1
  9
$PLINEGEN
 70
     0
  9
$PSLTSCALE
 70
     1
  9
$TREEDEPTH
 70
  3020
  9
$CMLSTYLE
  2
Standard
  9
$CMLJUST
 70
     0
  9
$CMLSCALE
 40
1.0
  9
$PROXYGRAPHICS
 70
     1
  9
$MEASUREMENT
 70
     1
  9
$CELWEIGHT
370
    -1
  9
$ENDCAPS
280
     0
  9
$JOINSTYLE
280
     0
  9
$LWDISPLAY
290
     0
  9
$INSUNITS
 70
     1
  9
$HYPERLINKBASE
  1

  9
$STYLESHEET
  1

  9
$XEDIT
290
     1
  9
$CEPSNTYPE
380
     0
  9
$PSTYLEMODE
290
     1
  9
$FINGERPRINTGUID
  2
{19422530-0019-4A41-8DEE-788B23970FAD}
  9
$VERSIONGUID
  2
{FAEB1C32-E019-11D5-929B-00C0DF256EC4}
  9
$EXTNAMES
290
     1
  9
$PSVPSCALE
 40
0.0
  9
$OLESTARTUP
290
     0
  9
$SORTENTS
280
   127
  9
$INDEXCTL
280
     0
  9
$HIDETEXT
280
     1
  9
$XCLIPFRAME
290
     0
  9
$HALOGAP
280
     0
  9
$OBSCOLOR
 70
   257
  9
$OBSLTYPE
280
     0
  9
$INTERSECTIONDISPLAY
280
     0
  9
$INTERSECTIONCOLOR
 70
   257
  9
$DIMASSOC
280
     2
  9
$PROJECTNAME
  1

  0
ENDSEC
  0
SECTION
  2
CLASSES
  0
CLASS
  1
ACDBDICTIONARYWDFLT
  2
AcDbDictionaryWithDefault
  3
ObjectDBX Classes
 90
        0
 91
        3
280
     0
281
     0
  0
CLASS
  1

  2
exOdDbCircle
  3

 90
        0
 91
        3
280
     0
281
     1
  0
ENDSEC
  0
SECTION
  2
TABLES
  0
TABLE
  2
VPORT
  5
8
330
0
100
AcDbSymbolTable
 70
     1
  0
VPORT
  5
29
330
8
100
AcDbSymbolTableRecord
100
AcDbViewportTableRecord
  2
*Active
 70
     0
 10
0.0
 20
0.0
 11
1.0
 21
1.0
 12
219.2761051803355
 22
212.7458747368
 13
0.0
 23
0.0
 14
0.5
 24
0.5
 15
0.5
 25
0.5
 16
0.0
 26
0.0
 36
1.0
 17
0.0
 27
0.0
 37
0.0
 40
158.4
 41
1.60267857142857
 42
50.0
 43
0.0
 44
0.0
 50
0.0
 51
0.0
 71
     0
 72
   100
 73
     1
 74
     3
 75
     0
 76
     0
 77
     0
 78
     0
281
     0
 65
     1
110
0.0
120
0.0
130
0.0
111
1.0
121
0.0
131
0.0
112
0.0
122
1.0
132
0.0
 79
     0
146
0.0
  0
ENDTAB
  0
TABLE
  2
LTYPE
  5
5
330
0
100
AcDbSymbolTable
 70
     8
  0
LTYPE
  5
14
330
5
100
AcDbSymbolTableRecord
100
AcDbLinetypeTableRecord
  2
ByBlock
 70
     0
  3

 72
    65
 73
     0
 40
0.0
  0
LTYPE
  5
15
330
5
100
AcDbSymbolTableRecord
100
AcDbLinetypeTableRecord
  2
ByLayer
 70
     0
  3

 72
    65
 73
     0
 40
0.0
  0
LTYPE
  5
16
330
5
100
AcDbSymbolTableRecord
100
AcDbLinetypeTableRecord
  2
Continuous
 70
     0
  3
Solid line
 72
    65
 73
     0
 40
0.0
  0
LTYPE
  5
2A
330
5
100
AcDbSymbolTableRecord
100
AcDbLinetypeTableRecord
  2
DASHED
 70
     0
  3
Dashed
 72
    65
 73
     2
 40
15.0
 49
7.0
 74
     0
 49
-8.0
 74
     0
  0
LTYPE
  5
2B
330
5
100
AcDbSymbolTableRecord
100
AcDbLinetypeTableRecord
  2
DOTTED
 70
     0
  3
Dotted
 72
    65
 73
     2
 40
1.0
 49
0.0
 74
     0
 49
-1.0
 74
     0
  0
LTYPE
  5
2C
330
5
100
AcDbSymbolTableRecord
100
AcDbLinetypeTableRecord
  2
DOT_CENTER
 70
     0
  3
Dot_Center
 72
    65
 73
     4
 40
14.0
 49
12.0
 74
     0
 49
-1.0
 74
     0
 49
0.0
 74
     0
 49
-1.0
 74
     0
  0
LTYPE
  5
2D
330
5
100
AcDbSymbolTableRecord
100
AcDbLinetypeTableRecord
  2
LONG_DASHED
 70
     0
  3
Long_Dashed
 72
    65
 73
     2
 40
15.0
 49
10.0
 74
     0
 49
-5.0
 74
     0
  0
LTYPE
  5
2E
330
5
100
AcDbSymbolTableRecord
100
AcDbLinetypeTableRecord
  2
DASH_CENTER
 70
     0
  3
Dash_Center
 72
    65
 73
     4
 40
14.0
 49
11.0
 74
     0
 49
-1.0
 74
     0
 49
1.0
 74
     0
 49
-1.0
 74
     0
  0
LTYPE
  5
2F
330
5
100
AcDbSymbolTableRecord
100
AcDbLinetypeTableRecord
  2
PHANTOM
 70
     0
  3
Phantom
 72
    65
 73
     6
 40
13.0
 49
10.0
 74
     0
 49
-1.0
 74
     0
 49
0.0
 74
     0
 49
-1.0
 74
     0
 49
0.0
 74
     0
 49
-1.0
 74
     0
  0
LTYPE
  5
30
330
5
100
AcDbSymbolTableRecord
100
AcDbLinetypeTableRecord
  2
CENTER_DASH_DASH
 70
     0
  3
Center_Dash_Dash
 72
    65
 73
     6
 40
14.0
 49
9.0
 74
     0
 49
-1.0
 74
     0
 49
1.0
 74
     0
 49
-1.0
 74
     0
 49
1.0
 74
     0
 49
-1.0
 74
     0
  0
ENDTAB
  0
TABLE
  2
LAYER
  5
2
330
0
100
AcDbSymbolTable
 70
     6
  0
LAYER
  5
10
330
2
100
AcDbSymbolTableRecord
100
AcDbLayerTableRecord
  2
0
 70
     0
 62
     7
  6
Continuous
370
    -3
390
F
  0
LAYER
  5
31
330
2
100
AcDbSymbolTableRecord
100
AcDbLayerTableRecord
  2
1
 70
     0
 62
     7
  6
Continuous
370
    -3
390
F
  0
LAYER
  5
32
330
2
100
AcDbSymbolTableRecord
100
AcDbLayerTableRecord
  2
A_ACHSEN
 70
     0
 62
     7
  6
Continuous
370
    -3
390
F
  0
LAYER
  5
33
330
2
100
AcDbSymbolTableRecord
100
AcDbLayerTableRecord
  2
A_FASEN
 70
     0
 62
     7
  6
Continuous
370
    -3
390
F
  0
LAYER
  5
34
330
2
100
AcDbSymbolTableRecord
100
AcDbLayerTableRecord
  2
A_RUNDUNGEN
 70
     0
 62
     7
  6
Continuous
370
    -3
390
F
  0
LAYER
  5
35
330
2
100
AcDbSymbolTableRecord
100
AcDbLayerTableRecord
  2
DEFAULT_1
 70
     0
 62
     7
  6
Continuous
370
    -3
390
F
  0
ENDTAB
  0
TABLE
  2
STYLE
  5
3
330
0
100
AcDbSymbolTable
 70
     2
  0
STYLE
  5
11
330
3
100
AcDbSymbolTableRecord
100
AcDbTextStyleTableRecord
  2
Standard
 70
     0
 40
0.0
 41
1.0
 50
0.0
 71
     0
 42
0.2
  3
txt
  4

  0
STYLE
  5
169
330
3
100
AcDbSymbolTableRecord
100
AcDbTextStyleTableRecord
  2
CONVERTER_11
 70
     0
 40
0.0
 41
0.9
 50
0.0
 71
     0
 42
0.2
  3
txt.shx
  4

  0
ENDTAB
  0
TABLE
  2
VIEW
  5
6
330
0
100
AcDbSymbolTable
 70
     0
  0
ENDTAB
  0
TABLE
  2
UCS
  5
7
330
0
100
AcDbSymbolTable
 70
     0
  0
ENDTAB
  0
TABLE
  2
APPID
  5
9
330
0
100
AcDbSymbolTable
 70
     1
  0
APPID
  5
12
330
9
100
AcDbSymbolTableRecord
100
AcDbRegAppTableRecord
  2
ACAD
 70
     0
  0
ENDTAB
  0
TABLE
  2
DIMSTYLE
  5
A
330
0
100
AcDbSymbolTable
 70
     5
100
AcDbDimStyleTable
  0
DIMSTYLE
105
27
330
A
100
AcDbSymbolTableRecord
100
AcDbDimStyleTableRecord
  2
Standard
 70
     0
340
11
  0
DIMSTYLE
105
16D
102
{ACAD_REACTORS
330
16E
102
}
330
A
100
AcDbSymbolTableRecord
100
AcDbDimStyleTableRecord
  2
ME10_DIM_10
 70
     0
 41
3.5
 42
0.0
 44
2.0
 73
     0
 74
     0
 77
     1
 78
     8
140
3.5
147
2.0
172
     1
173
     1
176
     2
177
     2
178
     2
271
     3
340
169
  0
DIMSTYLE
105
178
102
{ACAD_REACTORS
330
179
102
}
330
A
100
AcDbSymbolTableRecord
100
AcDbDimStyleTableRecord
  2
ME10_DIM_11
 70
     0
 41
3.5
 42
0.0
 44
2.0
 73
     0
 74
     0
 77
     1
 78
     8
140
3.5
147
2.0
172
     1
173
     1
176
     2
177
     2
178
     2
271
     3
340
169
  0
DIMSTYLE
105
183
102
{ACAD_REACTORS
330
184
102
}
330
A
100
AcDbSymbolTableRecord
100
AcDbDimStyleTableRecord
  2
ME10_DIM_12
 70
     0
  3
ø<>
 41
3.5
 42
0.0
 44
2.0
 73
     0
 74
     0
 77
     1
 78
     8
140
3.5
147
2.0
172
     1
173
     1
176
     2
177
     2
178
     2
271
     3
340
169
  0
DIMSTYLE
105
18E
102
{ACAD_REACTORS
330
18F
102
}
330
A
100
AcDbSymbolTableRecord
100
AcDbDimStyleTableRecord
  2
ME10_DIM_13
 70
     0
 41
3.5
 42
0.0
 44
2.0
 73
     0
 74
     0
 77
     1
 78
     8
140
3.5
147
2.0
172
     1
173
     1
176
     2
177
     2
178
     2
271
     3
340
169
  0
ENDTAB
  0
TABLE
  2
BLOCK_RECORD
  5
1
330
0
100
AcDbSymbolTable
 70
     5
  0
BLOCK_RECORD
  5
1F
330
1
100
AcDbSymbolTableRecord
100
AcDbBlockTableRecord
  2
*Model_Space
340
22
  0
BLOCK_RECORD
  5
1B
330
1
100
AcDbSymbolTableRecord
100
AcDbBlockTableRecord
  2
*Paper_Space
340
1E
  0
BLOCK_RECORD
  5
23
330
1
100
AcDbSymbolTableRecord
100
AcDbBlockTableRecord
  2
*Paper_Space0
340
26
  0
BLOCK_RECORD
  5
163
330
1
100
AcDbSymbolTableRecord
100
AcDbBlockTableRecord
  2
*D1
340
0
  0
BLOCK_RECORD
  5
16F
330
1
100
AcDbSymbolTableRecord
100
AcDbBlockTableRecord
  2
*D2
340
0
  0
BLOCK_RECORD
  5
17A
330
1
100
AcDbSymbolTableRecord
100
AcDbBlockTableRecord
  2
*D3
340
0
  0
BLOCK_RECORD
  5
185
330
1
100
AcDbSymbolTableRecord
100
AcDbBlockTableRecord
  2
*D4
340
0
  0
ENDTAB
  0
ENDSEC
  0
SECTION
  2
BLOCKS
  0
BLOCK
  5
20
330
1F
100
AcDbEntity
  8
0
100
AcDbBlockBegin
  2
*Model_Space
 70
     0
 71
     0
 10
0.0
 20
0.0
 30
0.0
  3
*Model_Space
  1

  0
ENDBLK
  5
21
330
1F
100
AcDbEntity
  8
0
100
AcDbBlockEnd
  0
BLOCK
  5
1C
330
1B
100
AcDbEntity
 67
     1
  8
0
100
AcDbBlockBegin
  2
*Paper_Space
 70
     0
 71
     0
 10
0.0
 20
0.0
 30
0.0
  3
*Paper_Space
  1

  0
ENDBLK
  5
1D
330
1B
100
AcDbEntity
 67
     1
  8
0
100
AcDbBlockEnd
  0
BLOCK
  5
24
330
23
100
AcDbEntity
  8
0
100
AcDbBlockBegin
  2
*Paper_Space0
 70
     0
 71
     0
 10
0.0
 20
0.0
 30
0.0
  3
*Paper_Space0
  1

  0
ENDBLK
  5
25
330
23
100
AcDbEntity
  8
0
100
AcDbBlockEnd
  0
BLOCK
  5
16B
330
163
100
AcDbEntity
  8
0
100
AcDbBlockBegin
  2
*D1
 70
     1
 71
     0
 10
0.0
 20
0.0
 30
0.0
  3
*D1
  1

  0
LINE
  5
164
330
163
100
AcDbEntity
  8
1
  6
Continuous
 62
     2
100
AcDbLine
 10
265.3111225329
 20
276.612911774402
 30
0.0
 11
230.3111225328999
 21
276.612911774402
 31
0.0
  0
LINE
  5
165
330
163
100
AcDbEntity
  8
1
  6
Continuous
 62
     2
100
AcDbLine
 10
265.3111225329
 20
267.7456794886
 30
0.0
 11
265.3111225329
 21
278.612911774402
 31
0.0
  0
LINE
  5
166
330
163
100
AcDbEntity
  8
1
  6
Continuous
 62
     2
100
AcDbLine
 10
230.3111225328999
 20
268.7458747368
 30
0.0
 11
230.3111225328999
 21
278.612911774402
 31
0.0
  0
SOLID
  5
167
330
163
100
AcDbEntity
  8
1
 62
     2
100
AcDbTrace
 10
261.8111225329
 20
276.1521280328461
 30
0.0
 11
261.8111225329
 21
277.0736955159579
 31
0.0
 12
265.3111225329
 22
276.612911774402
 32
0.0
 13
265.3111225329
 23
276.612911774402
 33
0.0
  0
SOLID
  5
168
330
163
100
AcDbEntity
  8
1
 62
     2
100
AcDbTrace
 10
233.8111225328999
 20
277.0736955159579
 30
0.0
 11
233.8111225328999
 21
276.1521280328461
 31
0.0
 12
230.3111225328999
 22
276.612911774402
 32
0.0
 13
230.3111225328999
 23
276.612911774402
 33
0.0
  0
MTEXT
  5
16A
330
163
100
AcDbEntity
  8
1
 62
     2
100
AcDbMText
 10
244.7063907568609
 20
278.612911774402
 30
0.0
 40
3.5
 41
0.0
 71
     7
 72
     1
  1
35
  7
CONVERTER_11
 11
0.9999999999970621
 21
2.424068405545307E-6
 31
0.0
 73
     1
 44
0.60024009603842
  0
ENDBLK
  5
16C
330
163
100
AcDbEntity
  8
0
100
AcDbBlockEnd
  0
BLOCK
  5
176
330
16F
100
AcDbEntity
  8
0
100
AcDbBlockBegin
  2
*D2
 70
     1
 71
     0
 10
0.0
 20
0.0
 30
0.0
  3
*D2
  1

  0
LINE
  5
170
330
16F
100
AcDbEntity
  8
1
  6
Continuous
 62
     2
100
AcDbLine
 10
280.397193782129
 20
267.7458747368
 30
0.0
 11
280.397193782129
 21
157.7458747368
 31
0.0
  0
LINE
  5
171
330
16F
100
AcDbEntity
  8
1
  6
Continuous
 62
     2
100
AcDbLine
 10
265.3111225329
 20
267.7458747368
 30
0.0
 11
282.397193782129
 21
267.7458747368
 31
0.0
  0
LINE
  5
172
330
16F
100
AcDbEntity
  8
1
  6
Continuous
 62
     2
100
AcDbLine
 10
265.3111225329
 20
157.7458747368
 30
0.0
 11
282.397193782129
 21
157.7458747368
 31
0.0
  0
SOLID
  5
173
330
16F
100
AcDbEntity
  8
1
 62
     2
100
AcDbTrace
 10
280.8579775236849
 20
264.2458747368
 30
0.0
 11
279.9364100405732
 21
264.2458747368
 31
0.0
 12
280.397193782129
 22
267.7458747368
 32
0.0
 13
280.397193782129
 23
267.7458747368
 33
0.0
  0
SOLID
  5
174
330
16F
100
AcDbEntity
  8
1
 62
     2
100
AcDbTrace
 10
279.9364100405732
 20
161.2458747368
 30
0.0
 11
280.8579775236849
 21
161.2458747368
 31
0.0
 12
280.397193782129
 22
157.7458747368
 32
0.0
 13
280.397193782129
 23
157.7458747368
 33
0.0
  0
MTEXT
  5
175
330
16F
100
AcDbEntity
  8
1
 62
     2
100
AcDbMText
 10
278.397193782129
 20
208.9928238833088
 30
0.0
 40
3.5
 41
0.0
 71
     7
 72
     1
  1
110
  7
CONVERTER_11
 11
0.0
 21
1.0
 31
0.0
 73
     1
 44
0.60024009603842
  0
ENDBLK
  5
177
330
16F
100
AcDbEntity
  8
0
100
AcDbBlockEnd
  0
BLOCK
  5
181
330
17A
100
AcDbEntity
  8
0
100
AcDbBlockBegin
  2
*D3
 70
     1
 71
     0
 10
0.0
 20
0.0
 30
0.0
  3
*D3
  1

  0
LINE
  5
17B
330
17A
100
AcDbEntity
  8
1
  6
Continuous
 62
     2
100
AcDbLine
 10
205.3111225329
 20
195.962981796525
 30
0.0
 11
225.310643926
 21
195.962981796525
 31
0.0
  0
LINE
  5
17C
330
17A
100
AcDbEntity
  8
1
  6
Continuous
 62
     2
100
AcDbLine
 10
205.3111225329
 20
175.2458747368
 30
0.0
 11
205.3111225329
 21
197.962981796525
 31
0.0
  0
LINE
  5
17D
330
17A
100
AcDbEntity
  8
1
  6
Continuous
 62
     2
100
AcDbLine
 10
225.310643926
 20
175.2458747368
 30
0.0
 11
225.310643926
 21
197.962981796525
 31
0.0
  0
SOLID
  5
17E
330
17A
100
AcDbEntity
  8
1
 62
     2
100
AcDbTrace
 10
208.8111225329
 20
196.4237655380809
 30
0.0
 11
208.8111225329
 21
195.5021980549691
 31
0.0
 12
205.3111225329
 22
195.962981796525
 32
0.0
 13
205.3111225329
 23
195.962981796525
 33
0.0
  0
SOLID
  5
17F
330
17A
100
AcDbEntity
  8
1
 62
     2
100
AcDbTrace
 10
221.810643926
 20
195.5021980549691
 30
0.0
 11
221.810643926
 21
196.4237655380809
 31
0.0
 12
225.310643926
 22
195.962981796525
 32
0.0
 13
225.310643926
 23
195.962981796525
 33
0.0
  0
MTEXT
  5
180
330
17A
100
AcDbEntity
  8
1
 62
     2
100
AcDbMText
 10
211.9161225329084
 20
197.9629748394487
 30
0.0
 40
3.5
 41
0.0
 71
     7
 72
     1
  1
\C2;ø\C2;20
  7
CONVERTER_11
 11
0.9999999999970621
 21
2.424068405545307E-6
 31
0.0
 73
     1
 44
0.60024009603842
  0
ENDBLK
  5
182
330
17A
100
AcDbEntity
  8
0
100
AcDbBlockEnd
  0
BLOCK
  5
18C
330
185
100
AcDbEntity
  8
0
100
AcDbBlockBegin
  2
*D4
 70
     1
 71
     0
 10
0.0
 20
0.0
 30
0.0
  3
*D4
  1

  0
LINE
  5
186
330
185
100
AcDbEntity
  8
1
  6
Continuous
 62
     2
100
AcDbLine
 10
161.655016578542
 20
282.7458747368
 30
0.0
 11
161.655016578542
 21
142.7458747368
 31
0.0
  0
LINE
  5
187
330
185
100
AcDbEntity
  8
1
  6
Continuous
 62
     2
100
AcDbLine
 10
183.8111225329
 20
282.7458747368
 30
0.0
 11
159.655016578542
 21
282.7458747368
 31
0.0
  0
LINE
  5
188
330
185
100
AcDbEntity
  8
1
  6
Continuous
 62
     2
100
AcDbLine
 10
183.8111225329
 20
142.7458747368
 30
0.0
 11
159.655016578542
 21
142.7458747368
 31
0.0
  0
SOLID
  5
189
330
185
100
AcDbEntity
  8
1
 62
     2
100
AcDbTrace
 10
162.1158003200979
 20
279.2458747368
 30
0.0
 11
161.1942328369861
 21
279.2458747368
 31
0.0
 12
161.655016578542
 22
282.7458747368
 32
0.0
 13
161.655016578542
 23
282.7458747368
 33
0.0
  0
SOLID
  5
18A
330
185
100
AcDbEntity
  8
1
 62
     2
100
AcDbTrace
 10
161.1942328369861
 20
146.2458747368
 30
0.0
 11
162.1158003200979
 21
146.2458747368
 31
0.0
 12
161.655016578542
 22
142.7458747368
 32
0.0
 13
161.655016578542
 23
142.7458747368
 33
0.0
  0
MTEXT
  5
18B
330
185
100
AcDbEntity
  8
1
 62
     2
100
AcDbMText
 10
159.655016578542
 20
209.0708747368
 30
0.0
 40
3.5
 41
0.0
 71
     7
 72
     1
  1
140
  7
CONVERTER_11
 11
0.0
 21
1.0
 31
0.0
 73
     1
 44
0.60024009603842
  0
ENDBLK
  5
18D
330
185
100
AcDbEntity
  8
0
100
AcDbBlockEnd
  0
ENDSEC
  0
SECTION
  2
ENTITIES
  0
LINE
  5
36
330
1F
100
AcDbEntity
  8
0
  6
Continuous
 62
     7
100
AcDbLine
 10
205.3852076435
 20
142.7458747368
 30
0.0
 11
183.8111225329
 21
142.7458747368
 31
0.0
  0
LINE
  5
37
330
1F
100
AcDbEntity
  8
0
  6
Continuous
 62
     7
100
AcDbLine
 10
205.3852076435
 20
142.7458747368
 30
0.0
 11
225.2356033921
 21
142.7458747368
 31
0.0
  0
LINE
  5
38
330
1F
100
AcDbEntity
  8
A_RUNDUNGEN
  6
Continuous
 62
     7
100
AcDbLine
 10
242.7110783901999
 20
157.7458747368
 30
0.0
 11
242.7111225328999
 21
157.7458789719
 31
0.0
  0
LINE
  5
39
330
1F
100
AcDbEntity
  8
0
  6
Continuous
 62
     7
100
AcDbLine
 10
230.3111225328999
 20
156.7458747368
 30
0.0
 11
229.8111225328999
 21
156.7458747368
 31
0.0
  0
LINE
  5
3A
330
1F
100
AcDbEntity
  8
0
  6
Continuous
 62
     7
100
AcDbLine
 10
230.3111225328999
 20
157.7458747368
 30
0.0
 11
242.7110790533999
 21
157.7458747368
 31
0.0
  0
LINE
  5
3B
330
1F
100
AcDbEntity
  8
0
  6
Continuous
 62
     7
100
AcDbLine
 10
249.7111661103
 20
157.7458747368
 30
0.0
 11
265.3111225329
 21
157.7458747368
 31
0.0
  0
LINE
  5
3C
330
1F
100
AcDbEntity
  8
A_RUNDUNGEN
  6
Continuous
 62
     7
100
AcDbLine
 10
246.2549695369
 20
163.7458747348
 30
0.0
 11
246.2111225328999
 21
163.7455526999
 31
0.0
  0
LINE
  5
3D
330
1F
100
AcDbEntity
  8
0
  6
Continuous
 62
     7
100
AcDbLine
 10
232.3111225328999
 20
161.1311573997
 30
0.0
 11
240.3111225328999
 21
161.1311573997
 31
0.0
  0
LINE
  5
3E
330
1F
100
AcDbEntity
  8
0
  6
Continuous
 62
     7
100
AcDbLine
 10
232.3111225328999
 20
161.8233221552
 30
0.0
 11
240.3111225328999
 21
161.8233221552
 31
0.0
  0
LINE
  5
3F
330
1F
100
AcDbEntity
  8
0
  6
Continuous
 62
     7
100
AcDbLine
 10
232.3111225328999
 20
163.1790375104
 30
0.0
 11
240.3111225328999
 21
163.1790375104
 31
0.0
  0
LINE
  5
40
330
1F
100
AcDbEntity
  8
A_RUNDUNGEN
  6
Continuous
 62
     7
100
AcDbLine
 10
253.8111225328999
 20
163.8960003658
 30
0.0
 11
262.8111225329
 21
163.8960003658
 31
0.0
  0
LINE
  5
41
330
1F
100
AcDbEntity
  8
A_RUNDUNGEN
  6
Continuous
 62
     7
100
AcDbLine
 10
249.7111225328999
 20
157.7458789743
 30
0.0
 11
249.7111665184999
 21
157.7458747368
 31
0.0
  0
LINE
  5
42
330
1F
100
AcDbEntity
  8
A_ACHSEN
  6
Continuous
 62
     7
100
AcDbLine
 10
263.3111225329
 20
168.7458747368
 30
0.0
 11
255.4748120594445
 21
168.7458747368
 31
0.0
  0
LINE
  5
43
330
1F
100
AcDbEntity
  8
DEFAULT_1
  6
DOT_CENTER
 62
     2
100
AcDbLine
 10
246.3111225328999
 20
173.7458747368
 30
0.0
 11
236.3111225328999
 21
173.7458747368
 31
0.0
  0
LINE
  5
44
330
1F
100
AcDbEntity
  8
DEFAULT_1
  6
DOT_CENTER
 62
     2
100
AcDbLine
 10
246.3111225328999
 20
173.7458747368
 30
0.0
 11
256.3111225329
 21
173.7458747368
 31
0.0
  0
LINE
  5
45
330
1F
100
AcDbEntity
  8
0
  6
Continuous
 62
     7
100
AcDbLine
 10
205.3863041253
 20
174.3458747368
 30
0.0
 11
206.8111225329
 21
174.3458747368
 31
0.0
  0
LINE
  5
46
330
1F
100
AcDbEntity
  8
0
  6
Continuous
 62
     7
100
AcDbLine
 10
225.310643926
 20
175.2458747368
 30
0.0
 11
205.3116249318
 21
175.2458747368
 31
0.0
  0
LINE
  5
47
330
1F
100
AcDbEntity
  8
0
  6
Continuous
 62
     7
100
AcDbLine
 10
225.310643926
 20
175.2458747368
 30
0.0
 11
225.5518632736
 21
175.2458747368
 31
0.0
  0
LINE
  5
48
330
1F
100
AcDbEntity
  8
A_RUNDUNGEN
  6
Continuous
 62
     7
100
AcDbLine
 10
225.5518632736
 20
175.2458747368
 30
0.0
 11
229.3111225328999
 21
175.2458747368
 31
0.0
  0
LINE
  5
49
330
1F
100
AcDbEntity
  8
A_ACHSEN
  6
Continuous
 62
     7
100
AcDbLine
 10
251.2101020185
 20
178.7458747368
 30
0.0
 11
251.3111225328999
 21
178.7458747368
 31
0.0
  0
LINE
  5
4A
330
1F
100
AcDbEntity
  8
A_RUNDUNGEN
  6
Continuous
 62
     7
100
AcDbLine
 10
259.3111225329
 20
182.7458747368
 30
0.0
 11
258.8111225329
 21
182.7458747368
 31
0.0
  0
LINE
  5
4B
330
1F
100
AcDbEntity
  8
0
  6
Continuous
 62
     7
100
AcDbLine
 10
245.1564219944999
 20
185.7458747368
 30
0.0
 11
247.4658230713
 21
185.7458747368
 31
0.0
  0
LINE
  5
4C
330
1F
100
AcDbEntity
  8
0
  6
Continuous
 62
     7
100
AcDbLine
 10
246.3111225328999
 20
254.0552758136
 30
0.0
 11
244.3111225328999
 21
252.9005752752
 31
0.0
  0
LINE
  5
4D
330
1F
100
AcDbEntity
  8
DEFAULT_1
  6
DOT_CENTER
 62
     2
100
AcDbLine
 10
246.3111225328999
 20
187.7458747368
 30
0.0
 11
237.8111225328999
 21
187.7458747368
 31
0.0
  0
LINE
  5
4E
330
1F
100
AcDbEntity
  8
DEFAULT_1
  6
DOT_CENTER
 62
     2
100
AcDbLine
 10
246.3111225328999
 20
187.7458747368
 30
0.0
 11
254.8111225328999
 21
187.7458747368
 31
0.0
  0
LINE
  5
4F
330
1F
100
AcDbEntity
  8
0
  6
Continuous
 62
     7
100
AcDbLine
 10
247.4658230713
 20
189.7458747368
 30
0.0
 11
245.1564219944999
 21
189.7458747368
 31
0.0
  0
LINE
  5
50
330
1F
100
AcDbEntity
  8
0
  6
Continuous
 62
     7
100
AcDbLine
 10
244.3111225328999
 20
172.5911741985
 30
0.0
 11
246.3111225328999
 21
171.4364736601
 31
0.0
  0
LINE
  5
51
330
1F
100
AcDbEntity
  8
0
  6
Continuous
 62
     7
100
AcDbLine
 10
205.3111225329
 20
175.2458747368
 30
0.0
 11
205.3111225329
 21
250.2458747368
 31
0.0
  0
LINE
  5
52
330
1F
100
AcDbEntity
  8
0
  6
Continuous
 62
     7
100
AcDbLine
 10
205.3861225329
 20
282.7458747368
 30
0.0
 11
205.3861225329
 21
251.1458747368
 31
0.0
  0
LINE
  5
53
330
1F
100
AcDbEntity
  8
0
  6
Continuous
 62
     7
100
AcDbLine
 10
205.3861225329
 20
174.3458747368
 30
0.0
 11
205.3861225329
 21
142.7458747368
 31
0.0
  0
LINE
  5
54
330
1F
100
AcDbEntity
  8
A_ACHSEN
  6
Continuous
 62
     7
100
AcDbLine
 10
206.8111225329
 20
251.1458747368
 30
0.0
 11
206.8111225329
 21
250.2458747368
 31
0.0
  0
LINE
  5
55
330
1F
100
AcDbEntity
  8
A_ACHSEN
  6
Continuous
 62
     7
100
AcDbLine
 10
206.8111225329
 20
174.3458747368
 30
0.0
 11
206.8111225329
 21
175.2458747368
 31
0.0
  0
LINE
  5
56
330
1F
100
AcDbEntity
  8
0
  6
Continuous
 62
     7
100
AcDbLine
 10
246.3111225328999
 20
249.4364736601
 30
0.0
 11
248.3111225328999
 21
250.5911741985
 31
0.0
  0
LINE
  5
57
330
1F
100
AcDbEntity
  8
0
  6
Continuous
 62
     7
100
AcDbLine
 10
248.3111225328999
 20
174.9005752752
 30
0.0
 11
246.3111225328999
 21
176.0552758136
 31
0.0
  0
LINE
  5
58
330
1F
100
AcDbEntity
  8
A_ACHSEN
  6
DOT_CENTER
 62
     2
100
AcDbLine
 10
215.3111225329
 20
140.7458747368
 30
0.0
 11
215.3111225329
 21
193.421556523983
 31
0.0
  0
LINE
  5
59
330
1F
100
AcDbEntity
  8
0
  6
Continuous
 62
     7
100
AcDbLine
 10
246.3111225328999
 20
207.2458747368
 30
0.0
 11
254.3111225328999
 21
207.2458747368
 31
0.0
  0
LINE
  5
5A
330
1F
100
AcDbEntity
  8
0
  6
Continuous
 62
     7
100
AcDbLine
 10
245.1564219944999
 20
210.7458747368
 30
0.0
 11
247.4658230713
 21
210.7458747368
 31
0.0
  0
LINE
  5
5B
330
1F
100
AcDbEntity
  8
A_ACHSEN
  6
DOT_CENTER
 62
     2
100
AcDbLine
 10
203.2063963265
 20
212.7458747368
 30
0.0
 11
196.7472176763
 21
212.7458747368
 31
0.0
  0
LINE
  5
5C
330
1F
100
AcDbEntity
  8
A_ACHSEN
  6
DOT_CENTER
 62
     2
100
AcDbLine
 10
171.464979167767
 20
212.7458747368
 30
0.0
 11
196.7472176763
 21
212.7458747368
 31
0.0
  0
LINE
  5
5D
330
1F
100
AcDbEntity
  8
A_ACHSEN
  6
Continuous
 62
     7
100
AcDbLine
 10
223.8111225329
 20
251.1458747368
 30
0.0
 11
223.8111225329
 21
250.2458747368
 31
0.0
  0
LINE
  5
5E
330
1F
100
AcDbEntity
  8
A_ACHSEN
  6
Continuous
 62
     7
100
AcDbLine
 10
223.8111225329
 20
174.3458747368
 30
0.0
 11
223.8111225329
 21
175.2458747368
 31
0.0
  0
LINE
  5
5F
330
1F
100
AcDbEntity
  8
0
  6
Continuous
 62
     7
100
AcDbLine
 10
225.2361225329
 20
282.7458747368
 30
0.0
 11
225.2361225329
 21
251.1458747368
 31
0.0
  0
LINE
  5
60
330
1F
100
AcDbEntity
  8
0
  6
Continuous
 62
     7
100
AcDbLine
 10
225.2361225329
 20
174.3458747368
 30
0.0
 11
225.2361225329
 21
142.7458747368
 31
0.0
  0
LINE
  5
61
330
1F
100
AcDbEntity
  8
0
  6
Continuous
 62
     7
100
AcDbLine
 10
225.310643926
 20
175.2458747368
 30
0.0
 11
225.310643926
 21
250.2458747368
 31
0.0
  0
LINE
  5
62
330
1F
100
AcDbEntity
  8
0
  6
Continuous
 62
     7
100
AcDbLine
 10
247.4658230713
 20
214.7458747368
 30
0.0
 11
245.1564219944999
 21
214.7458747368
 31
0.0
  0
LINE
  5
63
330
1F
100
AcDbEntity
  8
0
  6
Continuous
 62
     7
100
AcDbLine
 10
254.3111225328999
 20
218.2458747368
 30
0.0
 11
246.3111225328999
 21
218.2458747368
 31
0.0
  0
LINE
  5
64
330
1F
100
AcDbEntity
  8
A_RUNDUNGEN
  6
Continuous
 62
     7
100
AcDbLine
 10
229.3111225328999
 20
157.2461558361
 30
0.0
 11
229.3111225328999
 21
211.9958747368
 31
0.0
  0
LINE
  5
65
330
1F
100
AcDbEntity
  8
A_RUNDUNGEN
  6
Continuous
 62
     7
100
AcDbLine
 10
229.3111225328999
 20
211.9958747368
 30
0.0
 11
229.3111225328999
 21
268.2455936376
 31
0.0
  0
LINE
  5
66
330
1F
100
AcDbEntity
  8
0
  6
Continuous
 62
     7
100
AcDbLine
 10
230.3111225328999
 20
156.7458747368
 30
0.0
 11
230.3111225328999
 21
268.7458747368
 31
0.0
  0
LINE
  5
67
330
1F
100
AcDbEntity
  8
0
  6
Continuous
 62
     7
100
AcDbLine
 10
232.3111225328999
 20
161.1311573907
 30
0.0
 11
232.3111225328999
 21
163.1790375149
 31
0.0
  0
LINE
  5
68
330
1F
100
AcDbEntity
  8
0
  6
Continuous
 62
     7
100
AcDbLine
 10
232.3111225328999
 20
262.3127119588
 30
0.0
 11
232.3111225328999
 21
264.360592083
 31
0.0
  0
LINE
  5
69
330
1F
100
AcDbEntity
  8
0
  6
Continuous
 62
     7
100
AcDbLine
 10
245.1564219944999
 20
239.7458747368
 30
0.0
 11
244.0017214560999
 21
237.7458747368
 31
0.0
  0
LINE
  5
6A
330
1F
100
AcDbEntity
  8
0
  6
Continuous
 62
     7
100
AcDbLine
 10
247.4658230713
 20
235.7458747368
 30
0.0
 11
248.6205236096999
 21
237.7458747368
 31
0.0
  0
LINE
  5
6B
330
1F
100
AcDbEntity
  8
0
  6
Continuous
 62
     7
100
AcDbLine
 10
244.0017214560999
 20
187.7458747368
 30
0.0
 11
245.1564219944999
 21
185.7458747368
 31
0.0
  0
LINE
  5
6C
330
1F
100
AcDbEntity
  8
0
  6
Continuous
 62
     7
100
AcDbLine
 10
248.6205236096999
 20
187.7458747368
 30
0.0
 11
247.4658230713
 21
189.7458747368
 31
0.0
  0
LINE
  5
6D
330
1F
100
AcDbEntity
  8
0
  6
Continuous
 62
     7
100
AcDbLine
 10
240.3111225328999
 20
161.1311573907
 30
0.0
 11
240.3111225328999
 21
163.1790375149
 31
0.0
  0
LINE
  5
6E
330
1F
100
AcDbEntity
  8
0
  6
Continuous
 62
     7
100
AcDbLine
 10
240.3111225328999
 20
262.3127119588
 30
0.0
 11
240.3111225328999
 21
264.360592083
 31
0.0
  0
LINE
  5
6F
330
1F
100
AcDbEntity
  8
A_RUNDUNGEN
  6
Continuous
 62
     7
100
AcDbLine
 10
243.2111225328999
 20
267.2458717763
 30
0.0
 11
243.2111225328999
 21
264.7458747368
 31
0.0
  0
LINE
  5
70
330
1F
100
AcDbEntity
  8
A_RUNDUNGEN
  6
Continuous
 62
     7
100
AcDbLine
 10
243.2111225328999
 20
158.2458776973
 30
0.0
 11
243.2111225328999
 21
160.7458756834
 31
0.0
  0
LINE
  5
71
330
1F
100
AcDbEntity
  8
0
  6
Continuous
 62
     7
100
AcDbLine
 10
244.3111225328999
 20
252.9005752752
 30
0.0
 11
244.3111225328999
 21
250.5911741985
 31
0.0
  0
LINE
  5
72
330
1F
100
AcDbEntity
  8
0
  6
Continuous
 62
     7
100
AcDbLine
 10
244.3111225328999
 20
174.9005752752
 30
0.0
 11
244.3111225328999
 21
172.5911741985
 31
0.0
  0
LINE
  5
73
330
1F
100
AcDbEntity
  8
0
  6
Continuous
 62
     7
100
AcDbLine
 10
245.1564219944999
 20
214.7458747368
 30
0.0
 11
244.0017214560999
 21
212.7458747368
 31
0.0
  0
LINE
  5
74
330
1F
100
AcDbEntity
  8
0
  6
Continuous
 62
     7
100
AcDbLine
 10
244.0017214560999
 20
212.7458747368
 30
0.0
 11
245.1564219944999
 21
210.7458747368
 31
0.0
  0
LINE
  5
75
330
1F
100
AcDbEntity
  8
DEFAULT_1
  6
DOT_CENTER
 62
     2
100
AcDbLine
 10
246.3111225328999
 20
251.7458747368
 30
0.0
 11
246.3111225328999
 21
241.7458747368
 31
0.0
  0
LINE
  5
76
330
1F
100
AcDbEntity
  8
DEFAULT_1
  6
DOT_CENTER
 62
     2
100
AcDbLine
 10
246.3111225328999
 20
237.7458747368
 30
0.0
 11
246.3111225328999
 21
229.2458747368
 31
0.0
  0
LINE
  5
77
330
1F
100
AcDbEntity
  8
A_ACHSEN
  6
DOT_CENTER
 62
     2
100
AcDbLine
 10
246.3111225328999
 20
212.7458747368
 30
0.0
 11
246.3111225328999
 21
205.2283862274
 31
0.0
  0
LINE
  5
78
330
1F
100
AcDbEntity
  8
DEFAULT_1
  6
DOT_CENTER
 62
     2
100
AcDbLine
 10
246.3111225328999
 20
187.7458747368
 30
0.0
 11
246.3111225328999
 21
179.2458747368
 31
0.0
  0
LINE
  5
79
330
1F
100
AcDbEntity
  8
DEFAULT_1
  6
DOT_CENTER
 62
     2
100
AcDbLine
 10
246.3111225328999
 20
173.7458747368
 30
0.0
 11
246.3111225328999
 21
164.7458747368
 31
0.0
  0
LINE
  5
7A
330
1F
100
AcDbEntity
  8
DEFAULT_1
  6
DOT_CENTER
 62
     2
100
AcDbLine
 10
246.3111225328999
 20
173.7458747368
 30
0.0
 11
246.3111225328999
 21
179.2458747368
 31
0.0
  0
LINE
  5
7B
330
1F
100
AcDbEntity
  8
DEFAULT_1
  6
DOT_CENTER
 62
     2
100
AcDbLine
 10
246.3111225328999
 20
187.7458747368
 30
0.0
 11
246.3111225328999
 21
196.2458747368
 31
0.0
  0
LINE
  5
7C
330
1F
100
AcDbEntity
  8
A_ACHSEN
  6
DOT_CENTER
 62
     2
100
AcDbLine
 10
246.3111225328999
 20
212.7458747368
 30
0.0
 11
246.3111225328999
 21
220.2633632463
 31
0.0
  0
LINE
  5
7D
330
1F
100
AcDbEntity
  8
DEFAULT_1
  6
DOT_CENTER
 62
     2
100
AcDbLine
 10
246.3111225328999
 20
237.7458747368
 30
0.0
 11
246.3111225328999
 21
241.7458747368
 31
0.0
  0
LINE
  5
7E
330
1F
100
AcDbEntity
  8
DEFAULT_1
  6
DOT_CENTER
 62
     2
100
AcDbLine
 10
246.3111225328999
 20
251.7458747368
 30
0.0
 11
246.3111225328999
 21
260.7458747368
 31
0.0
  0
LINE
  5
7F
330
1F
100
AcDbEntity
  8
0
  6
Continuous
 62
     7
100
AcDbLine
 10
248.3111225328999
 20
172.5911741985
 30
0.0
 11
248.3111225328999
 21
174.9005752752
 31
0.0
  0
LINE
  5
80
330
1F
100
AcDbEntity
  8
0
  6
Continuous
 62
     7
100
AcDbLine
 10
248.3111225328999
 20
250.5911741985
 30
0.0
 11
248.3111225328999
 21
252.9005752752
 31
0.0
  0
LINE
  5
81
330
1F
100
AcDbEntity
  8
A_RUNDUNGEN
  6
Continuous
 62
     7
100
AcDbLine
 10
249.2111225328999
 20
267.2458717764
 30
0.0
 11
249.2111225328999
 21
264.7458758011
 31
0.0
  0
LINE
  5
82
330
1F
100
AcDbEntity
  8
A_RUNDUNGEN
  6
Continuous
 62
     7
100
AcDbLine
 10
249.2111225328999
 20
160.7458747368
 30
0.0
 11
249.2111225328999
 21
158.2458776973
 31
0.0
  0
LINE
  5
83
330
1F
100
AcDbEntity
  8
0
  6
Continuous
 62
     7
100
AcDbLine
 10
247.4658230713
 20
210.7458747368
 30
0.0
 11
248.6205236096999
 21
212.7458747368
 31
0.0
  0
LINE
  5
84
330
1F
100
AcDbEntity
  8
0
  6
Continuous
 62
     7
100
AcDbLine
 10
245.1564219944999
 20
235.7458747368
 30
0.0
 11
247.4658230713
 21
235.7458747368
 31
0.0
  0
LINE
  5
85
330
1F
100
AcDbEntity
  8
DEFAULT_1
  6
DOT_CENTER
 62
     2
100
AcDbLine
 10
246.3111225328999
 20
237.7458747368
 30
0.0
 11
237.8111225328999
 21
237.7458747368
 31
0.0
  0
LINE
  5
86
330
1F
100
AcDbEntity
  8
DEFAULT_1
  6
DOT_CENTER
 62
     2
100
AcDbLine
 10
246.3111225328999
 20
237.7458747368
 30
0.0
 11
254.8111225328999
 21
237.7458747368
 31
0.0
  0
LINE
  5
87
330
1F
100
AcDbEntity
  8
0
  6
Continuous
 62
     7
100
AcDbLine
 10
247.4658230713
 20
239.7458747368
 30
0.0
 11
245.1564219944999
 21
239.7458747368
 31
0.0
  0
LINE
  5
88
330
1F
100
AcDbEntity
  8
0
  6
Continuous
 62
     7
100
AcDbLine
 10
248.6205236096999
 20
212.7458747368
 30
0.0
 11
247.4658230713
 21
214.7458747368
 31
0.0
  0
LINE
  5
89
330
1F
100
AcDbEntity
  8
A_RUNDUNGEN
  6
Continuous
 62
     7
100
AcDbLine
 10
253.3111225328999
 20
158.4652359334
 30
0.0
 11
253.3111225328999
 21
163.3960003658
 31
0.0
  0
LINE
  5
8A
330
1F
100
AcDbEntity
  8
A_RUNDUNGEN
  6
Continuous
 62
     7
100
AcDbLine
 10
253.3111225328999
 20
262.0957491079
 30
0.0
 11
253.3111225328999
 21
267.1265158836
 31
0.0
  0
LINE
  5
8B
330
1F
100
AcDbEntity
  8
0
  6
Continuous
 62
     7
100
AcDbLine
 10
254.3111225328999
 20
181.7458747368
 30
0.0
 11
254.3111225328999
 21
207.2458747368
 31
0.0
  0
LINE
  5
8C
330
1F
100
AcDbEntity
  8
0
  6
Continuous
 62
     7
100
AcDbLine
 10
254.3111225328999
 20
218.2458747368
 30
0.0
 11
254.3111225328999
 21
243.7458747368
 31
0.0
  0
LINE
  5
8D
330
1F
100
AcDbEntity
  8
0
  6
Continuous
 62
     7
100
AcDbLine
 10
245.1564219944999
 20
189.7458747368
 30
0.0
 11
244.0017214560999
 21
187.7458747368
 31
0.0
  0
LINE
  5
8E
330
1F
100
AcDbEntity
  8
A_RUNDUNGEN
  6
Continuous
 62
     7
100
AcDbLine
 10
259.3111225329
 20
242.7458747368
 30
0.0
 11
258.8111225329
 21
242.7458747368
 31
0.0
  0
LINE
  5
8F
330
1F
100
AcDbEntity
  8
0
  6
Continuous
 62
     7
100
AcDbLine
 10
244.0017214560999
 20
237.7458747368
 30
0.0
 11
245.1564219944999
 21
235.7458747368
 31
0.0
  0
LINE
  5
90
330
1F
100
AcDbEntity
  8
0
  6
Continuous
 62
     7
100
AcDbLine
 10
258.8111225329
 20
250.2458747368
 30
0.0
 11
258.8111225329
 21
175.2458747368
 31
0.0
  0
LINE
  5
91
330
1F
100
AcDbEntity
  8
0
  6
Continuous
 62
     7
100
AcDbLine
 10
247.4658230713
 20
185.7458747368
 30
0.0
 11
248.6205236096999
 21
187.7458747368
 31
0.0
  0
LINE
  5
92
330
1F
100
AcDbEntity
  8
A_ACHSEN
  6
Continuous
 62
     7
100
AcDbLine
 10
251.3111225328999
 20
246.7458747368
 30
0.0
 11
251.2101020185
 21
246.7458747368
 31
0.0
  0
LINE
  5
93
330
1F
100
AcDbEntity
  8
0
  6
Continuous
 62
     7
100
AcDbLine
 10
225.310643926
 20
250.2458747368
 30
0.0
 11
205.3116249318
 21
250.2458747368
 31
0.0
  0
LINE
  5
94
330
1F
100
AcDbEntity
  8
0
  6
Continuous
 62
     7
100
AcDbLine
 10
225.310643926
 20
250.2458747368
 30
0.0
 11
225.5518632736
 21
250.2458747368
 31
0.0
  0
LINE
  5
95
330
1F
100
AcDbEntity
  8
A_RUNDUNGEN
  6
Continuous
 62
     7
100
AcDbLine
 10
225.5518632736
 20
250.2458747368
 30
0.0
 11
229.3111225328999
 21
250.2458747368
 31
0.0
  0
LINE
  5
96
330
1F
100
AcDbEntity
  8
0
  6
Continuous
 62
     7
100
AcDbLine
 10
205.3863041253
 20
251.1458747368
 30
0.0
 11
206.8111225329
 21
251.1458747368
 31
0.0
  0
LINE
  5
97
330
1F
100
AcDbEntity
  8
DEFAULT_1
  6
DOT_CENTER
 62
     2
100
AcDbLine
 10
246.3111225328999
 20
251.7458747368
 30
0.0
 11
236.3111225328999
 21
251.7458747368
 31
0.0
  0
LINE
  5
98
330
1F
100
AcDbEntity
  8
DEFAULT_1
  6
DOT_CENTER
 62
     2
100
AcDbLine
 10
246.3111225328999
 20
251.7458747368
 30
0.0
 11
256.3111225329
 21
251.7458747368
 31
0.0
  0
LINE
  5
99
330
1F
100
AcDbEntity
  8
0
  6
Continuous
 62
     7
100
AcDbLine
 10
248.6205236096999
 20
237.7458747368
 30
0.0
 11
247.4658230713
 21
239.7458747368
 31
0.0
  0
LINE
  5
9A
330
1F
100
AcDbEntity
  8
A_RUNDUNGEN
  6
Continuous
 62
     7
100
AcDbLine
 10
262.3111225329
 20
185.7458747368
 30
0.0
 11
262.3111225329
 21
239.7458747368
 31
0.0
  0
LINE
  5
9B
330
1F
100
AcDbEntity
  8
A_RUNDUNGEN
  6
Continuous
 62
     7
100
AcDbLine
 10
263.3111225329
 20
267.1267062565
 30
0.0
 11
263.3111225329
 21
262.0957491079
 31
0.0
  0
LINE
  5
9C
330
1F
100
AcDbEntity
  8
A_RUNDUNGEN
  6
Continuous
 62
     7
100
AcDbLine
 10
263.3111225329
 20
163.3960003658
 30
0.0
 11
263.3111225329
 21
158.4650432172
 31
0.0
  0
LINE
  5
9D
330
1F
100
AcDbEntity
  8
A_RUNDUNGEN
  6
Continuous
 62
     7
100
AcDbLine
 10
265.3111225329
 20
267.7456794886001
 30
0.0
 11
265.3111225329
 21
258.7458747368
 31
0.0
  0
LINE
  5
9E
330
1F
100
AcDbEntity
  8
A_RUNDUNGEN
  6
Continuous
 62
     7
100
AcDbLine
 10
265.3111225329
 20
166.7458747368
 30
0.0
 11
265.3111225329
 21
157.7460699851
 31
0.0
  0
LINE
  5
9F
330
1F
100
AcDbEntity
  8
0
  6
Continuous
 62
     7
100
AcDbLine
 10
265.3111225329
 20
166.7458747368
 30
0.0
 11
265.3111225329
 21
258.7458747368
 31
0.0
  0
LINE
  5
A0
330
1F
100
AcDbEntity
  8
A_RUNDUNGEN
  6
Continuous
 62
     7
100
AcDbLine
 10
246.2111776634999
 20
163.7458747368
 30
0.0
 11
246.2111224024
 21
163.7457316012
 31
0.0
  0
LINE
  5
A1
330
1F
100
AcDbEntity
  8
0
  6
Continuous
 62
     7
100
AcDbLine
 10
246.3111225328999
 20
176.0552758136
 30
0.0
 11
244.3111225328999
 21
174.9005752752
 31
0.0
  0
LINE
  5
A2
330
1F
100
AcDbEntity
  8
0
  6
Continuous
 62
     7
100
AcDbLine
 10
244.3111225328999
 20
250.5911741985
 30
0.0
 11
246.3111225328999
 21
249.4364736601
 31
0.0
  0
LINE
  5
A3
330
1F
100
AcDbEntity
  8
0
  6
Continuous
 62
     7
100
AcDbLine
 10
246.3111225328999
 20
171.4364736601
 30
0.0
 11
248.3111225328999
 21
172.5911741985
 31
0.0
  0
LINE
  5
A4
330
1F
100
AcDbEntity
  8
A_RUNDUNGEN
  6
Continuous
 62
     7
100
AcDbLine
 10
262.8111225329
 20
261.5957491079
 30
0.0
 11
253.8111225328999
 21
261.5957491079
 31
0.0
  0
LINE
  5
A5
330
1F
100
AcDbEntity
  8
0
  6
Continuous
 62
     7
100
AcDbLine
 10
232.3111225328999
 20
262.3127119632
 30
0.0
 11
240.3111225328999
 21
262.3127119632
 31
0.0
  0
LINE
  5
A6
330
1F
100
AcDbEntity
  8
0
  6
Continuous
 62
     7
100
AcDbLine
 10
248.3111225328999
 20
252.9005752752
 30
0.0
 11
246.3111225328999
 21
254.0552758136
 31
0.0
  0
LINE
  5
A7
330
1F
100
AcDbEntity
  8
A_RUNDUNGEN
  6
Continuous
 62
     7
100
AcDbLine
 10
249.7111666753
 20
267.7458747368
 30
0.0
 11
249.7111225328999
 21
267.7458705018
 31
0.0
  0
LINE
  5
A8
330
1F
100
AcDbEntity
  8
0
  6
Continuous
 62
     7
100
AcDbLine
 10
232.3111225328999
 20
263.6684273185
 30
0.0
 11
240.3111225328999
 21
263.6684273185
 31
0.0
  0
LINE
  5
A9
330
1F
100
AcDbEntity
  8
0
  6
Continuous
 62
     7
100
AcDbLine
 10
232.3111225328999
 20
264.360592074
 30
0.0
 11
240.3111225328999
 21
264.360592074
 31
0.0
  0
LINE
  5
AA
330
1F
100
AcDbEntity
  8
0
  6
Continuous
 62
     7
100
AcDbLine
 10
230.3111225328999
 20
267.7458747368
 30
0.0
 11
242.7110789554999
 21
267.7458747368
 31
0.0
  0
LINE
  5
AB
330
1F
100
AcDbEntity
  8
0
  6
Continuous
 62
     7
100
AcDbLine
 10
249.7111660124
 20
267.7458747368
 30
0.0
 11
265.3111225329
 21
267.7458747368
 31
0.0
  0
LINE
  5
AC
330
1F
100
AcDbEntity
  8
0
  6
Continuous
 62
     7
100
AcDbLine
 10
230.3111225328999
 20
268.7458747368
 30
0.0
 11
229.8111225328999
 21
268.7458747368
 31
0.0
  0
LINE
  5
AD
330
1F
100
AcDbEntity
  8
A_RUNDUNGEN
  6
Continuous
 62
     7
100
AcDbLine
 10
242.7111225328999
 20
267.7458704994
 30
0.0
 11
242.7110785474999
 21
267.7458747368
 31
0.0
  0
LINE
  5
AE
330
1F
100
AcDbEntity
  8
0
  6
Continuous
 62
     7
100
AcDbLine
 10
205.3852076435
 20
282.7458747368
 30
0.0
 11
183.8111225329
 21
282.7458747368
 31
0.0
  0
LINE
  5
AF
330
1F
100
AcDbEntity
  8
0
  6
Continuous
 62
     7
100
AcDbLine
 10
205.3852076435
 20
282.7458747368
 30
0.0
 11
225.2356033921
 21
282.7458747368
 31
0.0
  0
LINE
  5
B0
330
1F
100
AcDbEntity
  8
0
  6
Continuous
 62
     7
100
AcDbLine
 10
223.8111225329
 20
251.1458747368
 30
0.0
 11
225.2335762504
 21
251.1458747368
 31
0.0
  0
LINE
  5
B1
330
1F
100
AcDbEntity
  8
0
  6
Continuous
 62
     7
100
AcDbLine
 10
206.8111225329
 20
251.1458747368
 30
0.0
 11
223.8111225329
 21
251.1458747368
 31
0.0
  0
LINE
  5
B2
330
1F
100
AcDbEntity
  8
0
  6
Continuous
 62
     7
100
AcDbLine
 10
223.8111225329
 20
174.3458747368
 30
0.0
 11
225.2335762504
 21
174.3458747368
 31
0.0
  0
LINE
  5
B3
330
1F
100
AcDbEntity
  8
0
  6
Continuous
 62
     7
100
AcDbLine
 10
206.8111225329
 20
174.3458747368
 30
0.0
 11
223.8111225329
 21
174.3458747368
 31
0.0
  0
LINE
  5
B4
330
1F
100
AcDbEntity
  8
A_ACHSEN
  6
Continuous
 62
     7
100
AcDbLine
 10
255.4748120594445
 20
168.7458747368
 30
0.0
 11
251.2101020185
 21
168.7458747368
 31
0.0
  0
LINE
  5
B5
330
1F
100
AcDbEntity
  8
A_ACHSEN
  6
Continuous
 62
     7
100
AcDbLine
 10
255.4748120594442
 20
256.7458747368
 30
0.0
 11
251.2101020185
 21
256.7458747368
 31
0.0
  0
LINE
  5
B6
330
1F
100
AcDbEntity
  8
A_ACHSEN
  6
Continuous
 62
     7
100
AcDbLine
 10
263.3111225329
 20
256.7458747368
 30
0.0
 11
255.4748120594442
 21
256.7458747368
 31
0.0
  0
LINE
  5
B7
330
1F
100
AcDbEntity
  8
A_ACHSEN
  6
DOT_CENTER
 62
     2
100
AcDbLine
 10
203.2063963265
 20
212.7458747368
 30
0.0
 11
264.3111225329
 21
212.7458747368
 31
0.0
  0
LINE
  5
B8
330
1F
100
AcDbEntity
  8
A_ACHSEN
  6
DOT_CENTER
 62
     2
100
AcDbLine
 10
215.3111225329
 20
204.488400979299
 30
0.0
 11
215.3111225329
 21
284.7458747368
 31
0.0
  0
LINE
  5
B9
330
1F
100
AcDbEntity
  8
1
  6
Continuous
 62
     7
100
AcDbLine
 10
173.8111225329
 20
272.7458747368
 30
0.0
 11
173.8111225329
 21
152.7458747368
 31
0.0
  0
LINE
  5
BA
330
1F
100
AcDbEntity
  8
1
  6
DOT_CENTER
 62
     2
100
AcDbLine
 10
180.8111225329
 20
222.3268348972706
 30
0.0
 11
180.8111225329
 21
202.8771271685327
 31
0.0
  0
LINE
  5
BB
330
1F
100
AcDbEntity
  8
0
  6
Continuous
 62
     7
100
AcDbLine
 10
179.8833233078719
 20
215.9346221427913
 30
0.0
 11
180.282241459902
 21
216.6792224387973
 31
0.0
  0
LINE
  5
BC
330
1F
100
AcDbEntity
  8
0
  6
Continuous
 62
     7
100
AcDbLine
 10
177.140304203868
 20
211.2372249107866
 30
0.0
 11
177.5856872757674
 21
211.9549993018882
 31
0.0
  0
LINE
  5
BD
330
1F
100
AcDbEntity
  8
0
  6
Continuous
 62
     7
100
AcDbLine
 10
181.7389217576953
 20
209.5571282844976
 30
0.0
 11
181.3400036058981
 21
208.8125279884916
 31
0.0
  0
LINE
  5
BE
330
1F
100
AcDbEntity
  8
0
  6
Continuous
 62
     7
100
AcDbLine
 10
184.4819408616992
 20
214.2545245628935
 30
0.0
 11
184.0365577897998
 21
213.5367501716901
 31
0.0
  0
LINE
  5
BF
330
1F
100
AcDbEntity
  8
0
  6
Continuous
 62
     7
100
AcDbLine
 10
177.5856872757674
 20
213.5367501716901
 30
0.0
 11
177.140304203868
 21
214.2545245628935
 31
0.0
  0
LINE
  5
C0
330
1F
100
AcDbEntity
  8
0
  6
Continuous
 62
     7
100
AcDbLine
 10
180.282241459902
 20
208.8125279884916
 30
0.0
 11
179.8833233078719
 21
209.5571282844976
 31
0.0
  0
LINE
  5
C1
330
1F
100
AcDbEntity
  8
0
  6
Continuous
 62
     7
100
AcDbLine
 10
184.0365577897998
 20
211.9549993018882
 30
0.0
 11
184.4819408616992
 21
211.2372249107866
 31
0.0
  0
LINE
  5
C2
330
1F
100
AcDbEntity
  8
0
  6
Continuous
 62
     7
100
AcDbLine
 10
181.3400036058981
 20
216.6792224387973
 30
0.0
 11
181.7389217576953
 21
215.9346221427913
 31
0.0
  0
LINE
  5
C3
330
1F
100
AcDbEntity
  8
0
  6
Continuous
 62
     7
100
AcDbLine
 10
178.5134865007955
 20
210.3480037193003
 30
0.0
 11
177.669183369692
 21
210.3211778144978
 31
0.0
  0
LINE
  5
C4
330
1F
100
AcDbEntity
  8
0
  6
Continuous
 62
     7
100
AcDbLine
 10
183.9530607422591
 20
210.3211778144978
 30
0.0
 11
183.1087585650045
 21
210.3480037193003
 31
0.0
  0
LINE
  5
C5
330
1F
100
AcDbEntity
  8
0
  6
Continuous
 62
     7
100
AcDbLine
 10
183.1087585650045
 20
215.1437457542997
 30
0.0
 11
183.9530607422591
 21
215.1705716590877
 31
0.0
  0
LINE
  5
C6
330
1F
100
AcDbEntity
  8
0
  6
Continuous
 62
     7
100
AcDbLine
 10
177.669183369692
 20
215.1705716590877
 30
0.0
 11
178.5134865007955
 21
215.1437457542997
 31
0.0
  0
LINE
  5
C7
330
1F
100
AcDbEntity
  8
0
  6
Continuous
 62
     7
100
AcDbLine
 10
179.8833233078719
 20
271.9346221427913
 30
0.0
 11
180.282241459902
 21
272.6792224387972
 31
0.0
  0
LINE
  5
C8
330
1F
100
AcDbEntity
  8
0
  6
Continuous
 62
     7
100
AcDbLine
 10
177.140304203868
 20
267.2372249107866
 30
0.0
 11
177.5856872757674
 21
267.9549993018882
 31
0.0
  0
LINE
  5
C9
330
1F
100
AcDbEntity
  8
0
  6
Continuous
 62
     7
100
AcDbLine
 10
181.7389217576953
 20
265.5571282844975
 30
0.0
 11
181.3400036058981
 21
264.8125279884916
 31
0.0
  0
LINE
  5
CA
330
1F
100
AcDbEntity
  8
0
  6
Continuous
 62
     7
100
AcDbLine
 10
184.4819408616992
 20
270.2545245628934
 30
0.0
 11
184.0365577897998
 21
269.5367501716901
 31
0.0
  0
LINE
  5
CB
330
1F
100
AcDbEntity
  8
0
  6
Continuous
 62
     7
100
AcDbLine
 10
177.5856872757674
 20
269.5367501716901
 30
0.0
 11
177.140304203868
 21
270.2545245628934
 31
0.0
  0
LINE
  5
CC
330
1F
100
AcDbEntity
  8
0
  6
Continuous
 62
     7
100
AcDbLine
 10
180.282241459902
 20
264.8125279884916
 30
0.0
 11
179.8833233078719
 21
265.5571282844975
 31
0.0
  0
LINE
  5
CD
330
1F
100
AcDbEntity
  8
0
  6
Continuous
 62
     7
100
AcDbLine
 10
184.0365577897998
 20
267.9549993018882
 30
0.0
 11
184.4819408616992
 21
267.2372249107866
 31
0.0
  0
LINE
  5
CE
330
1F
100
AcDbEntity
  8
0
  6
Continuous
 62
     7
100
AcDbLine
 10
181.3400036058981
 20
272.6792224387972
 30
0.0
 11
181.7389217576953
 21
271.9346221427913
 31
0.0
  0
LINE
  5
CF
330
1F
100
AcDbEntity
  8
0
  6
Continuous
 62
     7
100
AcDbLine
 10
178.5134865007955
 20
266.3480037193003
 30
0.0
 11
177.669183369692
 21
266.3211778144977
 31
0.0
  0
LINE
  5
D0
330
1F
100
AcDbEntity
  8
0
  6
Continuous
 62
     7
100
AcDbLine
 10
183.9530607422591
 20
266.3211778144977
 30
0.0
 11
183.1087585650045
 21
266.3480037193003
 31
0.0
  0
LINE
  5
D1
330
1F
100
AcDbEntity
  8
0
  6
Continuous
 62
     7
100
AcDbLine
 10
183.1087585650045
 20
271.1437457542997
 30
0.0
 11
183.9530607422591
 21
271.1705716590877
 31
0.0
  0
LINE
  5
D2
330
1F
100
AcDbEntity
  8
0
  6
Continuous
 62
     7
100
AcDbLine
 10
177.669183369692
 20
271.1705716590877
 30
0.0
 11
178.5134865007955
 21
271.1437457542997
 31
0.0
  0
LINE
  5
D3
330
1F
100
AcDbEntity
  8
0
  6
Continuous
 62
     7
100
AcDbLine
 10
179.8833233078719
 20
159.9346221427913
 30
0.0
 11
180.282241459902
 21
160.6792224387973
 31
0.0
  0
LINE
  5
D4
330
1F
100
AcDbEntity
  8
0
  6
Continuous
 62
     7
100
AcDbLine
 10
177.140304203868
 20
155.2372249107866
 30
0.0
 11
177.5856872757674
 21
155.9549993018882
 31
0.0
  0
LINE
  5
D5
330
1F
100
AcDbEntity
  8
0
  6
Continuous
 62
     7
100
AcDbLine
 10
181.7389217576953
 20
153.5571282844976
 30
0.0
 11
181.3400036058981
 21
152.8125279884916
 31
0.0
  0
LINE
  5
D6
330
1F
100
AcDbEntity
  8
0
  6
Continuous
 62
     7
100
AcDbLine
 10
184.4819408616992
 20
158.2545245628935
 30
0.0
 11
184.0365577897998
 21
157.5367501716901
 31
0.0
  0
LINE
  5
D7
330
1F
100
AcDbEntity
  8
0
  6
Continuous
 62
     7
100
AcDbLine
 10
177.5856872757674
 20
157.5367501716901
 30
0.0
 11
177.140304203868
 21
158.2545245628935
 31
0.0
  0
LINE
  5
D8
330
1F
100
AcDbEntity
  8
0
  6
Continuous
 62
     7
100
AcDbLine
 10
180.282241459902
 20
152.8125279884916
 30
0.0
 11
179.8833233078719
 21
153.5571282844976
 31
0.0
  0
LINE
  5
D9
330
1F
100
AcDbEntity
  8
0
  6
Continuous
 62
     7
100
AcDbLine
 10
184.0365577897998
 20
155.9549993018882
 30
0.0
 11
184.4819408616992
 21
155.2372249107866
 31
0.0
  0
LINE
  5
DA
330
1F
100
AcDbEntity
  8
0
  6
Continuous
 62
     7
100
AcDbLine
 10
181.3400036058981
 20
160.6792224387973
 30
0.0
 11
181.7389217576953
 21
159.9346221427913
 31
0.0
  0
LINE
  5
DB
330
1F
100
AcDbEntity
  8
0
  6
Continuous
 62
     7
100
AcDbLine
 10
178.5134865007955
 20
154.3480037193003
 30
0.0
 11
177.669183369692
 21
154.3211778144978
 31
0.0
  0
LINE
  5
DC
330
1F
100
AcDbEntity
  8
0
  6
Continuous
 62
     7
100
AcDbLine
 10
183.9530607422591
 20
154.3211778144978
 30
0.0
 11
183.1087585650045
 21
154.3480037193003
 31
0.0
  0
LINE
  5
DD
330
1F
100
AcDbEntity
  8
0
  6
Continuous
 62
     7
100
AcDbLine
 10
183.1087585650045
 20
159.1437457542997
 30
0.0
 11
183.9530607422591
 21
159.1705716590877
 31
0.0
  0
LINE
  5
DE
330
1F
100
AcDbEntity
  8
0
  6
Continuous
 62
     7
100
AcDbLine
 10
177.669183369692
 20
159.1705716590877
 30
0.0
 11
178.5134865007955
 21
159.1437457542997
 31
0.0
  0
LINE
  5
DF
330
1F
100
AcDbEntity
  8
0
  6
Continuous
 62
     7
100
AcDbLine
 10
189.3833233078719
 20
243.9346221427913
 30
0.0
 11
189.782241459902
 21
244.6792224387972
 31
0.0
  0
LINE
  5
E0
330
1F
100
AcDbEntity
  8
0
  6
Continuous
 62
     7
100
AcDbLine
 10
186.640304203868
 20
239.2372249107866
 30
0.0
 11
187.0856872757674
 21
239.9549993018882
 31
0.0
  0
LINE
  5
E1
330
1F
100
AcDbEntity
  8
0
  6
Continuous
 62
     7
100
AcDbLine
 10
191.2389217576953
 20
237.5571282844975
 30
0.0
 11
190.8400036058981
 21
236.8125279884916
 31
0.0
  0
LINE
  5
E2
330
1F
100
AcDbEntity
  8
0
  6
Continuous
 62
     7
100
AcDbLine
 10
193.9819408616992
 20
242.2545245628934
 30
0.0
 11
193.5365577897998
 21
241.5367501716901
 31
0.0
  0
LINE
  5
E3
330
1F
100
AcDbEntity
  8
0
  6
Continuous
 62
     7
100
AcDbLine
 10
187.0856872757674
 20
241.5367501716901
 30
0.0
 11
186.640304203868
 21
242.2545245628934
 31
0.0
  0
LINE
  5
E4
330
1F
100
AcDbEntity
  8
0
  6
Continuous
 62
     7
100
AcDbLine
 10
189.782241459902
 20
236.8125279884916
 30
0.0
 11
189.3833233078719
 21
237.5571282844975
 31
0.0
  0
LINE
  5
E5
330
1F
100
AcDbEntity
  8
0
  6
Continuous
 62
     7
100
AcDbLine
 10
193.5365577897998
 20
239.9549993018882
 30
0.0
 11
193.9819408616992
 21
239.2372249107866
 31
0.0
  0
LINE
  5
E6
330
1F
100
AcDbEntity
  8
0
  6
Continuous
 62
     7
100
AcDbLine
 10
190.8400036058981
 20
244.6792224387972
 30
0.0
 11
191.2389217576953
 21
243.9346221427913
 31
0.0
  0
LINE
  5
E7
330
1F
100
AcDbEntity
  8
0
  6
Continuous
 62
     7
100
AcDbLine
 10
188.0134865007955
 20
238.3480037193003
 30
0.0
 11
187.169183369692
 21
238.3211778144977
 31
0.0
  0
LINE
  5
E8
330
1F
100
AcDbEntity
  8
0
  6
Continuous
 62
     7
100
AcDbLine
 10
193.4530607422591
 20
238.3211778144977
 30
0.0
 11
192.6087585650045
 21
238.3480037193003
 31
0.0
  0
LINE
  5
E9
330
1F
100
AcDbEntity
  8
0
  6
Continuous
 62
     7
100
AcDbLine
 10
192.6087585650045
 20
243.1437457542997
 30
0.0
 11
193.4530607422591
 21
243.1705716590877
 31
0.0
  0
LINE
  5
EA
330
1F
100
AcDbEntity
  8
0
  6
Continuous
 62
     7
100
AcDbLine
 10
187.169183369692
 20
243.1705716590877
 30
0.0
 11
188.0134865007955
 21
243.1437457542997
 31
0.0
  0
LINE
  5
EB
330
1F
100
AcDbEntity
  8
0
  6
Continuous
 62
     7
100
AcDbLine
 10
189.3833233078719
 20
187.9346221427913
 30
0.0
 11
189.782241459902
 21
188.6792224387973
 31
0.0
  0
LINE
  5
EC
330
1F
100
AcDbEntity
  8
0
  6
Continuous
 62
     7
100
AcDbLine
 10
186.640304203868
 20
183.2372249107866
 30
0.0
 11
187.0856872757674
 21
183.9549993018882
 31
0.0
  0
LINE
  5
ED
330
1F
100
AcDbEntity
  8
0
  6
Continuous
 62
     7
100
AcDbLine
 10
191.2389217576953
 20
181.5571282844976
 30
0.0
 11
190.8400036058981
 21
180.8125279884916
 31
0.0
  0
LINE
  5
EE
330
1F
100
AcDbEntity
  8
0
  6
Continuous
 62
     7
100
AcDbLine
 10
193.9819408616992
 20
186.2545245628935
 30
0.0
 11
193.5365577897998
 21
185.5367501716901
 31
0.0
  0
LINE
  5
EF
330
1F
100
AcDbEntity
  8
0
  6
Continuous
 62
     7
100
AcDbLine
 10
187.0856872757674
 20
185.5367501716901
 30
0.0
 11
186.640304203868
 21
186.2545245628935
 31
0.0
  0
LINE
  5
F0
330
1F
100
AcDbEntity
  8
0
  6
Continuous
 62
     7
100
AcDbLine
 10
189.782241459902
 20
180.8125279884916
 30
0.0
 11
189.3833233078719
 21
181.5571282844976
 31
0.0
  0
LINE
  5
F1
330
1F
100
AcDbEntity
  8
0
  6
Continuous
 62
     7
100
AcDbLine
 10
193.5365577897998
 20
183.9549993018882
 30
0.0
 11
193.9819408616992
 21
183.2372249107866
 31
0.0
  0
LINE
  5
F2
330
1F
100
AcDbEntity
  8
0
  6
Continuous
 62
     7
100
AcDbLine
 10
190.8400036058981
 20
188.6792224387973
 30
0.0
 11
191.2389217576953
 21
187.9346221427913
 31
0.0
  0
LINE
  5
F3
330
1F
100
AcDbEntity
  8
0
  6
Continuous
 62
     7
100
AcDbLine
 10
188.0134865007955
 20
182.3480037193003
 30
0.0
 11
187.169183369692
 21
182.3211778144978
 31
0.0
  0
LINE
  5
F4
330
1F
100
AcDbEntity
  8
0
  6
Continuous
 62
     7
100
AcDbLine
 10
193.4530607422591
 20
182.3211778144978
 30
0.0
 11
192.6087585650045
 21
182.3480037193003
 31
0.0
  0
LINE
  5
F5
330
1F
100
AcDbEntity
  8
0
  6
Continuous
 62
     7
100
AcDbLine
 10
192.6087585650045
 20
187.1437457542997
 30
0.0
 11
193.4530607422591
 21
187.1705716590877
 31
0.0
  0
LINE
  5
F6
330
1F
100
AcDbEntity
  8
0
  6
Continuous
 62
     7
100
AcDbLine
 10
187.169183369692
 20
187.1705716590877
 30
0.0
 11
188.0134865007955
 21
187.1437457542997
 31
0.0
  0
LINE
  5
F7
330
1F
100
AcDbEntity
  8
1
  6
DOT_CENTER
 62
     2
100
AcDbLine
 10
188.0861225328652
 20
268.7458747368
 30
0.0
 11
173.5361225328767
 21
268.7458747368
 31
0.0
  0
LINE
  5
F8
330
1F
100
AcDbEntity
  8
1
  6
DOT_CENTER
 62
     2
100
AcDbLine
 10
180.8111225329
 20
276.0208747368014
 30
0.0
 11
180.8111225329
 21
261.4708747367986
 31
0.0
  0
LINE
  5
F9
330
1F
100
AcDbEntity
  8
1
  6
DOT_CENTER
 62
     2
100
AcDbLine
 10
188.0861225328652
 20
156.7458747368
 30
0.0
 11
173.5361225328767
 21
156.7458747368
 31
0.0
  0
LINE
  5
FA
330
1F
100
AcDbEntity
  8
1
  6
DOT_CENTER
 62
     2
100
AcDbLine
 10
180.8111225329
 20
164.0208747368015
 30
0.0
 11
180.8111225329
 21
149.4708747367986
 31
0.0
  0
LINE
  5
FB
330
1F
100
AcDbEntity
  8
1
  6
DOT_CENTER
 62
     2
100
AcDbLine
 10
197.5861225328652
 20
240.7458747368
 30
0.0
 11
183.0361225328767
 21
240.7458747368
 31
0.0
  0
LINE
  5
FC
330
1F
100
AcDbEntity
  8
1
  6
DOT_CENTER
 62
     2
100
AcDbLine
 10
190.3111225329
 20
248.0208747368014
 30
0.0
 11
190.3111225329
 21
233.4708747367986
 31
0.0
  0
LINE
  5
FD
330
1F
100
AcDbEntity
  8
1
  6
DOT_CENTER
 62
     2
100
AcDbLine
 10
197.5861225328652
 20
184.7458747368
 30
0.0
 11
183.0361225328767
 21
184.7458747368
 31
0.0
  0
LINE
  5
FE
330
1F
100
AcDbEntity
  8
1
  6
DOT_CENTER
 62
     2
100
AcDbLine
 10
190.3111225329
 20
192.0208747368015
 30
0.0
 11
190.3111225329
 21
177.4708747367986
 31
0.0
  0
ARC
  5
FF
330
1F
100
AcDbEntity
  8
A_RUNDUNGEN
  6
Continuous
 62
     7
100
AcDbCircle
 10
229.8111225328999
 20
157.2458747368
 30
0.0
 40
0.5000000000000446
100
AcDbArc
 50
179.9999757821066
 51
-90.0
  0
ARC
  5
100
330
1F
100
AcDbEntity
  8
A_RUNDUNGEN
  6
Continuous
 62
     7
100
AcDbCircle
 10
229.8111225328999
 20
268.2458747368
 30
0.0
 40
0.5
100
AcDbArc
 50
90.0
 51
-179.9999757821066
  0
ARC
  5
101
330
1F
100
AcDbEntity
  8
A_RUNDUNGEN
  6
Continuous
 62
     7
100
AcDbCircle
 10
246.2111225328999
 20
160.7458747368
 30
0.0
 40
3.000000000000199
100
AcDbArc
 50
0.00006783459341
 51
179.9999819212721
  0
ARC
  5
102
330
1F
100
AcDbEntity
  8
A_RUNDUNGEN
  6
Continuous
 62
     7
100
AcDbCircle
 10
249.7111236263
 20
158.2458789466
 30
0.0
 40
0.5000010934016619
100
AcDbArc
 50
-179.9998568410786
 51
-90.00012529505365
  0
ARC
  5
103
330
1F
100
AcDbEntity
  8
A_RUNDUNGEN
  6
Continuous
 62
     7
100
AcDbCircle
 10
242.7111225328999
 20
158.2458776974
 30
0.0
 40
0.5
100
AcDbArc
 50
-90.0
 51
-0.00000001146099
  0
ARC
  5
104
330
1F
100
AcDbEntity
  8
0
  6
Continuous
 62
     7
100
AcDbCircle
 10
250.8111225328999
 20
175.2458747368
 30
0.0
 40
8.000000000000112
100
AcDbArc
 50
-54.34091230386012
 51
0.0
  0
ARC
  5
105
330
1F
100
AcDbEntity
  8
0
  6
Continuous
 62
     7
100
AcDbCircle
 10
251.3111225328999
 20
181.7458747368
 30
0.0
 40
3.0
100
AcDbArc
 50
-90.0
 51
0.0
  0
ARC
  5
106
330
1F
100
AcDbEntity
  8
A_RUNDUNGEN
  6
Continuous
 62
     7
100
AcDbCircle
 10
263.3111225329
 20
166.7458747368
 30
0.0
 40
2.0
100
AcDbArc
 50
0.0
 51
90.0
  0
ARC
  5
107
330
1F
100
AcDbEntity
  8
A_RUNDUNGEN
  6
Continuous
 62
     7
100
AcDbCircle
 10
253.8111225328999
 20
163.3960003658
 30
0.0
 40
0.5000000000002554
100
AcDbArc
 50
89.97567600174705
 51
180.0
  0
ARC
  5
108
330
1F
100
AcDbEntity
  8
A_RUNDUNGEN
  6
Continuous
 62
     7
100
AcDbCircle
 10
262.8111225329
 20
163.3960003658
 30
0.0
 40
0.5
100
AcDbArc
 50
0.0
 51
90.02438973348838
  0
ARC
  5
109
330
1F
100
AcDbEntity
  8
A_RUNDUNGEN
  6
Continuous
 62
     7
100
AcDbCircle
 10
259.3111225329
 20
185.7458747368
 30
0.0
 40
3.0
100
AcDbArc
 50
-90.0
 51
0.0
  0
ARC
  5
10A
330
1F
100
AcDbEntity
  8
A_RUNDUNGEN
  6
Continuous
 62
     7
100
AcDbCircle
 10
246.2111225328999
 20
264.7458747368
 30
0.0
 40
3.000000000000183
100
AcDbArc
 50
-179.9999152580911
 51
0.00002032663314
  0
ARC
  5
10B
330
1F
100
AcDbEntity
  8
A_RUNDUNGEN
  6
Continuous
 62
     7
100
AcDbCircle
 10
242.7111214395
 20
267.2458705271
 30
0.0
 40
0.5000010934014627
100
AcDbArc
 50
0.00014314746376
 51
89.99987470494635
  0
ARC
  5
10C
330
1F
100
AcDbEntity
  8
0
  6
Continuous
 62
     7
100
AcDbCircle
 10
251.3111225328999
 20
243.7458747368
 30
0.0
 40
3.0
100
AcDbArc
 50
0.0
 51
90.0
  0
ARC
  5
10D
330
1F
100
AcDbEntity
  8
A_RUNDUNGEN
  6
Continuous
 62
     7
100
AcDbCircle
 10
249.7111225328999
 20
267.2458717763
 30
0.0
 40
0.5
100
AcDbArc
 50
90.0
 51
179.9999999885423
  0
ARC
  5
10E
330
1F
100
AcDbEntity
  8
A_RUNDUNGEN
  6
Continuous
 62
     7
100
AcDbCircle
 10
259.3111225329
 20
239.7458747368
 30
0.0
 40
3.0
100
AcDbArc
 50
0.0
 51
90.0
  0
ARC
  5
10F
330
1F
100
AcDbEntity
  8
A_RUNDUNGEN
  6
Continuous
 62
     7
100
AcDbCircle
 10
263.3111225329
 20
258.7458747368
 30
0.0
 40
2.0
100
AcDbArc
 50
-90.0
 51
0.0
  0
ARC
  5
110
330
1F
100
AcDbEntity
  8
A_RUNDUNGEN
  6
Continuous
 62
     7
100
AcDbCircle
 10
253.8111225328999
 20
262.0957491079
 30
0.0
 40
0.5
100
AcDbArc
 50
180.0
 51
-89.97623141310233
  0
ARC
  5
111
330
1F
100
AcDbEntity
  8
A_RUNDUNGEN
  6
Continuous
 62
     7
100
AcDbCircle
 10
262.8111225329
 20
262.0957491079
 30
0.0
 40
0.5000000000001175
100
AcDbArc
 50
-90.0194107020411
 51
0.0
  0
ARC
  5
112
330
1F
100
AcDbEntity
  8
0
  6
Continuous
 62
     7
100
AcDbCircle
 10
250.8111225328999
 20
250.2458747368
 30
0.0
 40
8.000000000000114
100
AcDbArc
 50
0.0
 51
54.34091230386181
  0
ARC
  5
113
330
1F
100
AcDbEntity
  8
0
  6
Continuous
 62
     7
100
AcDbCircle
 10
180.8111225329
 20
209.0958747367913
 30
0.0
 40
0.6000000001096354
100
AcDbArc
 50
-151.8198766442752
 51
-28.18012336096823
  0
ARC
  5
114
330
1F
100
AcDbEntity
  8
0
  6
Continuous
 62
     7
100
AcDbCircle
 10
178.5611225329
 20
208.8487604197871
 30
0.0
 40
1.499999999962934
100
AcDbArc
 50
28.18012336177512
 51
91.8198766403881
  0
ARC
  5
115
330
1F
100
AcDbEntity
  8
0
  6
Continuous
 62
     7
100
AcDbCircle
 10
177.6501298090686
 20
210.9208747367884
 30
0.0
 40
0.600000000104216
100
AcDbArc
 50
148.1801233666436
 51
-88.18012335513598
  0
ARC
  5
116
330
1F
100
AcDbEntity
  8
0
  6
Continuous
 62
     7
100
AcDbCircle
 10
183.9721152566152
 20
210.9208747367884
 30
0.0
 40
0.5999999999877283
100
AcDbArc
 50
-91.81987662264426
 51
31.81987663629281
  0
ARC
  5
117
330
1F
100
AcDbEntity
  8
0
  6
Continuous
 62
     7
100
AcDbCircle
 10
183.0611225329
 20
208.8487604197871
 30
0.0
 40
1.500000000002281
100
AcDbArc
 50
88.18012336405423
 51
151.8198766413717
  0
ARC
  5
118
330
1F
100
AcDbEntity
  8
0
  6
Continuous
 62
     7
100
AcDbCircle
 10
176.3111225329
 20
212.7458747368
 30
0.0
 40
1.499999999984845
100
AcDbArc
 50
-31.81987663955863
 51
31.81987663908724
  0
ARC
  5
119
330
1F
100
AcDbEntity
  8
0
  6
Continuous
 62
     7
100
AcDbCircle
 10
177.6501298090686
 20
214.5708747367971
 30
0.0
 40
0.59999999999515
100
AcDbArc
 50
88.18012335513606
 51
-148.1801233660624
  0
ARC
  5
11A
330
1F
100
AcDbEntity
  8
0
  6
Continuous
 62
     7
100
AcDbCircle
 10
178.5611225329
 20
216.6429890537911
 30
0.0
 40
1.499999999998676
100
AcDbArc
 50
-91.81987664039696
 51
-28.18012336177608
  0
ARC
  5
11B
330
1F
100
AcDbEntity
  8
0
  6
Continuous
 62
     7
100
AcDbCircle
 10
180.8111225329
 20
216.3958747367869
 30
0.0
 40
0.6000000000071444
100
AcDbArc
 50
28.18012336096823
 51
151.8198766442752
  0
ARC
  5
11C
330
1F
100
AcDbEntity
  8
0
  6
Continuous
 62
     7
100
AcDbCircle
 10
183.0611225329
 20
216.6429890537911
 30
0.0
 40
1.500000000116721
100
AcDbArc
 50
-151.8198766413708
 51
-88.18012336404537
  0
ARC
  5
11D
330
1F
100
AcDbEntity
  8
0
  6
Continuous
 62
     7
100
AcDbCircle
 10
183.9721152566152
 20
214.5708747367971
 30
0.0
 40
0.600000000058436
100
AcDbArc
 50
-31.81987663687397
 51
91.81987662264417
  0
ARC
  5
11E
330
1F
100
AcDbEntity
  8
0
  6
Continuous
 62
     7
100
AcDbCircle
 10
185.3111225329
 20
212.7458747368
 30
0.0
 40
1.499999999977067
100
AcDbArc
 50
148.1801233609099
 51
-148.1801233604385
  0
ARC
  5
11F
330
1F
100
AcDbEntity
  8
0
  6
Continuous
 62
     7
100
AcDbCircle
 10
180.8111225329
 20
265.0958747367913
 30
0.0
 40
0.6000000001096488
100
AcDbArc
 50
-151.8198766442729
 51
-28.18012336097062
  0
ARC
  5
120
330
1F
100
AcDbEntity
  8
0
  6
Continuous
 62
     7
100
AcDbCircle
 10
178.5611225329
 20
264.8487604197871
 30
0.0
 40
1.499999999962893
100
AcDbArc
 50
28.18012336177225
 51
91.8198766403881
  0
ARC
  5
121
330
1F
100
AcDbEntity
  8
0
  6
Continuous
 62
     7
100
AcDbCircle
 10
177.6501298090686
 20
266.9208747367883
 30
0.0
 40
0.6000000001042758
100
AcDbArc
 50
148.1801233666344
 51
-88.18012335513563
  0
ARC
  5
122
330
1F
100
AcDbEntity
  8
0
  6
Continuous
 62
     7
100
AcDbCircle
 10
183.9721152566152
 20
266.9208747367883
 30
0.0
 40
0.5999999999876147
100
AcDbArc
 50
-91.8198766226446
 51
31.81987663630203
  0
ARC
  5
123
330
1F
100
AcDbEntity
  8
0
  6
Continuous
 62
     7
100
AcDbCircle
 10
183.0611225329
 20
264.8487604197871
 30
0.0
 40
1.500000000002281
100
AcDbArc
 50
88.18012336405423
 51
151.8198766413746
  0
ARC
  5
124
330
1F
100
AcDbEntity
  8
0
  6
Continuous
 62
     7
100
AcDbCircle
 10
176.3111225329
 20
268.7458747368
 30
0.0
 40
1.49999999998483
100
AcDbArc
 50
-31.8198766395577
 51
31.81987663908908
  0
ARC
  5
125
330
1F
100
AcDbEntity
  8
0
  6
Continuous
 62
     7
100
AcDbCircle
 10
177.6501298090686
 20
270.5708747367971
 30
0.0
 40
0.5999999999951215
100
AcDbArc
 50
88.18012335513598
 51
-148.1801233660532
  0
ARC
  5
126
330
1F
100
AcDbEntity
  8
0
  6
Continuous
 62
     7
100
AcDbCircle
 10
178.5611225329
 20
272.642989053791
 30
0.0
 40
1.49999999999859
100
AcDbArc
 50
-91.81987664039706
 51
-28.18012336177225
  0
ARC
  5
127
330
1F
100
AcDbEntity
  8
0
  6
Continuous
 62
     7
100
AcDbCircle
 10
180.8111225329
 20
272.3958747367869
 30
0.0
 40
0.6000000000071578
100
AcDbArc
 50
28.18012336097062
 51
151.8198766442729
  0
ARC
  5
128
330
1F
100
AcDbEntity
  8
0
  6
Continuous
 62
     7
100
AcDbCircle
 10
183.0611225329
 20
272.642989053791
 30
0.0
 40
1.500000000116668
100
AcDbArc
 50
-151.8198766413746
 51
-88.18012336404527
  0
ARC
  5
129
330
1F
100
AcDbEntity
  8
0
  6
Continuous
 62
     7
100
AcDbCircle
 10
183.9721152566152
 20
270.5708747367971
 30
0.0
 40
0.600000000058496
100
AcDbArc
 50
-31.81987663688319
 51
91.81987662264426
  0
ARC
  5
12A
330
1F
100
AcDbEntity
  8
0
  6
Continuous
 62
     7
100
AcDbCircle
 10
185.3111225329
 20
268.7458747368
 30
0.0
 40
1.499999999977097
100
AcDbArc
 50
148.1801233609081
 51
-148.1801233604394
  0
ARC
  5
12B
330
1F
100
AcDbEntity
  8
0
  6
Continuous
 62
     7
100
AcDbCircle
 10
180.8111225329
 20
153.0958747367913
 30
0.0
 40
0.6000000001096354
100
AcDbArc
 50
-151.8198766442752
 51
-28.18012336096823
  0
ARC
  5
12C
330
1F
100
AcDbEntity
  8
0
  6
Continuous
 62
     7
100
AcDbCircle
 10
178.5611225329
 20
152.8487604197871
 30
0.0
 40
1.499999999962934
100
AcDbArc
 50
28.18012336177512
 51
91.8198766403881
  0
ARC
  5
12D
330
1F
100
AcDbEntity
  8
0
  6
Continuous
 62
     7
100
AcDbCircle
 10
177.6501298090686
 20
154.9208747367884
 30
0.0
 40
0.600000000104216
100
AcDbArc
 50
148.1801233666436
 51
-88.18012335513598
  0
ARC
  5
12E
330
1F
100
AcDbEntity
  8
0
  6
Continuous
 62
     7
100
AcDbCircle
 10
183.9721152566152
 20
154.9208747367884
 30
0.0
 40
0.5999999999877283
100
AcDbArc
 50
-91.81987662264426
 51
31.81987663629281
  0
ARC
  5
12F
330
1F
100
AcDbEntity
  8
0
  6
Continuous
 62
     7
100
AcDbCircle
 10
183.0611225329
 20
152.8487604197871
 30
0.0
 40
1.500000000002281
100
AcDbArc
 50
88.18012336405423
 51
151.8198766413717
  0
ARC
  5
130
330
1F
100
AcDbEntity
  8
0
  6
Continuous
 62
     7
100
AcDbCircle
 10
176.3111225329
 20
156.7458747368
 30
0.0
 40
1.499999999984845
100
AcDbArc
 50
-31.81987663955863
 51
31.81987663908724
  0
ARC
  5
131
330
1F
100
AcDbEntity
  8
0
  6
Continuous
 62
     7
100
AcDbCircle
 10
177.6501298090686
 20
158.5708747367971
 30
0.0
 40
0.59999999999515
100
AcDbArc
 50
88.18012335513606
 51
-148.1801233660624
  0
ARC
  5
132
330
1F
100
AcDbEntity
  8
0
  6
Continuous
 62
     7
100
AcDbCircle
 10
178.5611225329
 20
160.6429890537911
 30
0.0
 40
1.499999999998676
100
AcDbArc
 50
-91.81987664039696
 51
-28.18012336177608
  0
ARC
  5
133
330
1F
100
AcDbEntity
  8
0
  6
Continuous
 62
     7
100
AcDbCircle
 10
180.8111225329
 20
160.3958747367869
 30
0.0
 40
0.6000000000071444
100
AcDbArc
 50
28.18012336096823
 51
151.8198766442752
  0
ARC
  5
134
330
1F
100
AcDbEntity
  8
0
  6
Continuous
 62
     7
100
AcDbCircle
 10
183.0611225329
 20
160.6429890537911
 30
0.0
 40
1.500000000116721
100
AcDbArc
 50
-151.8198766413708
 51
-88.18012336404537
  0
ARC
  5
135
330
1F
100
AcDbEntity
  8
0
  6
Continuous
 62
     7
100
AcDbCircle
 10
183.9721152566152
 20
158.5708747367971
 30
0.0
 40
0.600000000058436
100
AcDbArc
 50
-31.81987663687397
 51
91.81987662264417
  0
ARC
  5
136
330
1F
100
AcDbEntity
  8
0
  6
Continuous
 62
     7
100
AcDbCircle
 10
185.3111225329
 20
156.7458747368
 30
0.0
 40
1.499999999977067
100
AcDbArc
 50
148.1801233609099
 51
-148.1801233604385
  0
ARC
  5
137
330
1F
100
AcDbEntity
  8
0
  6
Continuous
 62
     7
100
AcDbCircle
 10
190.3111225329
 20
237.0958747367913
 30
0.0
 40
0.6000000001096354
100
AcDbArc
 50
-151.8198766442752
 51
-28.18012336096823
  0
ARC
  5
138
330
1F
100
AcDbEntity
  8
0
  6
Continuous
 62
     7
100
AcDbCircle
 10
188.0611225329
 20
236.8487604197871
 30
0.0
 40
1.499999999962893
100
AcDbArc
 50
28.18012336177225
 51
91.8198766403881
  0
ARC
  5
139
330
1F
100
AcDbEntity
  8
0
  6
Continuous
 62
     7
100
AcDbCircle
 10
187.1501298090686
 20
238.9208747367883
 30
0.0
 40
0.6000000001042608
100
AcDbArc
 50
148.1801233666367
 51
-88.18012335513572
  0
ARC
  5
13A
330
1F
100
AcDbEntity
  8
0
  6
Continuous
 62
     7
100
AcDbCircle
 10
193.4721152566152
 20
238.9208747367883
 30
0.0
 40
0.5999999999876431
100
AcDbArc
 50
-91.81987662264453
 51
31.81987663629973
  0
ARC
  5
13B
330
1F
100
AcDbEntity
  8
0
  6
Continuous
 62
     7
100
AcDbCircle
 10
192.5611225329
 20
236.8487604197871
 30
0.0
 40
1.500000000002281
100
AcDbArc
 50
88.18012336405423
 51
151.8198766413746
  0
ARC
  5
13C
330
1F
100
AcDbEntity
  8
0
  6
Continuous
 62
     7
100
AcDbCircle
 10
185.8111225329
 20
240.7458747368
 30
0.0
 40
1.499999999984845
100
AcDbArc
 50
-31.81987663955863
 51
31.81987663908724
  0
ARC
  5
13D
330
1F
100
AcDbEntity
  8
0
  6
Continuous
 62
     7
100
AcDbCircle
 10
187.1501298090686
 20
242.5708747367971
 30
0.0
 40
0.59999999999515
100
AcDbArc
 50
88.18012335513606
 51
-148.1801233660532
  0
ARC
  5
13E
330
1F
100
AcDbEntity
  8
0
  6
Continuous
 62
     7
100
AcDbCircle
 10
188.0611225329
 20
244.642989053791
 30
0.0
 40
1.49999999999859
100
AcDbArc
 50
-91.81987664039706
 51
-28.18012336177321
  0
ARC
  5
13F
330
1F
100
AcDbEntity
  8
0
  6
Continuous
 62
     7
100
AcDbCircle
 10
190.3111225329
 20
244.3958747367869
 30
0.0
 40
0.6000000000071444
100
AcDbArc
 50
28.18012336096823
 51
151.8198766442752
  0
ARC
  5
140
330
1F
100
AcDbEntity
  8
0
  6
Continuous
 62
     7
100
AcDbCircle
 10
192.5611225329
 20
244.642989053791
 30
0.0
 40
1.500000000116681
100
AcDbArc
 50
-151.8198766413736
 51
-88.18012336404527
  0
ARC
  5
141
330
1F
100
AcDbEntity
  8
0
  6
Continuous
 62
     7
100
AcDbCircle
 10
193.4721152566152
 20
242.5708747367971
 30
0.0
 40
0.600000000058496
100
AcDbArc
 50
-31.81987663688319
 51
91.81987662264417
  0
ARC
  5
142
330
1F
100
AcDbEntity
  8
0
  6
Continuous
 62
     7
100
AcDbCircle
 10
194.8111225329
 20
240.7458747368
 30
0.0
 40
1.499999999977067
100
AcDbArc
 50
148.1801233609099
 51
-148.1801233604385
  0
ARC
  5
143
330
1F
100
AcDbEntity
  8
0
  6
Continuous
 62
     7
100
AcDbCircle
 10
190.3111225329
 20
181.0958747367913
 30
0.0
 40
0.6000000001096354
100
AcDbArc
 50
-151.8198766442752
 51
-28.18012336096823
  0
ARC
  5
144
330
1F
100
AcDbEntity
  8
0
  6
Continuous
 62
     7
100
AcDbCircle
 10
188.0611225329
 20
180.8487604197871
 30
0.0
 40
1.499999999962934
100
AcDbArc
 50
28.18012336177512
 51
91.8198766403881
  0
ARC
  5
145
330
1F
100
AcDbEntity
  8
0
  6
Continuous
 62
     7
100
AcDbCircle
 10
187.1501298090686
 20
182.9208747367884
 30
0.0
 40
0.600000000104216
100
AcDbArc
 50
148.1801233666436
 51
-88.18012335513598
  0
ARC
  5
146
330
1F
100
AcDbEntity
  8
0
  6
Continuous
 62
     7
100
AcDbCircle
 10
193.4721152566152
 20
182.9208747367884
 30
0.0
 40
0.5999999999877283
100
AcDbArc
 50
-91.81987662264426
 51
31.81987663629281
  0
ARC
  5
147
330
1F
100
AcDbEntity
  8
0
  6
Continuous
 62
     7
100
AcDbCircle
 10
192.5611225329
 20
180.8487604197871
 30
0.0
 40
1.500000000002281
100
AcDbArc
 50
88.18012336405423
 51
151.8198766413717
  0
ARC
  5
148
330
1F
100
AcDbEntity
  8
0
  6
Continuous
 62
     7
100
AcDbCircle
 10
185.8111225329
 20
184.7458747368
 30
0.0
 40
1.499999999984845
100
AcDbArc
 50
-31.81987663955863
 51
31.81987663908724
  0
ARC
  5
149
330
1F
100
AcDbEntity
  8
0
  6
Continuous
 62
     7
100
AcDbCircle
 10
187.1501298090686
 20
186.5708747367971
 30
0.0
 40
0.59999999999515
100
AcDbArc
 50
88.18012335513606
 51
-148.1801233660624
  0
ARC
  5
14A
330
1F
100
AcDbEntity
  8
0
  6
Continuous
 62
     7
100
AcDbCircle
 10
188.0611225329
 20
188.6429890537911
 30
0.0
 40
1.499999999998676
100
AcDbArc
 50
-91.81987664039696
 51
-28.18012336177608
  0
ARC
  5
14B
330
1F
100
AcDbEntity
  8
0
  6
Continuous
 62
     7
100
AcDbCircle
 10
190.3111225329
 20
188.3958747367869
 30
0.0
 40
0.6000000000071444
100
AcDbArc
 50
28.18012336096823
 51
151.8198766442752
  0
ARC
  5
14C
330
1F
100
AcDbEntity
  8
0
  6
Continuous
 62
     7
100
AcDbCircle
 10
192.5611225329
 20
188.6429890537911
 30
0.0
 40
1.500000000116721
100
AcDbArc
 50
-151.8198766413708
 51
-88.18012336404537
  0
ARC
  5
14D
330
1F
100
AcDbEntity
  8
0
  6
Continuous
 62
     7
100
AcDbCircle
 10
193.4721152566152
 20
186.5708747367971
 30
0.0
 40
0.600000000058436
100
AcDbArc
 50
-31.81987663687397
 51
91.81987662264417
  0
ARC
  5
14E
330
1F
100
AcDbEntity
  8
0
  6
Continuous
 62
     7
100
AcDbCircle
 10
194.8111225329
 20
184.7458747368
 30
0.0
 40
1.499999999977067
100
AcDbArc
 50
148.1801233609099
 51
-148.1801233604385
  0
CIRCLE
  5
14F
330
1F
100
AcDbEntity
  8
0
  6
Continuous
 62
     3
100
AcDbCircle
 10
246.3111225328999
 20
173.7458747368
 30
0.0
 40
2.309401076799986
  0
CIRCLE
  5
150
330
1F
100
AcDbEntity
  8
0
  6
Continuous
 62
     7
100
AcDbCircle
 10
246.3111225328999
 20
187.7458747368
 30
0.0
 40
5.5
  0
CIRCLE
  5
151
330
1F
100
AcDbEntity
  8
0
  6
Continuous
 62
     3
100
AcDbCircle
 10
246.3111225328999
 20
187.7458747368
 30
0.0
 40
2.309401076799986
  0
CIRCLE
  5
152
330
1F
100
AcDbEntity
  8
A_ACHSEN
  6
Continuous
 62
     7
100
AcDbCircle
 10
246.3111225328999
 20
212.7458747368
 30
0.0
 40
5.5
  0
CIRCLE
  5
153
330
1F
100
AcDbEntity
  8
0
  6
Continuous
 62
     7
100
AcDbCircle
 10
246.3111225328999
 20
237.7458747368
 30
0.0
 40
5.5
  0
CIRCLE
  5
154
330
1F
100
AcDbEntity
  8
A_FASEN
  6
Continuous
 62
     7
100
AcDbCircle
 10
246.3111225328999
 20
237.7458747368
 30
0.0
 40
4.700000000000102
  0
CIRCLE
  5
155
330
1F
100
AcDbEntity
  8
0
  6
Continuous
 62
     7
100
AcDbCircle
 10
246.3111225328999
 20
212.7458747368
 30
0.0
 40
4.0
  0
CIRCLE
  5
156
330
1F
100
AcDbEntity
  8
0
  6
Continuous
 62
     3
100
AcDbCircle
 10
246.3111225328999
 20
237.7458747368
 30
0.0
 40
2.309401076799986
  0
CIRCLE
  5
157
330
1F
100
AcDbEntity
  8
0
  6
Continuous
 62
     3
100
AcDbCircle
 10
246.3111225328999
 20
212.7458747368
 30
0.0
 40
2.309401076799986
  0
CIRCLE
  5
158
330
1F
100
AcDbEntity
  8
0
  6
Continuous
 62
     7
100
AcDbCircle
 10
246.3111225328999
 20
251.7458747368
 30
0.0
 40
7.0
  0
CIRCLE
  5
159
330
1F
100
AcDbEntity
  8
0
  6
Continuous
 62
     3
100
AcDbCircle
 10
246.3111225328999
 20
251.7458747368
 30
0.0
 40
2.309401076799986
  0
CIRCLE
  5
15A
330
1F
100
AcDbEntity
  8
A_FASEN
  6
Continuous
 62
     7
100
AcDbCircle
 10
246.3111225328999
 20
187.7458747368
 30
0.0
 40
4.700000000000102
  0
CIRCLE
  5
15B
330
1F
100
AcDbEntity
  8
0
  6
Continuous
 62
     7
100
AcDbCircle
 10
246.3111225328999
 20
173.7458747368
 30
0.0
 40
7.0
  0
CIRCLE
  5
15C
330
1F
100
AcDbEntity
  8
0
  6
Continuous
 62
     7
100
AcDbCircle
 10
180.8111225329
 20
212.7458747368
 30
0.0
 40
5.25
  0
CIRCLE
  5
15D
330
1F
100
AcDbEntity
  8
0
  6
Continuous
 62
     7
100
AcDbCircle
 10
180.8111225329
 20
268.7458747368
 30
0.0
 40
5.25
  0
CIRCLE
  5
15E
330
1F
100
AcDbEntity
  8
0
  6
Continuous
 62
     7
100
AcDbCircle
 10
180.8111225329
 20
156.7458747368
 30
0.0
 40
5.25
  0
CIRCLE
  5
15F
330
1F
100
AcDbEntity
  8
0
  6
Continuous
 62
     7
100
AcDbCircle
 10
190.3111225329
 20
240.7458747368
 30
0.0
 40
5.25
  0
CIRCLE
  5
160
330
1F
100
AcDbEntity
  8
0
  6
Continuous
 62
     7
100
AcDbCircle
 10
190.3111225329
 20
184.7458747368
 30
0.0
 40
5.25
  0
ARC
  5
161
330
1F
100
AcDbEntity
  8
1
  6
Continuous
 62
     7
100
AcDbCircle
 10
183.8111225329
 20
152.7458747368
 30
0.0
 40
10.0
100
AcDbArc
 50
180.0
 51
-90.0
  0
ARC
  5
162
330
1F
100
AcDbEntity
  8
1
  6
Continuous
 62
     7
100
AcDbCircle
 10
183.8111225329
 20
272.7458747368
 30
0.0
 40
10.0
100
AcDbArc
 50
90.0
 51
180.0
  0
DIMENSION
  5
16E
330
1F
100
AcDbEntity
  8
1
100
AcDbDimension
  2
*D1
 10
265.3111225329
 20
276.612911774402
 30
0.0
 11
247.3313907568609
 21
280.362911774402
 31
0.0
 70
    32
  1
<>
 71
     5
 42
-1.0
 53
0.00013888888889
  3
ME10_DIM_10
100
AcDbAlignedDimension
 13
230.3111225328999
 23
268.7458747368
 33
0.0
 14
265.3111225329
 24
267.7456794886001
 34
0.0
100
AcDbRotatedDimension
  0
DIMENSION
  5
179
330
1F
100
AcDbEntity
  8
1
100
AcDbDimension
  2
*D2
 10
280.397193782129
 20
267.7458747368
 30
0.0
 11
276.647193782129
 21
212.1428238833088
 31
0.0
 70
    32
  1
<>
 71
     5
 42
-1.0
 53
90.0
  3
ME10_DIM_11
100
AcDbAlignedDimension
 13
265.3111225329
 23
157.7458747368
 33
0.0
 14
265.3111225329
 24
267.7458747368
 34
0.0
 50
90.0
100
AcDbRotatedDimension
  0
DIMENSION
  5
184
330
1F
100
AcDbEntity
  8
1
100
AcDbDimension
  2
*D3
 10
205.3111225329
 20
195.962981796525
 30
0.0
 11
215.3111225329
 21
199.712981796525
 31
0.0
 70
    32
  1
<>
 71
     5
 42
-1.0
 53
0.00013888888889
  3
ME10_DIM_12
100
AcDbAlignedDimension
 13
225.310643926
 23
175.2458747368
 33
0.0
 14
205.3111225329
 24
175.2458747368
 34
0.0
100
AcDbRotatedDimension
  0
DIMENSION
  5
18F
330
1F
100
AcDbEntity
  8
1
100
AcDbDimension
  2
*D4
 10
161.655016578542
 20
282.7458747368
 30
0.0
 11
157.905016578542
 21
212.7458747368
 31
0.0
 70
    32
  1
<>
 71
     5
 42
-1.0
 53
90.0
  3
ME10_DIM_13
100
AcDbAlignedDimension
 13
183.8111225329
 23
142.7458747368
 33
0.0
 14
183.8111225329
 24
282.7458747368
 34
0.0
 50
90.0
100
AcDbRotatedDimension
  0
ENDSEC
  0
SECTION
  2
OBJECTS
  0
DICTIONARY
  5
C
330
0
100
AcDbDictionary
281
     1
  3
ACAD_GROUP
350
D
  3
ACAD_LAYOUT
350
1A
  3
ACAD_MLINESTYLE
350
17
  3
ACAD_PLOTSETTINGS
350
19
  3
ACAD_PLOTSTYLENAME
350
E
  0
DICTIONARY
  5
D
102
{ACAD_REACTORS
330
C
102
}
330
C
100
AcDbDictionary
281
     1
  0
DICTIONARY
  5
1A
102
{ACAD_REACTORS
330
C
102
}
330
C
100
AcDbDictionary
281
     1
  3
Layout1
350
1E
  3
Layout2
350
26
  3
Model
350
22
  0
DICTIONARY
  5
17
102
{ACAD_REACTORS
330
C
102
}
330
C
100
AcDbDictionary
281
     1
  3
Standard
350
18
  0
DICTIONARY
  5
19
102
{ACAD_REACTORS
330
C
102
}
330
C
100
AcDbDictionary
281
     1
  0
ACDBDICTIONARYWDFLT
  5
E
102
{ACAD_REACTORS
330
C
102
}
330
C
100
AcDbDictionary
281
     1
  3
Normal
350
F
100
AcDbDictionaryWithDefault
340
F
  0
LAYOUT
  5
1E
102
{ACAD_REACTORS
330
1A
102
}
330
1A
100
AcDbPlotSettings
  1

  2

  4

  6

 40
0.0
 41
0.0
 42
0.0
 43
0.0
 44
0.0
 45
0.0
 46
0.0
 47
0.0
 48
0.0
 49
0.0
140
0.0
141
0.0
142
1.0
143
1.0
 70
   688
 72
     0
 73
     0
 74
     5
  7

 75
    16
 76
     0
 77
     2
 78
   300
147
1.0
148
0.0
149
0.0
100
AcDbLayout
  1
Layout1
 70
     1
 71
     1
 10
0.0
 20
0.0
 11
0.0
 21
0.0
 12
0.0
 22
0.0
 32
0.0
 14
0.0
 24
0.0
 34
0.0
 15
0.0
 25
0.0
 35
0.0
146
0.0
 13
0.0
 23
0.0
 33
0.0
 16
1.0
 26
0.0
 36
0.0
 17
0.0
 27
1.0
 37
0.0
 76
     0
330
1B
  0
LAYOUT
  5
26
102
{ACAD_REACTORS
330
1A
102
}
330
1A
100
AcDbPlotSettings
  1

  2

  4

  6

 40
0.0
 41
0.0
 42
0.0
 43
0.0
 44
0.0
 45
0.0
 46
0.0
 47
0.0
 48
0.0
 49
0.0
140
0.0
141
0.0
142
1.0
143
1.0
 70
   688
 72
     0
 73
     0
 74
     5
  7

 75
    16
 76
     0
 77
     2
 78
   300
147
1.0
148
0.0
149
0.0
100
AcDbLayout
  1
Layout2
 70
     1
 71
     2
 10
0.0
 20
0.0
 11
0.0
 21
0.0
 12
0.0
 22
0.0
 32
0.0
 14
0.0
 24
0.0
 34
0.0
 15
0.0
 25
0.0
 35
0.0
146
0.0
 13
0.0
 23
0.0
 33
0.0
 16
1.0
 26
0.0
 36
0.0
 17
0.0
 27
1.0
 37
0.0
 76
     0
330
23
  0
LAYOUT
  5
22
102
{ACAD_REACTORS
330
1A
102
}
330
1A
100
AcDbPlotSettings
  1

  2

  4

  6

 40
0.0
 41
0.0
 42
0.0
 43
0.0
 44
0.0
 45
0.0
 46
0.0
 47
0.0
 48
0.0
 49
0.0
140
0.0
141
0.0
142
1.0
143
1.0
 70
  1712
 72
     0
 73
     0
 74
     0
  7

 75
     0
 76
     0
 77
     2
 78
   300
147
1.0
148
0.0
149
0.0
100
AcDbLayout
  1
Model
 70
     1
 71
     0
 10
0.0
 20
0.0
 11
0.0
 21
0.0
 12
0.0
 22
0.0
 32
0.0
 14
156.155016578542
 24
140.7458747368
 34
0.0
 15
282.397193782129
 25
284.7458747368
 35
0.0
146
0.0
 13
0.0
 23
0.0
 33
0.0
 16
1.0
 26
0.0
 36
0.0
 17
0.0
 27
1.0
 37
0.0
 76
     0
330
1F
  0
MLINESTYLE
  5
18
102
{ACAD_REACTORS
330
17
102
}
330
17
100
AcDbMlineStyle
  2
Standard
 70
     0
  3

 62
   256
 51
90.0
 52
90.0
 71
     2
 49
0.5
 62
   256
  6
BYLAYER
 49
-0.5
 62
   256
  6
BYLAYER
  0
ACDBPLACEHOLDER
  5
F
102
{ACAD_REACTORS
330
E
102
}
330
E
  0
ENDSEC
  0
EOF
