  0
SECTION
  2
HEADER
  9
$ACADVER
  1
AC1018
  9
$ACADMAINTVER
 70
     0
  9
$DWGCODEPAGE
  3
ANSI_1252
  9
$INSBASE
 10
0.0
 20
0.0
 30
0.0
  9
$EXTMIN
 10
150.244483406393
 20
141.2458747368
 30
0.0
  9
$EXTMAX
 10
262.368434873905
 20
284.2458747368
 30
0.0
  9
$LIMMIN
 10
0.0
 20
0.0
  9
$LIMMAX
 10
12.0
 20
9.0
  9
$ORTHOMODE
 70
     0
  9
$REGENMODE
 70
     1
  9
$FILLMODE
 70
     1
  9
$QTEXTMODE
 70
     0
  9
$MIRRTEXT
 70
     1
  9
$LTSCALE
 40
1.0
  9
$ATTMODE
 70
     1
  9
$TEXTSIZE
 40
0.2
  9
$TRACEWID
 40
0.05
  9
$TEXTSTYLE
  7
Standard
  9
$CLAYER
  8
0
  9
$CELTYPE
  6
ByLayer
  9
$CECOLOR
 62
   256
  9
$CELTSCALE
 40
1.0
  9
$DISPSILH
 70
     0
  9
$DIMSCALE
 40
1.0
  9
$DIMASZ
 40
0.18
  9
$DIMEXO
 40
0.0625
  9
$DIMDLI
 40
0.38
  9
$DIMRND
 40
0.0
  9
$DIMDLE
 40
0.0
  9
$DIMEXE
 40
0.18
  9
$DIMTP
 40
0.0
  9
$DIMTM
 40
0.0
  9
$DIMTXT
 40
0.18
  9
$DIMCEN
 40
0.09
  9
$DIMTSZ
 40
0.0
  9
$DIMTOL
 70
     0
  9
$DIMLIM
 70
     0
  9
$DIMTIH
 70
     1
  9
$DIMTOH
 70
     1
  9
$DIMSE1
 70
     0
  9
$DIMSE2
 70
     0
  9
$DIMTAD
 70
     0
  9
$DIMZIN
 70
     0
  9
$DIMBLK
  1

  9
$DIMASO
 70
     1
  9
$DIMSHO
 70
     1
  9
$DIMPOST
  1

  9
$DIMAPOST
  1

  9
$DIMALT
 70
     0
  9
$DIMALTD
 70
     2
  9
$DIMALTF
 40
25.4
  9
$DIMLFAC
 40
1.0
  9
$DIMTOFL
 70
     0
  9
$DIMTVP
 40
0.0
  9
$DIMTIX
 70
     0
  9
$DIMSOXD
 70
     0
  9
$DIMSAH
 70
     0
  9
$DIMBLK1
  1

  9
$DIMBLK2
  1

  9
$DIMSTYLE
  2
Standard
  9
$DIMCLRD
 70
     0
  9
$DIMCLRE
 70
     0
  9
$DIMCLRT
 70
     0
  9
$DIMTFAC
 40
1.0
  9
$DIMGAP
 40
0.09
  9
$DIMJUST
 70
     0
  9
$DIMSD1
 70
     0
  9
$DIMSD2
 70
     0
  9
$DIMTOLJ
 70
     1
  9
$DIMTZIN
 70
     0
  9
$DIMALTZ
 70
     0
  9
$DIMALTTZ
 70
     0
  9
$DIMUPT
 70
     0
  9
$DIMDEC
 70
     4
  9
$DIMTDEC
 70
     4
  9
$DIMALTU
 70
     2
  9
$DIMALTTD
 70
     2
  9
$DIMTXSTY
  7
Standard
  9
$DIMAUNIT
 70
     0
  9
$DIMADEC
 70
     0
  9
$DIMALTRND
 40
0.0
  9
$DIMAZIN
 70
     0
  9
$DIMDSEP
 70
    46
  9
$DIMATFIT
 70
     3
  9
$DIMFRAC
 70
     0
  9
$DIMLDRBLK
  1

  9
$DIMLUNIT
 70
     2
  9
$DIMLWD
 70
    -2
  9
$DIMLWE
 70
    -2
  9
$DIMTMOVE
 70
     0
  9
$LUNITS
 70
     2
  9
$LUPREC
 70
     4
  9
$SKETCHINC
 40
0.1
  9
$FILLETRAD
 40
0.5
  9
$AUNITS
 70
     0
  9
$AUPREC
 70
     0
  9
$MENU
  1
.
  9
$ELEVATION
 40
0.0
  9
$PELEVATION
 40
0.0
  9
$THICKNESS
 40
0.0
  9
$LIMCHECK
 70
     0
  9
$CHAMFERA
 40
0.5
  9
$CHAMFERB
 40
0.5
  9
$CHAMFERC
 40
1.0
  9
$CHAMFERD
 40
0.0
  9
$SKPOLY
 70
     0
  9
$TDCREATE
 40
2455895.464953067
  9
$TDUCREATE
 40
2455895.4232864
  9
$TDUPDATE
 40
2455895.464953079
  9
$TDUUPDATE
 40
2455895.423286412
  9
$TDINDWG
 40
0.0000000116
  9
$TDUSRTIMER
 40
0.0000000116
  9
$USRTIMER
 70
     1
  9
$ANGBASE
 50
0.0
  9
$ANGDIR
 70
     0
  9
$PDMODE
 70
     0
  9
$PDSIZE
 40
0.0
  9
$PLINEWID
 40
0.0
  9
$SPLFRAME
 70
     0
  9
$SPLINETYPE
 70
     6
  9
$SPLINESEGS
 70
     8
  9
$HANDSEED
  5
1C7
  9
$SURFTAB1
 70
     6
  9
$SURFTAB2
 70
     6
  9
$SURFTYPE
 70
     6
  9
$SURFU
 70
     6
  9
$SURFV
 70
     6
  9
$UCSBASE
  2

  9
$UCSNAME
  2

  9
$UCSORG
 10
0.0
 20
0.0
 30
0.0
  9
$UCSXDIR
 10
1.0
 20
0.0
 30
0.0
  9
$UCSYDIR
 10
0.0
 20
1.0
 30
0.0
  9
$UCSORTHOREF
  2

  9
$UCSORTHOVIEW
 70
     0
  9
$UCSORGTOP
 10
0.0
 20
0.0
 30
0.0
  9
$UCSORGBOTTOM
 10
0.0
 20
0.0
 30
0.0
  9
$UCSORGLEFT
 10
0.0
 20
0.0
 30
0.0
  9
$UCSORGRIGHT
 10
0.0
 20
0.0
 30
0.0
  9
$UCSORGFRONT
 10
0.0
 20
0.0
 30
0.0
  9
$UCSORGBACK
 10
0.0
 20
0.0
 30
0.0
  9
$PUCSBASE
  2

  9
$PUCSNAME
  2

  9
$PUCSORG
 10
0.0
 20
0.0
 30
0.0
  9
$PUCSXDIR
 10
1.0
 20
0.0
 30
0.0
  9
$PUCSYDIR
 10
0.0
 20
1.0
 30
0.0
  9
$PUCSORTHOREF
  2

  9
$PUCSORTHOVIEW
 70
     0
  9
$PUCSORGTOP
 10
0.0
 20
0.0
 30
0.0
  9
$PUCSORGBOTTOM
 10
0.0
 20
0.0
 30
0.0
  9
$PUCSORGLEFT
 10
0.0
 20
0.0
 30
0.0
  9
$PUCSORGRIGHT
 10
0.0
 20
0.0
 30
0.0
  9
$PUCSORGFRONT
 10
0.0
 20
0.0
 30
0.0
  9
$PUCSORGBACK
 10
0.0
 20
0.0
 30
0.0
  9
$USERI1
 70
     0
  9
$USERI2
 70
     0
  9
$USERI3
 70
     0
  9
$USERI4
 70
     0
  9
$USERI5
 70
     0
  9
$USERR1
 40
14.5
  9
$USERR2
 40
0.0
  9
$USERR3
 40
0.0
  9
$USERR4
 40
0.0
  9
$USERR5
 40
0.0
  9
$WORLDVIEW
 70
     1
  9
$SHADEDGE
 70
     3
  9
$SHADEDIF
 70
    70
  9
$TILEMODE
 70
     1
  9
$MAXACTVP
 70
    64
  9
$PINSBASE
 10
0.0
 20
0.0
 30
0.0
  9
$PLIMCHECK
 70
     0
  9
$PEXTMIN
 10
1.00000000000000E+20
 20
1.00000000000000E+20
 30
1.00000000000000E+20
  9
$PEXTMAX
 10
-1.00000000000000E+20
 20
-1.00000000000000E+20
 30
-1.00000000000000E+20
  9
$PLIMMIN
 10
0.0
 20
0.0
  9
$PLIMMAX
 10
12.0
 20
9.0
  9
$UNITMODE
 70
     0
  9
$VISRETAIN
 70
     1
  9
$PLINEGEN
 70
     0
  9
$PSLTSCALE
 70
     1
  9
$TREEDEPTH
 70
  3020
  9
$CMLSTYLE
  2
Standard
  9
$CMLJUST
 70
     0
  9
$CMLSCALE
 40
1.0
  9
$PROXYGRAPHICS
 70
     1
  9
$MEASUREMENT
 70
     1
  9
$CELWEIGHT
370
    -1
  9
$ENDCAPS
280
     0
  9
$JOINSTYLE
280
     0
  9
$LWDISPLAY
290
     0
  9
$INSUNITS
 70
     1
  9
$HYPERLINKBASE
  1

  9
$STYLESHEET
  1

  9
$XEDIT
290
     1
  9
$CEPSNTYPE
380
     0
  9
$PSTYLEMODE
290
     1
  9
$FINGERPRINTGUID
  2
{227EF6A1-A632-4EBF-882F-F32F2A5EF8E8}
  9
$VERSIONGUID
  2
{FAEB1C32-E019-11D5-929B-00C0DF256EC4}
  9
$EXTNAMES
290
     1
  9
$PSVPSCALE
 40
0.0
  9
$OLESTARTUP
290
     0
  9
$SORTENTS
280
   127
  9
$INDEXCTL
280
     0
  9
$HIDETEXT
280
     1
  9
$XCLIPFRAME
290
     0
  9
$HALOGAP
280
     0
  9
$OBSCOLOR
 70
   257
  9
$OBSLTYPE
280
     0
  9
$INTERSECTIONDISPLAY
280
     0
  9
$INTERSECTIONCOLOR
 70
   257
  9
$DIMASSOC
280
     2
  9
$PROJECTNAME
  1

  0
ENDSEC
  0
SECTION
  2
CLASSES
  0
CLASS
  1
ACDBDICTIONARYWDFLT
  2
AcDbDictionaryWithDefault
  3
ObjectDBX Classes
 90
        0
 91
        3
280
     0
281
     0
  0
CLASS
  1

  2
exOdDbCircle
  3

 90
        0
 91
        3
280
     0
281
     1
  0
ENDSEC
  0
SECTION
  2
TABLES
  0
TABLE
  2
VPORT
  5
8
330
0
100
AcDbSymbolTable
 70
     1
  0
VPORT
  5
29
330
8
100
AcDbSymbolTableRecord
100
AcDbViewportTableRecord
  2
*Active
 70
     0
 10
0.0
 20
0.0
 11
1.0
 21
1.0
 12
206.306459140149
 22
212.7458747368
 13
0.0
 23
0.0
 14
0.5
 24
0.5
 15
0.5
 25
0.5
 16
0.0
 26
0.0
 36
1.0
 17
0.0
 27
0.0
 37
0.0
 40
157.3
 41
1.60267857142857
 42
50.0
 43
0.0
 44
0.0
 50
0.0
 51
0.0
 71
     0
 72
   100
 73
     1
 74
     3
 75
     0
 76
     0
 77
     0
 78
     0
281
     0
 65
     1
110
0.0
120
0.0
130
0.0
111
1.0
121
0.0
131
0.0
112
0.0
122
1.0
132
0.0
 79
     0
146
0.0
  0
ENDTAB
  0
TABLE
  2
LTYPE
  5
5
330
0
100
AcDbSymbolTable
 70
     9
  0
LTYPE
  5
14
330
5
100
AcDbSymbolTableRecord
100
AcDbLinetypeTableRecord
  2
ByBlock
 70
     0
  3

 72
    65
 73
     0
 40
0.0
  0
LTYPE
  5
15
330
5
100
AcDbSymbolTableRecord
100
AcDbLinetypeTableRecord
  2
ByLayer
 70
     0
  3

 72
    65
 73
     0
 40
0.0
  0
LTYPE
  5
16
330
5
100
AcDbSymbolTableRecord
100
AcDbLinetypeTableRecord
  2
Continuous
 70
     0
  3
Solid line
 72
    65
 73
     0
 40
0.0
  0
LTYPE
  5
2A
330
5
100
AcDbSymbolTableRecord
100
AcDbLinetypeTableRecord
  2
DASHED
 70
     0
  3
Dashed
 72
    65
 73
     2
 40
15.0
 49
7.0
 74
     0
 49
-8.0
 74
     0
  0
LTYPE
  5
2B
330
5
100
AcDbSymbolTableRecord
100
AcDbLinetypeTableRecord
  2
DOTTED
 70
     0
  3
Dotted
 72
    65
 73
     2
 40
1.0
 49
0.0
 74
     0
 49
-1.0
 74
     0
  0
LTYPE
  5
2C
330
5
100
AcDbSymbolTableRecord
100
AcDbLinetypeTableRecord
  2
DOT_CENTER
 70
     0
  3
Dot_Center
 72
    65
 73
     4
 40
14.0
 49
12.0
 74
     0
 49
-1.0
 74
     0
 49
0.0
 74
     0
 49
-1.0
 74
     0
  0
LTYPE
  5
2D
330
5
100
AcDbSymbolTableRecord
100
AcDbLinetypeTableRecord
  2
LONG_DASHED
 70
     0
  3
Long_Dashed
 72
    65
 73
     2
 40
15.0
 49
10.0
 74
     0
 49
-5.0
 74
     0
  0
LTYPE
  5
2E
330
5
100
AcDbSymbolTableRecord
100
AcDbLinetypeTableRecord
  2
DASH_CENTER
 70
     0
  3
Dash_Center
 72
    65
 73
     4
 40
14.0
 49
11.0
 74
     0
 49
-1.0
 74
     0
 49
1.0
 74
     0
 49
-1.0
 74
     0
  0
LTYPE
  5
2F
330
5
100
AcDbSymbolTableRecord
100
AcDbLinetypeTableRecord
  2
PHANTOM
 70
     0
  3
Phantom
 72
    65
 73
     6
 40
13.0
 49
10.0
 74
     0
 49
-1.0
 74
     0
 49
0.0
 74
     0
 49
-1.0
 74
     0
 49
0.0
 74
     0
 49
-1.0
 74
     0
  0
LTYPE
  5
30
330
5
100
AcDbSymbolTableRecord
100
AcDbLinetypeTableRecord
  2
CENTER_DASH_DASH
 70
     0
  3
Center_Dash_Dash
 72
    65
 73
     6
 40
14.0
 49
9.0
 74
     0
 49
-1.0
 74
     0
 49
1.0
 74
     0
 49
-1.0
 74
     0
 49
1.0
 74
     0
 49
-1.0
 74
     0
  0
LTYPE
  5
31
330
5
100
AcDbSymbolTableRecord
100
AcDbLinetypeTableRecord
  2
HIDDEN_8
 70
     0
  3
HIDDEN_8
 72
    65
 73
     2
 40
6.0
 49
3.0
 74
     0
 49
-3.0
 74
     0
  0
ENDTAB
  0
TABLE
  2
LAYER
  5
2
330
0
100
AcDbSymbolTable
 70
     7
  0
LAYER
  5
10
330
2
100
AcDbSymbolTableRecord
100
AcDbLayerTableRecord
  2
0
 70
     0
 62
     7
  6
Continuous
370
    -3
390
F
  0
LAYER
  5
32
330
2
100
AcDbSymbolTableRecord
100
AcDbLayerTableRecord
  2
1
 70
     0
 62
     7
  6
Continuous
370
    -3
390
F
  0
LAYER
  5
33
330
2
100
AcDbSymbolTableRecord
100
AcDbLayerTableRecord
  2
A_ACHSEN
 70
     0
 62
     7
  6
Continuous
370
    -3
390
F
  0
LAYER
  5
34
330
2
100
AcDbSymbolTableRecord
100
AcDbLayerTableRecord
  2
A_FASEN
 70
     0
 62
     7
  6
Continuous
370
    -3
390
F
  0
LAYER
  5
35
330
2
100
AcDbSymbolTableRecord
100
AcDbLayerTableRecord
  2
A_RUNDUNGEN
 70
     0
 62
     7
  6
Continuous
370
    -3
390
F
  0
LAYER
  5
36
330
2
100
AcDbSymbolTableRecord
100
AcDbLayerTableRecord
  2
DEFAULT_1
 70
     0
 62
     7
  6
Continuous
370
    -3
390
F
  0
LAYER
  5
37
330
2
100
AcDbSymbolTableRecord
100
AcDbLayerTableRecord
  2
DEFAULT_2
 70
     0
 62
     7
  6
Continuous
370
    -3
390
F
  0
ENDTAB
  0
TABLE
  2
STYLE
  5
3
330
0
100
AcDbSymbolTable
 70
     2
  0
STYLE
  5
11
330
3
100
AcDbSymbolTableRecord
100
AcDbTextStyleTableRecord
  2
Standard
 70
     0
 40
0.0
 41
1.0
 50
0.0
 71
     0
 42
0.2
  3
txt
  4

  0
STYLE
  5
1A0
330
3
100
AcDbSymbolTableRecord
100
AcDbTextStyleTableRecord
  2
CONVERTER_11
 70
     0
 40
0.0
 41
0.9
 50
0.0
 71
     0
 42
0.2
  3
txt.shx
  4

  0
ENDTAB
  0
TABLE
  2
VIEW
  5
6
330
0
100
AcDbSymbolTable
 70
     0
  0
ENDTAB
  0
TABLE
  2
UCS
  5
7
330
0
100
AcDbSymbolTable
 70
     0
  0
ENDTAB
  0
TABLE
  2
APPID
  5
9
330
0
100
AcDbSymbolTable
 70
     1
  0
APPID
  5
12
330
9
100
AcDbSymbolTableRecord
100
AcDbRegAppTableRecord
  2
ACAD
 70
     0
  0
ENDTAB
  0
TABLE
  2
DIMSTYLE
  5
A
330
0
100
AcDbSymbolTable
 70
     5
100
AcDbDimStyleTable
  0
DIMSTYLE
105
27
330
A
100
AcDbSymbolTableRecord
100
AcDbDimStyleTableRecord
  2
Standard
 70
     0
340
11
  0
DIMSTYLE
105
1A4
102
{ACAD_REACTORS
330
1A5
102
}
330
A
100
AcDbSymbolTableRecord
100
AcDbDimStyleTableRecord
  2
ME10_DIM_10
 70
     0
 41
3.5
 42
0.0
 44
2.0
 73
     0
 74
     0
 77
     1
 78
     8
140
3.5
147
2.0
172
     1
173
     1
176
     2
177
     2
178
     2
271
     3
340
1A0
  0
DIMSTYLE
105
1AF
102
{ACAD_REACTORS
330
1B0
102
}
330
A
100
AcDbSymbolTableRecord
100
AcDbDimStyleTableRecord
  2
ME10_DIM_11
 70
     0
 41
3.5
 42
0.0
 44
2.0
 73
     0
 74
     0
 77
     1
 78
     8
140
3.5
147
2.0
172
     1
173
     1
176
     2
177
     2
178
     2
271
     3
340
1A0
  0
DIMSTYLE
105
1BA
102
{ACAD_REACTORS
330
1BB
102
}
330
A
100
AcDbSymbolTableRecord
100
AcDbDimStyleTableRecord
  2
ME10_DIM_12
 70
     0
  3
ø<>
 41
3.5
 42
0.0
 44
2.0
 73
     0
 74
     0
 77
     1
 78
     8
140
3.5
147
2.0
172
     1
173
     1
176
     2
177
     2
178
     2
271
     3
340
1A0
  0
DIMSTYLE
105
1C5
102
{ACAD_REACTORS
330
1C6
102
}
330
A
100
AcDbSymbolTableRecord
100
AcDbDimStyleTableRecord
  2
ME10_DIM_13
 70
     0
 41
3.5
 42
0.0
 44
2.0
 73
     0
 74
     0
 77
     1
 78
     8
140
3.5
147
2.0
172
     1
173
     1
176
     2
177
     2
178
     2
271
     3
340
1A0
  0
ENDTAB
  0
TABLE
  2
BLOCK_RECORD
  5
1
330
0
100
AcDbSymbolTable
 70
     5
  0
BLOCK_RECORD
  5
1F
330
1
100
AcDbSymbolTableRecord
100
AcDbBlockTableRecord
  2
*Model_Space
340
22
  0
BLOCK_RECORD
  5
1B
330
1
100
AcDbSymbolTableRecord
100
AcDbBlockTableRecord
  2
*Paper_Space
340
1E
  0
BLOCK_RECORD
  5
23
330
1
100
AcDbSymbolTableRecord
100
AcDbBlockTableRecord
  2
*Paper_Space0
340
26
  0
BLOCK_RECORD
  5
19A
330
1
100
AcDbSymbolTableRecord
100
AcDbBlockTableRecord
  2
*D1
340
0
  0
BLOCK_RECORD
  5
1A6
330
1
100
AcDbSymbolTableRecord
100
AcDbBlockTableRecord
  2
*D2
340
0
  0
BLOCK_RECORD
  5
1B1
330
1
100
AcDbSymbolTableRecord
100
AcDbBlockTableRecord
  2
*D3
340
0
  0
BLOCK_RECORD
  5
1BC
330
1
100
AcDbSymbolTableRecord
100
AcDbBlockTableRecord
  2
*D4
340
0
  0
ENDTAB
  0
ENDSEC
  0
SECTION
  2
BLOCKS
  0
BLOCK
  5
20
330
1F
100
AcDbEntity
  8
0
100
AcDbBlockBegin
  2
*Model_Space
 70
     0
 71
     0
 10
0.0
 20
0.0
 30
0.0
  3
*Model_Space
  1

  0
ENDBLK
  5
21
330
1F
100
AcDbEntity
  8
0
100
AcDbBlockEnd
  0
BLOCK
  5
1C
330
1B
100
AcDbEntity
 67
     1
  8
0
100
AcDbBlockBegin
  2
*Paper_Space
 70
     0
 71
     0
 10
0.0
 20
0.0
 30
0.0
  3
*Paper_Space
  1

  0
ENDBLK
  5
1D
330
1B
100
AcDbEntity
 67
     1
  8
0
100
AcDbBlockEnd
  0
BLOCK
  5
24
330
23
100
AcDbEntity
  8
0
100
AcDbBlockBegin
  2
*Paper_Space0
 70
     0
 71
     0
 10
0.0
 20
0.0
 30
0.0
  3
*Paper_Space0
  1

  0
ENDBLK
  5
25
330
23
100
AcDbEntity
  8
0
100
AcDbBlockEnd
  0
BLOCK
  5
1A2
330
19A
100
AcDbEntity
  8
0
100
AcDbBlockBegin
  2
*D1
 70
     1
 71
     0
 10
0.0
 20
0.0
 30
0.0
  3
*D1
  1

  0
LINE
  5
19B
330
19A
100
AcDbEntity
  8
1
  6
Continuous
 62
     2
100
AcDbLine
 10
260.368434873905
 20
267.6456794886
 30
0.0
 11
260.368434873905
 21
157.8458747368
 31
0.0
  0
LINE
  5
19C
330
19A
100
AcDbEntity
  8
1
  6
Continuous
 62
     2
100
AcDbLine
 10
250.3111225329
 20
157.8458747368
 30
0.0
 11
262.368434873905
 21
157.8458747368
 31
0.0
  0
LINE
  5
19D
330
19A
100
AcDbEntity
  8
1
  6
Continuous
 62
     2
100
AcDbLine
 10
250.3111225329
 20
267.6456794886
 30
0.0
 11
262.368434873905
 21
267.6456794886
 31
0.0
  0
SOLID
  5
19E
330
19A
100
AcDbEntity
  8
1
 62
     2
100
AcDbTrace
 10
260.8292186154609
 20
264.1456794886
 30
0.0
 11
259.9076511323491
 21
264.1456794886
 31
0.0
 12
260.368434873905
 22
267.6456794886
 32
0.0
 13
260.368434873905
 23
267.6456794886
 33
0.0
  0
SOLID
  5
19F
330
19A
100
AcDbEntity
  8
1
 62
     2
100
AcDbTrace
 10
259.9076511323491
 20
161.3458747368
 30
0.0
 11
260.8292186154609
 21
161.3458747368
 31
0.0
 12
260.368434873905
 22
157.8458747368
 32
0.0
 13
260.368434873905
 23
157.8458747368
 33
0.0
  0
MTEXT
  5
1A1
330
19A
100
AcDbEntity
  8
1
 62
     2
100
AcDbMText
 10
258.368434873905
 20
209.368640321169
 30
0.0
 40
3.5
 41
0.0
 71
     7
 72
     1
  1
110
  7
CONVERTER_11
 11
0.0
 21
1.0
 31
0.0
 73
     1
 44
0.60024009603842
  0
ENDBLK
  5
1A3
330
19A
100
AcDbEntity
  8
0
100
AcDbBlockEnd
  0
BLOCK
  5
1AD
330
1A6
100
AcDbEntity
  8
0
100
AcDbBlockBegin
  2
*D2
 70
     1
 71
     0
 10
0.0
 20
0.0
 30
0.0
  3
*D2
  1

  0
LINE
  5
1A7
330
1A6
100
AcDbEntity
  8
1
  6
Continuous
 62
     2
100
AcDbLine
 10
215.3111225329
 20
277.554930305303
 30
0.0
 11
250.3111225329
 21
277.554930305303
 31
0.0
  0
LINE
  5
1A8
330
1A6
100
AcDbEntity
  8
1
  6
Continuous
 62
     2
100
AcDbLine
 10
250.3111225329
 20
267.6456794886
 30
0.0
 11
250.3111225329
 21
279.554930305303
 31
0.0
  0
LINE
  5
1A9
330
1A6
100
AcDbEntity
  8
1
  6
Continuous
 62
     2
100
AcDbLine
 10
215.3111225329
 20
268.7458747368
 30
0.0
 11
215.3111225329
 21
279.554930305303
 31
0.0
  0
SOLID
  5
1AA
330
1A6
100
AcDbEntity
  8
1
 62
     2
100
AcDbTrace
 10
218.8111225329
 20
278.0157140468589
 30
0.0
 11
218.8111225329
 21
277.0941465637471
 31
0.0
 12
215.3111225329
 22
277.554930305303
 32
0.0
 13
215.3111225329
 23
277.554930305303
 33
0.0
  0
SOLID
  5
1AB
330
1A6
100
AcDbEntity
  8
1
 62
     2
100
AcDbTrace
 10
246.8111225329
 20
277.0941465637471
 30
0.0
 11
246.8111225329
 21
278.0157140468589
 31
0.0
 12
250.3111225329
 22
277.554930305303
 32
0.0
 13
250.3111225329
 23
277.554930305303
 33
0.0
  0
MTEXT
  5
1AC
330
1A6
100
AcDbEntity
  8
1
 62
     2
100
AcDbMText
 10
229.640524755299
 20
279.554930305303
 30
0.0
 40
3.5
 41
0.0
 71
     7
 72
     1
  1
35
  7
CONVERTER_11
 11
0.9999999999970621
 21
2.424068405545307E-6
 31
0.0
 73
     1
 44
0.60024009603842
  0
ENDBLK
  5
1AE
330
1A6
100
AcDbEntity
  8
0
100
AcDbBlockEnd
  0
BLOCK
  5
1B8
330
1B1
100
AcDbEntity
  8
0
100
AcDbBlockBegin
  2
*D3
 70
     1
 71
     0
 10
0.0
 20
0.0
 30
0.0
  3
*D3
  1

  0
LINE
  5
1B2
330
1B1
100
AcDbEntity
  8
1
  6
Continuous
 62
     2
100
AcDbLine
 10
191.3111225329
 20
195.236368298914
 30
0.0
 11
211.3106439261
 21
195.236368298914
 31
0.0
  0
LINE
  5
1B3
330
1B1
100
AcDbEntity
  8
1
  6
Continuous
 62
     2
100
AcDbLine
 10
191.3111225329
 20
175.2458747368
 30
0.0
 11
191.3111225329
 21
197.236368298914
 31
0.0
  0
LINE
  5
1B4
330
1B1
100
AcDbEntity
  8
1
  6
Continuous
 62
     2
100
AcDbLine
 10
211.3106439261
 20
175.2458747368
 30
0.0
 11
211.3106439261
 21
197.236368298914
 31
0.0
  0
SOLID
  5
1B5
330
1B1
100
AcDbEntity
  8
1
 62
     2
100
AcDbTrace
 10
194.8111225329
 20
195.6971520404699
 30
0.0
 11
194.8111225329
 21
194.7755845573581
 31
0.0
 12
191.3111225329
 22
195.236368298914
 32
0.0
 13
191.3111225329
 23
195.236368298914
 33
0.0
  0
SOLID
  5
1B6
330
1B1
100
AcDbEntity
  8
1
 62
     2
100
AcDbTrace
 10
207.8106439261
 20
194.7755845573581
 30
0.0
 11
207.8106439261
 21
195.6971520404699
 31
0.0
 12
211.3106439261
 22
195.236368298914
 32
0.0
 13
211.3106439261
 23
195.236368298914
 33
0.0
  0
MTEXT
  5
1B7
330
1B1
100
AcDbEntity
  8
1
 62
     2
100
AcDbMText
 10
195.7411225329084
 20
197.2363613418377
 30
0.0
 40
3.5
 41
0.0
 71
     7
 72
     1
  1
\C2;ø\C2;20
  7
CONVERTER_11
 11
0.9999999999970621
 21
2.424068405545307E-6
 31
0.0
 73
     1
 44
0.60024009603842
  0
ENDBLK
  5
1B9
330
1B1
100
AcDbEntity
  8
0
100
AcDbBlockEnd
  0
BLOCK
  5
1C3
330
1BC
100
AcDbEntity
  8
0
100
AcDbBlockBegin
  2
*D4
 70
     1
 71
     0
 10
0.0
 20
0.0
 30
0.0
  3
*D4
  1

  0
LINE
  5
1BD
330
1BC
100
AcDbEntity
  8
1
  6
Continuous
 62
     2
100
AcDbLine
 10
155.744483406393
 20
282.7458747368
 30
0.0
 11
155.744483406393
 21
142.7458747368
 31
0.0
  0
LINE
  5
1BE
330
1BC
100
AcDbEntity
  8
1
  6
Continuous
 62
     2
100
AcDbLine
 10
175.3111225329
 20
282.7458747368
 30
0.0
 11
153.744483406393
 21
282.7458747368
 31
0.0
  0
LINE
  5
1BF
330
1BC
100
AcDbEntity
  8
1
  6
Continuous
 62
     2
100
AcDbLine
 10
175.3111225329
 20
142.7458747368
 30
0.0
 11
153.744483406393
 21
142.7458747368
 31
0.0
  0
SOLID
  5
1C0
330
1BC
100
AcDbEntity
  8
1
 62
     2
100
AcDbTrace
 10
156.2052671479489
 20
279.2458747368
 30
0.0
 11
155.2836996648371
 21
279.2458747368
 31
0.0
 12
155.744483406393
 22
282.7458747368
 32
0.0
 13
155.744483406393
 23
282.7458747368
 33
0.0
  0
SOLID
  5
1C1
330
1BC
100
AcDbEntity
  8
1
 62
     2
100
AcDbTrace
 10
155.2836996648371
 20
146.2458747368
 30
0.0
 11
156.2052671479489
 21
146.2458747368
 31
0.0
 12
155.744483406393
 22
142.7458747368
 32
0.0
 13
155.744483406393
 23
142.7458747368
 33
0.0
  0
MTEXT
  5
1C2
330
1BC
100
AcDbEntity
  8
1
 62
     2
100
AcDbMText
 10
153.744483406393
 20
208.700595736283
 30
0.0
 40
3.5
 41
0.0
 71
     7
 72
     1
  1
140
  7
CONVERTER_11
 11
0.0
 21
1.0
 31
0.0
 73
     1
 44
0.60024009603842
  0
ENDBLK
  5
1C4
330
1BC
100
AcDbEntity
  8
0
100
AcDbBlockEnd
  0
ENDSEC
  0
SECTION
  2
ENTITIES
  0
POINT
  5
38
330
1F
100
AcDbEntity
  8
1
 62
     3
 60
     1
100
AcDbPoint
 10
229.360279533346
 20
167.023210711944
 30
0.0
  0
POINT
  5
39
330
1F
100
AcDbEntity
  8
1
 62
     3
 60
     1
100
AcDbPoint
 10
236.2101020185
 20
178.7458747368
 30
0.0
  0
POINT
  5
3A
330
1F
100
AcDbEntity
  8
1
 62
     3
 60
     1
100
AcDbPoint
 10
236.2101020185
 20
246.7458747368
 30
0.0
  0
POINT
  5
3B
330
1F
100
AcDbEntity
  8
1
 62
     3
 60
     1
100
AcDbPoint
 10
229.360279533346
 20
258.468538761656
 30
0.0
  0
POINT
  5
3C
330
1F
100
AcDbEntity
  8
1
 62
     3
 60
     1
100
AcDbPoint
 10
231.3111225329
 20
173.7458747368
 30
0.0
  0
POINT
  5
3D
330
1F
100
AcDbEntity
  8
1
 62
     3
 60
     1
100
AcDbPoint
 10
231.3111225329
 20
251.7458747368
 30
0.0
  0
LINE
  5
3E
330
1F
100
AcDbEntity
  8
A_ACHSEN
  6
DOT_CENTER
 62
     2
100
AcDbLine
 10
173.3111225329
 20
168.7958747368
 30
0.0
 11
173.3111225329
 21
162.4958747368
 31
0.0
  0
LINE
  5
3F
330
1F
100
AcDbEntity
  8
A_ACHSEN
  6
DOT_CENTER
 62
     2
100
AcDbLine
 10
173.3111225329
 20
162.4958747368
 30
0.0
 11
173.3111225329
 21
161.2458747368
 31
0.0
  0
LINE
  5
40
330
1F
100
AcDbEntity
  8
A_ACHSEN
  6
DOT_CENTER
 62
     2
100
AcDbLine
 10
173.3111225329
 20
168.7958747368
 30
0.0
 11
173.3111225329
 21
174.2458747368
 31
0.0
  0
LINE
  5
41
330
1F
100
AcDbEntity
  8
A_ACHSEN
  6
DOT_CENTER
 62
     2
100
AcDbLine
 10
178.5611225329
 20
167.7458747368
 30
0.0
 11
168.0611225329
 21
167.7458747368
 31
0.0
  0
LINE
  5
42
330
1F
100
AcDbEntity
  8
A_ACHSEN
  6
DOT_CENTER
 62
     2
100
AcDbLine
 10
168.0611225329
 20
167.7458747368
 30
0.0
 11
166.8111225329
 21
167.7458747368
 31
0.0
  0
LINE
  5
43
330
1F
100
AcDbEntity
  8
A_ACHSEN
  6
DOT_CENTER
 62
     2
100
AcDbLine
 10
178.5611225329
 20
167.7458747368
 30
0.0
 11
179.8111225329
 21
167.7458747368
 31
0.0
  0
LINE
  5
44
330
1F
100
AcDbEntity
  8
A_ACHSEN
  6
DOT_CENTER
 62
     2
100
AcDbLine
 10
173.3111225329
 20
262.9958747368
 30
0.0
 11
173.3111225329
 21
252.4958747368
 31
0.0
  0
LINE
  5
45
330
1F
100
AcDbEntity
  8
A_ACHSEN
  6
DOT_CENTER
 62
     2
100
AcDbLine
 10
173.3111225329
 20
252.4958747368
 30
0.0
 11
173.3111225329
 21
251.2458747368
 31
0.0
  0
LINE
  5
46
330
1F
100
AcDbEntity
  8
A_ACHSEN
  6
DOT_CENTER
 62
     2
100
AcDbLine
 10
173.3111225329
 20
262.9958747368
 30
0.0
 11
173.3111225329
 21
264.2458747368
 31
0.0
  0
LINE
  5
47
330
1F
100
AcDbEntity
  8
A_ACHSEN
  6
DOT_CENTER
 62
     2
100
AcDbLine
 10
174.3611225328999
 20
257.7458747368
 30
0.0
 11
168.0611225329
 21
257.7458747368
 31
0.0
  0
LINE
  5
48
330
1F
100
AcDbEntity
  8
A_ACHSEN
  6
DOT_CENTER
 62
     2
100
AcDbLine
 10
168.0611225329
 20
257.7458747368
 30
0.0
 11
166.8111225329
 21
257.7458747368
 31
0.0
  0
LINE
  5
49
330
1F
100
AcDbEntity
  8
A_ACHSEN
  6
DOT_CENTER
 62
     2
100
AcDbLine
 10
174.3611225328999
 20
257.7458747368
 30
0.0
 11
179.8111225329
 21
257.7458747368
 31
0.0
  0
LINE
  5
4A
330
1F
100
AcDbEntity
  8
0
  6
Continuous
 62
     7
100
AcDbLine
 10
186.3111225329
 20
142.7458747368
 30
0.0
 11
186.3111225329
 21
282.7458747368
 31
0.0
  0
LINE
  5
4B
330
1F
100
AcDbEntity
  8
0
  6
Continuous
 62
     7
100
AcDbLine
 10
186.3111225329
 20
282.7458747368
 30
0.0
 11
186.3111225329
 21
282.1458747368
 31
0.0
  0
LINE
  5
4C
330
1F
100
AcDbEntity
  8
0
  6
Continuous
 62
     7
100
AcDbLine
 10
186.3111225329
 20
142.7458747368
 30
0.0
 11
186.3111225329
 21
143.3458747368
 31
0.0
  0
LINE
  5
4D
330
1F
100
AcDbEntity
  8
0
  6
Continuous
 62
     7
100
AcDbLine
 10
186.8111225329
 20
282.1458747368
 30
0.0
 11
186.8111225329
 21
143.3458747368
 31
0.0
  0
LINE
  5
4E
330
1F
100
AcDbEntity
  8
0
  6
Continuous
 62
     7
100
AcDbLine
 10
189.8111225329
 20
282.1458747368
 30
0.0
 11
189.8111225329
 21
143.3458747368
 31
0.0
  0
LINE
  5
4F
330
1F
100
AcDbEntity
  8
0
  6
Continuous
 62
     7
100
AcDbLine
 10
211.2353072696
 20
142.7458747368
 30
0.0
 11
191.3861152545
 21
142.7458747368
 31
0.0
  0
LINE
  5
50
330
1F
100
AcDbEntity
  8
0
  6
Continuous
 62
     7
100
AcDbLine
 10
186.3111225329
 20
142.7458747368
 30
0.0
 11
175.3111225329
 21
142.7458747368
 31
0.0
  0
LINE
  5
51
330
1F
100
AcDbEntity
  8
0
  6
Continuous
 62
     7
100
AcDbLine
 10
186.3111225329
 20
143.3458747368
 30
0.0
 11
189.8111225329
 21
143.3458747368
 31
0.0
  0
LINE
  5
52
330
1F
100
AcDbEntity
  8
0
  6
Continuous
 62
     7
100
AcDbLine
 10
165.3111225329
 20
152.7458747368
 30
0.0
 11
165.3111225329
 21
272.7458747368
 31
0.0
  0
LINE
  5
53
330
1F
100
AcDbEntity
  8
0
  6
Continuous
 62
     7
100
AcDbLine
 10
191.3861197015
 20
174.3458747368
 30
0.0
 11
211.2353169355
 21
174.3458747368
 31
0.0
  0
LINE
  5
54
330
1F
100
AcDbEntity
  8
0
  6
Continuous
 62
     7
100
AcDbLine
 10
191.3861225329
 20
142.7458747368
 30
0.0
 11
191.3861225329
 21
144.1293571687803
 31
0.0
  0
LINE
  5
55
330
1F
100
AcDbEntity
  8
0
  6
Continuous
 62
     7
100
AcDbLine
 10
211.2361225329
 20
142.7458747368
 30
0.0
 11
211.2361225329
 21
174.3458747368
 31
0.0
  0
LINE
  5
56
330
1F
100
AcDbEntity
  8
0
  6
Continuous
 62
     7
100
AcDbLine
 10
211.2361225329
 20
251.1458747368
 30
0.0
 11
211.2361225329
 21
282.7458747368
 31
0.0
  0
LINE
  5
57
330
1F
100
AcDbEntity
  8
A_ACHSEN
  6
DOT_CENTER
 62
     2
100
AcDbLine
 10
162.3111225329
 20
212.7458747368
 30
0.0
 11
180.2769339623
 21
212.7458747368
 31
0.0
  0
LINE
  5
58
330
1F
100
AcDbEntity
  8
A_ACHSEN
  6
DOT_CENTER
 62
     2
100
AcDbLine
 10
180.2769339623
 20
212.7458747368
 30
0.0
 11
192.8111225329
 21
212.7458747368
 31
0.0
  0
LINE
  5
59
330
1F
100
AcDbEntity
  8
0
  6
Continuous
 62
     7
100
AcDbLine
 10
191.3861197015
 20
251.1458747368
 30
0.0
 11
211.2353169355
 21
251.1458747368
 31
0.0
  0
LINE
  5
5A
330
1F
100
AcDbEntity
  8
0
  6
Continuous
 62
     7
100
AcDbLine
 10
186.3111225329
 20
282.1458747368
 30
0.0
 11
189.8111225329
 21
282.1458747368
 31
0.0
  0
LINE
  5
5B
330
1F
100
AcDbEntity
  8
0
  6
Continuous
 62
     7
100
AcDbLine
 10
211.2353072696
 20
282.7458747368
 30
0.0
 11
191.3861152545
 21
282.7458747368
 31
0.0
  0
LINE
  5
5C
330
1F
100
AcDbEntity
  8
0
  6
Continuous
 62
     7
100
AcDbLine
 10
186.3111225329
 20
282.7458747368
 30
0.0
 11
175.3111225329
 21
282.7458747368
 31
0.0
  0
LINE
  5
5D
330
1F
100
AcDbEntity
  8
0
  6
Continuous
 62
     7
100
AcDbLine
 10
191.3861225329
 20
251.1458747368
 30
0.0
 11
191.3861225329
 21
281.3623923048201
 31
0.0
  0
LINE
  5
5E
330
1F
100
AcDbEntity
  8
0
  6
Continuous
 62
     7
100
AcDbLine
 10
191.3861225329
 20
281.3623923048201
 30
0.0
 11
191.3861225329
 21
282.7458747368
 31
0.0
  0
LINE
  5
5F
330
1F
100
AcDbEntity
  8
0
  6
Continuous
 62
     7
100
AcDbLine
 10
191.3861225329
 20
144.1293571687803
 30
0.0
 11
191.3861225329
 21
174.3458747368
 31
0.0
  0
LINE
  5
60
330
1F
100
AcDbEntity
  8
A_ACHSEN
  6
Continuous
 62
     7
100
AcDbLine
 10
240.4748120594442
 20
256.7458747368
 30
0.0
 11
236.2101020185
 21
256.7458747368
 31
0.0
  0
LINE
  5
61
330
1F
100
AcDbEntity
  8
0
  6
DOT_CENTER
 62
     2
100
AcDbLine
 10
231.3111225329
 20
192.9958747368
 30
0.0
 11
231.3111225329
 21
181.7458747368
 31
0.0
  0
LINE
  5
62
330
1F
100
AcDbEntity
  8
A_ACHSEN
  6
Continuous
 62
     7
100
AcDbLine
 10
240.4748120594444
 20
168.7458747368
 30
0.0
 11
236.2101020185
 21
168.7458747368
 31
0.0
  0
LINE
  5
63
330
1F
100
AcDbEntity
  8
0
  6
Continuous
 62
     7
100
AcDbLine
 10
234.7111661103
 20
157.8458747368
 30
0.0
 11
250.3111225329
 21
157.8458747368
 31
0.0
  0
LINE
  5
64
330
1F
100
AcDbEntity
  8
A_RUNDUNGEN
  6
Continuous
 62
     7
100
AcDbLine
 10
238.3111225329
 20
158.4652335900001
 30
0.0
 11
238.3111225329
 21
163.3960003657001
 31
0.0
  0
LINE
  5
65
330
1F
100
AcDbEntity
  8
A_RUNDUNGEN
  6
Continuous
 62
     7
100
AcDbLine
 10
248.3111225329
 20
163.3960003657001
 30
0.0
 11
248.3111225329
 21
158.4650432171001
 31
0.0
  0
LINE
  5
66
330
1F
100
AcDbEntity
  8
A_RUNDUNGEN
  6
Continuous
 62
     7
100
AcDbLine
 10
238.8111225329
 20
163.8960003657001
 30
0.0
 11
247.8111225329
 21
163.8960003657001
 31
0.0
  0
LINE
  5
67
330
1F
100
AcDbEntity
  8
DEFAULT_2
  6
HIDDEN_8
 62
   252
420
  8685188
100
AcDbLine
 10
247.8111225329
 20
163.8960003657001
 30
0.0
 11
238.8111225329
 21
163.8960003657001
 31
0.0
  0
LINE
  5
68
330
1F
100
AcDbEntity
  8
0
  6
Continuous
 62
     7
100
AcDbLine
 10
217.3111225329
 20
161.1311573956001
 30
0.0
 11
217.3111225329
 21
163.1790375061001
 31
0.0
  0
LINE
  5
69
330
1F
100
AcDbEntity
  8
0
  6
Continuous
 62
     7
100
AcDbLine
 10
225.3111225329
 20
161.1311573956001
 30
0.0
 11
225.3111225329
 21
163.1790375061001
 31
0.0
  0
LINE
  5
6A
330
1F
100
AcDbEntity
  8
0
  6
Continuous
 62
     7
100
AcDbLine
 10
225.3111225329
 20
163.1790375104001
 30
0.0
 11
217.3111225329
 21
163.1790375104001
 31
0.0
  0
LINE
  5
6B
330
1F
100
AcDbEntity
  8
0
  6
Continuous
 62
     7
100
AcDbLine
 10
225.3111225329
 20
161.8233221551001
 30
0.0
 11
217.3111225329
 21
161.8233221551001
 31
0.0
  0
LINE
  5
6C
330
1F
100
AcDbEntity
  8
0
  6
Continuous
 62
     7
100
AcDbLine
 10
225.3111225329
 20
161.1311573996001
 30
0.0
 11
217.3111225329
 21
161.1311573996001
 31
0.0
  0
LINE
  5
6D
330
1F
100
AcDbEntity
  8
A_ACHSEN
  6
DOT_CENTER
 62
     2
100
AcDbLine
 10
231.3111225329
 20
178.9958747368
 30
0.0
 11
231.3111225329
 21
181.7458747368
 31
0.0
  0
LINE
  5
6E
330
1F
100
AcDbEntity
  8
A_RUNDUNGEN
  6
Continuous
 62
     7
100
AcDbLine
 10
211.5518632737
 20
175.2458747368
 30
0.0
 11
214.3111225329
 21
175.2458747368
 31
0.0
  0
LINE
  5
6F
330
1F
100
AcDbEntity
  8
0
  6
Continuous
 62
     7
100
AcDbLine
 10
215.3111225329
 20
268.7458747368
 30
0.0
 11
214.8111225329
 21
268.7458747368
 31
0.0
  0
LINE
  5
70
330
1F
100
AcDbEntity
  8
A_RUNDUNGEN
  6
Continuous
 62
     7
100
AcDbLine
 10
227.7111225329
 20
267.6458704994
 30
0.0
 11
227.7110785476
 21
267.6458747368
 31
0.0
  0
LINE
  5
71
330
1F
100
AcDbEntity
  8
0
  6
Continuous
 62
     7
100
AcDbLine
 10
234.7111660124
 20
267.6458747368
 30
0.0
 11
250.3111225329
 21
267.6458747368
 31
0.0
  0
LINE
  5
72
330
1F
100
AcDbEntity
  8
0
  6
Continuous
 62
     7
100
AcDbLine
 10
215.3111225329
 20
267.6458747368
 30
0.0
 11
227.7110789556
 21
267.6458747368
 31
0.0
  0
LINE
  5
73
330
1F
100
AcDbEntity
  8
0
  6
Continuous
 62
     7
100
AcDbLine
 10
217.3111225329
 20
264.360592074
 30
0.0
 11
225.3111225329
 21
264.360592074
 31
0.0
  0
LINE
  5
74
330
1F
100
AcDbEntity
  8
A_RUNDUNGEN
  6
Continuous
 62
     7
100
AcDbLine
 10
234.7111666753
 20
267.6458747368
 30
0.0
 11
234.7111225329
 21
267.6458705018
 31
0.0
  0
LINE
  5
75
330
1F
100
AcDbEntity
  8
0
  6
Continuous
 62
     7
100
AcDbLine
 10
217.3111225329
 20
263.6684273185
 30
0.0
 11
225.3111225329
 21
263.6684273185
 31
0.0
  0
LINE
  5
76
330
1F
100
AcDbEntity
  8
0
  6
Continuous
 62
     7
100
AcDbLine
 10
217.3111225329
 20
262.3127119632
 30
0.0
 11
225.3111225329
 21
262.3127119632
 31
0.0
  0
LINE
  5
77
330
1F
100
AcDbEntity
  8
DEFAULT_2
  6
HIDDEN_8
 62
   252
420
  8685188
100
AcDbLine
 10
238.8111225329
 20
261.5957491079
 30
0.0
 11
247.8111225329
 21
261.5957491079
 31
0.0
  0
LINE
  5
78
330
1F
100
AcDbEntity
  8
A_RUNDUNGEN
  6
Continuous
 62
     7
100
AcDbLine
 10
247.8111225329
 20
261.5957491079
 30
0.0
 11
238.8111225329
 21
261.5957491079
 31
0.0
  0
LINE
  5
79
330
1F
100
AcDbEntity
  8
A_ACHSEN
  6
Continuous
 62
     7
100
AcDbLine
 10
248.3111225329
 20
256.7458747368
 30
0.0
 11
240.4748120594442
 21
256.7458747368
 31
0.0
  0
LINE
  5
7A
330
1F
100
AcDbEntity
  8
0
  6
Continuous
 62
     7
100
AcDbLine
 10
232.4658230713
 20
253.7458747368
 30
0.0
 11
230.1564219946
 21
253.7458747368
 31
0.0
  0
LINE
  5
7B
330
1F
100
AcDbEntity
  8
DEFAULT_1
  6
DOT_CENTER
 62
     2
100
AcDbLine
 10
232.3611225329
 20
251.7458747368
 30
0.0
 11
241.3111225329
 21
251.7458747368
 31
0.0
  0
LINE
  5
7C
330
1F
100
AcDbEntity
  8
DEFAULT_1
  6
DOT_CENTER
 62
     2
100
AcDbLine
 10
221.3111225329
 20
251.7458747368
 30
0.0
 11
228.3110225329
 21
251.7458747368
 31
0.0
  0
LINE
  5
7D
330
1F
100
AcDbEntity
  8
0
  6
DOT_CENTER
 62
     2
100
AcDbLine
 10
232.3611225329
 20
251.7458747368
 30
0.0
 11
228.3110225329
 21
251.7458747368
 31
0.0
  0
LINE
  5
7E
330
1F
100
AcDbEntity
  8
A_RUNDUNGEN
  6
Continuous
 62
     7
100
AcDbLine
 10
211.5518632737
 20
250.2458747368
 30
0.0
 11
214.3111225329
 21
250.2458747368
 31
0.0
  0
LINE
  5
7F
330
1F
100
AcDbEntity
  8
0
  6
Continuous
 62
     7
100
AcDbLine
 10
211.3106439261
 20
250.2458747368
 30
0.0
 11
211.5518632737
 21
250.2458747368
 31
0.0
  0
LINE
  5
80
330
1F
100
AcDbEntity
  8
0
  6
Continuous
 62
     7
100
AcDbLine
 10
211.3106439261
 20
250.2458747368
 30
0.0
 11
191.3107755077
 21
250.2458747368
 31
0.0
  0
LINE
  5
81
330
1F
100
AcDbEntity
  8
0
  6
Continuous
 62
     7
100
AcDbLine
 10
230.1564219946
 20
249.7458747368
 30
0.0
 11
232.4658230713
 21
249.7458747368
 31
0.0
  0
LINE
  5
82
330
1F
100
AcDbEntity
  8
0
  6
Continuous
 62
     7
100
AcDbLine
 10
233.6205236097
 20
251.7458747368
 30
0.0
 11
232.4658230713
 21
253.7458747368
 31
0.0
  0
LINE
  5
83
330
1F
100
AcDbEntity
  8
A_ACHSEN
  6
Continuous
 62
     7
100
AcDbLine
 10
236.3111225329
 20
246.7458747368
 30
0.0
 11
236.2101020185
 21
246.7458747368
 31
0.0
  0
LINE
  5
84
330
1F
100
AcDbEntity
  8
0
  6
Continuous
 62
     7
100
AcDbLine
 10
232.4658230713
 20
171.7458747368
 30
0.0
 11
233.6205236097
 21
173.7458747368
 31
0.0
  0
LINE
  5
85
330
1F
100
AcDbEntity
  8
0
  6
Continuous
 62
     7
100
AcDbLine
 10
229.0017214562
 20
251.7458747368
 30
0.0
 11
230.1564219946
 21
249.7458747368
 31
0.0
  0
LINE
  5
86
330
1F
100
AcDbEntity
  8
A_RUNDUNGEN
  6
Continuous
 62
     7
100
AcDbLine
 10
244.3111225329
 20
242.7458747368
 30
0.0
 11
243.8111225329
 21
242.7458747368
 31
0.0
  0
LINE
  5
87
330
1F
100
AcDbEntity
  8
0
  6
Continuous
 62
     7
100
AcDbLine
 10
232.4658230713
 20
239.7458747368
 30
0.0
 11
230.1564219946
 21
239.7458747368
 31
0.0
  0
LINE
  5
88
330
1F
100
AcDbEntity
  8
0
  6
Continuous
 62
     7
100
AcDbLine
 10
230.1564219946
 20
175.7458747368
 30
0.0
 11
229.0017214562
 21
173.7458747368
 31
0.0
  0
LINE
  5
89
330
1F
100
AcDbEntity
  8
0
  6
Continuous
 62
     7
100
AcDbLine
 10
250.3111225329
 20
166.7458747368
 30
0.0
 11
250.3111225329
 21
258.7458747368
 31
0.0
  0
LINE
  5
8A
330
1F
100
AcDbEntity
  8
A_RUNDUNGEN
  6
Continuous
 62
     7
100
AcDbLine
 10
250.3111225329
 20
166.7458747368
 30
0.0
 11
250.3111225329
 21
157.8460699851
 31
0.0
  0
LINE
  5
8B
330
1F
100
AcDbEntity
  8
A_RUNDUNGEN
  6
Continuous
 62
     7
100
AcDbLine
 10
250.3111225329
 20
267.6456794886
 30
0.0
 11
250.3111225329
 21
258.7458747368
 31
0.0
  0
LINE
  5
8C
330
1F
100
AcDbEntity
  8
A_RUNDUNGEN
  6
Continuous
 62
     7
100
AcDbLine
 10
248.3111225329
 20
267.0267062565
 30
0.0
 11
248.3111225329
 21
262.0957491079
 31
0.0
  0
LINE
  5
8D
330
1F
100
AcDbEntity
  8
0
  6
Continuous
 62
     7
100
AcDbLine
 10
247.3111225329
 20
185.7458747368
 30
0.0
 11
247.3111225329
 21
239.7458747368
 31
0.0
  0
LINE
  5
8E
330
1F
100
AcDbEntity
  8
0
  6
Continuous
 62
     7
100
AcDbLine
 10
233.6205236097
 20
237.7458747368
 30
0.0
 11
232.4658230713
 21
239.7458747368
 31
0.0
  0
LINE
  5
8F
330
1F
100
AcDbEntity
  8
DEFAULT_1
  6
DOT_CENTER
 62
     2
100
AcDbLine
 10
236.5611225329
 20
237.7458747368
 30
0.0
 11
239.8111225329
 21
237.7458747368
 31
0.0
  0
LINE
  5
90
330
1F
100
AcDbEntity
  8
DEFAULT_1
  6
DOT_CENTER
 62
     2
100
AcDbLine
 10
226.0611225329
 20
237.7458747368
 30
0.0
 11
222.8111225329
 21
237.7458747368
 31
0.0
  0
LINE
  5
91
330
1F
100
AcDbEntity
  8
0
  6
DOT_CENTER
 62
     2
100
AcDbLine
 10
236.5611225329
 20
237.7458747368
 30
0.0
 11
226.0611225329
 21
237.7458747368
 31
0.0
  0
LINE
  5
92
330
1F
100
AcDbEntity
  8
0
  6
Continuous
 62
     7
100
AcDbLine
 10
230.1564219946
 20
235.7458747368
 30
0.0
 11
232.4658230713
 21
235.7458747368
 31
0.0
  0
LINE
  5
93
330
1F
100
AcDbEntity
  8
0
  6
Continuous
 62
     7
100
AcDbLine
 10
232.4658230713
 20
185.7458747368
 30
0.0
 11
233.6205236097
 21
187.7458747368
 31
0.0
  0
LINE
  5
94
330
1F
100
AcDbEntity
  8
0
  6
Continuous
 62
     7
100
AcDbLine
 10
245.3111225329
 20
215.9958747368
 30
0.0
 11
245.3111225329
 21
209.4958747368
 31
0.0
  0
LINE
  5
95
330
1F
100
AcDbEntity
  8
0
  6
Continuous
 62
     7
100
AcDbLine
 10
243.8111225329
 20
250.2458747368
 30
0.0
 11
243.8111225329
 21
175.2458747368
 31
0.0
  0
LINE
  5
96
330
1F
100
AcDbEntity
  8
0
  6
Continuous
 62
     7
100
AcDbLine
 10
229.0017214562
 20
237.7458747368
 30
0.0
 11
230.1564219946
 21
235.7458747368
 31
0.0
  0
LINE
  5
97
330
1F
100
AcDbEntity
  8
0
  6
Continuous
 62
     7
100
AcDbLine
 10
230.1564219946
 20
189.7458747368
 30
0.0
 11
229.0017214562
 21
187.7458747368
 31
0.0
  0
LINE
  5
98
330
1F
100
AcDbEntity
  8
0
  6
Continuous
 62
     7
100
AcDbLine
 10
239.3111225329
 20
218.2367055962438
 30
0.0
 11
239.3111225329
 21
243.7458747368
 31
0.0
  0
LINE
  5
99
330
1F
100
AcDbEntity
  8
0
  6
Continuous
 62
     7
100
AcDbLine
 10
239.3111225329
 20
181.7458747368
 30
0.0
 11
239.3111225329
 21
207.2458747368
 31
0.0
  0
LINE
  5
9A
330
1F
100
AcDbEntity
  8
A_RUNDUNGEN
  6
Continuous
 62
     7
100
AcDbLine
 10
238.3111225329
 20
262.0957491079
 30
0.0
 11
238.3111225329
 21
267.0265158836
 31
0.0
  0
LINE
  5
9B
330
1F
100
AcDbEntity
  8
A_RUNDUNGEN
  6
Continuous
 62
     7
100
AcDbLine
 10
234.2111225329
 20
160.7458747368
 30
0.0
 11
234.2111225329
 21
158.3458776973
 31
0.0
  0
LINE
  5
9C
330
1F
100
AcDbEntity
  8
A_RUNDUNGEN
  6
Continuous
 62
     7
100
AcDbLine
 10
234.2111225329
 20
267.1458717763
 30
0.0
 11
234.2111225329
 21
264.7458758011
 31
0.0
  0
LINE
  5
9D
330
1F
100
AcDbEntity
  8
0
  6
Continuous
 62
     7
100
AcDbLine
 10
233.3111225329
 20
211.5911741985
 30
0.0
 11
233.3111225329
 21
213.9005752752
 31
0.0
  0
LINE
  5
9E
330
1F
100
AcDbEntity
  8
DEFAULT_1
  6
DOT_CENTER
 62
     2
100
AcDbLine
 10
231.3111225329
 20
254.7459747368
 30
0.0
 11
231.3111225329
 21
260.7458747368
 31
0.0
  0
LINE
  5
9F
330
1F
100
AcDbEntity
  8
A_ACHSEN
  6
DOT_CENTER
 62
     2
100
AcDbLine
 10
231.3111225329
 20
215.7459747368
 30
0.0
 11
231.3111225329
 21
221.2458747368
 31
0.0
  0
LINE
  5
A0
330
1F
100
AcDbEntity
  8
A_ACHSEN
  6
DOT_CENTER
 62
     2
100
AcDbLine
 10
231.3111225329
 20
204.2458747368
 30
0.0
 11
231.3111225329
 21
211.6958747368
 31
0.0
  0
LINE
  5
A1
330
1F
100
AcDbEntity
  8
DEFAULT_1
  6
DOT_CENTER
 62
     2
100
AcDbLine
 10
231.3111225329
 20
192.9958747368
 30
0.0
 11
231.3111225329
 21
196.2458747368
 31
0.0
  0
LINE
  5
A2
330
1F
100
AcDbEntity
  8
DEFAULT_1
  6
DOT_CENTER
 62
     2
100
AcDbLine
 10
231.3111225329
 20
168.4958747368
 30
0.0
 11
231.3111225329
 21
176.7459747368
 31
0.0
  0
LINE
  5
A3
330
1F
100
AcDbEntity
  8
A_ACHSEN
  6
DOT_CENTER
 62
     2
100
AcDbLine
 10
231.3111225329
 20
168.4958747368
 30
0.0
 11
231.3111225329
 21
164.7458747368
 31
0.0
  0
LINE
  5
A4
330
1F
100
AcDbEntity
  8
DEFAULT_1
  6
DOT_CENTER
 62
     2
100
AcDbLine
 10
231.3111225329
 20
178.9958747368
 30
0.0
 11
231.3111225329
 21
176.7459747368
 31
0.0
  0
LINE
  5
A5
330
1F
100
AcDbEntity
  8
A_ACHSEN
  6
DOT_CENTER
 62
     2
100
AcDbLine
 10
231.3111225329
 20
215.7459747368
 30
0.0
 11
231.3111225329
 21
211.6958747368
 31
0.0
  0
LINE
  5
A6
330
1F
100
AcDbEntity
  8
DEFAULT_1
  6
DOT_CENTER
 62
     2
100
AcDbLine
 10
231.3111225329
 20
236.6958747368
 30
0.0
 11
231.3111225329
 21
229.2458747368
 31
0.0
  0
LINE
  5
A7
330
1F
100
AcDbEntity
  8
0
  6
DOT_CENTER
 62
     2
100
AcDbLine
 10
231.3111225329
 20
238.7958747368
 30
0.0
 11
231.3111225329
 21
236.6958747368
 31
0.0
  0
LINE
  5
A8
330
1F
100
AcDbEntity
  8
A_ACHSEN
  6
DOT_CENTER
 62
     2
100
AcDbLine
 10
231.3111225329
 20
246.4958747368
 30
0.0
 11
231.3111225329
 21
238.7958747368
 31
0.0
  0
LINE
  5
A9
330
1F
100
AcDbEntity
  8
A_ACHSEN
  6
DOT_CENTER
 62
     2
100
AcDbLine
 10
231.3111225329
 20
254.7459747368
 30
0.0
 11
231.3111225329
 21
246.4958747368
 31
0.0
  0
LINE
  5
AA
330
1F
100
AcDbEntity
  8
0
  6
DOT_CENTER
 62
     2
100
AcDbLine
 10
231.3111225329
 20
252.7958747368
 30
0.0
 11
231.3111225329
 21
250.6958747368
 31
0.0
  0
LINE
  5
AB
330
1F
100
AcDbEntity
  8
0
  6
Continuous
 62
     7
100
AcDbLine
 10
233.3111225329
 20
213.9005752752
 30
0.0
 11
231.3111225329
 21
215.0552758136
 31
0.0
  0
LINE
  5
AC
330
1F
100
AcDbEntity
  8
0
  6
Continuous
 62
     7
100
AcDbLine
 10
239.3111225329
 20
218.2367055962438
 30
0.0
 11
231.3111225329
 21
218.2367055962438
 31
0.0
  0
LINE
  5
AD
330
1F
100
AcDbEntity
  8
0
  6
Continuous
 62
     7
100
AcDbLine
 10
231.3111225329
 20
210.4364736601
 30
0.0
 11
233.3111225329
 21
211.5911741985
 31
0.0
  0
LINE
  5
AE
330
1F
100
AcDbEntity
  8
0
  6
Continuous
 62
     7
100
AcDbLine
 10
229.3111225329
 20
213.9005752752
 30
0.0
 11
229.3111225329
 21
211.5911741985
 31
0.0
  0
LINE
  5
AF
330
1F
100
AcDbEntity
  8
A_RUNDUNGEN
  6
Continuous
 62
     7
100
AcDbLine
 10
228.2111225329
 20
158.3458776973
 30
0.0
 11
228.2111225329
 21
160.7458756834
 31
0.0
  0
LINE
  5
B0
330
1F
100
AcDbEntity
  8
A_RUNDUNGEN
  6
Continuous
 62
     7
100
AcDbLine
 10
228.2111225329
 20
267.1458717763
 30
0.0
 11
228.2111225329
 21
264.7458747368
 31
0.0
  0
LINE
  5
B1
330
1F
100
AcDbEntity
  8
0
  6
Continuous
 62
     7
100
AcDbLine
 10
229.3111225329
 20
211.5911741985
 30
0.0
 11
231.3111225329
 21
210.4364736601
 31
0.0
  0
LINE
  5
B2
330
1F
100
AcDbEntity
  8
0
  6
Continuous
 62
     7
100
AcDbLine
 10
231.3111225329
 20
215.0552758136
 30
0.0
 11
229.3111225329
 21
213.9005752752
 31
0.0
  0
LINE
  5
B3
330
1F
100
AcDbEntity
  8
0
  6
Continuous
 62
     7
100
AcDbLine
 10
225.3111225329
 20
262.3127119675
 30
0.0
 11
225.3111225329
 21
264.360592078
 31
0.0
  0
LINE
  5
B4
330
1F
100
AcDbEntity
  8
0
  6
Continuous
 62
     7
100
AcDbLine
 10
233.6205236097
 20
187.7458747368
 30
0.0
 11
232.4658230713
 21
189.7458747368
 31
0.0
  0
LINE
  5
B5
330
1F
100
AcDbEntity
  8
A_ACHSEN
  6
DOT_CENTER
 62
     2
100
AcDbLine
 10
192.8111225329
 20
212.7458747368
 30
0.0
 11
246.3111225329
 21
212.7458747368
 31
0.0
  0
LINE
  5
B6
330
1F
100
AcDbEntity
  8
0
  6
Continuous
 62
     7
100
AcDbLine
 10
232.4658230713
 20
235.7458747368
 30
0.0
 11
233.6205236097
 21
237.7458747368
 31
0.0
  0
LINE
  5
B7
330
1F
100
AcDbEntity
  8
0
  6
Continuous
 62
     7
100
AcDbLine
 10
217.3111225329
 20
262.3127119675
 30
0.0
 11
217.3111225329
 21
264.360592078
 31
0.0
  0
LINE
  5
B8
330
1F
100
AcDbEntity
  8
0
  6
Continuous
 62
     7
100
AcDbLine
 10
229.0017214562
 20
187.7458747368
 30
0.0
 11
230.1564219946
 21
185.7458747368
 31
0.0
  0
LINE
  5
B9
330
1F
100
AcDbEntity
  8
0
  6
Continuous
 62
     7
100
AcDbLine
 10
231.3111225329
 20
207.2458747368
 30
0.0
 11
239.3111225329
 21
207.2458747368
 31
0.0
  0
LINE
  5
BA
330
1F
100
AcDbEntity
  8
0
  6
Continuous
 62
     7
100
AcDbLine
 10
230.1564219946
 20
239.7458747368
 30
0.0
 11
229.0017214562
 21
237.7458747368
 31
0.0
  0
LINE
  5
BB
330
1F
100
AcDbEntity
  8
0
  6
Continuous
 62
     7
100
AcDbLine
 10
215.3111225329
 20
156.7458747368
 30
0.0
 11
215.3111225329
 21
268.7458747368
 31
0.0
  0
LINE
  5
BC
330
1F
100
AcDbEntity
  8
A_RUNDUNGEN
  6
Continuous
 62
     7
100
AcDbLine
 10
214.3111225329
 20
157.2461558361
 30
0.0
 11
214.3111225329
 21
268.2455936376
 31
0.0
  0
LINE
  5
BD
330
1F
100
AcDbEntity
  8
0
  6
Continuous
 62
     7
100
AcDbLine
 10
233.6205236097
 20
173.7458747368
 30
0.0
 11
232.4658230713
 21
175.7458747368
 31
0.0
  0
LINE
  5
BE
330
1F
100
AcDbEntity
  8
0
  6
Continuous
 62
     7
100
AcDbLine
 10
232.4658230713
 20
249.7458747368
 30
0.0
 11
233.6205236097
 21
251.7458747368
 31
0.0
  0
LINE
  5
BF
330
1F
100
AcDbEntity
  8
0
  6
Continuous
 62
     7
100
AcDbLine
 10
211.3106439261
 20
175.2458747368
 30
0.0
 11
211.3106439261
 21
250.2458747368
 31
0.0
  0
LINE
  5
C0
330
1F
100
AcDbEntity
  8
A_ACHSEN
  6
Continuous
 62
     7
100
AcDbLine
 10
209.8111225329
 20
174.3458747368
 30
0.0
 11
209.8111225329
 21
175.2458747368
 31
0.0
  0
LINE
  5
C1
330
1F
100
AcDbEntity
  8
A_ACHSEN
  6
Continuous
 62
     7
100
AcDbLine
 10
209.8111225329
 20
251.1458747368001
 30
0.0
 11
209.8111225329
 21
250.2458747368
 31
0.0
  0
LINE
  5
C2
330
1F
100
AcDbEntity
  8
0
  6
Continuous
 62
     7
100
AcDbLine
 10
229.0017214562
 20
173.7458747368
 30
0.0
 11
230.1564219946
 21
171.7458747368
 31
0.0
  0
LINE
  5
C3
330
1F
100
AcDbEntity
  8
0
  6
Continuous
 62
     7
100
AcDbLine
 10
230.1564219946
 20
253.7458747368
 30
0.0
 11
229.0017214562
 21
251.7458747368
 31
0.0
  0
LINE
  5
C4
330
1F
100
AcDbEntity
  8
A_ACHSEN
  6
DOT_CENTER
 62
     2
100
AcDbLine
 10
201.3111225329
 20
141.2458747368
 30
0.0
 11
201.3111225329
 21
193.214528011951
 31
0.0
  0
LINE
  5
C5
330
1F
100
AcDbEntity
  8
0
  6
Continuous
 62
     7
100
AcDbLine
 10
232.4658230713
 20
189.7458747368
 30
0.0
 11
230.1564219946
 21
189.7458747368
 31
0.0
  0
LINE
  5
C6
330
1F
100
AcDbEntity
  8
DEFAULT_1
  6
DOT_CENTER
 62
     2
100
AcDbLine
 10
236.5611225329
 20
187.7458747368
 30
0.0
 11
239.8111225329
 21
187.7458747368
 31
0.0
  0
LINE
  5
C7
330
1F
100
AcDbEntity
  8
DEFAULT_1
  6
DOT_CENTER
 62
     2
100
AcDbLine
 10
226.0611225329
 20
187.7458747368
 30
0.0
 11
222.8111225329
 21
187.7458747368
 31
0.0
  0
LINE
  5
C8
330
1F
100
AcDbEntity
  8
0
  6
DOT_CENTER
 62
     2
100
AcDbLine
 10
236.5611225329
 20
187.7458747368
 30
0.0
 11
226.0611225329
 21
187.7458747368
 31
0.0
  0
LINE
  5
C9
330
1F
100
AcDbEntity
  8
0
  6
Continuous
 62
     7
100
AcDbLine
 10
230.1564219946
 20
185.7458747368
 30
0.0
 11
232.4658230713
 21
185.7458747368
 31
0.0
  0
LINE
  5
CA
330
1F
100
AcDbEntity
  8
A_ACHSEN
  6
Continuous
 62
     7
100
AcDbLine
 10
192.8111225329
 20
174.3458747368
 30
0.0
 11
192.8111225329
 21
175.2458747368
 31
0.0
  0
LINE
  5
CB
330
1F
100
AcDbEntity
  8
A_ACHSEN
  6
Continuous
 62
     7
100
AcDbLine
 10
192.8111225329
 20
251.1458747368001
 30
0.0
 11
192.8111225329
 21
250.2458747368
 31
0.0
  0
LINE
  5
CC
330
1F
100
AcDbEntity
  8
A_RUNDUNGEN
  6
Continuous
 62
     7
100
AcDbLine
 10
244.3111225329
 20
182.7458747368
 30
0.0
 11
243.8111225329
 21
182.7458747368
 31
0.0
  0
LINE
  5
CD
330
1F
100
AcDbEntity
  8
0
  6
Continuous
 62
     7
100
AcDbLine
 10
191.3111225329
 20
175.2458747368
 30
0.0
 11
191.3111225329
 21
250.2458747368
 31
0.0
  0
LINE
  5
CE
330
1F
100
AcDbEntity
  8
A_ACHSEN
  6
Continuous
 62
     7
100
AcDbLine
 10
236.2101020185
 20
178.7458747368
 30
0.0
 11
236.3111225329
 21
178.7458747368
 31
0.0
  0
LINE
  5
CF
330
1F
100
AcDbEntity
  8
0
  6
Continuous
 62
     7
100
AcDbLine
 10
232.4658230713
 20
175.7458747368
 30
0.0
 11
230.1564219946
 21
175.7458747368
 31
0.0
  0
LINE
  5
D0
330
1F
100
AcDbEntity
  8
0
  6
Continuous
 62
     7
100
AcDbLine
 10
211.3106439261
 20
175.2458747368
 30
0.0
 11
191.3107755077
 21
175.2458747368
 31
0.0
  0
LINE
  5
D1
330
1F
100
AcDbEntity
  8
A_ACHSEN
  6
DOT_CENTER
 62
     2
100
AcDbLine
 10
236.5611225329
 20
173.7458747368
 30
0.0
 11
240.3111225329
 21
173.7458747368
 31
0.0
  0
LINE
  5
D2
330
1F
100
AcDbEntity
  8
DEFAULT_1
  6
DOT_CENTER
 62
     2
100
AcDbLine
 10
226.0611225329
 20
173.7458747368
 30
0.0
 11
228.3110225329
 21
173.7458747368
 31
0.0
  0
LINE
  5
D3
330
1F
100
AcDbEntity
  8
A_ACHSEN
  6
DOT_CENTER
 62
     2
100
AcDbLine
 10
226.0611225329
 20
173.7458747368
 30
0.0
 11
222.3111225329
 21
173.7458747368
 31
0.0
  0
LINE
  5
D4
330
1F
100
AcDbEntity
  8
0
  6
DOT_CENTER
 62
     2
100
AcDbLine
 10
232.3611225329
 20
173.7458747368
 30
0.0
 11
228.3110225329
 21
173.7458747368
 31
0.0
  0
LINE
  5
D5
330
1F
100
AcDbEntity
  8
DEFAULT_1
  6
DOT_CENTER
 62
     2
100
AcDbLine
 10
236.5611225329
 20
173.7458747368
 30
0.0
 11
232.3611225329
 21
173.7458747368
 31
0.0
  0
LINE
  5
D6
330
1F
100
AcDbEntity
  8
0
  6
Continuous
 62
     7
100
AcDbLine
 10
230.1564219946
 20
171.7458747368
 30
0.0
 11
232.4658230713
 21
171.7458747368
 31
0.0
  0
LINE
  5
D7
330
1F
100
AcDbEntity
  8
A_ACHSEN
  6
Continuous
 62
     7
100
AcDbLine
 10
248.3111225329
 20
168.7458747368
 30
0.0
 11
240.4748120594444
 21
168.7458747368
 31
0.0
  0
LINE
  5
D8
330
1F
100
AcDbEntity
  8
A_RUNDUNGEN
  6
Continuous
 62
     7
100
AcDbLine
 10
234.7111225329
 20
157.8458789743
 30
0.0
 11
234.7111665185
 21
157.8458747368
 31
0.0
  0
LINE
  5
D9
330
1F
100
AcDbEntity
  8
0
  6
Continuous
 62
     7
100
AcDbLine
 10
215.3111225329
 20
157.8458747368
 30
0.0
 11
227.7110790535
 21
157.8458747368
 31
0.0
  0
LINE
  5
DA
330
1F
100
AcDbEntity
  8
0
  6
Continuous
 62
     7
100
AcDbLine
 10
215.3111225329
 20
156.7458747368
 30
0.0
 11
214.8111225329
 21
156.7458747368
 31
0.0
  0
LINE
  5
DB
330
1F
100
AcDbEntity
  8
A_RUNDUNGEN
  6
Continuous
 62
     7
100
AcDbLine
 10
227.7110783903
 20
157.8458747368
 30
0.0
 11
227.7111225329
 21
157.8458789719
 31
0.0
  0
LINE
  5
DC
330
1F
100
AcDbEntity
  8
0
  6
Continuous
 62
     7
100
AcDbLine
 10
211.3106439261
 20
175.2458747368
 30
0.0
 11
211.5518632737
 21
175.2458747368
 31
0.0
  0
LINE
  5
DD
330
1F
100
AcDbEntity
  8
A_ACHSEN
  6
DOT_CENTER
 62
     2
100
AcDbLine
 10
201.3111225329
 20
203.531779125493
 30
0.0
 11
201.3111225329
 21
284.2458747368
 31
0.0
  0
LINE
  5
DE
330
1F
100
AcDbEntity
  8
0
  6
DASHED
 62
     2
100
AcDbLine
 10
170.1223757174
 20
153.8180757362
 30
0.0
 11
169.3777755323
 21
154.2169943371
 31
0.0
  0
LINE
  5
DF
330
1F
100
AcDbEntity
  8
0
  6
DASHED
 62
     2
100
AcDbLine
 10
174.8197721714
 20
151.0750561125
 30
0.0
 11
174.1019984365
 21
151.5204394881
 31
0.0
  0
LINE
  5
E0
330
1F
100
AcDbEntity
  8
0
  6
DASHED
 62
     2
100
AcDbLine
 10
176.4998693484
 20
155.6736737374
 30
0.0
 11
177.2444695335
 21
155.2747551365999
 31
0.0
  0
LINE
  5
E1
330
1F
100
AcDbEntity
  8
0
  6
DASHED
 62
     2
100
AcDbLine
 10
171.8024728944
 20
158.4166933610999
 30
0.0
 11
172.5202466292
 21
157.9713099855999
 31
0.0
  0
LINE
  5
E2
330
1F
100
AcDbEntity
  8
0
  6
DASHED
 62
     2
100
AcDbLine
 10
170.913251621
 20
157.043510985
 30
0.0
 11
170.8864251708
 21
157.8878129614
 31
0.0
  0
LINE
  5
E3
330
1F
100
AcDbEntity
  8
A_ACHSEN
  6
DOT_CENTER
 62
     2
100
AcDbLine
 10
180.3611225329
 20
154.7458747368001
 30
0.0
 11
166.2611225329
 21
154.7458747367999
 31
0.0
  0
LINE
  5
E4
330
1F
100
AcDbEntity
  8
0
  6
DASHED
 62
     2
100
AcDbLine
 10
175.7089934448
 20
152.4482384886
 30
0.0
 11
175.735819895
 21
151.6039365123
 31
0.0
  0
LINE
  5
E5
330
1F
100
AcDbEntity
  8
A_ACHSEN
  6
DOT_CENTER
 62
     2
100
AcDbLine
 10
173.3111225329001
 20
161.7958747368
 30
0.0
 11
173.3111225329
 21
147.6958747367999
 31
0.0
  0
LINE
  5
E6
330
1F
100
AcDbEntity
  8
0
  6
DASHED
 62
     2
100
AcDbLine
 10
170.8864251708
 20
151.6039365123
 30
0.0
 11
170.913251621
 21
152.4482384886
 31
0.0
  0
LINE
  5
E7
330
1F
100
AcDbEntity
  8
0
  6
DASHED
 62
     2
100
AcDbLine
 10
175.735819895
 20
157.8878129614
 30
0.0
 11
175.7089934448
 21
157.043510985
 31
0.0
  0
LINE
  5
E8
330
1F
100
AcDbEntity
  8
0
  6
DASHED
 62
     2
100
AcDbLine
 10
174.1019984365
 20
157.9713099855999
 30
0.0
 11
174.8197721714
 21
158.4166933610999
 31
0.0
  0
LINE
  5
E9
330
1F
100
AcDbEntity
  8
0
  6
DASHED
 62
     2
100
AcDbLine
 10
172.5202466292
 20
151.5204394881
 30
0.0
 11
171.8024728944
 21
151.0750561125
 31
0.0
  0
LINE
  5
EA
330
1F
100
AcDbEntity
  8
0
  6
DASHED
 62
     2
100
AcDbLine
 10
169.3777755323
 20
155.2747551365999
 30
0.0
 11
170.1223757174
 21
155.6736737374
 31
0.0
  0
LINE
  5
EB
330
1F
100
AcDbEntity
  8
0
  6
DASHED
 62
     2
100
AcDbLine
 10
177.2444695335
 20
154.2169943371
 30
0.0
 11
176.4998693484
 21
153.8180757362
 31
0.0
  0
LINE
  5
EC
330
1F
100
AcDbEntity
  8
0
  6
DASHED
 62
     2
100
AcDbLine
 10
187.2444695335
 20
184.2169943371
 30
0.0
 11
186.4998693484
 21
183.8180757362
 31
0.0
  0
LINE
  5
ED
330
1F
100
AcDbEntity
  8
0
  6
DASHED
 62
     2
100
AcDbLine
 10
179.3777755323
 20
185.2747551365999
 30
0.0
 11
180.1223757174
 21
185.6736737374
 31
0.0
  0
LINE
  5
EE
330
1F
100
AcDbEntity
  8
0
  6
DASHED
 62
     2
100
AcDbLine
 10
182.5202466291999
 20
181.5204394881
 30
0.0
 11
181.8024728944
 21
181.0750561125
 31
0.0
  0
LINE
  5
EF
330
1F
100
AcDbEntity
  8
0
  6
DASHED
 62
     2
100
AcDbLine
 10
184.1019984365
 20
187.9713099855999
 30
0.0
 11
184.8197721714
 21
188.4166933610999
 31
0.0
  0
LINE
  5
F0
330
1F
100
AcDbEntity
  8
0
  6
DASHED
 62
     2
100
AcDbLine
 10
185.7358198949999
 20
187.8878129614
 30
0.0
 11
185.7089934447999
 21
187.043510985
 31
0.0
  0
LINE
  5
F1
330
1F
100
AcDbEntity
  8
0
  6
DASHED
 62
     2
100
AcDbLine
 10
180.8864251708
 20
181.6039365123
 30
0.0
 11
180.9132516209999
 21
182.4482384886
 31
0.0
  0
LINE
  5
F2
330
1F
100
AcDbEntity
  8
A_ACHSEN
  6
DOT_CENTER
 62
     2
100
AcDbLine
 10
183.3111225329
 20
191.7958747368
 30
0.0
 11
183.3111225328999
 21
177.6958747367999
 31
0.0
  0
LINE
  5
F3
330
1F
100
AcDbEntity
  8
0
  6
DASHED
 62
     2
100
AcDbLine
 10
185.7089934447999
 20
182.4482384886
 30
0.0
 11
185.7358198949999
 21
181.6039365123
 31
0.0
  0
LINE
  5
F4
330
1F
100
AcDbEntity
  8
A_ACHSEN
  6
DOT_CENTER
 62
     2
100
AcDbLine
 10
190.3611225329
 20
184.7458747368001
 30
0.0
 11
176.2611225329
 21
184.7458747367999
 31
0.0
  0
LINE
  5
F5
330
1F
100
AcDbEntity
  8
0
  6
DASHED
 62
     2
100
AcDbLine
 10
180.9132516209999
 20
187.043510985
 30
0.0
 11
180.8864251708
 21
187.8878129614
 31
0.0
  0
LINE
  5
F6
330
1F
100
AcDbEntity
  8
0
  6
DASHED
 62
     2
100
AcDbLine
 10
181.8024728944
 20
188.4166933610999
 30
0.0
 11
182.5202466291999
 21
187.9713099855999
 31
0.0
  0
LINE
  5
F7
330
1F
100
AcDbEntity
  8
0
  6
DASHED
 62
     2
100
AcDbLine
 10
186.4998693484
 20
185.6736737374
 30
0.0
 11
187.2444695335
 21
185.2747551365999
 31
0.0
  0
LINE
  5
F8
330
1F
100
AcDbEntity
  8
0
  6
DASHED
 62
     2
100
AcDbLine
 10
184.8197721714
 20
181.0750561125
 30
0.0
 11
184.1019984365
 21
181.5204394881
 31
0.0
  0
LINE
  5
F9
330
1F
100
AcDbEntity
  8
0
  6
DASHED
 62
     2
100
AcDbLine
 10
180.1223757174
 20
183.8180757362
 30
0.0
 11
179.3777755323
 21
184.2169943371
 31
0.0
  0
LINE
  5
FA
330
1F
100
AcDbEntity
  8
0
  6
DASHED
 62
     2
100
AcDbLine
 10
177.2444695335
 20
212.2169943371
 30
0.0
 11
176.4998693484
 21
211.8180757362
 31
0.0
  0
LINE
  5
FB
330
1F
100
AcDbEntity
  8
0
  6
DASHED
 62
     2
100
AcDbLine
 10
169.3777755323
 20
213.2747551365999
 30
0.0
 11
170.1223757174
 21
213.6736737374
 31
0.0
  0
LINE
  5
FC
330
1F
100
AcDbEntity
  8
0
  6
DASHED
 62
     2
100
AcDbLine
 10
172.5202466291999
 20
209.5204394881
 30
0.0
 11
171.8024728944
 21
209.0750561125
 31
0.0
  0
LINE
  5
FD
330
1F
100
AcDbEntity
  8
0
  6
DASHED
 62
     2
100
AcDbLine
 10
174.1019984365
 20
215.9713099855999
 30
0.0
 11
174.8197721714
 21
216.4166933610999
 31
0.0
  0
LINE
  5
FE
330
1F
100
AcDbEntity
  8
0
  6
DASHED
 62
     2
100
AcDbLine
 10
175.7358198949999
 20
215.8878129614
 30
0.0
 11
175.7089934447999
 21
215.043510985
 31
0.0
  0
LINE
  5
FF
330
1F
100
AcDbEntity
  8
0
  6
DASHED
 62
     2
100
AcDbLine
 10
170.8864251708
 20
209.6039365123
 30
0.0
 11
170.9132516209999
 21
210.4482384886
 31
0.0
  0
LINE
  5
100
330
1F
100
AcDbEntity
  8
A_ACHSEN
  6
DOT_CENTER
 62
     2
100
AcDbLine
 10
173.3111225329
 20
219.7958747368
 30
0.0
 11
173.3111225328999
 21
205.6958747367999
 31
0.0
  0
LINE
  5
101
330
1F
100
AcDbEntity
  8
0
  6
DASHED
 62
     2
100
AcDbLine
 10
175.7089934447999
 20
210.4482384886
 30
0.0
 11
175.7358198949999
 21
209.6039365123
 31
0.0
  0
LINE
  5
102
330
1F
100
AcDbEntity
  8
A_ACHSEN
  6
DOT_CENTER
 62
     2
100
AcDbLine
 10
180.3611225329
 20
212.7458747368001
 30
0.0
 11
166.2611225329
 21
212.7458747367999
 31
0.0
  0
LINE
  5
103
330
1F
100
AcDbEntity
  8
0
  6
DASHED
 62
     2
100
AcDbLine
 10
170.9132516209999
 20
215.043510985
 30
0.0
 11
170.8864251708
 21
215.8878129614
 31
0.0
  0
LINE
  5
104
330
1F
100
AcDbEntity
  8
0
  6
DASHED
 62
     2
100
AcDbLine
 10
171.8024728944
 20
216.4166933610999
 30
0.0
 11
172.5202466291999
 21
215.9713099855999
 31
0.0
  0
LINE
  5
105
330
1F
100
AcDbEntity
  8
0
  6
DASHED
 62
     2
100
AcDbLine
 10
176.4998693484
 20
213.6736737374
 30
0.0
 11
177.2444695335
 21
213.2747551365999
 31
0.0
  0
LINE
  5
106
330
1F
100
AcDbEntity
  8
0
  6
DASHED
 62
     2
100
AcDbLine
 10
174.8197721714
 20
209.0750561125
 30
0.0
 11
174.1019984365
 21
209.5204394881
 31
0.0
  0
LINE
  5
107
330
1F
100
AcDbEntity
  8
0
  6
DASHED
 62
     2
100
AcDbLine
 10
170.1223757174
 20
211.8180757362
 30
0.0
 11
169.3777755323
 21
212.2169943371
 31
0.0
  0
LINE
  5
108
330
1F
100
AcDbEntity
  8
0
  6
DASHED
 62
     2
100
AcDbLine
 10
187.2444695335
 20
240.2169943371
 30
0.0
 11
186.4998693484
 21
239.8180757362
 31
0.0
  0
LINE
  5
109
330
1F
100
AcDbEntity
  8
0
  6
DASHED
 62
     2
100
AcDbLine
 10
179.3777755323
 20
241.2747551365999
 30
0.0
 11
180.1223757174
 21
241.6736737374
 31
0.0
  0
LINE
  5
10A
330
1F
100
AcDbEntity
  8
0
  6
DASHED
 62
     2
100
AcDbLine
 10
182.5202466291999
 20
237.5204394881
 30
0.0
 11
181.8024728944
 21
237.0750561125
 31
0.0
  0
LINE
  5
10B
330
1F
100
AcDbEntity
  8
0
  6
DASHED
 62
     2
100
AcDbLine
 10
184.1019984365
 20
243.9713099855999
 30
0.0
 11
184.8197721714
 21
244.4166933610999
 31
0.0
  0
LINE
  5
10C
330
1F
100
AcDbEntity
  8
0
  6
DASHED
 62
     2
100
AcDbLine
 10
185.7358198949999
 20
243.8878129614
 30
0.0
 11
185.7089934447999
 21
243.043510985
 31
0.0
  0
LINE
  5
10D
330
1F
100
AcDbEntity
  8
0
  6
DASHED
 62
     2
100
AcDbLine
 10
180.8864251708
 20
237.6039365123
 30
0.0
 11
180.9132516209999
 21
238.4482384886
 31
0.0
  0
LINE
  5
10E
330
1F
100
AcDbEntity
  8
A_ACHSEN
  6
DOT_CENTER
 62
     2
100
AcDbLine
 10
183.3111225329
 20
247.7958747368
 30
0.0
 11
183.3111225328999
 21
233.6958747367999
 31
0.0
  0
LINE
  5
10F
330
1F
100
AcDbEntity
  8
0
  6
DASHED
 62
     2
100
AcDbLine
 10
185.7089934447999
 20
238.4482384886
 30
0.0
 11
185.7358198949999
 21
237.6039365123
 31
0.0
  0
LINE
  5
110
330
1F
100
AcDbEntity
  8
A_ACHSEN
  6
DOT_CENTER
 62
     2
100
AcDbLine
 10
190.3611225329
 20
240.7458747368001
 30
0.0
 11
176.2611225329
 21
240.7458747367999
 31
0.0
  0
LINE
  5
111
330
1F
100
AcDbEntity
  8
0
  6
DASHED
 62
     2
100
AcDbLine
 10
180.9132516209999
 20
243.043510985
 30
0.0
 11
180.8864251708
 21
243.8878129614
 31
0.0
  0
LINE
  5
112
330
1F
100
AcDbEntity
  8
0
  6
DASHED
 62
     2
100
AcDbLine
 10
181.8024728944
 20
244.4166933610999
 30
0.0
 11
182.5202466291999
 21
243.9713099855999
 31
0.0
  0
LINE
  5
113
330
1F
100
AcDbEntity
  8
0
  6
DASHED
 62
     2
100
AcDbLine
 10
186.4998693484
 20
241.6736737374
 30
0.0
 11
187.2444695335
 21
241.2747551365999
 31
0.0
  0
LINE
  5
114
330
1F
100
AcDbEntity
  8
0
  6
DASHED
 62
     2
100
AcDbLine
 10
184.8197721714
 20
237.0750561125
 30
0.0
 11
184.1019984365
 21
237.5204394881
 31
0.0
  0
LINE
  5
115
330
1F
100
AcDbEntity
  8
0
  6
DASHED
 62
     2
100
AcDbLine
 10
180.1223757174
 20
239.8180757362
 30
0.0
 11
179.3777755323
 21
240.2169943371
 31
0.0
  0
LINE
  5
116
330
1F
100
AcDbEntity
  8
0
  6
DASHED
 62
     2
100
AcDbLine
 10
177.2444695335
 20
270.2169943371
 30
0.0
 11
176.4998693484
 21
269.8180757362
 31
0.0
  0
LINE
  5
117
330
1F
100
AcDbEntity
  8
0
  6
DASHED
 62
     2
100
AcDbLine
 10
169.3777755323
 20
271.2747551365999
 30
0.0
 11
170.1223757174
 21
271.6736737374
 31
0.0
  0
LINE
  5
118
330
1F
100
AcDbEntity
  8
0
  6
DASHED
 62
     2
100
AcDbLine
 10
172.5202466291999
 20
267.5204394881
 30
0.0
 11
171.8024728944
 21
267.0750561125
 31
0.0
  0
LINE
  5
119
330
1F
100
AcDbEntity
  8
0
  6
DASHED
 62
     2
100
AcDbLine
 10
174.1019984365
 20
273.9713099855999
 30
0.0
 11
174.8197721714
 21
274.4166933610999
 31
0.0
  0
LINE
  5
11A
330
1F
100
AcDbEntity
  8
0
  6
DASHED
 62
     2
100
AcDbLine
 10
175.7358198949999
 20
273.8878129614
 30
0.0
 11
175.7089934447999
 21
273.043510985
 31
0.0
  0
LINE
  5
11B
330
1F
100
AcDbEntity
  8
0
  6
DASHED
 62
     2
100
AcDbLine
 10
170.8864251708
 20
267.6039365123
 30
0.0
 11
170.9132516209999
 21
268.4482384886
 31
0.0
  0
LINE
  5
11C
330
1F
100
AcDbEntity
  8
A_ACHSEN
  6
DOT_CENTER
 62
     2
100
AcDbLine
 10
173.3111225329
 20
277.7958747368
 30
0.0
 11
173.3111225328999
 21
263.6958747367999
 31
0.0
  0
LINE
  5
11D
330
1F
100
AcDbEntity
  8
0
  6
DASHED
 62
     2
100
AcDbLine
 10
175.7089934447999
 20
268.4482384886
 30
0.0
 11
175.7358198949999
 21
267.6039365123
 31
0.0
  0
LINE
  5
11E
330
1F
100
AcDbEntity
  8
A_ACHSEN
  6
DOT_CENTER
 62
     2
100
AcDbLine
 10
180.3611225329
 20
270.7458747368001
 30
0.0
 11
166.2611225329
 21
270.7458747367999
 31
0.0
  0
LINE
  5
11F
330
1F
100
AcDbEntity
  8
0
  6
DASHED
 62
     2
100
AcDbLine
 10
170.9132516209999
 20
273.043510985
 30
0.0
 11
170.8864251708
 21
273.8878129614
 31
0.0
  0
LINE
  5
120
330
1F
100
AcDbEntity
  8
0
  6
DASHED
 62
     2
100
AcDbLine
 10
171.8024728944
 20
274.4166933610999
 30
0.0
 11
172.5202466291999
 21
273.9713099855999
 31
0.0
  0
LINE
  5
121
330
1F
100
AcDbEntity
  8
0
  6
DASHED
 62
     2
100
AcDbLine
 10
176.4998693484
 20
271.6736737374
 30
0.0
 11
177.2444695335
 21
271.2747551365999
 31
0.0
  0
LINE
  5
122
330
1F
100
AcDbEntity
  8
0
  6
DASHED
 62
     2
100
AcDbLine
 10
174.8197721714
 20
267.0750561125
 30
0.0
 11
174.1019984365
 21
267.5204394881
 31
0.0
  0
LINE
  5
123
330
1F
100
AcDbEntity
  8
0
  6
DASHED
 62
     2
100
AcDbLine
 10
170.1223757174
 20
269.8180757362
 30
0.0
 11
169.3777755323
 21
270.2169943371
 31
0.0
  0
ARC
  5
124
330
1F
100
AcDbEntity
  8
0
  6
Continuous
 62
     7
100
AcDbCircle
 10
186.3111225329
 20
152.7458747368
 30
0.0
 40
9.999999999999641
100
AcDbArc
 50
-69.51268488527657
 51
-59.50255098946946
  0
ARC
  5
125
330
1F
100
AcDbEntity
  8
0
  6
Continuous
 62
     7
100
AcDbCircle
 10
175.3111225329
 20
152.7458747368
 30
0.0
 40
10.0
100
AcDbArc
 50
180.0
 51
-90.0
  0
ARC
  5
126
330
1F
100
AcDbEntity
  8
0
  6
Continuous
 62
     7
100
AcDbCircle
 10
175.3111225329
 20
272.7458747368
 30
0.0
 40
10.0
100
AcDbArc
 50
90.0
 51
180.0
  0
ARC
  5
127
330
1F
100
AcDbEntity
  8
0
  6
Continuous
 62
     7
100
AcDbCircle
 10
186.3111225329
 20
272.7458747368
 30
0.0
 40
10.00000000000001
100
AcDbArc
 50
70.05155641119777
 51
90.0
  0
ARC
  5
128
330
1F
100
AcDbEntity
  8
0
  6
Continuous
 62
     7
100
AcDbCircle
 10
186.3111225329
 20
152.7458747368
 30
0.0
 40
10.0
100
AcDbArc
 50
-90.0
 51
-70.05155641120308
  0
ARC
  5
129
330
1F
100
AcDbEntity
  8
0
  6
Continuous
 62
     7
100
AcDbCircle
 10
186.3111225329
 20
272.7458747368
 30
0.0
 40
9.999999999999984
100
AcDbArc
 50
59.5025509894707
 51
69.51268488527742
  0
ARC
  5
12A
330
1F
100
AcDbEntity
  8
1
  6
Continuous
 62
     7
100
AcDbCircle
 10
231.311122532903
 20
251.7458747367878
 30
0.0
 40
7.000000000012744
100
AcDbArc
 50
-45.58469140255796
 51
106.1821461632996
  0
ARC
  5
12B
330
1F
100
AcDbEntity
  8
A_ACHSEN
  6
Continuous
 62
     7
100
AcDbCircle
 10
231.3111225329
 20
251.7458747368
 30
0.0
 40
7.000000000000152
100
AcDbArc
 50
106.1821461633037
 51
-45.58469140261019
  0
ARC
  5
12C
330
1F
100
AcDbEntity
  8
A_ACHSEN
  6
Continuous
 62
     7
100
AcDbCircle
 10
231.3111225329
 20
251.7458747368
 30
0.0
 40
7.000000000000152
100
AcDbArc
 50
106.1821461633037
 51
-45.58469140261019
  0
ARC
  5
12D
330
1F
100
AcDbEntity
  8
1
  6
Continuous
 62
     7
100
AcDbCircle
 10
231.311122532903
 20
173.7458747368122
 30
0.0
 40
7.000000000012702
100
AcDbArc
 50
-106.1821461632996
 51
45.58469140255796
  0
ARC
  5
12E
330
1F
100
AcDbEntity
  8
A_RUNDUNGEN
  6
Continuous
 62
     7
100
AcDbCircle
 10
238.8111225329
 20
163.3960003657001
 30
0.0
 40
0.5000000000000833
100
AcDbArc
 50
89.97623141310233
 51
180.0
  0
ARC
  5
12F
330
1F
100
AcDbEntity
  8
A_RUNDUNGEN
  6
Continuous
 62
     7
100
AcDbCircle
 10
247.8111225329
 20
163.3960003657001
 30
0.0
 40
0.5
100
AcDbArc
 50
0.0
 51
90.01941070202483
  0
ARC
  5
130
330
1F
100
AcDbEntity
  8
A_RUNDUNGEN
  6
Continuous
 62
     7
100
AcDbCircle
 10
247.8111225329
 20
262.0957491079
 30
0.0
 40
0.5000000000001175
100
AcDbArc
 50
-90.01941070202483
 51
0.0
  0
ARC
  5
131
330
1F
100
AcDbEntity
  8
A_RUNDUNGEN
  6
Continuous
 62
     7
100
AcDbCircle
 10
248.3111225329
 20
258.7458747368
 30
0.0
 40
2.0
100
AcDbArc
 50
-90.0
 51
0.0
  0
ARC
  5
132
330
1F
100
AcDbEntity
  8
A_RUNDUNGEN
  6
Continuous
 62
     7
100
AcDbCircle
 10
238.8111225329
 20
262.0957491079
 30
0.0
 40
0.5
100
AcDbArc
 50
180.0
 51
-89.97623141310233
  0
ARC
  5
133
330
1F
100
AcDbEntity
  8
A_RUNDUNGEN
  6
Continuous
 62
     7
100
AcDbCircle
 10
234.7111225329
 20
267.1458717763
 30
0.0
 40
0.5
100
AcDbArc
 50
90.0
 51
180.0
  0
ARC
  5
134
330
1F
100
AcDbEntity
  8
0
  6
Continuous
 62
     7
100
AcDbCircle
 10
236.3111225329
 20
243.7458747368
 30
0.0
 40
3.0
100
AcDbArc
 50
0.0
 51
90.0
  0
ARC
  5
135
330
1F
100
AcDbEntity
  8
0
  6
Continuous
 62
     7
100
AcDbCircle
 10
235.8111225329
 20
250.2458747368
 30
0.0
 40
8.0
100
AcDbArc
 50
0.0
 51
54.34091230386231
  0
ARC
  5
136
330
1F
100
AcDbEntity
  8
0
  6
Continuous
 62
     7
100
AcDbCircle
 10
240.3111225329
 20
215.9958747368
 30
0.0
 40
5.0
100
AcDbArc
 50
0.0
 51
45.52467854559551
  0
ARC
  5
137
330
1F
100
AcDbEntity
  8
A_RUNDUNGEN
  6
Continuous
 62
     7
100
AcDbCircle
 10
227.7111214395
 20
267.1458705271
 30
0.0
 40
0.500001093401548
100
AcDbArc
 50
0.00014314746376
 51
89.99987470494635
  0
ARC
  5
138
330
1F
100
AcDbEntity
  8
A_RUNDUNGEN
  6
HIDDEN_8
 62
   252
420
  8685188
100
AcDbCircle
 10
231.1669730018
 20
264.741102221
 30
0.0
 40
2.995274743400037
100
AcDbArc
 50
-105.8904477934953
 51
-104.8702043410408
  0
ARC
  5
139
330
1F
100
AcDbEntity
  8
A_RUNDUNGEN
  6
Continuous
 62
     7
100
AcDbCircle
 10
231.2111225329
 20
264.7458747368
 30
0.0
 40
3.000000000000269
100
AcDbArc
 50
-179.9999152580911
 51
0.00002032663314
  0
ARC
  5
13A
330
1F
100
AcDbEntity
  8
A_RUNDUNGEN
  6
HIDDEN_8
 62
   252
420
  8685188
100
AcDbCircle
 10
231.1678317878
 20
264.7499357205
 30
0.0
 40
3.004033140200385
100
AcDbArc
 50
-104.8427980745054
 51
-94.08623132039955
  0
ARC
  5
13B
330
1F
100
AcDbEntity
  8
A_RUNDUNGEN
  6
HIDDEN_8
 62
   252
420
  8685188
100
AcDbCircle
 10
231.168327173
 20
264.7532033586
 30
0.0
 40
3.00732778309963
100
AcDbArc
 50
-94.091209267794
 51
-91.17567537140539
  0
ARC
  5
13C
330
1F
100
AcDbEntity
  8
A_RUNDUNGEN
  6
Continuous
 62
     7
100
AcDbCircle
 10
214.8111225329
 20
268.2458747368
 30
0.0
 40
0.5
100
AcDbArc
 50
90.0
 51
-179.9999757821066
  0
ARC
  5
13D
330
1F
100
AcDbEntity
  8
0
  6
Continuous
 62
     7
100
AcDbCircle
 10
240.3111225329
 20
209.4958747368
 30
0.0
 40
5.000000000000297
100
AcDbArc
 50
-45.52467854559551
 51
0.0
  0
ARC
  5
13E
330
1F
100
AcDbEntity
  8
A_RUNDUNGEN
  6
Continuous
 62
     7
100
AcDbCircle
 10
248.3111225329
 20
166.7458747368
 30
0.0
 40
2.0
100
AcDbArc
 50
0.0
 51
90.0
  0
ARC
  5
13F
330
1F
100
AcDbEntity
  8
0
  6
Continuous
 62
     7
100
AcDbCircle
 10
236.3111225329
 20
181.7458747368
 30
0.0
 40
3.0
100
AcDbArc
 50
-90.0
 51
0.0
  0
ARC
  5
140
330
1F
100
AcDbEntity
  8
0
  6
Continuous
 62
     7
100
AcDbCircle
 10
235.8111225329
 20
175.2458747368
 30
0.0
 40
7.999999999999997
100
AcDbArc
 50
-54.34091230386127
 51
0.0
  0
ARC
  5
141
330
1F
100
AcDbEntity
  8
A_RUNDUNGEN
  6
Continuous
 62
     7
100
AcDbCircle
 10
234.7111236264
 20
158.3458789466
 30
0.0
 40
0.5000010935015642
100
AcDbArc
 50
-179.9998568410786
 51
-90.00012529505365
  0
ARC
  5
142
330
1F
100
AcDbEntity
  8
A_ACHSEN
  6
Continuous
 62
     7
100
AcDbCircle
 10
231.3111225329
 20
173.7458747368
 30
0.0
 40
7.000000000023562
100
AcDbArc
 50
45.58469140261019
 51
-106.1821461633037
  0
ARC
  5
143
330
1F
100
AcDbEntity
  8
A_RUNDUNGEN
  6
Continuous
 62
     7
100
AcDbCircle
 10
227.7111225329
 20
158.3458776974
 30
0.0
 40
0.5
100
AcDbArc
 50
-90.0
 51
-0.00000001145773
  0
ARC
  5
144
330
1F
100
AcDbEntity
  8
A_RUNDUNGEN
  6
Continuous
 62
     7
100
AcDbCircle
 10
231.2111225329
 20
160.7458747368
 30
0.0
 40
3.000000000000113
100
AcDbArc
 50
0.00006783459341
 51
179.9999819212721
  0
ARC
  5
145
330
1F
100
AcDbEntity
  8
A_RUNDUNGEN
  6
Continuous
 62
     7
100
AcDbCircle
 10
214.8111225329
 20
157.2458747368
 30
0.0
 40
0.5000000000000446
100
AcDbArc
 50
179.9999757821066
 51
-90.0
  0
ARC
  5
146
330
1F
100
AcDbEntity
  8
0
  6
DASHED
 62
     2
100
AcDbCircle
 10
169.4140082159
 20
152.4958747368
 30
0.0
 40
1.499999999959475
100
AcDbArc
 50
-1.81987663931817
 51
61.8198766387237
  0
ARC
  5
147
330
1F
100
AcDbEntity
  8
0
  6
DASHED
 62
     2
100
AcDbCircle
 10
177.2082368499
 20
152.4958747368
 30
0.0
 40
1.499999999998564
100
AcDbArc
 50
118.1801233612763
 51
-178.1801233606818
  0
ARC
  5
148
330
1F
100
AcDbEntity
  8
0
  6
DASHED
 62
     2
100
AcDbCircle
 10
173.3111225329
 20
150.2458747368
 30
0.0
 40
1.500000000050526
100
AcDbArc
 50
58.18012336428638
 51
121.8198766389589
  0
ARC
  5
149
330
1F
100
AcDbEntity
  8
0
  6
DASHED
 62
     2
100
AcDbCircle
 10
169.4140082159
 20
156.9958747368
 30
0.0
 40
1.499999999998564
100
AcDbArc
 50
-61.8198766387237
 51
1.81987663931817
  0
ARC
  5
14A
330
1F
100
AcDbEntity
  8
0
  6
DASHED
 62
     2
100
AcDbCircle
 10
173.3111225329
 20
159.2458747368
 30
0.0
 40
1.500000000018356
100
AcDbArc
 50
-121.8198766409708
 51
-58.1801233622744
  0
ARC
  5
14B
330
1F
100
AcDbEntity
  8
0
  6
DASHED
 62
     2
100
AcDbCircle
 10
177.2082368499
 20
156.9958747368
 30
0.0
 40
1.499999999959475
100
AcDbArc
 50
178.1801233606818
 51
-118.1801233612763
  0
ARC
  5
14C
330
1F
100
AcDbEntity
  8
0
  6
DASHED
 62
     2
100
AcDbCircle
 10
171.4861225329
 20
151.584882013
 30
0.0
 40
0.600000000044382
100
AcDbArc
 50
178.180123358954
 51
-58.18012335841028
  0
ARC
  5
14D
330
1F
100
AcDbEntity
  8
0
  6
DASHED
 62
     2
100
AcDbCircle
 10
175.1361225329
 20
151.584882013
 30
0.0
 40
0.6000000000348583
100
AcDbArc
 50
-121.8198766415897
 51
1.81987664104599
  0
ARC
  5
14E
330
1F
100
AcDbEntity
  8
0
  6
DASHED
 62
     2
100
AcDbCircle
 10
169.6611225329
 20
154.7458747368
 30
0.0
 40
0.6000000000346023
100
AcDbArc
 50
118.1801233594773
 51
-118.1801233639825
  0
ARC
  5
14F
330
1F
100
AcDbEntity
  8
0
  6
DASHED
 62
     2
100
AcDbCircle
 10
171.4861225329
 20
157.9068674607
 30
0.0
 40
0.5999999999498014
100
AcDbArc
 50
58.18012335337031
 51
-178.180123358954
  0
ARC
  5
150
330
1F
100
AcDbEntity
  8
0
  6
DASHED
 62
     2
100
AcDbCircle
 10
175.1361225329
 20
157.9068674607
 30
0.0
 40
0.600000000044382
100
AcDbArc
 50
-1.81987664104599
 51
121.8198766466297
  0
ARC
  5
151
330
1F
100
AcDbEntity
  8
0
  6
DASHED
 62
     2
100
AcDbCircle
 10
176.9611225329
 20
154.7458747368
 30
0.0
 40
0.5999999999465416
100
AcDbArc
 50
-61.81987663601753
 51
61.81987664052274
  0
ARC
  5
152
330
1F
100
AcDbEntity
  8
0
  6
DASHED
 62
     2
100
AcDbCircle
 10
186.9611225328999
 20
184.7458747368
 30
0.0
 40
0.5999999999465819
100
AcDbArc
 50
-61.81987663601036
 51
61.81987664051556
  0
ARC
  5
153
330
1F
100
AcDbEntity
  8
0
  6
DASHED
 62
     2
100
AcDbCircle
 10
185.1361225329
 20
187.9068674607
 30
0.0
 40
0.6000000000442969
100
AcDbArc
 50
-1.81987664104625
 51
121.8198766466297
  0
ARC
  5
154
330
1F
100
AcDbEntity
  8
0
  6
DASHED
 62
     2
100
AcDbCircle
 10
181.4861225329
 20
187.9068674607
 30
0.0
 40
0.5999999999498014
100
AcDbArc
 50
58.18012335337031
 51
-178.180123358954
  0
ARC
  5
155
330
1F
100
AcDbEntity
  8
0
  6
DASHED
 62
     2
100
AcDbCircle
 10
179.6611225328999
 20
184.7458747368
 30
0.0
 40
0.6000000000345486
100
AcDbArc
 50
118.1801233594677
 51
-118.1801233639729
  0
ARC
  5
156
330
1F
100
AcDbEntity
  8
0
  6
DASHED
 62
     2
100
AcDbCircle
 10
185.1361225329
 20
181.584882013
 30
0.0
 40
0.6000000000348583
100
AcDbArc
 50
-121.8198766415897
 51
1.81987664104625
  0
ARC
  5
157
330
1F
100
AcDbEntity
  8
0
  6
DASHED
 62
     2
100
AcDbCircle
 10
181.4861225329
 20
181.584882013
 30
0.0
 40
0.600000000044382
100
AcDbArc
 50
178.180123358954
 51
-58.18012335841028
  0
ARC
  5
158
330
1F
100
AcDbEntity
  8
0
  6
DASHED
 62
     2
100
AcDbCircle
 10
187.2082368499
 20
186.9958747368
 30
0.0
 40
1.499999999959589
100
AcDbArc
 50
178.180123360682
 51
-118.1801233612763
  0
ARC
  5
159
330
1F
100
AcDbEntity
  8
0
  6
DASHED
 62
     2
100
AcDbCircle
 10
183.3111225328999
 20
189.2458747368
 30
0.0
 40
1.500000000018356
100
AcDbArc
 50
-121.8198766409708
 51
-58.18012336227164
  0
ARC
  5
15A
330
1F
100
AcDbEntity
  8
0
  6
DASHED
 62
     2
100
AcDbCircle
 10
179.4140082159
 20
186.9958747368
 30
0.0
 40
1.499999999998564
100
AcDbArc
 50
-61.8198766387237
 51
1.8198766393183
  0
ARC
  5
15B
330
1F
100
AcDbEntity
  8
0
  6
DASHED
 62
     2
100
AcDbCircle
 10
183.3111225328999
 20
180.2458747368
 30
0.0
 40
1.500000000050571
100
AcDbArc
 50
58.18012336428362
 51
121.8198766389589
  0
ARC
  5
15C
330
1F
100
AcDbEntity
  8
0
  6
DASHED
 62
     2
100
AcDbCircle
 10
187.2082368499
 20
182.4958747368
 30
0.0
 40
1.499999999998564
100
AcDbArc
 50
118.1801233612763
 51
-178.180123360682
  0
ARC
  5
15D
330
1F
100
AcDbEntity
  8
0
  6
DASHED
 62
     2
100
AcDbCircle
 10
179.4140082159
 20
182.4958747368
 30
0.0
 40
1.499999999959361
100
AcDbArc
 50
-1.8198766393183
 51
61.8198766387237
  0
ARC
  5
15E
330
1F
100
AcDbEntity
  8
0
  6
DASHED
 62
     2
100
AcDbCircle
 10
176.9611225328999
 20
212.7458747368
 30
0.0
 40
0.5999999999465819
100
AcDbArc
 50
-61.81987663601036
 51
61.81987664051556
  0
ARC
  5
15F
330
1F
100
AcDbEntity
  8
0
  6
DASHED
 62
     2
100
AcDbCircle
 10
175.1361225329
 20
215.9068674607
 30
0.0
 40
0.6000000000442969
100
AcDbArc
 50
-1.81987664104625
 51
121.8198766466297
  0
ARC
  5
160
330
1F
100
AcDbEntity
  8
0
  6
DASHED
 62
     2
100
AcDbCircle
 10
171.4861225329
 20
215.9068674607
 30
0.0
 40
0.5999999999498014
100
AcDbArc
 50
58.18012335337031
 51
-178.180123358954
  0
ARC
  5
161
330
1F
100
AcDbEntity
  8
0
  6
DASHED
 62
     2
100
AcDbCircle
 10
169.6611225328999
 20
212.7458747368
 30
0.0
 40
0.6000000000345486
100
AcDbArc
 50
118.1801233594677
 51
-118.1801233639729
  0
ARC
  5
162
330
1F
100
AcDbEntity
  8
0
  6
DASHED
 62
     2
100
AcDbCircle
 10
175.1361225329
 20
209.584882013
 30
0.0
 40
0.6000000000348583
100
AcDbArc
 50
-121.8198766415897
 51
1.81987664104625
  0
ARC
  5
163
330
1F
100
AcDbEntity
  8
0
  6
DASHED
 62
     2
100
AcDbCircle
 10
171.4861225329
 20
209.584882013
 30
0.0
 40
0.600000000044382
100
AcDbArc
 50
178.180123358954
 51
-58.18012335841028
  0
ARC
  5
164
330
1F
100
AcDbEntity
  8
0
  6
DASHED
 62
     2
100
AcDbCircle
 10
177.2082368499
 20
214.9958747368
 30
0.0
 40
1.499999999959589
100
AcDbArc
 50
178.180123360682
 51
-118.1801233612763
  0
ARC
  5
165
330
1F
100
AcDbEntity
  8
0
  6
DASHED
 62
     2
100
AcDbCircle
 10
173.3111225328999
 20
217.2458747368
 30
0.0
 40
1.500000000018356
100
AcDbArc
 50
-121.8198766409708
 51
-58.18012336227164
  0
ARC
  5
166
330
1F
100
AcDbEntity
  8
0
  6
DASHED
 62
     2
100
AcDbCircle
 10
169.4140082159
 20
214.9958747368
 30
0.0
 40
1.499999999998564
100
AcDbArc
 50
-61.8198766387237
 51
1.8198766393183
  0
ARC
  5
167
330
1F
100
AcDbEntity
  8
0
  6
DASHED
 62
     2
100
AcDbCircle
 10
173.3111225328999
 20
208.2458747368
 30
0.0
 40
1.500000000050571
100
AcDbArc
 50
58.18012336428362
 51
121.8198766389589
  0
ARC
  5
168
330
1F
100
AcDbEntity
  8
0
  6
DASHED
 62
     2
100
AcDbCircle
 10
177.2082368499
 20
210.4958747368
 30
0.0
 40
1.499999999998564
100
AcDbArc
 50
118.1801233612763
 51
-178.180123360682
  0
ARC
  5
169
330
1F
100
AcDbEntity
  8
0
  6
DASHED
 62
     2
100
AcDbCircle
 10
169.4140082159
 20
210.4958747368
 30
0.0
 40
1.499999999959361
100
AcDbArc
 50
-1.8198766393183
 51
61.8198766387237
  0
ARC
  5
16A
330
1F
100
AcDbEntity
  8
0
  6
DASHED
 62
     2
100
AcDbCircle
 10
186.9611225328999
 20
240.7458747368
 30
0.0
 40
0.5999999999465819
100
AcDbArc
 50
-61.81987663601036
 51
61.81987664051556
  0
ARC
  5
16B
330
1F
100
AcDbEntity
  8
0
  6
DASHED
 62
     2
100
AcDbCircle
 10
185.1361225329
 20
243.9068674607
 30
0.0
 40
0.6000000000442969
100
AcDbArc
 50
-1.81987664104625
 51
121.8198766466297
  0
ARC
  5
16C
330
1F
100
AcDbEntity
  8
0
  6
DASHED
 62
     2
100
AcDbCircle
 10
181.4861225329
 20
243.9068674607
 30
0.0
 40
0.5999999999498014
100
AcDbArc
 50
58.18012335337031
 51
-178.180123358954
  0
ARC
  5
16D
330
1F
100
AcDbEntity
  8
0
  6
DASHED
 62
     2
100
AcDbCircle
 10
179.6611225328999
 20
240.7458747368
 30
0.0
 40
0.6000000000345486
100
AcDbArc
 50
118.1801233594677
 51
-118.1801233639729
  0
ARC
  5
16E
330
1F
100
AcDbEntity
  8
0
  6
DASHED
 62
     2
100
AcDbCircle
 10
185.1361225329
 20
237.584882013
 30
0.0
 40
0.6000000000348583
100
AcDbArc
 50
-121.8198766415897
 51
1.81987664104625
  0
ARC
  5
16F
330
1F
100
AcDbEntity
  8
0
  6
DASHED
 62
     2
100
AcDbCircle
 10
181.4861225329
 20
237.584882013
 30
0.0
 40
0.600000000044382
100
AcDbArc
 50
178.180123358954
 51
-58.18012335841028
  0
ARC
  5
170
330
1F
100
AcDbEntity
  8
0
  6
DASHED
 62
     2
100
AcDbCircle
 10
187.2082368499
 20
242.9958747368
 30
0.0
 40
1.499999999959589
100
AcDbArc
 50
178.180123360682
 51
-118.1801233612763
  0
ARC
  5
171
330
1F
100
AcDbEntity
  8
0
  6
DASHED
 62
     2
100
AcDbCircle
 10
183.3111225328999
 20
245.2458747368
 30
0.0
 40
1.500000000018356
100
AcDbArc
 50
-121.8198766409708
 51
-58.18012336227164
  0
ARC
  5
172
330
1F
100
AcDbEntity
  8
0
  6
DASHED
 62
     2
100
AcDbCircle
 10
179.4140082159
 20
242.9958747368
 30
0.0
 40
1.499999999998564
100
AcDbArc
 50
-61.8198766387237
 51
1.8198766393183
  0
ARC
  5
173
330
1F
100
AcDbEntity
  8
0
  6
DASHED
 62
     2
100
AcDbCircle
 10
183.3111225328999
 20
236.2458747368
 30
0.0
 40
1.500000000050571
100
AcDbArc
 50
58.18012336428362
 51
121.8198766389589
  0
ARC
  5
174
330
1F
100
AcDbEntity
  8
0
  6
DASHED
 62
     2
100
AcDbCircle
 10
187.2082368499
 20
238.4958747368
 30
0.0
 40
1.499999999998564
100
AcDbArc
 50
118.1801233612763
 51
-178.180123360682
  0
ARC
  5
175
330
1F
100
AcDbEntity
  8
0
  6
DASHED
 62
     2
100
AcDbCircle
 10
179.4140082159
 20
238.4958747368
 30
0.0
 40
1.499999999959361
100
AcDbArc
 50
-1.8198766393183
 51
61.8198766387237
  0
ARC
  5
176
330
1F
100
AcDbEntity
  8
0
  6
DASHED
 62
     2
100
AcDbCircle
 10
176.9611225328999
 20
270.7458747368
 30
0.0
 40
0.5999999999465568
100
AcDbArc
 50
-61.81987663600907
 51
61.81987664051556
  0
ARC
  5
177
330
1F
100
AcDbEntity
  8
0
  6
DASHED
 62
     2
100
AcDbCircle
 10
175.1361225329
 20
273.9068674607
 30
0.0
 40
0.6000000000442969
100
AcDbArc
 50
-1.81987664104625
 51
121.8198766466326
  0
ARC
  5
178
330
1F
100
AcDbEntity
  8
0
  6
DASHED
 62
     2
100
AcDbCircle
 10
171.4861225329
 20
273.9068674607
 30
0.0
 40
0.599999999949753
100
AcDbArc
 50
58.18012335336745
 51
-178.180123358954
  0
ARC
  5
179
330
1F
100
AcDbEntity
  8
0
  6
DASHED
 62
     2
100
AcDbCircle
 10
169.6611225329
 20
270.7458747368
 30
0.0
 40
0.6000000000346023
100
AcDbArc
 50
118.1801233594773
 51
-118.1801233639838
  0
ARC
  5
17A
330
1F
100
AcDbEntity
  8
0
  6
DASHED
 62
     2
100
AcDbCircle
 10
175.1361225329
 20
267.584882013
 30
0.0
 40
0.6000000000348583
100
AcDbArc
 50
-121.8198766415897
 51
1.81987664104083
  0
ARC
  5
17B
330
1F
100
AcDbEntity
  8
0
  6
DASHED
 62
     2
100
AcDbCircle
 10
171.4861225329
 20
267.584882013
 30
0.0
 40
0.6000000000443803
100
AcDbArc
 50
178.1801233589595
 51
-58.18012335841028
  0
ARC
  5
17C
330
1F
100
AcDbEntity
  8
0
  6
DASHED
 62
     2
100
AcDbCircle
 10
177.2082368499
 20
272.9958747368
 30
0.0
 40
1.49999999995959
100
AcDbArc
 50
178.1801233606809
 51
-118.1801233612768
  0
ARC
  5
17D
330
1F
100
AcDbEntity
  8
0
  6
DASHED
 62
     2
100
AcDbCircle
 10
173.3111225328999
 20
275.2458747368
 30
0.0
 40
1.500000000018356
100
AcDbArc
 50
-121.8198766409708
 51
-58.18012336227164
  0
ARC
  5
17E
330
1F
100
AcDbEntity
  8
0
  6
DASHED
 62
     2
100
AcDbCircle
 10
169.4140082159
 20
272.9958747368
 30
0.0
 40
1.499999999998539
100
AcDbArc
 50
-61.81987663872318
 51
1.81987663931939
  0
ARC
  5
17F
330
1F
100
AcDbEntity
  8
0
  6
DASHED
 62
     2
100
AcDbCircle
 10
173.3111225328999
 20
266.2458747368
 30
0.0
 40
1.500000000050595
100
AcDbArc
 50
58.18012336428419
 51
121.8198766389583
  0
ARC
  5
180
330
1F
100
AcDbEntity
  8
0
  6
DASHED
 62
     2
100
AcDbCircle
 10
177.2082368499
 20
268.4958747368
 30
0.0
 40
1.499999999998589
100
AcDbArc
 50
118.1801233612758
 51
-178.1801233606831
  0
ARC
  5
181
330
1F
100
AcDbEntity
  8
0
  6
DASHED
 62
     2
100
AcDbCircle
 10
169.4140082159
 20
268.4958747368
 30
0.0
 40
1.49999999995936
100
AcDbArc
 50
-1.81987663931722
 51
61.81987663872421
  0
CIRCLE
  5
182
330
1F
100
AcDbEntity
  8
A_ACHSEN
  6
Continuous
 62
     7
100
AcDbCircle
 10
173.3111225329
 20
167.7458747368
 30
0.0
 40
3.5
  0
CIRCLE
  5
183
330
1F
100
AcDbEntity
  8
A_ACHSEN
  6
Continuous
 62
     7
100
AcDbCircle
 10
173.3111225329
 20
167.7458747368
 30
0.0
 40
2.0
  0
CIRCLE
  5
184
330
1F
100
AcDbEntity
  8
A_ACHSEN
  6
Continuous
 62
     7
100
AcDbCircle
 10
173.3111225329
 20
257.7458747368
 30
0.0
 40
3.5
  0
CIRCLE
  5
185
330
1F
100
AcDbEntity
  8
A_ACHSEN
  6
Continuous
 62
     7
100
AcDbCircle
 10
173.3111225329
 20
257.7458747368
 30
0.0
 40
2.0
  0
CIRCLE
  5
186
330
1F
100
AcDbEntity
  8
A_FASEN
  6
Continuous
 62
     7
100
AcDbCircle
 10
231.3111225329
 20
187.7458747368
 30
0.0
 40
4.700000000000017
  0
CIRCLE
  5
187
330
1F
100
AcDbEntity
  8
0
  6
Continuous
 62
     3
100
AcDbCircle
 10
231.3111225329
 20
251.7458747368
 30
0.0
 40
2.309401076800015
  0
CIRCLE
  5
188
330
1F
100
AcDbEntity
  8
0
  6
Continuous
 62
     3
100
AcDbCircle
 10
231.3111225329
 20
237.7458747368
 30
0.0
 40
2.309401076800015
  0
CIRCLE
  5
189
330
1F
100
AcDbEntity
  8
A_FASEN
  6
Continuous
 62
     7
100
AcDbCircle
 10
231.3111225329
 20
237.7458747368
 30
0.0
 40
4.700000000000017
  0
CIRCLE
  5
18A
330
1F
100
AcDbEntity
  8
0
  6
Continuous
 62
     7
100
AcDbCircle
 10
231.3111225329
 20
237.7458747368
 30
0.0
 40
5.5
  0
CIRCLE
  5
18B
330
1F
100
AcDbEntity
  8
0
  6
Continuous
 62
     3
100
AcDbCircle
 10
231.3111225329
 20
212.7458747368
 30
0.0
 40
2.309401076800015
  0
CIRCLE
  5
18C
330
1F
100
AcDbEntity
  8
0
  6
Continuous
 62
     7
100
AcDbCircle
 10
231.3111225329
 20
212.7458747368
 30
0.0
 40
4.0
  0
CIRCLE
  5
18D
330
1F
100
AcDbEntity
  8
A_ACHSEN
  6
Continuous
 62
     7
100
AcDbCircle
 10
231.3111225329
 20
212.7458747368
 30
0.0
 40
5.5
  0
CIRCLE
  5
18E
330
1F
100
AcDbEntity
  8
0
  6
Continuous
 62
     3
100
AcDbCircle
 10
231.3111225329
 20
187.7458747368
 30
0.0
 40
2.309401076800015
  0
CIRCLE
  5
18F
330
1F
100
AcDbEntity
  8
0
  6
Continuous
 62
     7
100
AcDbCircle
 10
231.3111225329
 20
187.7458747368
 30
0.0
 40
5.5
  0
CIRCLE
  5
190
330
1F
100
AcDbEntity
  8
0
  6
Continuous
 62
     3
100
AcDbCircle
 10
231.3111225329
 20
173.7458747368
 30
0.0
 40
2.309401076800015
  0
CIRCLE
  5
191
330
1F
100
AcDbEntity
  8
A_ACHSEN
  6
DASHED
 62
     2
100
AcDbCircle
 10
173.3111225329
 20
154.7458747368
 30
0.0
 40
5.25
  0
CIRCLE
  5
192
330
1F
100
AcDbEntity
  8
A_ACHSEN
  6
DASHED
 62
     2
100
AcDbCircle
 10
183.3111225328999
 20
184.7458747368
 30
0.0
 40
5.25
  0
CIRCLE
  5
193
330
1F
100
AcDbEntity
  8
A_ACHSEN
  6
DASHED
 62
     2
100
AcDbCircle
 10
173.3111225328999
 20
212.7458747368
 30
0.0
 40
5.25
  0
CIRCLE
  5
194
330
1F
100
AcDbEntity
  8
A_ACHSEN
  6
DASHED
 62
     2
100
AcDbCircle
 10
183.3111225328999
 20
240.7458747368
 30
0.0
 40
5.25
  0
CIRCLE
  5
195
330
1F
100
AcDbEntity
  8
A_ACHSEN
  6
DASHED
 62
     2
100
AcDbCircle
 10
173.3111225328999
 20
270.7458747368
 30
0.0
 40
5.25
  0
XLINE
  5
196
330
1F
100
AcDbEntity
  8
1
  6
DOT_CENTER
 62
     3
 60
     1
100
AcDbXline
 10
216.3111225329
 20
212.7458747368
 30
0.0
 11
1.0
 21
0.0
 31
0.0
  0
XLINE
  5
197
330
1F
100
AcDbEntity
  8
1
  6
DOT_CENTER
 62
     3
 60
     1
100
AcDbXline
 10
216.3111225329
 20
212.7458747368
 30
0.0
 11
1.0
 21
0.0
 31
0.0
  0
ARC
  5
198
330
1F
100
AcDbEntity
  8
1
  6
Continuous
 62
     7
100
AcDbCircle
 10
244.3111225329
 20
239.7458747368
 30
0.0
 40
3.0
100
AcDbArc
 50
0.0
 51
90.0
  0
ARC
  5
199
330
1F
100
AcDbEntity
  8
1
  6
Continuous
 62
     7
100
AcDbCircle
 10
244.3111225329
 20
185.7458747368
 30
0.0
 40
3.0
100
AcDbArc
 50
-90.0
 51
0.0
  0
DIMENSION
  5
1A5
330
1F
100
AcDbEntity
  8
1
100
AcDbDimension
  2
*D1
 10
260.368434873905
 20
267.6456794886
 30
0.0
 11
256.618434873905
 21
212.518640321169
 31
0.0
 70
    32
  1
110
 71
     5
 42
-1.0
 53
90.0
  3
ME10_DIM_10
100
AcDbAlignedDimension
 13
250.3111225329
 23
157.8458747368
 33
0.0
 14
250.3111225329
 24
267.6456794886
 34
0.0
 50
90.0
100
AcDbRotatedDimension
  0
DIMENSION
  5
1B0
330
1F
100
AcDbEntity
  8
1
100
AcDbDimension
  2
*D2
 10
215.3111225329
 20
277.554930305303
 30
0.0
 11
232.265524755299
 21
281.304930305303
 31
0.0
 70
    32
  1
<>
 71
     5
 42
-1.0
 53
0.00013888888889
  3
ME10_DIM_11
100
AcDbAlignedDimension
 13
250.3111225329
 23
267.6456794886
 33
0.0
 14
215.3111225329
 24
268.7458747368
 34
0.0
100
AcDbRotatedDimension
  0
DIMENSION
  5
1BB
330
1F
100
AcDbEntity
  8
1
100
AcDbDimension
  2
*D3
 10
191.3111225329
 20
195.236368298914
 30
0.0
 11
199.3111225329
 21
198.986368298914
 31
0.0
 70
    32
  1
<>
 71
     5
 42
-1.0
 53
0.00013888888889
  3
ME10_DIM_12
100
AcDbAlignedDimension
 13
211.3106439261
 23
175.2458747368
 33
0.0
 14
191.3111225329
 24
175.2458747368
 34
0.0
100
AcDbRotatedDimension
  0
DIMENSION
  5
1C6
330
1F
100
AcDbEntity
  8
1
100
AcDbDimension
  2
*D4
 10
155.744483406393
 20
282.7458747368
 30
0.0
 11
151.994483406393
 21
212.375595736283
 31
0.0
 70
    32
  1
<>
 71
     5
 42
-1.0
 53
90.0
  3
ME10_DIM_13
100
AcDbAlignedDimension
 13
175.3111225329
 23
142.7458747368
 33
0.0
 14
175.3111225329
 24
282.7458747368
 34
0.0
 50
90.0
100
AcDbRotatedDimension
  0
ENDSEC
  0
SECTION
  2
OBJECTS
  0
DICTIONARY
  5
C
330
0
100
AcDbDictionary
281
     1
  3
ACAD_GROUP
350
D
  3
ACAD_LAYOUT
350
1A
  3
ACAD_MLINESTYLE
350
17
  3
ACAD_PLOTSETTINGS
350
19
  3
ACAD_PLOTSTYLENAME
350
E
  0
DICTIONARY
  5
D
102
{ACAD_REACTORS
330
C
102
}
330
C
100
AcDbDictionary
281
     1
  0
DICTIONARY
  5
1A
102
{ACAD_REACTORS
330
C
102
}
330
C
100
AcDbDictionary
281
     1
  3
Layout1
350
1E
  3
Layout2
350
26
  3
Model
350
22
  0
DICTIONARY
  5
17
102
{ACAD_REACTORS
330
C
102
}
330
C
100
AcDbDictionary
281
     1
  3
Standard
350
18
  0
DICTIONARY
  5
19
102
{ACAD_REACTORS
330
C
102
}
330
C
100
AcDbDictionary
281
     1
  0
ACDBDICTIONARYWDFLT
  5
E
102
{ACAD_REACTORS
330
C
102
}
330
C
100
AcDbDictionary
281
     1
  3
Normal
350
F
100
AcDbDictionaryWithDefault
340
F
  0
LAYOUT
  5
1E
102
{ACAD_REACTORS
330
1A
102
}
330
1A
100
AcDbPlotSettings
  1

  2

  4

  6

 40
0.0
 41
0.0
 42
0.0
 43
0.0
 44
0.0
 45
0.0
 46
0.0
 47
0.0
 48
0.0
 49
0.0
140
0.0
141
0.0
142
1.0
143
1.0
 70
   688
 72
     0
 73
     0
 74
     5
  7

 75
    16
 76
     0
 77
     2
 78
   300
147
1.0
148
0.0
149
0.0
100
AcDbLayout
  1
Layout1
 70
     1
 71
     1
 10
0.0
 20
0.0
 11
0.0
 21
0.0
 12
0.0
 22
0.0
 32
0.0
 14
0.0
 24
0.0
 34
0.0
 15
0.0
 25
0.0
 35
0.0
146
0.0
 13
0.0
 23
0.0
 33
0.0
 16
1.0
 26
0.0
 36
0.0
 17
0.0
 27
1.0
 37
0.0
 76
     0
330
1B
  0
LAYOUT
  5
26
102
{ACAD_REACTORS
330
1A
102
}
330
1A
100
AcDbPlotSettings
  1

  2

  4

  6

 40
0.0
 41
0.0
 42
0.0
 43
0.0
 44
0.0
 45
0.0
 46
0.0
 47
0.0
 48
0.0
 49
0.0
140
0.0
141
0.0
142
1.0
143
1.0
 70
   688
 72
     0
 73
     0
 74
     5
  7

 75
    16
 76
     0
 77
     2
 78
   300
147
1.0
148
0.0
149
0.0
100
AcDbLayout
  1
Layout2
 70
     1
 71
     2
 10
0.0
 20
0.0
 11
0.0
 21
0.0
 12
0.0
 22
0.0
 32
0.0
 14
0.0
 24
0.0
 34
0.0
 15
0.0
 25
0.0
 35
0.0
146
0.0
 13
0.0
 23
0.0
 33
0.0
 16
1.0
 26
0.0
 36
0.0
 17
0.0
 27
1.0
 37
0.0
 76
     0
330
23
  0
LAYOUT
  5
22
102
{ACAD_REACTORS
330
1A
102
}
330
1A
100
AcDbPlotSettings
  1

  2

  4

  6

 40
0.0
 41
0.0
 42
0.0
 43
0.0
 44
0.0
 45
0.0
 46
0.0
 47
0.0
 48
0.0
 49
0.0
140
0.0
141
0.0
142
1.0
143
1.0
 70
  1712
 72
     0
 73
     0
 74
     0
  7

 75
     0
 76
     0
 77
     2
 78
   300
147
1.0
148
0.0
149
0.0
100
AcDbLayout
  1
Model
 70
     1
 71
     0
 10
0.0
 20
0.0
 11
0.0
 21
0.0
 12
0.0
 22
0.0
 32
0.0
 14
150.244483406393
 24
141.2458747368
 34
0.0
 15
262.368434873905
 25
284.2458747368
 35
0.0
146
0.0
 13
0.0
 23
0.0
 33
0.0
 16
1.0
 26
0.0
 36
0.0
 17
0.0
 27
1.0
 37
0.0
 76
     0
330
1F
  0
MLINESTYLE
  5
18
102
{ACAD_REACTORS
330
17
102
}
330
17
100
AcDbMlineStyle
  2
Standard
 70
     0
  3

 62
   256
 51
90.0
 52
90.0
 71
     2
 49
0.5
 62
   256
  6
BYLAYER
 49
-0.5
 62
   256
  6
BYLAYER
  0
ACDBPLACEHOLDER
  5
F
102
{ACAD_REACTORS
330
E
102
}
330
E
  0
ENDSEC
  0
EOF
