  0
SECTION
  2
HEADER
  9
$ACADVER
  1
AC1018
  9
$ACADMAINTVER
 70
     0
  9
$DWGCODEPAGE
  3
ANSI_1252
  9
$INSBASE
 10
0.0
 20
0.0
 30
0.0
  9
$EXTMIN
 10
124968.5
 20
290260.2041164999
 30
0.0
  9
$EXTMAX
 10
125111.8154448405
 20
290353.1167716653
 30
0.0
  9
$LIMMIN
 10
0.0
 20
0.0
  9
$LIMMAX
 10
12.0
 20
9.0
  9
$ORTHOMODE
 70
     0
  9
$REGENMODE
 70
     1
  9
$FILLMODE
 70
     1
  9
$QTEXTMODE
 70
     0
  9
$MIRRTEXT
 70
     1
  9
$LTSCALE
 40
1.0
  9
$ATTMODE
 70
     1
  9
$TEXTSIZE
 40
0.2
  9
$TRACEWID
 40
0.05
  9
$TEXTSTYLE
  7
Standard
  9
$CLAYER
  8
0
  9
$CELTYPE
  6
ByLayer
  9
$CECOLOR
 62
   256
  9
$CELTSCALE
 40
1.0
  9
$DISPSILH
 70
     0
  9
$DIMSCALE
 40
1.0
  9
$DIMASZ
 40
0.18
  9
$DIMEXO
 40
0.0625
  9
$DIMDLI
 40
0.38
  9
$DIMRND
 40
0.0
  9
$DIMDLE
 40
0.0
  9
$DIMEXE
 40
0.18
  9
$DIMTP
 40
0.0
  9
$DIMTM
 40
0.0
  9
$DIMTXT
 40
0.18
  9
$DIMCEN
 40
0.09
  9
$DIMTSZ
 40
0.0
  9
$DIMTOL
 70
     0
  9
$DIMLIM
 70
     0
  9
$DIMTIH
 70
     1
  9
$DIMTOH
 70
     1
  9
$DIMSE1
 70
     0
  9
$DIMSE2
 70
     0
  9
$DIMTAD
 70
     0
  9
$DIMZIN
 70
     0
  9
$DIMBLK
  1

  9
$DIMASO
 70
     1
  9
$DIMSHO
 70
     1
  9
$DIMPOST
  1

  9
$DIMAPOST
  1

  9
$DIMALT
 70
     0
  9
$DIMALTD
 70
     2
  9
$DIMALTF
 40
25.4
  9
$DIMLFAC
 40
1.0
  9
$DIMTOFL
 70
     0
  9
$DIMTVP
 40
0.0
  9
$DIMTIX
 70
     0
  9
$DIMSOXD
 70
     0
  9
$DIMSAH
 70
     0
  9
$DIMBLK1
  1

  9
$DIMBLK2
  1

  9
$DIMSTYLE
  2
Standard
  9
$DIMCLRD
 70
     0
  9
$DIMCLRE
 70
     0
  9
$DIMCLRT
 70
     0
  9
$DIMTFAC
 40
1.0
  9
$DIMGAP
 40
0.09
  9
$DIMJUST
 70
     0
  9
$DIMSD1
 70
     0
  9
$DIMSD2
 70
     0
  9
$DIMTOLJ
 70
     1
  9
$DIMTZIN
 70
     0
  9
$DIMALTZ
 70
     0
  9
$DIMALTTZ
 70
     0
  9
$DIMUPT
 70
     0
  9
$DIMDEC
 70
     4
  9
$DIMTDEC
 70
     4
  9
$DIMALTU
 70
     2
  9
$DIMALTTD
 70
     2
  9
$DIMTXSTY
  7
Standard
  9
$DIMAUNIT
 70
     0
  9
$DIMADEC
 70
     0
  9
$DIMALTRND
 40
0.0
  9
$DIMAZIN
 70
     0
  9
$DIMDSEP
 70
    46
  9
$DIMATFIT
 70
     3
  9
$DIMFRAC
 70
     0
  9
$DIMLDRBLK
  1

  9
$DIMLUNIT
 70
     2
  9
$DIMLWD
 70
    -2
  9
$DIMLWE
 70
    -2
  9
$DIMTMOVE
 70
     0
  9
$LUNITS
 70
     2
  9
$LUPREC
 70
     4
  9
$SKETCHINC
 40
0.1
  9
$FILLETRAD
 40
0.5
  9
$AUNITS
 70
     0
  9
$AUPREC
 70
     0
  9
$MENU
  1
.
  9
$ELEVATION
 40
0.0
  9
$PELEVATION
 40
0.0
  9
$THICKNESS
 40
0.0
  9
$LIMCHECK
 70
     0
  9
$CHAMFERA
 40
0.5
  9
$CHAMFERB
 40
0.5
  9
$CHAMFERC
 40
1.0
  9
$CHAMFERD
 40
0.0
  9
$SKPOLY
 70
     0
  9
$TDCREATE
 40
2456624.401289792
  9
$TDUCREATE
 40
2456624.359623125
  9
$TDUPDATE
 40
2456624.401289803
  9
$TDUUPDATE
 40
2456624.359623136
  9
$TDINDWG
 40
0.0000000116
  9
$TDUSRTIMER
 40
0.0000000116
  9
$USRTIMER
 70
     1
  9
$ANGBASE
 50
0.0
  9
$ANGDIR
 70
     0
  9
$PDMODE
 70
     0
  9
$PDSIZE
 40
0.0
  9
$PLINEWID
 40
0.0
  9
$SPLFRAME
 70
     0
  9
$SPLINETYPE
 70
     6
  9
$SPLINESEGS
 70
     8
  9
$HANDSEED
  5
166
  9
$SURFTAB1
 70
     6
  9
$SURFTAB2
 70
     6
  9
$SURFTYPE
 70
     6
  9
$SURFU
 70
     6
  9
$SURFV
 70
     6
  9
$UCSBASE
  2

  9
$UCSNAME
  2

  9
$UCSORG
 10
0.0
 20
0.0
 30
0.0
  9
$UCSXDIR
 10
1.0
 20
0.0
 30
0.0
  9
$UCSYDIR
 10
0.0
 20
1.0
 30
0.0
  9
$UCSORTHOREF
  2

  9
$UCSORTHOVIEW
 70
     0
  9
$UCSORGTOP
 10
0.0
 20
0.0
 30
0.0
  9
$UCSORGBOTTOM
 10
0.0
 20
0.0
 30
0.0
  9
$UCSORGLEFT
 10
0.0
 20
0.0
 30
0.0
  9
$UCSORGRIGHT
 10
0.0
 20
0.0
 30
0.0
  9
$UCSORGFRONT
 10
0.0
 20
0.0
 30
0.0
  9
$UCSORGBACK
 10
0.0
 20
0.0
 30
0.0
  9
$PUCSBASE
  2

  9
$PUCSNAME
  2

  9
$PUCSORG
 10
0.0
 20
0.0
 30
0.0
  9
$PUCSXDIR
 10
1.0
 20
0.0
 30
0.0
  9
$PUCSYDIR
 10
0.0
 20
1.0
 30
0.0
  9
$PUCSORTHOREF
  2

  9
$PUCSORTHOVIEW
 70
     0
  9
$PUCSORGTOP
 10
0.0
 20
0.0
 30
0.0
  9
$PUCSORGBOTTOM
 10
0.0
 20
0.0
 30
0.0
  9
$PUCSORGLEFT
 10
0.0
 20
0.0
 30
0.0
  9
$PUCSORGRIGHT
 10
0.0
 20
0.0
 30
0.0
  9
$PUCSORGFRONT
 10
0.0
 20
0.0
 30
0.0
  9
$PUCSORGBACK
 10
0.0
 20
0.0
 30
0.0
  9
$USERI1
 70
     0
  9
$USERI2
 70
     0
  9
$USERI3
 70
     0
  9
$USERI4
 70
     0
  9
$USERI5
 70
     0
  9
$USERR1
 40
14.5
  9
$USERR2
 40
0.0
  9
$USERR3
 40
0.0
  9
$USERR4
 40
0.0
  9
$USERR5
 40
0.0
  9
$WORLDVIEW
 70
     1
  9
$SHADEDGE
 70
     3
  9
$SHADEDIF
 70
    70
  9
$TILEMODE
 70
     1
  9
$MAXACTVP
 70
    64
  9
$PINSBASE
 10
0.0
 20
0.0
 30
0.0
  9
$PLIMCHECK
 70
     0
  9
$PEXTMIN
 10
1.00000000000000E+20
 20
1.00000000000000E+20
 30
1.00000000000000E+20
  9
$PEXTMAX
 10
-1.00000000000000E+20
 20
-1.00000000000000E+20
 30
-1.00000000000000E+20
  9
$PLIMMIN
 10
0.0
 20
0.0
  9
$PLIMMAX
 10
12.0
 20
9.0
  9
$UNITMODE
 70
     0
  9
$VISRETAIN
 70
     1
  9
$PLINEGEN
 70
     0
  9
$PSLTSCALE
 70
     1
  9
$TREEDEPTH
 70
  3020
  9
$CMLSTYLE
  2
Standard
  9
$CMLJUST
 70
     0
  9
$CMLSCALE
 40
1.0
  9
$PROXYGRAPHICS
 70
     1
  9
$MEASUREMENT
 70
     1
  9
$CELWEIGHT
370
    -1
  9
$ENDCAPS
280
     0
  9
$JOINSTYLE
280
     0
  9
$LWDISPLAY
290
     0
  9
$INSUNITS
 70
     1
  9
$HYPERLINKBASE
  1

  9
$STYLESHEET
  1

  9
$XEDIT
290
     1
  9
$CEPSNTYPE
380
     0
  9
$PSTYLEMODE
290
     1
  9
$FINGERPRINTGUID
  2
{326427E9-8567-40C7-9088-58552D1461A4}
  9
$VERSIONGUID
  2
{FAEB1C32-E019-11D5-929B-00C0DF256EC4}
  9
$EXTNAMES
290
     1
  9
$PSVPSCALE
 40
0.0
  9
$OLESTARTUP
290
     0
  9
$SORTENTS
280
   127
  9
$INDEXCTL
280
     0
  9
$HIDETEXT
280
     1
  9
$XCLIPFRAME
290
     0
  9
$HALOGAP
280
     0
  9
$OBSCOLOR
 70
   257
  9
$OBSLTYPE
280
     0
  9
$INTERSECTIONDISPLAY
280
     0
  9
$INTERSECTIONCOLOR
 70
   257
  9
$DIMASSOC
280
     2
  9
$PROJECTNAME
  1

  0
ENDSEC
  0
SECTION
  2
CLASSES
  0
CLASS
  1
ACDBDICTIONARYWDFLT
  2
AcDbDictionaryWithDefault
  3
ObjectDBX Classes
 90
        0
 91
        3
280
     0
281
     0
  0
CLASS
  1

  2
exOdDbCircle
  3

 90
        0
 91
        3
280
     0
281
     1
  0
CLASS
  1

  2
exOdDbPolyline
  3

 90
        0
 91
        3
280
     0
281
     1
  0
ENDSEC
  0
SECTION
  2
TABLES
  0
TABLE
  2
VPORT
  5
8
330
0
100
AcDbSymbolTable
 70
     1
  0
VPORT
  5
29
330
8
100
AcDbSymbolTableRecord
100
AcDbViewportTableRecord
  2
*Active
 70
     0
 10
0.0
 20
0.0
 11
1.0
 21
1.0
 12
125040.1577224202
 22
290306.6604440826
 13
0.0
 23
0.0
 14
0.5
 24
0.5
 15
0.5
 25
0.5
 16
0.0
 26
0.0
 36
1.0
 17
0.0
 27
0.0
 37
0.0
 40
102.2039206818969
 41
1.60267857142857
 42
50.0
 43
0.0
 44
0.0
 50
0.0
 51
0.0
 71
     0
 72
   100
 73
     1
 74
     3
 75
     0
 76
     0
 77
     0
 78
     0
281
     0
 65
     1
110
0.0
120
0.0
130
0.0
111
1.0
121
0.0
131
0.0
112
0.0
122
1.0
132
0.0
 79
     0
146
0.0
  0
ENDTAB
  0
TABLE
  2
LTYPE
  5
5
330
0
100
AcDbSymbolTable
 70
     8
  0
LTYPE
  5
14
330
5
100
AcDbSymbolTableRecord
100
AcDbLinetypeTableRecord
  2
ByBlock
 70
     0
  3

 72
    65
 73
     0
 40
0.0
  0
LTYPE
  5
15
330
5
100
AcDbSymbolTableRecord
100
AcDbLinetypeTableRecord
  2
ByLayer
 70
     0
  3

 72
    65
 73
     0
 40
0.0
  0
LTYPE
  5
16
330
5
100
AcDbSymbolTableRecord
100
AcDbLinetypeTableRecord
  2
Continuous
 70
     0
  3
Solid line
 72
    65
 73
     0
 40
0.0
  0
LTYPE
  5
2A
330
5
100
AcDbSymbolTableRecord
100
AcDbLinetypeTableRecord
  2
DASHED
 70
     0
  3
Dashed
 72
    65
 73
     2
 40
15.0
 49
7.0
 74
     0
 49
-8.0
 74
     0
  0
LTYPE
  5
2B
330
5
100
AcDbSymbolTableRecord
100
AcDbLinetypeTableRecord
  2
DOTTED
 70
     0
  3
Dotted
 72
    65
 73
     2
 40
1.0
 49
0.0
 74
     0
 49
-1.0
 74
     0
  0
LTYPE
  5
2C
330
5
100
AcDbSymbolTableRecord
100
AcDbLinetypeTableRecord
  2
DOT_CENTER
 70
     0
  3
Dot_Center
 72
    65
 73
     4
 40
14.0
 49
12.0
 74
     0
 49
-1.0
 74
     0
 49
0.0
 74
     0
 49
-1.0
 74
     0
  0
LTYPE
  5
2D
330
5
100
AcDbSymbolTableRecord
100
AcDbLinetypeTableRecord
  2
LONG_DASHED
 70
     0
  3
Long_Dashed
 72
    65
 73
     2
 40
15.0
 49
10.0
 74
     0
 49
-5.0
 74
     0
  0
LTYPE
  5
2E
330
5
100
AcDbSymbolTableRecord
100
AcDbLinetypeTableRecord
  2
DASH_CENTER
 70
     0
  3
Dash_Center
 72
    65
 73
     4
 40
14.0
 49
11.0
 74
     0
 49
-1.0
 74
     0
 49
1.0
 74
     0
 49
-1.0
 74
     0
  0
LTYPE
  5
2F
330
5
100
AcDbSymbolTableRecord
100
AcDbLinetypeTableRecord
  2
PHANTOM
 70
     0
  3
Phantom
 72
    65
 73
     6
 40
13.0
 49
10.0
 74
     0
 49
-1.0
 74
     0
 49
0.0
 74
     0
 49
-1.0
 74
     0
 49
0.0
 74
     0
 49
-1.0
 74
     0
  0
LTYPE
  5
30
330
5
100
AcDbSymbolTableRecord
100
AcDbLinetypeTableRecord
  2
CENTER_DASH_DASH
 70
     0
  3
Center_Dash_Dash
 72
    65
 73
     6
 40
14.0
 49
9.0
 74
     0
 49
-1.0
 74
     0
 49
1.0
 74
     0
 49
-1.0
 74
     0
 49
1.0
 74
     0
 49
-1.0
 74
     0
  0
ENDTAB
  0
TABLE
  2
LAYER
  5
2
330
0
100
AcDbSymbolTable
 70
     6
  0
LAYER
  5
10
330
2
100
AcDbSymbolTableRecord
100
AcDbLayerTableRecord
  2
0
 70
     0
 62
     7
  6
Continuous
370
    -3
390
F
  0
LAYER
  5
31
330
2
100
AcDbSymbolTableRecord
100
AcDbLayerTableRecord
  2
1
 70
     0
 62
     7
  6
Continuous
370
    -3
390
F
  0
LAYER
  5
32
330
2
100
AcDbSymbolTableRecord
100
AcDbLayerTableRecord
  2
A_ACHSEN
 70
     0
 62
     7
  6
Continuous
370
    -3
390
F
  0
LAYER
  5
33
330
2
100
AcDbSymbolTableRecord
100
AcDbLayerTableRecord
  2
A_BEMASSUNGEN
 70
     0
 62
     7
  6
Continuous
370
    -3
390
F
  0
LAYER
  5
34
330
2
100
AcDbSymbolTableRecord
100
AcDbLayerTableRecord
  2
A_RUNDUNGEN
 70
     0
 62
     7
  6
Continuous
370
    -3
390
F
  0
LAYER
  5
35
330
2
100
AcDbSymbolTableRecord
100
AcDbLayerTableRecord
  2
DEFAULT_2
 70
     0
 62
     7
  6
Continuous
370
    -3
390
F
  0
ENDTAB
  0
TABLE
  2
STYLE
  5
3
330
0
100
AcDbSymbolTable
 70
     2
  0
STYLE
  5
11
330
3
100
AcDbSymbolTableRecord
100
AcDbTextStyleTableRecord
  2
Standard
 70
     0
 40
0.0
 41
1.0
 50
0.0
 71
     0
 42
0.2
  3
txt
  4

  0
STYLE
  5
E1
330
3
100
AcDbSymbolTableRecord
100
AcDbTextStyleTableRecord
  2
CONVERTER_11
 70
     0
 40
0.0
 41
0.9
 50
0.0
 71
     0
 42
0.2
  3
txt.shx
  4

  0
ENDTAB
  0
TABLE
  2
VIEW
  5
6
330
0
100
AcDbSymbolTable
 70
     0
  0
ENDTAB
  0
TABLE
  2
UCS
  5
7
330
0
100
AcDbSymbolTable
 70
     0
  0
ENDTAB
  0
TABLE
  2
APPID
  5
9
330
0
100
AcDbSymbolTable
 70
     1
  0
APPID
  5
12
330
9
100
AcDbSymbolTableRecord
100
AcDbRegAppTableRecord
  2
ACAD
 70
     0
  0
ENDTAB
  0
TABLE
  2
DIMSTYLE
  5
A
330
0
100
AcDbSymbolTable
 70
    13
100
AcDbDimStyleTable
  0
DIMSTYLE
105
27
330
A
100
AcDbSymbolTableRecord
100
AcDbDimStyleTableRecord
  2
Standard
 70
     0
340
11
  0
DIMSTYLE
105
E5
102
{ACAD_REACTORS
330
E6
102
}
330
A
100
AcDbSymbolTableRecord
100
AcDbDimStyleTableRecord
  2
ME10_DIM_10
 70
     0
 41
3.5
 42
0.0
 44
2.0
 73
     0
 74
     0
 77
     1
 78
     8
140
3.5
147
2.0
172
     1
173
     1
176
     2
177
     2
178
     2
271
     3
340
E1
  0
DIMSTYLE
105
F2
102
{ACAD_REACTORS
330
F3
102
}
330
A
100
AcDbSymbolTableRecord
100
AcDbDimStyleTableRecord
  2
ME10_DIM_11
 70
     0
 41
3.5
 42
0.0
 44
2.0
 73
     0
 74
     0
 77
     1
 78
     8
140
3.5
147
2.0
172
     1
173
     1
176
     2
177
     2
178
     2
271
     3
340
E1
  0
DIMSTYLE
105
FD
102
{ACAD_REACTORS
330
FE
102
}
330
A
100
AcDbSymbolTableRecord
100
AcDbDimStyleTableRecord
  2
ME10_DIM_12
 70
     0
 41
3.5
 42
0.0
 44
2.0
 73
     0
 74
     0
 77
     1
 78
     8
140
3.5
147
2.0
172
     1
173
     1
176
     2
177
     2
178
     2
271
     3
340
E1
  0
DIMSTYLE
105
108
102
{ACAD_REACTORS
330
109
102
}
330
A
100
AcDbSymbolTableRecord
100
AcDbDimStyleTableRecord
  2
ME10_DIM_13
 70
     0
 41
3.5
 42
0.0
 44
2.0
 73
     0
 74
     0
 77
     1
 78
     8
140
3.5
147
2.0
172
     1
173
     1
176
     2
177
     2
178
     2
271
     3
340
E1
  0
DIMSTYLE
105
115
102
{ACAD_REACTORS
330
116
102
}
330
A
100
AcDbSymbolTableRecord
100
AcDbDimStyleTableRecord
  2
ME10_DIM_14
 70
     0
 41
3.5
 42
0.0
 44
2.0
 73
     0
 74
     0
 77
     1
 78
     8
140
3.5
147
2.0
172
     1
173
     1
176
     2
177
     2
178
     2
271
     3
340
E1
  0
DIMSTYLE
105
120
102
{ACAD_REACTORS
330
121
102
}
330
A
100
AcDbSymbolTableRecord
100
AcDbDimStyleTableRecord
  2
ME10_DIM_15
 70
     0
 41
3.5
 42
0.0
 44
2.0
 73
     0
 74
     0
 77
     1
 78
     8
140
3.5
147
2.0
172
     1
173
     1
176
     2
177
     2
178
     2
271
     3
340
E1
  0
DIMSTYLE
105
12B
102
{ACAD_REACTORS
330
12C
102
}
330
A
100
AcDbSymbolTableRecord
100
AcDbDimStyleTableRecord
  2
ME10_DIM_16
 70
     0
 41
3.5
 42
0.0
 44
2.0
 73
     0
 74
     0
 77
     1
 78
     8
140
3.5
147
2.0
172
     1
173
     1
176
     2
177
     2
178
     2
271
     3
340
E1
  0
DIMSTYLE
105
136
102
{ACAD_REACTORS
330
137
102
}
330
A
100
AcDbSymbolTableRecord
100
AcDbDimStyleTableRecord
  2
ME10_DIM_17
 70
     0
 41
3.5
 42
0.0
 44
2.0
 73
     0
 74
     0
 77
     1
 78
     8
140
3.5
147
2.0
172
     1
173
     1
176
     2
177
     2
178
     2
271
     3
340
E1
  0
DIMSTYLE
105
141
102
{ACAD_REACTORS
330
142
102
}
330
A
100
AcDbSymbolTableRecord
100
AcDbDimStyleTableRecord
  2
ME10_DIM_18
 70
     0
 41
3.5
 42
0.0
 44
2.0
 73
     0
 74
     0
 77
     1
 78
     8
140
3.5
147
2.0
172
     1
173
     1
176
     2
177
     2
178
     2
271
     3
340
E1
  0
DIMSTYLE
105
14C
102
{ACAD_REACTORS
330
14D
102
}
330
A
100
AcDbSymbolTableRecord
100
AcDbDimStyleTableRecord
  2
ME10_DIM_19
 70
     0
 41
3.5
 42
0.0
 44
2.0
 73
     0
 74
     0
 77
     1
 78
     8
140
3.5
147
2.0
172
     1
173
     1
176
     2
177
     2
178
     2
271
     3
340
E1
  0
DIMSTYLE
105
157
102
{ACAD_REACTORS
330
158
102
}
330
A
100
AcDbSymbolTableRecord
100
AcDbDimStyleTableRecord
  2
ME10_DIM_20
 70
     0
 41
3.5
 42
0.0
 44
2.0
 73
     0
 74
     0
 77
     1
 78
     8
140
3.5
147
2.0
172
     1
173
     1
176
     2
177
     2
178
     2
271
     3
340
E1
  0
DIMSTYLE
105
164
102
{ACAD_REACTORS
330
165
102
}
330
A
100
AcDbSymbolTableRecord
100
AcDbDimStyleTableRecord
  2
ME10_DIM_21
 70
     0
 41
3.5
 42
0.0
 44
2.0
 73
     0
 74
     0
 77
     1
 78
     8
140
3.5
147
2.0
172
     1
173
     1
176
     2
177
     2
178
     2
271
     3
340
E1
  0
ENDTAB
  0
TABLE
  2
BLOCK_RECORD
  5
1
330
0
100
AcDbSymbolTable
 70
    13
  0
BLOCK_RECORD
  5
1F
330
1
100
AcDbSymbolTableRecord
100
AcDbBlockTableRecord
  2
*Model_Space
340
22
  0
BLOCK_RECORD
  5
1B
330
1
100
AcDbSymbolTableRecord
100
AcDbBlockTableRecord
  2
*Paper_Space
340
1E
  0
BLOCK_RECORD
  5
23
330
1
100
AcDbSymbolTableRecord
100
AcDbBlockTableRecord
  2
*Paper_Space0
340
26
  0
BLOCK_RECORD
  5
DB
330
1
100
AcDbSymbolTableRecord
100
AcDbBlockTableRecord
  2
*D1
340
0
  0
BLOCK_RECORD
  5
E7
330
1
100
AcDbSymbolTableRecord
100
AcDbBlockTableRecord
  2
*D2
340
0
  0
BLOCK_RECORD
  5
F4
330
1
100
AcDbSymbolTableRecord
100
AcDbBlockTableRecord
  2
*D3
340
0
  0
BLOCK_RECORD
  5
FF
330
1
100
AcDbSymbolTableRecord
100
AcDbBlockTableRecord
  2
*D4
340
0
  0
BLOCK_RECORD
  5
10A
330
1
100
AcDbSymbolTableRecord
100
AcDbBlockTableRecord
  2
*D5
340
0
  0
BLOCK_RECORD
  5
117
330
1
100
AcDbSymbolTableRecord
100
AcDbBlockTableRecord
  2
*D6
340
0
  0
BLOCK_RECORD
  5
122
330
1
100
AcDbSymbolTableRecord
100
AcDbBlockTableRecord
  2
*D7
340
0
  0
BLOCK_RECORD
  5
12D
330
1
100
AcDbSymbolTableRecord
100
AcDbBlockTableRecord
  2
*D8
340
0
  0
BLOCK_RECORD
  5
138
330
1
100
AcDbSymbolTableRecord
100
AcDbBlockTableRecord
  2
*D9
340
0
  0
BLOCK_RECORD
  5
143
330
1
100
AcDbSymbolTableRecord
100
AcDbBlockTableRecord
  2
*D10
340
0
  0
BLOCK_RECORD
  5
14E
330
1
100
AcDbSymbolTableRecord
100
AcDbBlockTableRecord
  2
*D11
340
0
  0
BLOCK_RECORD
  5
159
330
1
100
AcDbSymbolTableRecord
100
AcDbBlockTableRecord
  2
*D12
340
0
  0
ENDTAB
  0
ENDSEC
  0
SECTION
  2
BLOCKS
  0
BLOCK
  5
20
330
1F
100
AcDbEntity
  8
0
100
AcDbBlockBegin
  2
*Model_Space
 70
     0
 71
     0
 10
0.0
 20
0.0
 30
0.0
  3
*Model_Space
  1

  0
ENDBLK
  5
21
330
1F
100
AcDbEntity
  8
0
100
AcDbBlockEnd
  0
BLOCK
  5
1C
330
1B
100
AcDbEntity
 67
     1
  8
0
100
AcDbBlockBegin
  2
*Paper_Space
 70
     0
 71
     0
 10
0.0
 20
0.0
 30
0.0
  3
*Paper_Space
  1

  0
ENDBLK
  5
1D
330
1B
100
AcDbEntity
 67
     1
  8
0
100
AcDbBlockEnd
  0
BLOCK
  5
24
330
23
100
AcDbEntity
  8
0
100
AcDbBlockBegin
  2
*Paper_Space0
 70
     0
 71
     0
 10
0.0
 20
0.0
 30
0.0
  3
*Paper_Space0
  1

  0
ENDBLK
  5
25
330
23
100
AcDbEntity
  8
0
100
AcDbBlockEnd
  0
BLOCK
  5
E3
330
DB
100
AcDbEntity
  8
0
100
AcDbBlockBegin
  2
*D1
 70
     1
 71
     0
 10
0.0
 20
0.0
 30
0.0
  3
*D1
  1

  0
LINE
  5
DC
330
DB
100
AcDbEntity
  8
1
  6
Continuous
 62
     2
100
AcDbLine
 10
125044.8154951143
 20
290272.2041164999
 30
0.0
 11
125032.8154951143
 21
290272.2041164999
 31
0.0
  0
LINE
  5
DD
330
DB
100
AcDbEntity
  8
1
  6
Continuous
 62
     2
100
AcDbLine
 10
125044.8154951143
 20
290293.8363453164
 30
0.0
 11
125044.8154951143
 21
290270.2041164999
 31
0.0
  0
LINE
  5
DE
330
DB
100
AcDbEntity
  8
1
  6
Continuous
 62
     2
100
AcDbLine
 10
125032.8154951143
 20
290294.4434487088
 30
0.0
 11
125032.8154951143
 21
290270.2041164999
 31
0.0
  0
SOLID
  5
DF
330
DB
100
AcDbEntity
  8
1
 62
     2
100
AcDbTrace
 10
125041.3154951143
 20
290271.7433327584
 30
0.0
 11
125041.3154951143
 21
290272.6649002415
 31
0.0
 12
125044.8154951143
 22
290272.2041164999
 32
0.0
 13
125044.8154951143
 23
290272.2041164999
 33
0.0
  0
SOLID
  5
E0
330
DB
100
AcDbEntity
  8
1
 62
     2
100
AcDbTrace
 10
125036.3154951143
 20
290272.6649002415
 30
0.0
 11
125036.3154951143
 21
290271.7433327584
 31
0.0
 12
125032.8154951143
 22
290272.2041164999
 32
0.0
 13
125032.8154951143
 23
290272.2041164999
 33
0.0
  0
MTEXT
  5
E2
330
DB
100
AcDbEntity
  8
1
 62
     2
100
AcDbMText
 10
125036.430243418
 20
290274.2041164999
 30
0.0
 40
3.5
 41
0.0
 71
     7
 72
     1
  1
12
  7
CONVERTER_11
 11
0.9999999999970621
 21
2.424068405545307E-6
 31
0.0
 73
     1
 44
0.60024009603842
  0
ENDBLK
  5
E4
330
DB
100
AcDbEntity
  8
0
100
AcDbBlockEnd
  0
BLOCK
  5
F0
330
E7
100
AcDbEntity
  8
0
100
AcDbBlockBegin
  2
*D2
 70
     1
 71
     0
 10
0.0
 20
0.0
 30
0.0
  3
*D2
  1

  0
LINE
  5
E8
330
E7
100
AcDbEntity
  8
1
  6
Continuous
 62
     2
100
AcDbLine
 10
124984.0
 20
290285.6994483221
 30
0.0
 11
124984.0
 21
290292.6994483221
 31
0.0
  0
LINE
  5
E9
330
E7
100
AcDbEntity
  8
1
  6
Continuous
 62
     2
100
AcDbLine
 10
124984.0
 20
290292.6994483221
 30
0.0
 11
124984.0
 21
290293.1998570389
 31
0.0
  0
LINE
  5
EA
330
E7
100
AcDbEntity
  8
1
  6
Continuous
 62
     2
100
AcDbLine
 10
124984.0
 20
290293.1998570389
 30
0.0
 11
124984.0
 21
290303.2528297794
 31
0.0
  0
LINE
  5
EB
330
E7
100
AcDbEntity
  8
1
  6
Continuous
 62
     2
100
AcDbLine
 10
125045.3260971144
 20
290292.6994483221
 30
0.0
 11
124982.0
 21
290292.6994483221
 31
0.0
  0
LINE
  5
EC
330
E7
100
AcDbEntity
  8
1
  6
Continuous
 62
     2
100
AcDbLine
 10
125042.8328979115
 20
290293.1998570389
 30
0.0
 11
124982.0
 21
290293.1998570389
 31
0.0
  0
SOLID
  5
ED
330
E7
100
AcDbEntity
  8
1
 62
     2
100
AcDbTrace
 10
124984.4607837416
 20
290289.1994483221
 30
0.0
 11
124983.5392162584
 21
290289.1994483221
 31
0.0
 12
124984.0
 22
290292.6994483221
 32
0.0
 13
124984.0
 23
290292.6994483221
 33
0.0
  0
SOLID
  5
EE
330
E7
100
AcDbEntity
  8
1
 62
     2
100
AcDbTrace
 10
124983.5392162584
 20
290296.6998570389
 30
0.0
 11
124984.4607837416
 21
290296.6998570389
 31
0.0
 12
124984.0
 22
290293.1998570389
 32
0.0
 13
124984.0
 23
290293.1998570389
 33
0.0
  0
MTEXT
  5
EF
330
E7
100
AcDbEntity
  8
1
 62
     2
100
AcDbMText
 10
124982.0
 20
290296.8653297795
 30
0.0
 40
3.5
 41
0.0
 71
     7
 72
     1
  1
0.5
  7
CONVERTER_11
 11
0.0
 21
1.0
 31
0.0
 73
     1
 44
0.60024009603842
  0
ENDBLK
  5
F1
330
E7
100
AcDbEntity
  8
0
100
AcDbBlockEnd
  0
BLOCK
  5
FB
330
F4
100
AcDbEntity
  8
0
100
AcDbBlockBegin
  2
*D3
 70
     1
 71
     0
 10
0.0
 20
0.0
 30
0.0
  3
*D3
  1

  0
LINE
  5
F5
330
F4
100
AcDbEntity
  8
1
  6
Continuous
 62
     2
100
AcDbLine
 10
125024.8154448404
 20
290347.6167716653
 30
0.0
 11
125036.8154448405
 21
290347.6167716653
 31
0.0
  0
LINE
  5
F6
330
F4
100
AcDbEntity
  8
1
  6
Continuous
 62
     2
100
AcDbLine
 10
125024.8154448404
 20
290300.2132172418
 30
0.0
 11
125024.8154448404
 21
290349.6167716653
 31
0.0
  0
LINE
  5
F7
330
F4
100
AcDbEntity
  8
1
  6
Continuous
 62
     2
100
AcDbLine
 10
125036.8154448405
 20
290337.6167716652
 30
0.0
 11
125036.8154448405
 21
290349.6167716653
 31
0.0
  0
SOLID
  5
F8
330
F4
100
AcDbEntity
  8
1
 62
     2
100
AcDbTrace
 10
125028.3154448404
 20
290348.0775554068
 30
0.0
 11
125028.3154448404
 21
290347.1559879237
 31
0.0
 12
125024.8154448404
 22
290347.6167716653
 32
0.0
 13
125024.8154448404
 23
290347.6167716653
 33
0.0
  0
SOLID
  5
F9
330
F4
100
AcDbEntity
  8
1
 62
     2
100
AcDbTrace
 10
125033.3154448405
 20
290347.1559879237
 30
0.0
 11
125033.3154448405
 21
290348.0775554068
 31
0.0
 12
125036.8154448405
 22
290347.6167716653
 32
0.0
 13
125036.8154448405
 23
290347.6167716653
 33
0.0
  0
MTEXT
  5
FA
330
F4
100
AcDbEntity
  8
1
 62
     2
100
AcDbMText
 10
125028.326563384
 20
290349.6167716653
 30
0.0
 40
3.5
 41
0.0
 71
     7
 72
     1
  1
12
  7
CONVERTER_11
 11
0.9999999999970621
 21
2.424068405545307E-6
 31
0.0
 73
     1
 44
0.60024009603842
  0
ENDBLK
  5
FC
330
F4
100
AcDbEntity
  8
0
100
AcDbBlockEnd
  0
BLOCK
  5
106
330
FF
100
AcDbEntity
  8
0
100
AcDbBlockBegin
  2
*D4
 70
     1
 71
     0
 10
0.0
 20
0.0
 30
0.0
  3
*D4
  1

  0
LINE
  5
100
330
FF
100
AcDbEntity
  8
1
  6
Continuous
 62
     2
100
AcDbLine
 10
124974.0
 20
290289.1994483221
 30
0.0
 11
124974.0
 21
290320.1994483221
 31
0.0
  0
LINE
  5
101
330
FF
100
AcDbEntity
  8
1
  6
Continuous
 62
     2
100
AcDbLine
 10
125024.8154448404
 20
290320.1994483221
 30
0.0
 11
124972.0
 21
290320.1994483221
 31
0.0
  0
LINE
  5
102
330
FF
100
AcDbEntity
  8
1
  6
Continuous
 62
     2
100
AcDbLine
 10
125022.3264951143
 20
290289.1994483221
 30
0.0
 11
124972.0
 21
290289.1994483221
 31
0.0
  0
SOLID
  5
103
330
FF
100
AcDbEntity
  8
1
 62
     2
100
AcDbTrace
 10
124973.5392162584
 20
290292.6994483221
 30
0.0
 11
124974.4607837416
 21
290292.6994483221
 31
0.0
 12
124974.0
 22
290289.1994483221
 32
0.0
 13
124974.0
 23
290289.1994483221
 33
0.0
  0
SOLID
  5
104
330
FF
100
AcDbEntity
  8
1
 62
     2
100
AcDbTrace
 10
124974.4607837416
 20
290316.6994483221
 30
0.0
 11
124973.5392162584
 21
290316.6994483221
 31
0.0
 12
124974.0
 22
290320.1994483221
 32
0.0
 13
124974.0
 23
290320.1994483221
 33
0.0
  0
MTEXT
  5
105
330
FF
100
AcDbEntity
  8
1
 62
     2
100
AcDbMText
 10
124972.0
 20
290301.388006656
 30
0.0
 40
3.5
 41
0.0
 71
     7
 72
     1
  1
31
  7
CONVERTER_11
 11
0.0
 21
1.0
 31
0.0
 73
     1
 44
0.60024009603842
  0
ENDBLK
  5
107
330
FF
100
AcDbEntity
  8
0
100
AcDbBlockEnd
  0
BLOCK
  5
113
330
10A
100
AcDbEntity
  8
0
100
AcDbBlockBegin
  2
*D5
 70
     1
 71
     0
 10
0.0
 20
0.0
 30
0.0
  3
*D5
  1

  0
LINE
  5
10B
330
10A
100
AcDbEntity
  8
1
  6
Continuous
 62
     2
100
AcDbLine
 10
125018.3154448405
 20
290262.2041164999
 30
0.0
 11
125009.386064722
 21
290262.2041164999
 31
0.0
  0
LINE
  5
10C
330
10A
100
AcDbEntity
  8
1
  6
Continuous
 62
     2
100
AcDbLine
 10
125024.8154448404
 20
290262.2041164999
 30
0.0
 11
125018.3154448405
 21
290262.2041164999
 31
0.0
  0
LINE
  5
10D
330
10A
100
AcDbEntity
  8
1
  6
Continuous
 62
     2
100
AcDbLine
 10
125031.8154448404
 20
290262.2041164999
 30
0.0
 11
125024.8154448404
 21
290262.2041164999
 31
0.0
  0
LINE
  5
10E
330
10A
100
AcDbEntity
  8
1
  6
Continuous
 62
     2
100
AcDbLine
 10
125018.3154448405
 20
290289.2041163218
 30
0.0
 11
125018.3154448405
 21
290260.2041164999
 31
0.0
  0
LINE
  5
10F
330
10A
100
AcDbEntity
  8
1
  6
Continuous
 62
     2
100
AcDbLine
 10
125024.8154448404
 20
290300.2132172418
 30
0.0
 11
125024.8154448404
 21
290260.2041164999
 31
0.0
  0
SOLID
  5
110
330
10A
100
AcDbEntity
  8
1
 62
     2
100
AcDbTrace
 10
125028.3154448404
 20
290262.6649002415
 30
0.0
 11
125028.3154448404
 21
290261.7433327584
 31
0.0
 12
125024.8154448404
 22
290262.2041164999
 32
0.0
 13
125024.8154448404
 23
290262.2041164999
 33
0.0
  0
SOLID
  5
111
330
10A
100
AcDbEntity
  8
1
 62
     2
100
AcDbTrace
 10
125014.8154448405
 20
290261.7433327584
 30
0.0
 11
125014.8154448405
 21
290262.6649002415
 31
0.0
 12
125018.3154448405
 22
290262.2041164999
 32
0.0
 13
125018.3154448405
 23
290262.2041164999
 33
0.0
  0
MTEXT
  5
112
330
10A
100
AcDbEntity
  8
1
 62
     2
100
AcDbMText
 10
125009.386064722
 20
290264.2041164999
 30
0.0
 40
3.5
 41
0.0
 71
     7
 72
     1
  1
6.5
  7
CONVERTER_11
 11
0.9999999999970621
 21
2.424068405545307E-6
 31
0.0
 73
     1
 44
0.60024009603842
  0
ENDBLK
  5
114
330
10A
100
AcDbEntity
  8
0
100
AcDbBlockEnd
  0
BLOCK
  5
11E
330
117
100
AcDbEntity
  8
0
100
AcDbBlockBegin
  2
*D6
 70
     1
 71
     0
 10
0.0
 20
0.0
 30
0.0
  3
*D6
  1

  0
LINE
  5
118
330
117
100
AcDbEntity
  8
1
  6
Continuous
 62
     2
100
AcDbLine
 10
125046.8154951143
 20
290347.6167716652
 30
0.0
 11
125066.8154951143
 21
290347.6167716652
 31
0.0
  0
LINE
  5
119
330
117
100
AcDbEntity
  8
1
  6
Continuous
 62
     2
100
AcDbLine
 10
125046.8154951143
 20
290332.1994483221
 30
0.0
 11
125046.8154951143
 21
290349.6167716652
 31
0.0
  0
LINE
  5
11A
330
117
100
AcDbEntity
  8
1
  6
Continuous
 62
     2
100
AcDbLine
 10
125066.8154951143
 20
290334.1994483221
 30
0.0
 11
125066.8154951143
 21
290349.6167716652
 31
0.0
  0
SOLID
  5
11B
330
117
100
AcDbEntity
  8
1
 62
     2
100
AcDbTrace
 10
125050.3154951143
 20
290348.0775554068
 30
0.0
 11
125050.3154951143
 21
290347.1559879237
 31
0.0
 12
125046.8154951143
 22
290347.6167716652
 32
0.0
 13
125046.8154951143
 23
290347.6167716652
 33
0.0
  0
SOLID
  5
11C
330
117
100
AcDbEntity
  8
1
 62
     2
100
AcDbTrace
 10
125063.3154951143
 20
290347.1559879237
 30
0.0
 11
125063.3154951143
 21
290348.0775554068
 31
0.0
 12
125066.8154951143
 22
290347.6167716652
 32
0.0
 13
125066.8154951143
 23
290347.6167716652
 33
0.0
  0
MTEXT
  5
11D
330
117
100
AcDbEntity
  8
1
 62
     2
100
AcDbMText
 10
125054.460197991
 20
290349.6167716652
 30
0.0
 40
3.5
 41
0.0
 71
     7
 72
     1
  1
20
  7
CONVERTER_11
 11
0.9999999999970621
 21
2.424068405545307E-6
 31
0.0
 73
     1
 44
0.60024009603842
  0
ENDBLK
  5
11F
330
117
100
AcDbEntity
  8
0
100
AcDbBlockEnd
  0
BLOCK
  5
129
330
122
100
AcDbEntity
  8
0
100
AcDbBlockBegin
  2
*D7
 70
     1
 71
     0
 10
0.0
 20
0.0
 30
0.0
  3
*D7
  1

  0
LINE
  5
123
330
122
100
AcDbEntity
  8
1
  6
Continuous
 62
     2
100
AcDbLine
 10
125036.8154448405
 20
290347.6167716653
 30
0.0
 11
125046.8154951143
 21
290347.6167716653
 31
0.0
  0
LINE
  5
124
330
122
100
AcDbEntity
  8
1
  6
Continuous
 62
     2
100
AcDbLine
 10
125036.8154448405
 20
290337.6167716652
 30
0.0
 11
125036.8154448405
 21
290349.6167716653
 31
0.0
  0
LINE
  5
125
330
122
100
AcDbEntity
  8
1
  6
Continuous
 62
     2
100
AcDbLine
 10
125046.8154951143
 20
290332.1994483221
 30
0.0
 11
125046.8154951143
 21
290349.6167716653
 31
0.0
  0
SOLID
  5
126
330
122
100
AcDbEntity
  8
1
 62
     2
100
AcDbTrace
 10
125040.3154448405
 20
290348.0775554068
 30
0.0
 11
125040.3154448405
 21
290347.1559879237
 31
0.0
 12
125036.8154448405
 22
290347.6167716653
 32
0.0
 13
125036.8154448405
 23
290347.6167716653
 33
0.0
  0
SOLID
  5
127
330
122
100
AcDbEntity
  8
1
 62
     2
100
AcDbTrace
 10
125043.3154951143
 20
290347.1559879237
 30
0.0
 11
125043.3154951143
 21
290348.0775554068
 31
0.0
 12
125046.8154951143
 22
290347.6167716653
 32
0.0
 13
125046.8154951143
 23
290347.6167716653
 33
0.0
  0
MTEXT
  5
128
330
122
100
AcDbEntity
  8
1
 62
     2
100
AcDbMText
 10
125039.0012853395
 20
290349.6167716653
 30
0.0
 40
3.5
 41
0.0
 71
     7
 72
     1
  1
10
  7
CONVERTER_11
 11
0.9999999999970621
 21
2.424068405545307E-6
 31
0.0
 73
     1
 44
0.60024009603842
  0
ENDBLK
  5
12A
330
122
100
AcDbEntity
  8
0
100
AcDbBlockEnd
  0
BLOCK
  5
134
330
12D
100
AcDbEntity
  8
0
100
AcDbBlockBegin
  2
*D8
 70
     1
 71
     0
 10
0.0
 20
0.0
 30
0.0
  3
*D8
  1

  0
LINE
  5
12E
330
12D
100
AcDbEntity
  8
1
  6
Continuous
 62
     2
100
AcDbLine
 10
125109.8154448405
 20
290299.199448322
 30
0.0
 11
125109.8154448405
 21
290334.1994483221
 31
0.0
  0
LINE
  5
12F
330
12D
100
AcDbEntity
  8
1
  6
Continuous
 62
     2
100
AcDbLine
 10
125066.8154951143
 20
290334.1994483221
 30
0.0
 11
125111.8154448405
 21
290334.1994483221
 31
0.0
  0
LINE
  5
130
330
12D
100
AcDbEntity
  8
1
  6
Continuous
 62
     2
100
AcDbLine
 10
125077.8154448405
 20
290299.199448322
 30
0.0
 11
125111.8154448405
 21
290299.199448322
 31
0.0
  0
SOLID
  5
131
330
12D
100
AcDbEntity
  8
1
 62
     2
100
AcDbTrace
 10
125109.3546610989
 20
290302.699448322
 30
0.0
 11
125110.276228582
 21
290302.699448322
 31
0.0
 12
125109.8154448405
 22
290299.199448322
 32
0.0
 13
125109.8154448405
 23
290299.199448322
 33
0.0
  0
SOLID
  5
132
330
12D
100
AcDbEntity
  8
1
 62
     2
100
AcDbTrace
 10
125110.276228582
 20
290330.6994483221
 30
0.0
 11
125109.3546610989
 21
290330.6994483221
 31
0.0
 12
125109.8154448405
 22
290334.1994483221
 32
0.0
 13
125109.8154448405
 23
290334.1994483221
 33
0.0
  0
MTEXT
  5
133
330
12D
100
AcDbEntity
  8
1
 62
     2
100
AcDbMText
 10
125107.8154448405
 20
290314.2659139042
 30
0.0
 40
3.5
 41
0.0
 71
     7
 72
     1
  1
35
  7
CONVERTER_11
 11
0.0
 21
1.0
 31
0.0
 73
     1
 44
0.60024009603842
  0
ENDBLK
  5
135
330
12D
100
AcDbEntity
  8
0
100
AcDbBlockEnd
  0
BLOCK
  5
13F
330
138
100
AcDbEntity
  8
0
100
AcDbBlockBegin
  2
*D9
 70
     1
 71
     0
 10
0.0
 20
0.0
 30
0.0
  3
*D9
  1

  0
LINE
  5
139
330
138
100
AcDbEntity
  8
1
  6
Continuous
 62
     2
100
AcDbLine
 10
125099.8154448405
 20
290315.1991145002
 30
0.0
 11
125099.8154448405
 21
290299.199448322
 31
0.0
  0
LINE
  5
13A
330
138
100
AcDbEntity
  8
1
  6
Continuous
 62
     2
100
AcDbLine
 10
125077.8154448405
 20
290299.199448322
 30
0.0
 11
125101.8154448405
 21
290299.199448322
 31
0.0
  0
LINE
  5
13B
330
138
100
AcDbEntity
  8
1
  6
Continuous
 62
     2
100
AcDbLine
 10
125063.4264951143
 20
290315.1991145002
 30
0.0
 11
125101.8154448405
 21
290315.1991145002
 31
0.0
  0
SOLID
  5
13C
330
138
100
AcDbEntity
  8
1
 62
     2
100
AcDbTrace
 10
125100.276228582
 20
290311.6991145002
 30
0.0
 11
125099.3546610989
 21
290311.6991145002
 31
0.0
 12
125099.8154448405
 22
290315.1991145002
 32
0.0
 13
125099.8154448405
 23
290315.1991145002
 33
0.0
  0
SOLID
  5
13D
330
138
100
AcDbEntity
  8
1
 62
     2
100
AcDbTrace
 10
125099.3546610989
 20
290302.699448322
 30
0.0
 11
125100.276228582
 21
290302.699448322
 31
0.0
 12
125099.8154448405
 22
290299.199448322
 32
0.0
 13
125099.8154448405
 23
290299.199448322
 33
0.0
  0
MTEXT
  5
13E
330
138
100
AcDbEntity
  8
1
 62
     2
100
AcDbMText
 10
125097.8154448405
 20
290305.0621888037
 30
0.0
 40
3.5
 41
0.0
 71
     7
 72
     1
  1
16
  7
CONVERTER_11
 11
0.0
 21
1.0
 31
0.0
 73
     1
 44
0.60024009603842
  0
ENDBLK
  5
140
330
138
100
AcDbEntity
  8
0
100
AcDbBlockEnd
  0
BLOCK
  5
14A
330
143
100
AcDbEntity
  8
0
100
AcDbBlockBegin
  2
*D10
 70
     1
 71
     0
 10
0.0
 20
0.0
 30
0.0
  3
*D10
  1

  0
LINE
  5
144
330
143
100
AcDbEntity
  8
1
  6
Continuous
 62
     2
100
AcDbLine
 10
125099.8154448405
 20
290284.1994483221
 30
0.0
 11
125099.8154448405
 21
290299.199448322
 31
0.0
  0
LINE
  5
145
330
143
100
AcDbEntity
  8
1
  6
Continuous
 62
     2
100
AcDbLine
 10
125077.8154448405
 20
290299.199448322
 30
0.0
 11
125101.8154448405
 21
290299.199448322
 31
0.0
  0
LINE
  5
146
330
143
100
AcDbEntity
  8
1
  6
Continuous
 62
     2
100
AcDbLine
 10
125069.2329951144
 20
290284.1994483221
 30
0.0
 11
125101.8154448405
 21
290284.1994483221
 31
0.0
  0
SOLID
  5
147
330
143
100
AcDbEntity
  8
1
 62
     2
100
AcDbTrace
 10
125099.3546610989
 20
290287.6994483221
 30
0.0
 11
125100.276228582
 21
290287.6994483221
 31
0.0
 12
125099.8154448405
 22
290284.1994483221
 32
0.0
 13
125099.8154448405
 23
290284.1994483221
 33
0.0
  0
SOLID
  5
148
330
143
100
AcDbEntity
  8
1
 62
     2
100
AcDbTrace
 10
125100.276228582
 20
290295.699448322
 30
0.0
 11
125099.3546610989
 21
290295.699448322
 31
0.0
 12
125099.8154448405
 22
290299.199448322
 32
0.0
 13
125099.8154448405
 23
290299.199448322
 33
0.0
  0
MTEXT
  5
149
330
143
100
AcDbEntity
  8
1
 62
     2
100
AcDbMText
 10
125097.8154448405
 20
290289.4976670282
 30
0.0
 40
3.5
 41
0.0
 71
     7
 72
     1
  1
15
  7
CONVERTER_11
 11
0.0
 21
1.0
 31
0.0
 73
     1
 44
0.60024009603842
  0
ENDBLK
  5
14B
330
143
100
AcDbEntity
  8
0
100
AcDbBlockEnd
  0
BLOCK
  5
155
330
14E
100
AcDbEntity
  8
0
100
AcDbBlockBegin
  2
*D11
 70
     1
 71
     0
 10
0.0
 20
0.0
 30
0.0
  3
*D11
  1

  0
LINE
  5
14F
330
14E
100
AcDbEntity
  8
1
  6
Continuous
 62
     2
100
AcDbLine
 10
125044.8154448405
 20
290262.2041164999
 30
0.0
 11
125024.8154448404
 21
290262.2041164999
 31
0.0
  0
LINE
  5
150
330
14E
100
AcDbEntity
  8
1
  6
Continuous
 62
     2
100
AcDbLine
 10
125024.8154448404
 20
290300.2132172418
 30
0.0
 11
125024.8154448404
 21
290260.2041164999
 31
0.0
  0
LINE
  5
151
330
14E
100
AcDbEntity
  8
1
  6
Continuous
 62
     2
100
AcDbLine
 10
125044.8154448405
 20
290285.2041164999
 30
0.0
 11
125044.8154448405
 21
290260.2041164999
 31
0.0
  0
SOLID
  5
152
330
14E
100
AcDbEntity
  8
1
 62
     2
100
AcDbTrace
 10
125041.3154448405
 20
290261.7433327584
 30
0.0
 11
125041.3154448405
 21
290262.6649002415
 31
0.0
 12
125044.8154448405
 22
290262.2041164999
 32
0.0
 13
125044.8154448405
 23
290262.2041164999
 33
0.0
  0
SOLID
  5
153
330
14E
100
AcDbEntity
  8
1
 62
     2
100
AcDbTrace
 10
125028.3154448404
 20
290262.6649002415
 30
0.0
 11
125028.3154448404
 21
290261.7433327584
 31
0.0
 12
125024.8154448404
 22
290262.2041164999
 32
0.0
 13
125024.8154448404
 23
290262.2041164999
 33
0.0
  0
MTEXT
  5
154
330
14E
100
AcDbEntity
  8
1
 62
     2
100
AcDbMText
 10
125031.3746878257
 20
290264.2041164999
 30
0.0
 40
3.5
 41
0.0
 71
     7
 72
     1
  1
20
  7
CONVERTER_11
 11
0.9999999999970621
 21
2.424068405545307E-6
 31
0.0
 73
     1
 44
0.60024009603842
  0
ENDBLK
  5
156
330
14E
100
AcDbEntity
  8
0
100
AcDbBlockEnd
  0
BLOCK
  5
162
330
159
100
AcDbEntity
  8
0
100
AcDbBlockBegin
  2
*D12
 70
     1
 71
     0
 10
0.0
 20
0.0
 30
0.0
  3
*D12
  1

  0
LINE
  5
15A
330
159
100
AcDbEntity
  8
1
  6
Continuous
 62
     2
100
AcDbLine
 10
125089.8154448405
 20
290286.1998570389
 30
0.0
 11
125089.8154448405
 21
290293.1998570389
 31
0.0
  0
LINE
  5
15B
330
159
100
AcDbEntity
  8
1
  6
Continuous
 62
     2
100
AcDbLine
 10
125089.8154448405
 20
290293.1998570389
 30
0.0
 11
125089.8154448405
 21
290299.1994483221
 31
0.0
  0
LINE
  5
15C
330
159
100
AcDbEntity
  8
1
  6
Continuous
 62
     2
100
AcDbLine
 10
125089.8154448405
 20
290299.1994483221
 30
0.0
 11
125089.8154448405
 21
290306.1994483221
 31
0.0
  0
LINE
  5
15D
330
159
100
AcDbEntity
  8
1
  6
Continuous
 62
     2
100
AcDbLine
 10
125042.8328979115
 20
290293.1998570389
 30
0.0
 11
125091.8154448405
 21
290293.1998570389
 31
0.0
  0
LINE
  5
15E
330
159
100
AcDbEntity
  8
1
  6
Continuous
 62
     2
100
AcDbLine
 10
125067.8154951143
 20
290299.1994483221
 30
0.0
 11
125091.8154448405
 21
290299.1994483221
 31
0.0
  0
SOLID
  5
15F
330
159
100
AcDbEntity
  8
1
 62
     2
100
AcDbTrace
 10
125090.276228582
 20
290289.6998570389
 30
0.0
 11
125089.3546610989
 21
290289.6998570389
 31
0.0
 12
125089.8154448405
 22
290293.1998570389
 32
0.0
 13
125089.8154448405
 23
290293.1998570389
 33
0.0
  0
SOLID
  5
160
330
159
100
AcDbEntity
  8
1
 62
     2
100
AcDbTrace
 10
125089.3546610989
 20
290302.6994483221
 30
0.0
 11
125090.276228582
 21
290302.6994483221
 31
0.0
 12
125089.8154448405
 22
290299.1994483221
 32
0.0
 13
125089.8154448405
 23
290299.1994483221
 33
0.0
  0
MTEXT
  5
161
330
159
100
AcDbEntity
  8
1
 62
     2
100
AcDbMText
 10
125087.8154448405
 20
290295.628952572
 30
0.0
 40
3.5
 41
0.0
 71
     7
 72
     1
  1
6
  7
CONVERTER_11
 11
0.0
 21
1.0
 31
0.0
 73
     1
 44
0.60024009603842
  0
ENDBLK
  5
163
330
159
100
AcDbEntity
  8
0
100
AcDbBlockEnd
  0
ENDSEC
  0
SECTION
  2
ENTITIES
  0
POINT
  5
36
330
1F
100
AcDbEntity
  8
1
 62
     3
 60
     1
100
AcDbPoint
 10
125044.8154951143
 20
290293.8363453164
 30
0.0
  0
POINT
  5
37
330
1F
100
AcDbEntity
  8
A_BEMASSUNGEN
 62
     7
100
AcDbPoint
 10
125046.8761792425
 20
290334.1994483221
 30
0.0
  0
POINT
  5
38
330
1F
100
AcDbEntity
  8
A_BEMASSUNGEN
 62
     7
100
AcDbPoint
 10
125045.8264951143
 20
290299.1994483221
 30
0.0
  0
POINT
  5
39
330
1F
100
AcDbEntity
  8
A_BEMASSUNGEN
 62
     7
100
AcDbPoint
 10
125046.3264951143
 20
290298.1994483221
 30
0.0
  0
POINT
  5
3A
330
1F
100
AcDbEntity
  8
A_BEMASSUNGEN
 62
     7
100
AcDbPoint
 10
125046.8154951143
 20
290332.1994483221
 30
0.0
  0
POINT
  5
3B
330
1F
100
AcDbEntity
  8
A_BEMASSUNGEN
 62
     7
100
AcDbPoint
 10
125066.8154951143
 20
290334.1994483221
 30
0.0
  0
POINT
  5
3C
330
1F
100
AcDbEntity
  8
A_BEMASSUNGEN
 62
     7
100
AcDbPoint
 10
125022.3154951143
 20
290289.1994483221
 30
0.0
  0
POINT
  5
3D
330
1F
100
AcDbEntity
  8
A_BEMASSUNGEN
 62
     7
100
AcDbPoint
 10
125018.3154951143
 20
290320.1994483221
 30
0.0
  0
POINT
  5
3E
330
1F
100
AcDbEntity
  8
A_BEMASSUNGEN
 62
     7
100
AcDbPoint
 10
125021.8154951143
 20
290320.1994483221
 30
0.0
  0
LINE
  5
3F
330
1F
100
AcDbEntity
  8
0
  6
Continuous
 62
     3
100
AcDbLine
 10
125067.8154951143
 20
290299.1994483221
 30
0.0
 11
125077.8154448405
 21
290299.199448322
 31
0.0
  0
LINE
  5
40
330
1F
100
AcDbEntity
  8
DEFAULT_2
  6
Continuous
 62
     7
100
AcDbLine
 10
125029.2215229488
 20
290293.2020957238
 30
0.0
 11
125044.1812455218
 21
290293.2020957238
 31
0.0
  0
LINE
  5
41
330
1F
100
AcDbEntity
  8
0
  6
Continuous
 62
     7
100
AcDbLine
 10
125032.8154951143
 20
290294.4434487088
 30
0.0
 11
125030.6943549878
 21
290294.4434487088
 31
0.0
  0
LINE
  5
42
330
1F
100
AcDbEntity
  8
0
  6
Continuous
 62
     7
100
AcDbLine
 10
125035.1985340184
 20
290294.4434484775
 30
0.0
 11
125043.2330436026
 21
290294.4434487088
 31
0.0
  0
LINE
  5
43
330
1F
100
AcDbEntity
  8
0
  6
Continuous
 62
     7
100
AcDbLine
 10
125037.8525401171
 20
290297.6122083804
 30
0.0
 11
125034.4265534855
 21
290297.6122083804
 31
0.0
  0
LINE
  5
44
330
1F
100
AcDbEntity
  8
0
  6
Continuous
 62
     7
100
AcDbLine
 10
125037.8804122386
 20
290298.160354335
 30
0.0
 11
125034.2882805791
 21
290298.160354335
 31
0.0
  0
LINE
  5
45
330
1F
100
AcDbEntity
  8
0
  6
Continuous
 62
     7
100
AcDbLine
 10
125043.6013657069
 20
290298.3744013551
 30
0.0
 11
125038.6147330918
 21
290298.3744013551
 31
0.0
  0
LINE
  5
46
330
1F
100
AcDbEntity
  8
0
  6
Continuous
 62
     7
100
AcDbLine
 10
125043.2330436026
 20
290294.4434487088
 30
0.0
 11
125041.8500459772
 21
290295.1379506046
 31
0.0
  0
LINE
  5
47
330
1F
100
AcDbEntity
  8
0
  6
Continuous
 62
     7
100
AcDbLine
 10
125044.4658565047
 20
290294.4031513978
 30
0.0
 11
125042.6315275848
 21
290295.4753910005
 31
0.0
  0
LINE
  5
48
330
1F
100
AcDbEntity
  8
0
  6
Continuous
 62
     7
100
AcDbLine
 10
125034.2955792675
 20
290298.064029637
 30
0.0
 11
125034.2882805791
 21
290298.160354335
 31
0.0
  0
LINE
  5
49
330
1F
100
AcDbEntity
  8
0
  6
Continuous
 62
     2
100
AcDbLine
 10
125032.8154951143
 20
290299.4088616669
 30
0.0
 11
125032.8154951143
 21
290299.3108307238
 31
0.0
  0
LINE
  5
4A
330
1F
100
AcDbEntity
  8
0
  6
Continuous
 62
     2
100
AcDbLine
 10
125032.8154951143
 20
290299.3108307238
 30
0.0
 11
125032.8154951143
 21
290294.4434487088
 31
0.0
  0
LINE
  5
4B
330
1F
100
AcDbEntity
  8
0
  6
Continuous
 62
     7
100
AcDbLine
 10
125033.9534017627
 20
290298.160354335
 30
0.0
 11
125033.9534017627
 21
290298.2709550185
 31
0.0
  0
LINE
  5
4C
330
1F
100
AcDbEntity
  8
0
  6
Continuous
 62
     7
100
AcDbLine
 10
125031.6663605901
 20
290296.2424894772
 30
0.0
 11
125029.534371415
 21
290294.686369715
 31
0.0
  0
LINE
  5
4D
330
1F
100
AcDbEntity
  8
0
  6
Continuous
 62
     7
100
AcDbLine
 10
125030.6210179923
 20
290294.6683196844
 30
0.0
 11
125032.0526464672
 21
290295.7132510897
 31
0.0
  0
LINE
  5
4E
330
1F
100
AcDbEntity
  8
0
  6
Continuous
 62
     7
100
AcDbLine
 10
125041.8435692951
 20
290297.4794753486
 30
0.0
 11
125043.6013657069
 21
290298.3744013551
 31
0.0
  0
LINE
  5
4F
330
1F
100
AcDbEntity
  8
0
  6
Continuous
 62
     7
100
AcDbLine
 10
125042.7819776645
 20
290297.3962523807
 30
0.0
 11
125044.4779213276
 21
290298.240265752
 31
0.0
  0
LINE
  5
50
330
1F
100
AcDbEntity
  8
0
  6
Continuous
 62
     7
100
AcDbLine
 10
125030.1319094705
 20
290296.2424894691
 30
0.0
 11
125028.5962511035
 21
290295.1216273807
 31
0.0
  0
LINE
  5
51
330
1F
100
AcDbEntity
  8
0
  6
Continuous
 62
     7
100
AcDbLine
 10
125029.3873218677
 20
290294.8878377742
 30
0.0
 11
125030.5181953567
 21
290295.7132510881
 31
0.0
  0
LINE
  5
52
330
1F
100
AcDbEntity
  8
1
  6
Continuous
 62
     7
100
AcDbLine
 10
125026.7630492113
 20
290293.2034483219
 30
0.0
 11
125042.8328979115
 21
290293.1998570389
 31
0.0
  0
LINE
  5
53
330
1F
100
AcDbEntity
  8
0
  6
Continuous
 62
     7
100
AcDbLine
 10
125018.3154448405
 20
290292.52616272
 30
0.0
 11
125018.3154448405
 21
290320.199448322
 31
0.0
  0
LINE
  5
54
330
1F
100
AcDbEntity
  8
0
  6
Continuous
 62
     7
100
AcDbLine
 10
125018.3154448405
 20
290289.2041163218
 30
0.0
 11
125018.3154448405
 21
290292.52616272
 31
0.0
  0
LINE
  5
55
330
1F
100
AcDbEntity
  8
1
  6
Continuous
 62
     7
100
AcDbLine
 10
125038.8154448405
 20
290299.199448322
 30
0.0
 11
125045.8264951143
 21
290299.199448322
 31
0.0
  0
LINE
  5
56
330
1F
100
AcDbEntity
  8
0
  6
Continuous
 62
     7
100
AcDbLine
 10
125024.8154448404
 20
290320.1994483221
 30
0.0
 11
125024.8154448404
 21
290300.2132172418
 31
0.0
  0
LINE
  5
57
330
1F
100
AcDbEntity
  8
0
  6
DASHED
 62
     2
100
AcDbLine
 10
125060.8535392032
 20
290289.2290308034
 30
0.0
 11
125058.3112817258
 21
290291.2701043551
 31
0.0
  0
LINE
  5
58
330
1F
100
AcDbEntity
  8
0
  6
Continuous
 62
     7
100
AcDbLine
 10
125056.8154951143
 20
290295.7753730353
 30
0.0
 11
125056.8154951143
 21
290294.62755763
 31
0.0
  0
LINE
  5
59
330
1F
100
AcDbEntity
  8
0
  6
Continuous
 62
     7
100
AcDbLine
 10
125063.8154951143
 20
290299.1994483221
 30
0.0
 11
125063.8154951143
 21
290298.1994483221
 31
0.0
  0
LINE
  5
5A
330
1F
100
AcDbEntity
  8
A_RUNDUNGEN
  6
Continuous
 62
     7
100
AcDbLine
 10
125050.8154951143
 20
290334.1994483221
 30
0.0
 11
125046.8154951143
 21
290334.1994483221
 31
0.0
  0
LINE
  5
5B
330
1F
100
AcDbEntity
  8
0
  6
Continuous
 62
     7
100
AcDbLine
 10
125066.8154951143
 20
290334.1994483221
 30
0.0
 11
125062.8154951143
 21
290334.1994483221
 31
0.0
  0
LINE
  5
5C
330
1F
100
AcDbEntity
  8
A_RUNDUNGEN
  6
Continuous
 62
     7
100
AcDbLine
 10
125062.8154951143
 20
290334.1994483221
 30
0.0
 11
125050.8154951143
 21
290334.1994483221
 31
0.0
  0
LINE
  5
5D
330
1F
100
AcDbEntity
  8
0
  6
Continuous
 62
     7
100
AcDbLine
 10
125067.8154951143
 20
290298.6994483221
 30
0.0
 11
125067.8154951143
 21
290299.1994483221
 31
0.0
  0
LINE
  5
5E
330
1F
100
AcDbEntity
  8
0
  6
Continuous
 62
     7
100
AcDbLine
 10
125066.8154951143
 20
290334.1994483221
 30
0.0
 11
125066.8154951143
 21
290299.1994483221
 31
0.0
  0
LINE
  5
5F
330
1F
100
AcDbEntity
  8
0
  6
Continuous
 62
     7
100
AcDbLine
 10
125053.8154951143
 20
290298.1994483221
 30
0.0
 11
125053.8264951143
 21
290298.1994483221
 31
0.0
  0
LINE
  5
60
330
1F
100
AcDbEntity
  8
0
  6
Continuous
 62
     7
100
AcDbLine
 10
125046.8154951143
 20
290323.1994483221
 30
0.0
 11
125046.8154951143
 21
290299.1994483221
 31
0.0
  0
LINE
  5
61
330
1F
100
AcDbEntity
  8
A_ACHSEN
  6
Continuous
 62
     7
100
AcDbLine
 10
125046.8154951143
 20
290323.1994483221
 30
0.0
 11
125046.8154951143
 21
290332.1994483221
 31
0.0
  0
LINE
  5
62
330
1F
100
AcDbEntity
  8
A_RUNDUNGEN
  6
Continuous
 62
     7
100
AcDbLine
 10
125046.8154951143
 20
290332.1994483221
 30
0.0
 11
125046.8154951143
 21
290334.1994483221
 31
0.0
  0
LINE
  5
63
330
1F
100
AcDbEntity
  8
0
  6
Continuous
 62
     7
100
AcDbLine
 10
125045.8264951143
 20
290298.6994483221
 30
0.0
 11
125045.8264951143
 21
290299.1994483221
 31
0.0
  0
LINE
  5
64
330
1F
100
AcDbEntity
  8
A_RUNDUNGEN
  6
Continuous
 62
     7
100
AcDbLine
 10
125045.3260971144
 20
290292.6994483221
 30
0.0
 11
125045.3260971144
 21
290289.1994483221
 31
0.0
  0
LINE
  5
65
330
1F
100
AcDbEntity
  8
0
  6
Continuous
 62
     7
100
AcDbLine
 10
125046.3260971144
 20
290292.6994483221
 30
0.0
 11
125046.9264951143
 21
290292.6994483221
 31
0.0
  0
LINE
  5
66
330
1F
100
AcDbEntity
  8
0
  6
Continuous
 62
     7
100
AcDbLine
 10
125022.3264951143
 20
290289.1994483221
 30
0.0
 11
125045.3260971144
 21
290289.1994483221
 31
0.0
  0
LINE
  5
67
330
1F
100
AcDbEntity
  8
0
  6
Continuous
 62
     7
100
AcDbLine
 10
125045.3260971144
 20
290289.1994483221
 30
0.0
 11
125046.9264951143
 21
290289.1994483221
 31
0.0
  0
LINE
  5
68
330
1F
100
AcDbEntity
  8
0
  6
Continuous
 62
     7
100
AcDbLine
 10
125060.3154951143
 20
290294.3892252736
 30
0.0
 11
125060.3154951143
 21
290294.4401890628
 31
0.0
  0
LINE
  5
69
330
1F
100
AcDbEntity
  8
0
  6
Continuous
 62
     7
100
AcDbLine
 10
125056.8154951143
 20
290294.1244483221
 30
0.0
 11
125056.8154951143
 21
290294.62755763
 31
0.0
  0
LINE
  5
6A
330
1F
100
AcDbEntity
  8
0
  6
Continuous
 62
     7
100
AcDbLine
 10
125063.0447259181
 20
290291.9582616072
 30
0.0
 11
125060.5024684407
 21
290293.9993351589
 31
0.0
  0
LINE
  5
6B
330
1F
100
AcDbEntity
  8
0
  6
Continuous
 62
     7
100
AcDbLine
 10
125051.3170011538
 20
290287.474591703
 30
0.0
 11
125048.2885337771
 21
290289.2784792683
 31
0.0
  0
LINE
  5
6C
330
1F
100
AcDbEntity
  8
0
  6
Continuous
 62
     7
100
AcDbLine
 10
125047.5233896936
 20
290289.245910137
 30
0.0
 11
125055.8428637876
 21
290290.5251094181
 31
0.0
  0
LINE
  5
6D
330
1F
100
AcDbEntity
  8
0
  6
Continuous
 62
     7
100
AcDbLine
 10
125046.9914819367
 20
290292.7052560488
 30
0.0
 11
125055.3109560307
 21
290293.98445533
 31
0.0
  0
LINE
  5
6E
330
1F
100
AcDbEntity
  8
0
  6
Continuous
 62
     7
100
AcDbLine
 10
125021.8154951143
 20
290320.1994483221
 30
0.0
 11
125021.8154951143
 21
290293.1994483221
 31
0.0
  0
LINE
  5
6F
330
1F
100
AcDbEntity
  8
0
  6
Continuous
 62
     7
100
AcDbLine
 10
125032.8154951143
 20
290299.7135492418
 30
0.0
 11
125025.3154448404
 21
290299.7135492418
 31
0.0
  0
LINE
  5
70
330
1F
100
AcDbEntity
  8
0
  6
Continuous
 62
     7
100
AcDbLine
 10
125025.3043038405
 20
290296.7162152418
 30
0.0
 11
125026.8154448458
 21
290296.7162152418
 31
0.0
  0
LINE
  5
71
330
1F
100
AcDbEntity
  8
0
  6
Continuous
 62
     7
100
AcDbLine
 10
125026.8154448458
 20
290296.7162152418
 30
0.0
 11
125032.8154951143
 21
290296.7162152418
 31
0.0
  0
LINE
  5
72
330
1F
100
AcDbEntity
  8
A_RUNDUNGEN
  6
Continuous
 62
     7
100
AcDbLine
 10
125045.3260971144
 20
290292.6994483221
 30
0.0
 11
125046.3260971144
 21
290292.6994483221
 31
0.0
  0
LINE
  5
73
330
1F
100
AcDbEntity
  8
0
  6
Continuous
 62
     7
100
AcDbLine
 10
125032.8154951143
 20
290299.3044269703
 30
0.0
 11
125032.8154951143
 21
290299.7135492418
 31
0.0
  0
LINE
  5
74
330
1F
100
AcDbEntity
  8
0
  6
Continuous
 62
     7
100
AcDbLine
 10
125060.3154951143
 20
290294.4401890628
 30
0.0
 11
125060.3154951143
 21
290295.4338255893
 31
0.0
  0
LINE
  5
75
330
1F
100
AcDbEntity
  8
A_ACHSEN
  6
DOT_CENTER
 62
     2
100
AcDbLine
 10
125027.8154951143
 20
290312.1994483221
 30
0.0
 11
125002.2654951143
 21
290312.1994483221
 31
0.0
  0
LINE
  5
76
330
1F
100
AcDbEntity
  8
A_ACHSEN
  6
DOT_CENTER
 62
     2
100
AcDbLine
 10
125021.8154951143
 20
290302.1994483221
 30
0.0
 11
125001.2654951143
 21
290302.1994483221
 31
0.0
  0
LINE
  5
77
330
1F
100
AcDbEntity
  8
0
  6
Continuous
 62
     7
100
AcDbLine
 10
125060.3154951143
 20
290295.9661886097
 30
0.0
 11
125060.3154951143
 21
290295.4338255893
 31
0.0
  0
LINE
  5
78
330
1F
100
AcDbEntity
  8
0
  6
Continuous
 62
     7
100
AcDbLine
 10
125056.8154951143
 20
290295.8301115854
 30
0.0
 11
125056.8154951143
 21
290295.7753730353
 31
0.0
  0
LINE
  5
79
330
1F
100
AcDbEntity
  8
0
  6
Continuous
 62
     7
100
AcDbLine
 10
125060.3154951143
 20
290298.1994483221
 30
0.0
 11
125067.3154951143
 21
290298.1994483221
 31
0.0
  0
LINE
  5
7A
330
1F
100
AcDbEntity
  8
0
  6
Continuous
 62
     7
100
AcDbLine
 10
125056.8154951143
 20
290296.699448322
 30
0.0
 11
125056.8154951143
 21
290296.616948322
 31
0.0
  0
LINE
  5
7B
330
1F
100
AcDbEntity
  8
0
  6
Continuous
 62
     7
100
AcDbLine
 10
125060.3154951143
 20
290299.1994483221
 30
0.0
 11
125060.3154951143
 21
290298.1994483221
 31
0.0
  0
LINE
  5
7C
330
1F
100
AcDbEntity
  8
0
  6
Continuous
 62
     7
100
AcDbLine
 10
125060.3154951143
 20
290298.1994483221
 30
0.0
 11
125060.3154951143
 21
290295.9661886097
 31
0.0
  0
LINE
  5
7D
330
1F
100
AcDbEntity
  8
0
  6
Continuous
 62
     7
100
AcDbLine
 10
125056.8154951143
 20
290299.1994483221
 30
0.0
 11
125056.8154951143
 21
290298.1994483221
 31
0.0
  0
LINE
  5
7E
330
1F
100
AcDbEntity
  8
0
  6
Continuous
 62
     7
100
AcDbLine
 10
125056.8154951143
 20
290298.1994483221
 30
0.0
 11
125056.8154951143
 21
290296.699448322
 31
0.0
  0
LINE
  5
7F
330
1F
100
AcDbEntity
  8
1
  6
Continuous
 62
     7
100
AcDbLine
 10
125022.3264951143
 20
290292.6994483221
 30
0.0
 11
125045.3260971144
 21
290292.6994483221
 31
0.0
  0
LINE
  5
80
330
1F
100
AcDbEntity
  8
1
  6
DOT_CENTER
 62
     2
100
AcDbLine
 10
125069.2329951144
 20
290284.1994483221
 30
0.0
 11
125044.3979951143
 21
290284.1994483221
 31
0.0
  0
LINE
  5
81
330
1F
100
AcDbEntity
  8
1
  6
DOT_CENTER
 62
     2
100
AcDbLine
 10
125056.8154951143
 20
290296.616948322
 30
0.0
 11
125056.8154951143
 21
290271.781948322
 31
0.0
  0
LINE
  5
82
330
1F
100
AcDbEntity
  8
1
  6
DOT_CENTER
 62
     2
100
AcDbLine
 10
125035.8265038405
 20
290315.1991145002
 30
0.0
 11
125063.4264951143
 21
290315.1991145002
 31
0.0
  0
LINE
  5
83
330
1F
100
AcDbEntity
  8
0
  6
Continuous
 62
     7
100
AcDbLine
 10
125053.8154951143
 20
290299.1994483221
 30
0.0
 11
125053.8154951143
 21
290298.1994483221
 31
0.0
  0
LINE
  5
84
330
1F
100
AcDbEntity
  8
1
  6
Continuous
 62
     7
100
AcDbLine
 10
125024.8154448404
 20
290320.1994483221
 30
0.0
 11
125018.3154448404
 21
290320.1994483221
 31
0.0
  0
LINE
  5
85
330
1F
100
AcDbEntity
  8
1
  6
DASHED
 62
     2
100
AcDbLine
 10
125030.8154652503
 20
290297.6604233617
 30
0.0
 11
125030.8154652503
 21
290296.7162152418
 31
0.0
  0
LINE
  5
86
330
1F
100
AcDbEntity
  8
1
  6
Continuous
 62
     7
100
AcDbLine
 10
125030.8154448405
 20
290295.8041164999
 30
0.0
 11
125030.8154448405
 21
290296.7162152418
 31
0.0
  0
LINE
  5
87
330
1F
100
AcDbEntity
  8
0
  6
Continuous
 62
     7
100
AcDbLine
 10
125025.3154448405
 20
290295.8041164999
 30
0.0
 11
125030.8154448405
 21
290295.8041164999
 31
0.0
  0
LINE
  5
88
330
1F
100
AcDbEntity
  8
0
  6
Continuous
 62
     7
100
AcDbLine
 10
125044.8154448405
 20
290289.2041163219
 30
0.0
 11
125018.3154448405
 21
290289.2041163218
 31
0.0
  0
LINE
  5
89
330
1F
100
AcDbEntity
  8
0
  6
Continuous
 62
     3
100
AcDbLine
 10
125024.8154448405
 20
290320.574262811
 30
0.0
 11
125024.8154448406
 21
290337.6167716654
 31
0.0
  0
LINE
  5
8A
330
1F
100
AcDbEntity
  8
0
  6
Continuous
 62
     7
100
AcDbLine
 10
125026.7630492113
 20
290293.2034483219
 30
0.0
 11
125025.3154448405
 21
290293.203448322
 31
0.0
  0
LINE
  5
8B
330
1F
100
AcDbEntity
  8
0
  6
DASHED
 62
     2
100
AcDbLine
 10
125029.824171376
 20
290298.6604060056
 30
0.0
 11
125025.706718305
 21
290298.6963384742
 31
0.0
  0
LINE
  5
8C
330
1F
100
AcDbEntity
  8
0
  6
Continuous
 62
     7
100
AcDbLine
 10
125025.3154448405
 20
290293.203448322
 30
0.0
 11
125025.3154448405
 21
290295.8041164999
 31
0.0
  0
LINE
  5
8D
330
1F
100
AcDbEntity
  8
0
  6
Continuous
 62
     7
100
AcDbLine
 10
125062.8040278405
 20
290299.199448322
 30
0.0
 11
125067.8154951143
 21
290299.1994483221
 31
0.0
  0
LINE
  5
8E
330
1F
100
AcDbEntity
  8
0
  6
Continuous
 62
     7
100
AcDbLine
 10
125036.8154448405
 20
290318.199448322
 30
0.0
 11
125046.8154951143
 21
290318.199448322
 31
0.0
  0
LINE
  5
8F
330
1F
100
AcDbEntity
  8
0
  6
Continuous
 62
     7
100
AcDbLine
 10
125046.8154951143
 20
290312.199448322
 30
0.0
 11
125036.8154448405
 21
290312.199448322
 31
0.0
  0
LINE
  5
90
330
1F
100
AcDbEntity
  8
0
  6
Continuous
 62
     7
100
AcDbLine
 10
125036.8154448405
 20
290301.199448322
 30
0.0
 11
125036.8154448405
 21
290312.199448322
 31
0.0
  0
LINE
  5
91
330
1F
100
AcDbEntity
  8
0
  6
Continuous
 62
     7
100
AcDbLine
 10
125036.8154448405
 20
290312.199448322
 30
0.0
 11
125036.8154448405
 21
290318.199448322
 31
0.0
  0
LINE
  5
92
330
1F
100
AcDbEntity
  8
0
  6
Continuous
 62
     7
100
AcDbLine
 10
125036.8154448405
 20
290318.199448322
 30
0.0
 11
125036.8154448405
 21
290337.6167716652
 31
0.0
  0
LINE
  5
93
330
1F
100
AcDbEntity
  8
1
  6
Continuous
 62
     7
100
AcDbLine
 10
125079.8154448405
 20
290337.6167716651
 30
0.0
 11
125079.8154448405
 21
290301.199448322
 31
0.0
  0
LINE
  5
94
330
1F
100
AcDbEntity
  8
1
  6
DOT_CENTER
 62
     2
100
AcDbLine
 10
125035.503291054
 20
290337.6167716653
 30
0.0
 11
125084.0354378373
 21
290337.6167716651
 31
0.0
  0
LINE
  5
95
330
1F
100
AcDbEntity
  8
1
  6
DOT_CENTER
 62
     2
100
AcDbLine
 10
125025.0813295007
 20
290337.6167716652
 30
0.0
 11
125026.0373077922
 21
290337.6167716652
 31
0.0
  0
LINE
  5
96
330
1F
100
AcDbEntity
  8
1
  6
DOT_CENTER
 62
     2
100
AcDbLine
 10
125034.0813295007
 20
290337.6167716649
 30
0.0
 11
125035.503291054
 21
290337.6167716653
 31
0.0
  0
LINE
  5
97
330
1F
100
AcDbEntity
  8
1
  6
DOT_CENTER
 62
     2
100
AcDbLine
 10
124994.0
 20
290337.6167716652
 30
0.0
 11
125025.0813295007
 21
290337.6167716652
 31
0.0
  0
LINE
  5
98
330
1F
100
AcDbEntity
  8
1
  6
DOT_CENTER
 62
     2
100
AcDbLine
 10
124992.0
 20
290337.6167716652
 30
0.0
 11
124994.0
 21
290337.6167716652
 31
0.0
  0
LINE
  5
99
330
1F
100
AcDbEntity
  8
1
  6
DOT_CENTER
 62
     2
100
AcDbLine
 10
124994.0
 20
290282.2041164999
 30
0.0
 11
124994.0
 21
290280.2041164999
 31
0.0
  0
LINE
  5
9A
330
1F
100
AcDbEntity
  8
1
  6
DOT_CENTER
 62
     2
100
AcDbLine
 10
124994.0
 20
290337.6167716652
 30
0.0
 11
124994.0
 21
290282.2041164999
 31
0.0
  0
LINE
  5
9B
330
1F
100
AcDbEntity
  8
0
  6
Continuous
 62
     3
100
AcDbLine
 10
125044.8154448405
 20
290285.2041164999
 30
0.0
 11
125044.8154448405
 21
290289.2041163219
 31
0.0
  0
LINE
  5
9C
330
1F
100
AcDbEntity
  8
0
  6
Continuous
 62
     7
100
AcDbLine
 10
124994.0
 20
290282.2041164999
 30
0.0
 11
125041.8154448405
 21
290282.2041164999
 31
0.0
  0
LINE
  5
9D
330
1F
100
AcDbEntity
  8
0
  6
Continuous
 62
     7
100
AcDbLine
 10
125053.8264951143
 20
290298.1994483221
 30
0.0
 11
125056.8154951143
 21
290298.1994483221
 31
0.0
  0
LINE
  5
9E
330
1F
100
AcDbEntity
  8
A_RUNDUNGEN
  6
Continuous
 62
     7
100
AcDbLine
 10
125053.8154951143
 20
290298.1994483221
 30
0.0
 11
125046.3264951143
 21
290298.1994483221
 31
0.0
  0
LINE
  5
9F
330
1F
100
AcDbEntity
  8
1
  6
Continuous
 62
     7
100
AcDbLine
 10
125045.8264951143
 20
290299.199448322
 30
0.0
 11
125062.8040278405
 21
290299.199448322
 31
0.0
  0
LINE
  5
A0
330
1F
100
AcDbEntity
  8
0
  6
Continuous
 62
     7
100
AcDbLine
 10
125056.8154951143
 20
290296.616948322
 30
0.0
 11
125056.8154951143
 21
290295.8301115854
 31
0.0
  0
LINE
  5
A1
330
1F
100
AcDbEntity
  8
1
  6
Continuous
 62
     7
100
AcDbLine
 10
125032.8154951143
 20
290296.7162152418
 30
0.0
 11
125032.8154951143
 21
290299.3044269703
 31
0.0
  0
LINE
  5
A2
330
1F
100
AcDbEntity
  8
1
  6
DOT_CENTER
 62
     2
100
AcDbLine
 10
125056.8642160561
 20
290335.1994483221
 30
0.0
 11
125056.8642160561
 21
290299.199448322
 31
0.0
  0
ARC
  5
A3
330
1F
100
AcDbEntity
  8
0
  6
Continuous
 62
     7
100
AcDbCircle
 10
125044.1812455218
 20
290293.8363453164
 30
0.0
 40
0.6342495925491676
100
AcDbArc
 50
-90.0
 51
0.0
  0
ARC
  5
A4
330
1F
100
AcDbEntity
  8
0
  6
Continuous
 62
     7
100
AcDbCircle
 10
125044.1975661661
 20
290298.790934028
 30
0.0
 40
0.6179276387628521
100
AcDbArc
 50
-63.01853409235794
 51
41.38410727908845
  0
ARC
  5
A5
330
1F
100
AcDbEntity
  8
0
  6
Continuous
 62
     7
100
AcDbCircle
 10
125014.3343115073
 20
290294.4434487088
 30
0.0
 40
20.3405807578765
100
AcDbArc
 50
1.45618139924091
 51
8.96233305968757
  0
ARC
  5
A6
330
1F
100
AcDbEntity
  8
0
  6
Continuous
 62
     7
100
AcDbCircle
 10
125042.4387919866
 20
290296.3103504115
 30
0.0
 40
1.31192346232664
100
AcDbArc
 50
116.9814689316067
 51
-116.6645082824679
  0
ARC
  5
A7
330
1F
100
AcDbEntity
  8
0
  6
Continuous
 62
     7
100
AcDbCircle
 10
125032.8154951143
 20
290298.2709550185
 30
0.0
 40
1.137906648407807
100
AcDbArc
 50
0.0
 51
90.0
  0
ARC
  5
A8
330
1F
100
AcDbEntity
  8
0
  6
Continuous
 62
     7
100
AcDbCircle
 10
125043.1923869168
 20
290296.3977847355
 30
0.0
 40
1.07952461429907
100
AcDbArc
 50
112.3445793332043
 51
-121.3015940912529
  0
ARC
  5
A9
330
1F
100
AcDbEntity
  8
0
  6
Continuous
 62
     7
100
AcDbCircle
 10
125037.8525401171
 20
290298.3744013551
 30
0.0
 40
0.762192974681966
100
AcDbArc
 50
-90.0
 51
0.0
  0
ARC
  5
AA
330
1F
100
AcDbEntity
  8
0
  6
Continuous
 62
     7
100
AcDbCircle
 10
125035.1985340184
 20
290294.9738304621
 30
0.0
 40
0.5303819845883423
100
AcDbArc
 50
-178.5438185987831
 51
-90.0
  0
ARC
  5
AB
330
1F
100
AcDbEntity
  8
0
  6
Continuous
 62
     7
100
AcDbCircle
 10
125037.8804122386
 20
290298.549093868
 30
0.0
 40
0.3887395330239087
100
AcDbArc
 50
-90.0
 51
53.61296809131556
  0
ARC
  5
AC
330
1F
100
AcDbEntity
  8
DEFAULT_2
  6
Continuous
 62
     7
100
AcDbCircle
 10
125031.8595035399
 20
290295.9778702916
 30
0.0
 40
0.3276087795380719
100
AcDbArc
 50
60.34387531647847
 51
126.1253398240623
  0
ARC
  5
AD
330
1F
100
AcDbEntity
  8
0
  6
Continuous
 62
     7
100
AcDbCircle
 10
125031.8595035399
 20
290295.9778702916
 30
0.0
 40
0.3276087794955601
100
AcDbArc
 50
-53.87466504251996
 51
60.34387531647847
  0
ARC
  5
AE
330
1F
100
AcDbEntity
  8
0
  6
Continuous
 62
     7
100
AcDbCircle
 10
125038.2907440591
 20
290299.105918133
 30
0.0
 40
0.3029435338729189
100
AcDbArc
 50
130.935003891901
 51
-126.3870422173544
  0
ARC
  5
AF
330
1F
100
AcDbEntity
  8
0
  6
Continuous
 62
     7
100
AcDbCircle
 10
125034.1208411709
 20
290298.0992282964
 30
0.0
 40
0.1782479957941126
100
AcDbArc
 50
159.9447006739972
 51
-11.38905943961274
  0
ARC
  5
B0
330
1F
100
AcDbEntity
  8
0
  6
Continuous
 62
     7
100
AcDbCircle
 10
125044.1812455218
 20
290293.8363453164
 30
0.0
 40
0.6342495924909599
100
AcDbArc
 50
0.0
 51
63.33734793180194
  0
ARC
  5
B1
330
1F
100
AcDbEntity
  8
DEFAULT_2
  6
Continuous
 62
     7
100
AcDbCircle
 10
125030.3250524315
 20
290295.9778702916
 30
0.0
 40
0.3276087795452721
100
AcDbArc
 50
60.34387531426683
 51
126.1253422391005
  0
ARC
  5
B2
330
1F
100
AcDbEntity
  8
0
  6
Continuous
 62
     7
100
AcDbCircle
 10
125030.3250524315
 20
290295.9778702916
 30
0.0
 40
0.3276087795295977
100
AcDbArc
 50
-53.87466550058073
 51
60.34387531426683
  0
ARC
  5
B3
330
1F
100
AcDbEntity
  8
0
  6
Continuous
 62
     7
100
AcDbCircle
 10
125029.4608466366
 20
290294.7871037412
 30
0.0
 40
0.124712617816524
100
AcDbArc
 50
126.1253344826996
 51
-53.87466015186712
  0
ARC
  5
B4
330
1F
100
AcDbEntity
  8
0
  6
Continuous
 62
     7
100
AcDbCircle
 10
125030.6943550027
 20
290294.5678428699
 30
0.0
 40
0.1243941612250404
100
AcDbArc
 50
126.1253280576467
 51
-90.00000686345435
  0
ARC
  5
B5
330
1F
100
AcDbEntity
  8
0
  6
Continuous
 62
     7
100
AcDbCircle
 10
125029.2222669368
 20
290294.2639425127
 30
0.0
 40
1.061847049441628
100
AcDbArc
 50
126.1253422215797
 51
-90.04014455365125
  0
ARC
  5
B6
330
1F
100
AcDbEntity
  8
0
  6
Continuous
 62
     7
100
AcDbCircle
 10
125067.3154951143
 20
290298.6994483221
 30
0.0
 40
0.5
100
AcDbArc
 50
-90.0
 51
0.0
  0
ARC
  5
B7
330
1F
100
AcDbEntity
  8
0
  6
Continuous
 62
     7
100
AcDbCircle
 10
125046.3264951143
 20
290298.6994483221
 30
0.0
 40
0.5
100
AcDbArc
 50
180.0
 51
-90.0
  0
ARC
  5
B8
330
1F
100
AcDbEntity
  8
0
  6
Continuous
 62
     7
100
AcDbCircle
 10
125022.3154951143
 20
290293.1994483221
 30
0.0
 40
0.5
100
AcDbArc
 50
180.0
 51
-90.0
  0
ARC
  5
B9
330
1F
100
AcDbEntity
  8
0
  6
Continuous
 62
     7
100
AcDbCircle
 10
125022.3154951143
 20
290293.1994483221
 30
0.0
 40
3.999999999963245
100
AcDbArc
 50
-94.75531636923907
 51
-90.0
  0
ARC
  5
BA
330
1F
100
AcDbEntity
  8
0
  6
Continuous
 62
     7
100
AcDbCircle
 10
125056.8133128304
 20
290284.2243919419
 30
0.0
 40
9.900056620718484
100
AcDbArc
 50
89.98737020782904
 51
100.0126297927292
  0
ARC
  5
BB
330
1F
100
AcDbEntity
  8
0
  6
Continuous
 62
     7
100
AcDbCircle
 10
125060.8154951143
 20
290294.3892252736
 30
0.0
 40
0.5
100
AcDbArc
 50
180.0
 51
-128.7595421718193
  0
ARC
  5
BC
330
1F
100
AcDbEntity
  8
0
  6
DASHED
 62
     2
100
AcDbCircle
 10
125060.8107794979
 20
290294.3990348347
 30
0.0
 40
4.004709110398495
100
AcDbArc
 50
-176.0683781831037
 51
-128.6190684185582
  0
ARC
  5
BD
330
1F
100
AcDbEntity
  8
0
  6
Continuous
 62
     7
100
AcDbCircle
 10
125046.9154951143
 20
290293.1994483221
 30
0.0
 40
4.0
100
AcDbArc
 50
-90.0
 51
-81.25868047605428
  0
ARC
  5
BE
330
1F
100
AcDbEntity
  8
0
  6
Continuous
 62
     7
100
AcDbCircle
 10
125046.9154951143
 20
290293.1994483221
 30
0.0
 40
0.5
100
AcDbArc
 50
-90.0
 51
-81.25868048049007
  0
ARC
  5
BF
330
1F
100
AcDbEntity
  8
0
  6
Continuous
 62
     7
100
AcDbCircle
 10
125025.3113307747
 20
290300.2120944165
 30
0.0
 40
3.495886236988573
100
AcDbArc
 50
179.9761561603435
 51
-90.11516791866201
  0
ARC
  5
C0
330
1F
100
AcDbEntity
  8
0
  6
Continuous
 62
     7
100
AcDbCircle
 10
125025.3154448404
 20
290300.2135492418
 30
0.0
 40
0.5
100
AcDbArc
 50
180.0
 51
-90.0
  0
ARC
  5
C1
330
1F
100
AcDbEntity
  8
0
  6
Continuous
 62
     7
100
AcDbCircle
 10
125022.3154951143
 20
290293.1994483221
 30
0.0
 40
4.0
100
AcDbArc
 50
180.0
 51
-94.75531636923907
  0
ARC
  5
C2
330
1F
100
AcDbEntity
  8
0
  6
Continuous
 62
     7
100
AcDbCircle
 10
125056.8154951143
 20
290284.1994483221
 30
0.0
 40
9.924999999915345
100
AcDbArc
 50
149.2201231654203
 51
90.0
  0
ARC
  5
C3
330
1F
100
AcDbEntity
  8
0
  6
Continuous
 62
     2
100
AcDbCircle
 10
125023.8154448405
 20
290300.3208001971
 30
0.0
 40
0.9999999999910316
100
AcDbArc
 50
-18.19487233773745
 51
0.0
  0
ARC
  5
C4
330
1F
100
AcDbEntity
  8
0
  6
Continuous
 62
     7
100
AcDbCircle
 10
125042.5233259169
 20
290290.910352429
 30
0.0
 40
2.310338974825068
100
AcDbArc
 50
50.90651353311022
 51
82.29953732202394
  0
ARC
  5
C5
330
1F
100
AcDbEntity
  8
0
  6
DASHED
 62
     2
100
AcDbCircle
 10
125025.7154448405
 20
290299.6963003972
 30
0.0
 40
1.000000000023031
100
AcDbArc
 50
161.8051276593546
 51
-90.50000000073062
  0
ARC
  5
C6
330
1F
100
AcDbEntity
  8
0
  6
DASHED
 62
     2
100
AcDbCircle
 10
125029.8153154889
 20
290297.6602953789
 30
0.0
 40
1.000149769587944
100
AcDbArc
 50
0.00733177702746
 51
89.49266443097542
  0
ARC
  5
C7
330
1F
100
AcDbEntity
  8
0
  6
Continuous
 62
     7
100
AcDbCircle
 10
125038.8154448405
 20
290301.199448322
 30
0.0
 40
2.0
100
AcDbArc
 50
180.0
 51
-90.0
  0
ARC
  5
C8
330
1F
100
AcDbEntity
  8
0
  6
Continuous
 62
     7
100
AcDbCircle
 10
125041.8154448405
 20
290285.2041164999
 30
0.0
 40
3.0
100
AcDbArc
 50
-90.0
 51
0.0
  0
CIRCLE
  5
C9
330
1F
100
AcDbEntity
  8
A_RUNDUNGEN
  6
DASHED
 62
     2
100
AcDbCircle
 10
125056.8154951143
 20
290284.1994483221
 30
0.0
 40
5.025000000139698
  0
CIRCLE
  5
CA
330
1F
100
AcDbEntity
  8
1
  6
Continuous
 62
     7
100
AcDbCircle
 10
125056.8154951143
 20
290284.1994483221
 30
0.0
 40
6.425000000104774
  0
LWPOLYLINE
  5
CB
330
1F
100
AcDbEntity
  8
1
  6
Continuous
 62
     7
 60
     1
100
AcDbPolyline
 90
        3
 70
     0
 43
0.0
 10
124982.8154448405
 20
290327.2041164999
 10
124982.9920585383
 20
290296.7132172416
 10
125014.3264448405
 20
290296.7017823219
  0
LWPOLYLINE
  5
CC
330
1F
100
AcDbEntity
  8
1
  6
Continuous
 62
     3
 60
     1
100
AcDbPolyline
 90
        2
 70
     0
 43
0.0
 10
125040.8265038405
 20
290282.5343582416
 10
125040.8265038405
 20
290290.2162152416
  0
LWPOLYLINE
  5
CD
330
1F
100
AcDbEntity
  8
1
  6
Continuous
 62
     3
 60
     1
100
AcDbPolyline
 90
        2
 70
     0
 43
0.0
 10
125040.8265038405
 20
290282.0252575
 10
125040.8265038405
 20
290289.7071145
  0
LWPOLYLINE
  5
CE
330
1F
100
AcDbEntity
  8
1
  6
Continuous
 62
     3
 60
     1
100
AcDbPolyline
 90
        9
 70
     0
 43
0.0
 10
125040.8265038405
 20
290290.2162152416
 10
125014.3266448405
 20
290290.2135492416
 10
125037.014491054
 20
290337.2135492416
 10
125022.8154448405
 20
290337.0833635527
 10
125022.5596275406
 20
290339.1045586227
 10
125035.2632554682
 20
290339.8842884064
 10
125021.2284914246
 20
290340.0827557758
 10
125020.6663193939
 20
290340.1013422416
 10
125006.3664708405
 20
290340.1923152416
  0
LWPOLYLINE
  5
CF
330
1F
100
AcDbEntity
  8
1
  6
Continuous
 62
     7
 60
     1
100
AcDbPolyline
 90
        5
 70
     0
 43
0.0
 10
125022.7202989599
 20
290338.7573613821
 10
125022.8154448405
 20
290337.0833635527
 10
125037.014491054
 20
290337.2135492416
 10
125014.3266448405
 20
290290.2135492416
 10
125040.8265038405
 20
290290.2162152416
  0
LWPOLYLINE
  5
D0
330
1F
100
AcDbEntity
  8
1
  6
Continuous
 62
     7
 60
     1
100
AcDbPolyline
 90
        5
 70
     0
 43
0.0
 10
125022.8264448405
 20
290338.1591435
 10
125022.8154448405
 20
290320.574262811
 10
125037.014491054
 20
290336.7044485
 10
125014.3266448405
 20
290289.7044485
 10
125040.8265038405
 20
290289.7071145
  0
LWPOLYLINE
  5
D1
330
1F
100
AcDbEntity
  8
1
  6
Continuous
 62
     3
 60
     1
100
AcDbPolyline
 90
        9
 70
     0
 43
0.0
 10
125040.8265038405
 20
290289.7071145
 10
125014.3266448405
 20
290289.7044485
 10
125037.014491054
 20
290336.7044485
 10
125022.8154448405
 20
290320.574262811
 10
125022.7202989599
 20
290338.7573613821
 10
125035.2632554682
 20
290339.3751876648
 10
125034.3023728405
 20
290339.6832155
 10
125033.6663193939
 20
290339.5922415
 10
125006.3664708405
 20
290339.6832145
  0
LWPOLYLINE
  5
D2
330
1F
100
AcDbEntity
  8
1
  6
Continuous
 62
     7
 60
     1
100
AcDbPolyline
 90
       10
 70
     0
 43
0.0
 10
125062.8040278405
 20
290298.7094483219
 10
125081.2379518965
 20
290298.7473330282
 10
125082.2549846687
 20
290299.2701084936
 10
125082.7777601342
 20
290300.2871412659
 10
125082.7875435252
 20
290319.3498862097
 10
125082.399406722
 20
290320.1095581309
 10
125081.6431508165
 20
290320.5043094589
 10
125080.376049863
 20
290320.5434696668
 10
125067.8988924642
 20
290336.6919726245
 10
125067.8156448405
 20
290349.5120549587
  0
LWPOLYLINE
  5
D3
330
1F
100
AcDbEntity
  8
1
  6
Continuous
 62
     7
 60
     1
100
AcDbPolyline
 90
        5
 70
     0
 43
0.0
 10
125022.7032108405
 20
290337.8923160635
 10
125027.7785148367
 20
290320.554146772
 10
125028.2750108376
 20
290319.8409574303
 10
125029.0834366129
 20
290319.5450723312
 10
125033.2914728405
 20
290320.0552225124
  0
LWPOLYLINE
  5
D4
330
1F
100
AcDbEntity
  8
1
  6
Continuous
 62
     7
 60
     1
100
AcDbPolyline
 90
       10
 70
     0
 43
0.0
 10
125062.8040278405
 20
290298.7094483219
 10
125081.2379518965
 20
290298.7473330282
 10
125082.2549846687
 20
290299.2701084936
 10
125082.7777601342
 20
290300.2871412659
 10
125082.7875435252
 20
290319.3498862097
 10
125082.399406722
 20
290320.1095581309
 10
125081.6431508165
 20
290320.5043094589
 10
125080.376049863
 20
290320.5434696668
 10
125067.8988924642
 20
290336.6919726245
 10
125067.8156448405
 20
290349.5120549587
  0
LWPOLYLINE
  5
D5
330
1F
100
AcDbEntity
  8
1
  6
Continuous
 62
     7
 60
     1
100
AcDbPolyline
 90
        7
 70
     0
 43
0.0
 10
125016.3135550373
 20
290344.3011946667
 10
125026.0559821578
 20
290344.1975348652
 10
125026.8376448405
 20
290343.2181371113
 10
125026.8657461558
 20
290339.4515566984
 10
125022.4706299595
 20
290338.514141681
 10
125024.647990435
 20
290338.2547377497
 10
125033.846371376
 20
290338.2180990344
  0
LWPOLYLINE
  5
D6
330
1F
100
AcDbEntity
  8
1
  6
Continuous
 62
     7
 60
     1
100
AcDbPolyline
 90
        5
 70
     0
 43
0.0
 10
125022.7032108405
 20
290337.3832153219
 10
125027.7785148367
 20
290320.0450460304
 10
125028.2750108376
 20
290319.3318566886
 10
125029.0834366129
 20
290319.0359715896
 10
125033.2914728405
 20
290319.5461217708
  0
LWPOLYLINE
  5
D7
330
1F
100
AcDbEntity
  8
1
  6
Continuous
 62
     7
 60
     1
100
AcDbPolyline
 90
        9
 70
     0
 43
0.0
 10
125022.8154448405
 20
290337.0833635527
 10
125022.792012699
 20
290338.431125582
 10
125022.5596275406
 20
290339.1045586227
 10
125034.9779445354
 20
290339.753322701
 10
125021.2284914246
 20
290340.0827557758
 10
125014.4430756063
 20
290340.1886116222
 10
125013.9009108965
 20
290340.5132172416
 10
125005.3154448405
 20
290340.5132172416
 10
125005.3154448405
 20
290343.5132172416
  0
LWPOLYLINE
  5
D8
330
1F
100
AcDbEntity
  8
1
  6
Continuous
 62
     3
 60
     1
100
AcDbPolyline
 90
        3
 70
     0
 43
0.0
 10
125018.3154448404
 20
290318.074309969
 10
125018.3154951143
 20
290320.1994483221
 10
125026.6515870373
 20
290320.2132170637
  0
LWPOLYLINE
  5
D9
330
1F
100
AcDbEntity
  8
1
  6
Continuous
 62
     7
 60
     1
100
AcDbPolyline
 90
        2
 70
     0
 43
0.0
 10
125018.3154448404
 20
290296.7017823221
 10
125018.3154448404
 20
290305.6521245146
  0
ARC
  5
DA
330
1F
100
AcDbEntity
  8
1
  6
Continuous
 62
     7
100
AcDbCircle
 10
125077.8154448405
 20
290301.199448322
 30
0.0
 40
2.0
100
AcDbArc
 50
-90.0
 51
0.0
  0
DIMENSION
  5
E6
330
1F
100
AcDbEntity
  8
1
100
AcDbDimension
  2
*D1
 10
125044.8154951143
 20
290272.2041164999
 30
0.0
 11
125038.530243418
 21
290275.9541164999
 31
0.0
 70
    32
  1
<>
 71
     5
 42
-1.0
 53
0.00013888888889
  3
ME10_DIM_10
100
AcDbAlignedDimension
 13
125032.8154951143
 23
290294.4434487088
 33
0.0
 14
125044.8154951143
 24
290293.8363453164
 34
0.0
100
AcDbRotatedDimension
  0
DIMENSION
  5
F3
330
1F
100
AcDbEntity
  8
1
100
AcDbDimension
  2
*D2
 10
124984.0
 20
290292.6994483221
 30
0.0
 11
124980.25
 21
290300.0590797794
 31
0.0
 70
    32
  1
<>
 71
     5
 42
-1.0
 53
90.0
  3
ME10_DIM_11
100
AcDbAlignedDimension
 13
125042.8328979115
 23
290293.1998570389
 33
0.0
 14
125045.3260971144
 24
290292.6994483221
 34
0.0
 50
90.0
100
AcDbRotatedDimension
  0
DIMENSION
  5
FE
330
1F
100
AcDbEntity
  8
1
100
AcDbDimension
  2
*D3
 10
125024.8154448404
 20
290347.6167716653
 30
0.0
 11
125030.426563384
 21
290351.3667716653
 31
0.0
 70
    32
  1
<>
 71
     5
 42
-1.0
 53
0.00013888888889
  3
ME10_DIM_12
100
AcDbAlignedDimension
 13
125036.8154448405
 23
290337.6167716652
 33
0.0
 14
125024.8154448404
 24
290300.2132172418
 34
0.0
100
AcDbRotatedDimension
  0
DIMENSION
  5
109
330
1F
100
AcDbEntity
  8
1
100
AcDbDimension
  2
*D4
 10
124974.0
 20
290289.1994483221
 30
0.0
 11
124970.25
 21
290303.488006656
 31
0.0
 70
    32
  1
<>
 71
     5
 42
-1.0
 53
90.0
  3
ME10_DIM_13
100
AcDbAlignedDimension
 13
125024.8154448404
 23
290320.1994483221
 33
0.0
 14
125022.3264951143
 24
290289.1994483221
 34
0.0
 50
90.0
100
AcDbRotatedDimension
  0
DIMENSION
  5
116
330
1F
100
AcDbEntity
  8
1
100
AcDbDimension
  2
*D5
 10
125024.8154448404
 20
290262.2041164999
 30
0.0
 11
125012.579814722
 21
290265.9541164999
 31
0.0
 70
    32
  1
<>
 71
     5
 42
-1.0
 53
0.00013888888889
  3
ME10_DIM_14
100
AcDbAlignedDimension
 13
125018.3154448405
 23
290289.2041163218
 33
0.0
 14
125024.8154448404
 24
290300.2132172418
 34
0.0
100
AcDbRotatedDimension
  0
DIMENSION
  5
121
330
1F
100
AcDbEntity
  8
1
100
AcDbDimension
  2
*D6
 10
125046.8154951143
 20
290347.6167716652
 30
0.0
 11
125057.085197991
 21
290351.3667716652
 31
0.0
 70
    32
  1
<>
 71
     5
 42
-1.0
 53
0.00013888888889
  3
ME10_DIM_15
100
AcDbAlignedDimension
 13
125066.8154951143
 23
290334.1994483221
 33
0.0
 14
125046.8154951143
 24
290332.1994483221
 34
0.0
100
AcDbRotatedDimension
  0
DIMENSION
  5
12C
330
1F
100
AcDbEntity
  8
1
100
AcDbDimension
  2
*D7
 10
125036.8154448405
 20
290347.6167716653
 30
0.0
 11
125041.1012853395
 21
290351.3667716653
 31
0.0
 70
    32
  1
<>
 71
     5
 42
-1.0
 53
0.00013888888889
  3
ME10_DIM_16
100
AcDbAlignedDimension
 13
125046.8154951143
 23
290332.1994483221
 33
0.0
 14
125036.8154448405
 24
290337.6167716652
 34
0.0
100
AcDbRotatedDimension
  0
DIMENSION
  5
137
330
1F
100
AcDbEntity
  8
1
100
AcDbDimension
  2
*D8
 10
125109.8154448405
 20
290299.199448322
 30
0.0
 11
125106.0654448405
 21
290316.8909139042
 31
0.0
 70
    32
  1
<>
 71
     5
 42
-1.0
 53
90.0
  3
ME10_DIM_17
100
AcDbAlignedDimension
 13
125066.8154951143
 23
290334.1994483221
 33
0.0
 14
125077.8154448405
 24
290299.199448322
 34
0.0
 50
90.0
100
AcDbRotatedDimension
  0
DIMENSION
  5
142
330
1F
100
AcDbEntity
  8
1
100
AcDbDimension
  2
*D9
 10
125099.8154448405
 20
290315.1991145002
 30
0.0
 11
125096.0654448405
 21
290307.1621888037
 31
0.0
 70
    32
  1
<>
 71
     5
 42
-1.0
 53
90.0
  3
ME10_DIM_18
100
AcDbAlignedDimension
 13
125077.8154448405
 23
290299.199448322
 33
0.0
 14
125063.4264951143
 24
290315.1991145002
 34
0.0
 50
90.0
100
AcDbRotatedDimension
  0
DIMENSION
  5
14D
330
1F
100
AcDbEntity
  8
1
100
AcDbDimension
  2
*D10
 10
125099.8154448405
 20
290284.1994483221
 30
0.0
 11
125096.0654448405
 21
290291.5976670282
 31
0.0
 70
    32
  1
<>
 71
     5
 42
-1.0
 53
90.0
  3
ME10_DIM_19
100
AcDbAlignedDimension
 13
125077.8154448405
 23
290299.199448322
 33
0.0
 14
125069.2329951144
 24
290284.1994483221
 34
0.0
 50
90.0
100
AcDbRotatedDimension
  0
DIMENSION
  5
158
330
1F
100
AcDbEntity
  8
1
100
AcDbDimension
  2
*D11
 10
125044.8154448405
 20
290262.2041164999
 30
0.0
 11
125033.9996878257
 21
290265.9541164999
 31
0.0
 70
    32
  1
<>
 71
     5
 42
-1.0
 53
0.00013888888889
  3
ME10_DIM_20
100
AcDbAlignedDimension
 13
125024.8154448404
 23
290300.2132172418
 33
0.0
 14
125044.8154448405
 24
290285.2041164999
 34
0.0
100
AcDbRotatedDimension
  0
DIMENSION
  5
165
330
1F
100
AcDbEntity
  8
1
100
AcDbDimension
  2
*D12
 10
125089.8154448405
 20
290293.1998570389
 30
0.0
 11
125086.0654448405
 21
290296.678952572
 31
0.0
 70
    32
  1
<>
 71
     5
 42
-1.0
 53
90.0
  3
ME10_DIM_21
100
AcDbAlignedDimension
 13
125067.8154951143
 23
290299.1994483221
 33
0.0
 14
125042.8328979115
 24
290293.1998570389
 34
0.0
 50
90.0
100
AcDbRotatedDimension
  0
ENDSEC
  0
SECTION
  2
OBJECTS
  0
DICTIONARY
  5
C
330
0
100
AcDbDictionary
281
     1
  3
ACAD_GROUP
350
D
  3
ACAD_LAYOUT
350
1A
  3
ACAD_MLINESTYLE
350
17
  3
ACAD_PLOTSETTINGS
350
19
  3
ACAD_PLOTSTYLENAME
350
E
  0
DICTIONARY
  5
D
102
{ACAD_REACTORS
330
C
102
}
330
C
100
AcDbDictionary
281
     1
  0
DICTIONARY
  5
1A
102
{ACAD_REACTORS
330
C
102
}
330
C
100
AcDbDictionary
281
     1
  3
Layout1
350
1E
  3
Layout2
350
26
  3
Model
350
22
  0
DICTIONARY
  5
17
102
{ACAD_REACTORS
330
C
102
}
330
C
100
AcDbDictionary
281
     1
  3
Standard
350
18
  0
DICTIONARY
  5
19
102
{ACAD_REACTORS
330
C
102
}
330
C
100
AcDbDictionary
281
     1
  0
ACDBDICTIONARYWDFLT
  5
E
102
{ACAD_REACTORS
330
C
102
}
330
C
100
AcDbDictionary
281
     1
  3
Normal
350
F
100
AcDbDictionaryWithDefault
340
F
  0
LAYOUT
  5
1E
102
{ACAD_REACTORS
330
1A
102
}
330
1A
100
AcDbPlotSettings
  1

  2

  4

  6

 40
0.0
 41
0.0
 42
0.0
 43
0.0
 44
0.0
 45
0.0
 46
0.0
 47
0.0
 48
0.0
 49
0.0
140
0.0
141
0.0
142
1.0
143
1.0
 70
   688
 72
     0
 73
     0
 74
     5
  7

 75
    16
 76
     0
 77
     2
 78
   300
147
1.0
148
0.0
149
0.0
100
AcDbLayout
  1
Layout1
 70
     1
 71
     1
 10
0.0
 20
0.0
 11
0.0
 21
0.0
 12
0.0
 22
0.0
 32
0.0
 14
0.0
 24
0.0
 34
0.0
 15
0.0
 25
0.0
 35
0.0
146
0.0
 13
0.0
 23
0.0
 33
0.0
 16
1.0
 26
0.0
 36
0.0
 17
0.0
 27
1.0
 37
0.0
 76
     0
330
1B
  0
LAYOUT
  5
26
102
{ACAD_REACTORS
330
1A
102
}
330
1A
100
AcDbPlotSettings
  1

  2

  4

  6

 40
0.0
 41
0.0
 42
0.0
 43
0.0
 44
0.0
 45
0.0
 46
0.0
 47
0.0
 48
0.0
 49
0.0
140
0.0
141
0.0
142
1.0
143
1.0
 70
   688
 72
     0
 73
     0
 74
     5
  7

 75
    16
 76
     0
 77
     2
 78
   300
147
1.0
148
0.0
149
0.0
100
AcDbLayout
  1
Layout2
 70
     1
 71
     2
 10
0.0
 20
0.0
 11
0.0
 21
0.0
 12
0.0
 22
0.0
 32
0.0
 14
0.0
 24
0.0
 34
0.0
 15
0.0
 25
0.0
 35
0.0
146
0.0
 13
0.0
 23
0.0
 33
0.0
 16
1.0
 26
0.0
 36
0.0
 17
0.0
 27
1.0
 37
0.0
 76
     0
330
23
  0
LAYOUT
  5
22
102
{ACAD_REACTORS
330
1A
102
}
330
1A
100
AcDbPlotSettings
  1

  2

  4

  6

 40
0.0
 41
0.0
 42
0.0
 43
0.0
 44
0.0
 45
0.0
 46
0.0
 47
0.0
 48
0.0
 49
0.0
140
0.0
141
0.0
142
1.0
143
1.0
 70
  1712
 72
     0
 73
     0
 74
     0
  7

 75
     0
 76
     0
 77
     2
 78
   300
147
1.0
148
0.0
149
0.0
100
AcDbLayout
  1
Model
 70
     1
 71
     0
 10
0.0
 20
0.0
 11
0.0
 21
0.0
 12
0.0
 22
0.0
 32
0.0
 14
124968.5
 24
290260.2041164999
 34
0.0
 15
125111.8154448405
 25
290353.1167716653
 35
0.0
146
0.0
 13
0.0
 23
0.0
 33
0.0
 16
1.0
 26
0.0
 36
0.0
 17
0.0
 27
1.0
 37
0.0
 76
     0
330
1F
  0
MLINESTYLE
  5
18
102
{ACAD_REACTORS
330
17
102
}
330
17
100
AcDbMlineStyle
  2
Standard
 70
     0
  3

 62
   256
 51
90.0
 52
90.0
 71
     2
 49
0.5
 62
   256
  6
BYLAYER
 49
-0.5
 62
   256
  6
BYLAYER
  0
ACDBPLACEHOLDER
  5
F
102
{ACAD_REACTORS
330
E
102
}
330
E
  0
ENDSEC
  0
EOF
