  0
SECTION
  2
HEADER
  9
$ACADVER
  1
AC1018
  9
$ACADMAINTVER
 70
     0
  9
$DWGCODEPAGE
  3
ANSI_1252
  9
$INSBASE
 10
0.0
 20
0.0
 30
0.0
  9
$EXTMIN
 10
125170.5
 20
290260.2041164999
 30
0.0
  9
$EXTMAX
 10
125309.8154448405
 20
290353.1167716652
 30
0.0
  9
$LIMMIN
 10
0.0
 20
0.0
  9
$LIMMAX
 10
12.0
 20
9.0
  9
$ORTHOMODE
 70
     0
  9
$REGENMODE
 70
     1
  9
$FILLMODE
 70
     1
  9
$QTEXTMODE
 70
     0
  9
$MIRRTEXT
 70
     1
  9
$LTSCALE
 40
1.0
  9
$ATTMODE
 70
     1
  9
$TEXTSIZE
 40
0.2
  9
$TRACEWID
 40
0.05
  9
$TEXTSTYLE
  7
Standard
  9
$CLAYER
  8
0
  9
$CELTYPE
  6
ByLayer
  9
$CECOLOR
 62
   256
  9
$CELTSCALE
 40
1.0
  9
$DISPSILH
 70
     0
  9
$DIMSCALE
 40
1.0
  9
$DIMASZ
 40
0.18
  9
$DIMEXO
 40
0.0625
  9
$DIMDLI
 40
0.38
  9
$DIMRND
 40
0.0
  9
$DIMDLE
 40
0.0
  9
$DIMEXE
 40
0.18
  9
$DIMTP
 40
0.0
  9
$DIMTM
 40
0.0
  9
$DIMTXT
 40
0.18
  9
$DIMCEN
 40
0.09
  9
$DIMTSZ
 40
0.0
  9
$DIMTOL
 70
     0
  9
$DIMLIM
 70
     0
  9
$DIMTIH
 70
     1
  9
$DIMTOH
 70
     1
  9
$DIMSE1
 70
     0
  9
$DIMSE2
 70
     0
  9
$DIMTAD
 70
     0
  9
$DIMZIN
 70
     0
  9
$DIMBLK
  1

  9
$DIMASO
 70
     1
  9
$DIMSHO
 70
     1
  9
$DIMPOST
  1

  9
$DIMAPOST
  1

  9
$DIMALT
 70
     0
  9
$DIMALTD
 70
     2
  9
$DIMALTF
 40
25.4
  9
$DIMLFAC
 40
1.0
  9
$DIMTOFL
 70
     0
  9
$DIMTVP
 40
0.0
  9
$DIMTIX
 70
     0
  9
$DIMSOXD
 70
     0
  9
$DIMSAH
 70
     0
  9
$DIMBLK1
  1

  9
$DIMBLK2
  1

  9
$DIMSTYLE
  2
Standard
  9
$DIMCLRD
 70
     0
  9
$DIMCLRE
 70
     0
  9
$DIMCLRT
 70
     0
  9
$DIMTFAC
 40
1.0
  9
$DIMGAP
 40
0.09
  9
$DIMJUST
 70
     0
  9
$DIMSD1
 70
     0
  9
$DIMSD2
 70
     0
  9
$DIMTOLJ
 70
     1
  9
$DIMTZIN
 70
     0
  9
$DIMALTZ
 70
     0
  9
$DIMALTTZ
 70
     0
  9
$DIMUPT
 70
     0
  9
$DIMDEC
 70
     4
  9
$DIMTDEC
 70
     4
  9
$DIMALTU
 70
     2
  9
$DIMALTTD
 70
     2
  9
$DIMTXSTY
  7
Standard
  9
$DIMAUNIT
 70
     0
  9
$DIMADEC
 70
     0
  9
$DIMALTRND
 40
0.0
  9
$DIMAZIN
 70
     0
  9
$DIMDSEP
 70
    46
  9
$DIMATFIT
 70
     3
  9
$DIMFRAC
 70
     0
  9
$DIMLDRBLK
  1

  9
$DIMLUNIT
 70
     2
  9
$DIMLWD
 70
    -2
  9
$DIMLWE
 70
    -2
  9
$DIMTMOVE
 70
     0
  9
$LUNITS
 70
     2
  9
$LUPREC
 70
     4
  9
$SKETCHINC
 40
0.1
  9
$FILLETRAD
 40
0.5
  9
$AUNITS
 70
     0
  9
$AUPREC
 70
     0
  9
$MENU
  1
.
  9
$ELEVATION
 40
0.0
  9
$PELEVATION
 40
0.0
  9
$THICKNESS
 40
0.0
  9
$LIMCHECK
 70
     0
  9
$CHAMFERA
 40
0.5
  9
$CHAMFERB
 40
0.5
  9
$CHAMFERC
 40
1.0
  9
$CHAMFERD
 40
0.0
  9
$SKPOLY
 70
     0
  9
$TDCREATE
 40
2456624.399035637
  9
$TDUCREATE
 40
2456624.35736897
  9
$TDUPDATE
 40
2456624.399035648
  9
$TDUUPDATE
 40
2456624.357368981
  9
$TDINDWG
 40
0.0000000116
  9
$TDUSRTIMER
 40
0.0000000116
  9
$USRTIMER
 70
     1
  9
$ANGBASE
 50
0.0
  9
$ANGDIR
 70
     0
  9
$PDMODE
 70
     0
  9
$PDSIZE
 40
0.0
  9
$PLINEWID
 40
0.0
  9
$SPLFRAME
 70
     0
  9
$SPLINETYPE
 70
     6
  9
$SPLINESEGS
 70
     8
  9
$HANDSEED
  5
161
  9
$SURFTAB1
 70
     6
  9
$SURFTAB2
 70
     6
  9
$SURFTYPE
 70
     6
  9
$SURFU
 70
     6
  9
$SURFV
 70
     6
  9
$UCSBASE
  2

  9
$UCSNAME
  2

  9
$UCSORG
 10
0.0
 20
0.0
 30
0.0
  9
$UCSXDIR
 10
1.0
 20
0.0
 30
0.0
  9
$UCSYDIR
 10
0.0
 20
1.0
 30
0.0
  9
$UCSORTHOREF
  2

  9
$UCSORTHOVIEW
 70
     0
  9
$UCSORGTOP
 10
0.0
 20
0.0
 30
0.0
  9
$UCSORGBOTTOM
 10
0.0
 20
0.0
 30
0.0
  9
$UCSORGLEFT
 10
0.0
 20
0.0
 30
0.0
  9
$UCSORGRIGHT
 10
0.0
 20
0.0
 30
0.0
  9
$UCSORGFRONT
 10
0.0
 20
0.0
 30
0.0
  9
$UCSORGBACK
 10
0.0
 20
0.0
 30
0.0
  9
$PUCSBASE
  2

  9
$PUCSNAME
  2

  9
$PUCSORG
 10
0.0
 20
0.0
 30
0.0
  9
$PUCSXDIR
 10
1.0
 20
0.0
 30
0.0
  9
$PUCSYDIR
 10
0.0
 20
1.0
 30
0.0
  9
$PUCSORTHOREF
  2

  9
$PUCSORTHOVIEW
 70
     0
  9
$PUCSORGTOP
 10
0.0
 20
0.0
 30
0.0
  9
$PUCSORGBOTTOM
 10
0.0
 20
0.0
 30
0.0
  9
$PUCSORGLEFT
 10
0.0
 20
0.0
 30
0.0
  9
$PUCSORGRIGHT
 10
0.0
 20
0.0
 30
0.0
  9
$PUCSORGFRONT
 10
0.0
 20
0.0
 30
0.0
  9
$PUCSORGBACK
 10
0.0
 20
0.0
 30
0.0
  9
$USERI1
 70
     0
  9
$USERI2
 70
     0
  9
$USERI3
 70
     0
  9
$USERI4
 70
     0
  9
$USERI5
 70
     0
  9
$USERR1
 40
14.5
  9
$USERR2
 40
0.0
  9
$USERR3
 40
0.0
  9
$USERR4
 40
0.0
  9
$USERR5
 40
0.0
  9
$WORLDVIEW
 70
     1
  9
$SHADEDGE
 70
     3
  9
$SHADEDIF
 70
    70
  9
$TILEMODE
 70
     1
  9
$MAXACTVP
 70
    64
  9
$PINSBASE
 10
0.0
 20
0.0
 30
0.0
  9
$PLIMCHECK
 70
     0
  9
$PEXTMIN
 10
1.00000000000000E+20
 20
1.00000000000000E+20
 30
1.00000000000000E+20
  9
$PEXTMAX
 10
-1.00000000000000E+20
 20
-1.00000000000000E+20
 30
-1.00000000000000E+20
  9
$PLIMMIN
 10
0.0
 20
0.0
  9
$PLIMMAX
 10
12.0
 20
9.0
  9
$UNITMODE
 70
     0
  9
$VISRETAIN
 70
     1
  9
$PLINEGEN
 70
     0
  9
$PSLTSCALE
 70
     1
  9
$TREEDEPTH
 70
  3020
  9
$CMLSTYLE
  2
Standard
  9
$CMLJUST
 70
     0
  9
$CMLSCALE
 40
1.0
  9
$PROXYGRAPHICS
 70
     1
  9
$MEASUREMENT
 70
     1
  9
$CELWEIGHT
370
    -1
  9
$ENDCAPS
280
     0
  9
$JOINSTYLE
280
     0
  9
$LWDISPLAY
290
     0
  9
$INSUNITS
 70
     1
  9
$HYPERLINKBASE
  1

  9
$STYLESHEET
  1

  9
$XEDIT
290
     1
  9
$CEPSNTYPE
380
     0
  9
$PSTYLEMODE
290
     1
  9
$FINGERPRINTGUID
  2
{F1350CCF-788B-4695-B067-BF245D8AEB9B}
  9
$VERSIONGUID
  2
{FAEB1C32-E019-11D5-929B-00C0DF256EC4}
  9
$EXTNAMES
290
     1
  9
$PSVPSCALE
 40
0.0
  9
$OLESTARTUP
290
     0
  9
$SORTENTS
280
   127
  9
$INDEXCTL
280
     0
  9
$HIDETEXT
280
     1
  9
$XCLIPFRAME
290
     0
  9
$HALOGAP
280
     0
  9
$OBSCOLOR
 70
   257
  9
$OBSLTYPE
280
     0
  9
$INTERSECTIONDISPLAY
280
     0
  9
$INTERSECTIONCOLOR
 70
   257
  9
$DIMASSOC
280
     2
  9
$PROJECTNAME
  1

  0
ENDSEC
  0
SECTION
  2
CLASSES
  0
CLASS
  1
ACDBDICTIONARYWDFLT
  2
AcDbDictionaryWithDefault
  3
ObjectDBX Classes
 90
        0
 91
        3
280
     0
281
     0
  0
CLASS
  1

  2
exOdDbCircle
  3

 90
        0
 91
        3
280
     0
281
     1
  0
CLASS
  1

  2
exOdDbPolyline
  3

 90
        0
 91
        3
280
     0
281
     1
  0
ENDSEC
  0
SECTION
  2
TABLES
  0
TABLE
  2
VPORT
  5
8
330
0
100
AcDbSymbolTable
 70
     1
  0
VPORT
  5
29
330
8
100
AcDbSymbolTableRecord
100
AcDbViewportTableRecord
  2
*Active
 70
     0
 10
0.0
 20
0.0
 11
1.0
 21
1.0
 12
125240.1577224202
 22
290306.6604440826
 13
0.0
 23
0.0
 14
0.5
 24
0.5
 15
0.5
 25
0.5
 16
0.0
 26
0.0
 36
1.0
 17
0.0
 27
0.0
 37
0.0
 40
102.2039206818328
 41
1.60267857142857
 42
50.0
 43
0.0
 44
0.0
 50
0.0
 51
0.0
 71
     0
 72
   100
 73
     1
 74
     3
 75
     0
 76
     0
 77
     0
 78
     0
281
     0
 65
     1
110
0.0
120
0.0
130
0.0
111
1.0
121
0.0
131
0.0
112
0.0
122
1.0
132
0.0
 79
     0
146
0.0
  0
ENDTAB
  0
TABLE
  2
LTYPE
  5
5
330
0
100
AcDbSymbolTable
 70
     8
  0
LTYPE
  5
14
330
5
100
AcDbSymbolTableRecord
100
AcDbLinetypeTableRecord
  2
ByBlock
 70
     0
  3

 72
    65
 73
     0
 40
0.0
  0
LTYPE
  5
15
330
5
100
AcDbSymbolTableRecord
100
AcDbLinetypeTableRecord
  2
ByLayer
 70
     0
  3

 72
    65
 73
     0
 40
0.0
  0
LTYPE
  5
16
330
5
100
AcDbSymbolTableRecord
100
AcDbLinetypeTableRecord
  2
Continuous
 70
     0
  3
Solid line
 72
    65
 73
     0
 40
0.0
  0
LTYPE
  5
2A
330
5
100
AcDbSymbolTableRecord
100
AcDbLinetypeTableRecord
  2
DASHED
 70
     0
  3
Dashed
 72
    65
 73
     2
 40
15.0
 49
7.0
 74
     0
 49
-8.0
 74
     0
  0
LTYPE
  5
2B
330
5
100
AcDbSymbolTableRecord
100
AcDbLinetypeTableRecord
  2
DOTTED
 70
     0
  3
Dotted
 72
    65
 73
     2
 40
1.0
 49
0.0
 74
     0
 49
-1.0
 74
     0
  0
LTYPE
  5
2C
330
5
100
AcDbSymbolTableRecord
100
AcDbLinetypeTableRecord
  2
DOT_CENTER
 70
     0
  3
Dot_Center
 72
    65
 73
     4
 40
14.0
 49
12.0
 74
     0
 49
-1.0
 74
     0
 49
0.0
 74
     0
 49
-1.0
 74
     0
  0
LTYPE
  5
2D
330
5
100
AcDbSymbolTableRecord
100
AcDbLinetypeTableRecord
  2
LONG_DASHED
 70
     0
  3
Long_Dashed
 72
    65
 73
     2
 40
15.0
 49
10.0
 74
     0
 49
-5.0
 74
     0
  0
LTYPE
  5
2E
330
5
100
AcDbSymbolTableRecord
100
AcDbLinetypeTableRecord
  2
DASH_CENTER
 70
     0
  3
Dash_Center
 72
    65
 73
     4
 40
14.0
 49
11.0
 74
     0
 49
-1.0
 74
     0
 49
1.0
 74
     0
 49
-1.0
 74
     0
  0
LTYPE
  5
2F
330
5
100
AcDbSymbolTableRecord
100
AcDbLinetypeTableRecord
  2
PHANTOM
 70
     0
  3
Phantom
 72
    65
 73
     6
 40
13.0
 49
10.0
 74
     0
 49
-1.0
 74
     0
 49
0.0
 74
     0
 49
-1.0
 74
     0
 49
0.0
 74
     0
 49
-1.0
 74
     0
  0
LTYPE
  5
30
330
5
100
AcDbSymbolTableRecord
100
AcDbLinetypeTableRecord
  2
CENTER_DASH_DASH
 70
     0
  3
Center_Dash_Dash
 72
    65
 73
     6
 40
14.0
 49
9.0
 74
     0
 49
-1.0
 74
     0
 49
1.0
 74
     0
 49
-1.0
 74
     0
 49
1.0
 74
     0
 49
-1.0
 74
     0
  0
ENDTAB
  0
TABLE
  2
LAYER
  5
2
330
0
100
AcDbSymbolTable
 70
     6
  0
LAYER
  5
10
330
2
100
AcDbSymbolTableRecord
100
AcDbLayerTableRecord
  2
0
 70
     0
 62
     7
  6
Continuous
370
    -3
390
F
  0
LAYER
  5
31
330
2
100
AcDbSymbolTableRecord
100
AcDbLayerTableRecord
  2
1
 70
     0
 62
     7
  6
Continuous
370
    -3
390
F
  0
LAYER
  5
32
330
2
100
AcDbSymbolTableRecord
100
AcDbLayerTableRecord
  2
A_ACHSEN
 70
     0
 62
     7
  6
Continuous
370
    -3
390
F
  0
LAYER
  5
33
330
2
100
AcDbSymbolTableRecord
100
AcDbLayerTableRecord
  2
A_BEMASSUNGEN
 70
     0
 62
     7
  6
Continuous
370
    -3
390
F
  0
LAYER
  5
34
330
2
100
AcDbSymbolTableRecord
100
AcDbLayerTableRecord
  2
A_RUNDUNGEN
 70
     0
 62
     7
  6
Continuous
370
    -3
390
F
  0
LAYER
  5
35
330
2
100
AcDbSymbolTableRecord
100
AcDbLayerTableRecord
  2
DEFAULT_2
 70
     0
 62
     7
  6
Continuous
370
    -3
390
F
  0
ENDTAB
  0
TABLE
  2
STYLE
  5
3
330
0
100
AcDbSymbolTable
 70
     2
  0
STYLE
  5
11
330
3
100
AcDbSymbolTableRecord
100
AcDbTextStyleTableRecord
  2
Standard
 70
     0
 40
0.0
 41
1.0
 50
0.0
 71
     0
 42
0.2
  3
txt
  4

  0
STYLE
  5
D9
330
3
100
AcDbSymbolTableRecord
100
AcDbTextStyleTableRecord
  2
CONVERTER_11
 70
     0
 40
0.0
 41
0.9
 50
0.0
 71
     0
 42
0.2
  3
txt.shx
  4

  0
ENDTAB
  0
TABLE
  2
VIEW
  5
6
330
0
100
AcDbSymbolTable
 70
     0
  0
ENDTAB
  0
TABLE
  2
UCS
  5
7
330
0
100
AcDbSymbolTable
 70
     0
  0
ENDTAB
  0
TABLE
  2
APPID
  5
9
330
0
100
AcDbSymbolTable
 70
     1
  0
APPID
  5
12
330
9
100
AcDbSymbolTableRecord
100
AcDbRegAppTableRecord
  2
ACAD
 70
     0
  0
ENDTAB
  0
TABLE
  2
DIMSTYLE
  5
A
330
0
100
AcDbSymbolTable
 70
    13
100
AcDbDimStyleTable
  0
DIMSTYLE
105
27
330
A
100
AcDbSymbolTableRecord
100
AcDbDimStyleTableRecord
  2
Standard
 70
     0
340
11
  0
DIMSTYLE
105
DD
102
{ACAD_REACTORS
330
DE
102
}
330
A
100
AcDbSymbolTableRecord
100
AcDbDimStyleTableRecord
  2
ME10_DIM_10
 70
     0
 41
3.5
 42
0.0
 44
2.0
 73
     0
 74
     0
 77
     1
 78
     8
140
3.5
147
2.0
172
     1
173
     1
176
     2
177
     2
178
     2
271
     3
340
D9
  0
DIMSTYLE
105
E9
102
{ACAD_REACTORS
330
EA
102
}
330
A
100
AcDbSymbolTableRecord
100
AcDbDimStyleTableRecord
  2
ME10_DIM_11
 70
     0
 41
3.5
 42
0.0
 44
2.0
 73
     0
 74
     0
 77
     1
 78
     8
140
3.5
147
2.0
172
     1
173
     1
176
     2
177
     2
178
     2
271
     3
340
D9
  0
DIMSTYLE
105
F6
102
{ACAD_REACTORS
330
F7
102
}
330
A
100
AcDbSymbolTableRecord
100
AcDbDimStyleTableRecord
  2
ME10_DIM_12
 70
     0
 41
3.5
 42
0.0
 44
2.0
 73
     0
 74
     0
 77
     1
 78
     8
140
3.5
147
2.0
172
     1
173
     1
176
     2
177
     2
178
     2
271
     3
340
D9
  0
DIMSTYLE
105
103
102
{ACAD_REACTORS
330
104
102
}
330
A
100
AcDbSymbolTableRecord
100
AcDbDimStyleTableRecord
  2
ME10_DIM_13
 70
     0
 41
3.5
 42
0.0
 44
2.0
 73
     0
 74
     0
 77
     1
 78
     8
140
3.5
147
2.0
172
     1
173
     1
176
     2
177
     2
178
     2
271
     3
340
D9
  0
DIMSTYLE
105
110
102
{ACAD_REACTORS
330
111
102
}
330
A
100
AcDbSymbolTableRecord
100
AcDbDimStyleTableRecord
  2
ME10_DIM_14
 70
     0
 41
3.5
 42
0.0
 44
2.0
 73
     0
 74
     0
 77
     1
 78
     8
140
3.5
147
2.0
172
     1
173
     1
176
     2
177
     2
178
     2
271
     3
340
D9
  0
DIMSTYLE
105
11B
102
{ACAD_REACTORS
330
11C
102
}
330
A
100
AcDbSymbolTableRecord
100
AcDbDimStyleTableRecord
  2
ME10_DIM_15
 70
     0
 41
3.5
 42
0.0
 44
2.0
 73
     0
 74
     0
 77
     1
 78
     8
140
3.5
147
2.0
172
     1
173
     1
176
     2
177
     2
178
     2
271
     3
340
D9
  0
DIMSTYLE
105
126
102
{ACAD_REACTORS
330
127
102
}
330
A
100
AcDbSymbolTableRecord
100
AcDbDimStyleTableRecord
  2
ME10_DIM_16
 70
     0
 41
3.5
 42
0.0
 44
2.0
 73
     0
 74
     0
 77
     1
 78
     8
140
3.5
147
2.0
172
     1
173
     1
176
     2
177
     2
178
     2
271
     3
340
D9
  0
DIMSTYLE
105
131
102
{ACAD_REACTORS
330
132
102
}
330
A
100
AcDbSymbolTableRecord
100
AcDbDimStyleTableRecord
  2
ME10_DIM_17
 70
     0
 41
3.5
 42
0.0
 44
2.0
 73
     0
 74
     0
 77
     1
 78
     8
140
3.5
147
2.0
172
     1
173
     1
176
     2
177
     2
178
     2
271
     3
340
D9
  0
DIMSTYLE
105
13E
102
{ACAD_REACTORS
330
13F
102
}
330
A
100
AcDbSymbolTableRecord
100
AcDbDimStyleTableRecord
  2
ME10_DIM_18
 70
     0
 41
3.5
 42
0.0
 44
2.0
 73
     0
 74
     0
 77
     1
 78
     8
140
3.5
147
2.0
172
     1
173
     1
176
     2
177
     2
178
     2
271
     3
340
D9
  0
DIMSTYLE
105
149
102
{ACAD_REACTORS
330
14A
102
}
330
A
100
AcDbSymbolTableRecord
100
AcDbDimStyleTableRecord
  2
ME10_DIM_19
 70
     0
 41
3.5
 42
0.0
 44
2.0
 73
     0
 74
     0
 77
     1
 78
     8
140
3.5
147
2.0
172
     1
173
     1
176
     2
177
     2
178
     2
271
     3
340
D9
  0
DIMSTYLE
105
154
102
{ACAD_REACTORS
330
155
102
}
330
A
100
AcDbSymbolTableRecord
100
AcDbDimStyleTableRecord
  2
ME10_DIM_20
 70
     0
 41
3.5
 42
0.0
 44
2.0
 73
     0
 74
     0
 77
     1
 78
     8
140
3.5
147
2.0
172
     1
173
     1
176
     2
177
     2
178
     2
271
     3
340
D9
  0
DIMSTYLE
105
15F
102
{ACAD_REACTORS
330
160
102
}
330
A
100
AcDbSymbolTableRecord
100
AcDbDimStyleTableRecord
  2
ME10_DIM_21
 70
     0
 41
3.5
 42
0.0
 44
2.0
 73
     0
 74
     0
 77
     1
 78
     8
140
3.5
147
2.0
172
     1
173
     1
176
     2
177
     2
178
     2
271
     3
340
D9
  0
ENDTAB
  0
TABLE
  2
BLOCK_RECORD
  5
1
330
0
100
AcDbSymbolTable
 70
    13
  0
BLOCK_RECORD
  5
1F
330
1
100
AcDbSymbolTableRecord
100
AcDbBlockTableRecord
  2
*Model_Space
340
22
  0
BLOCK_RECORD
  5
1B
330
1
100
AcDbSymbolTableRecord
100
AcDbBlockTableRecord
  2
*Paper_Space
340
1E
  0
BLOCK_RECORD
  5
23
330
1
100
AcDbSymbolTableRecord
100
AcDbBlockTableRecord
  2
*Paper_Space0
340
26
  0
BLOCK_RECORD
  5
D3
330
1
100
AcDbSymbolTableRecord
100
AcDbBlockTableRecord
  2
*D1
340
0
  0
BLOCK_RECORD
  5
DF
330
1
100
AcDbSymbolTableRecord
100
AcDbBlockTableRecord
  2
*D2
340
0
  0
BLOCK_RECORD
  5
EB
330
1
100
AcDbSymbolTableRecord
100
AcDbBlockTableRecord
  2
*D3
340
0
  0
BLOCK_RECORD
  5
F8
330
1
100
AcDbSymbolTableRecord
100
AcDbBlockTableRecord
  2
*D4
340
0
  0
BLOCK_RECORD
  5
105
330
1
100
AcDbSymbolTableRecord
100
AcDbBlockTableRecord
  2
*D5
340
0
  0
BLOCK_RECORD
  5
112
330
1
100
AcDbSymbolTableRecord
100
AcDbBlockTableRecord
  2
*D6
340
0
  0
BLOCK_RECORD
  5
11D
330
1
100
AcDbSymbolTableRecord
100
AcDbBlockTableRecord
  2
*D7
340
0
  0
BLOCK_RECORD
  5
128
330
1
100
AcDbSymbolTableRecord
100
AcDbBlockTableRecord
  2
*D8
340
0
  0
BLOCK_RECORD
  5
133
330
1
100
AcDbSymbolTableRecord
100
AcDbBlockTableRecord
  2
*D9
340
0
  0
BLOCK_RECORD
  5
140
330
1
100
AcDbSymbolTableRecord
100
AcDbBlockTableRecord
  2
*D10
340
0
  0
BLOCK_RECORD
  5
14B
330
1
100
AcDbSymbolTableRecord
100
AcDbBlockTableRecord
  2
*D11
340
0
  0
BLOCK_RECORD
  5
156
330
1
100
AcDbSymbolTableRecord
100
AcDbBlockTableRecord
  2
*D12
340
0
  0
ENDTAB
  0
ENDSEC
  0
SECTION
  2
BLOCKS
  0
BLOCK
  5
20
330
1F
100
AcDbEntity
  8
0
100
AcDbBlockBegin
  2
*Model_Space
 70
     0
 71
     0
 10
0.0
 20
0.0
 30
0.0
  3
*Model_Space
  1

  0
ENDBLK
  5
21
330
1F
100
AcDbEntity
  8
0
100
AcDbBlockEnd
  0
BLOCK
  5
1C
330
1B
100
AcDbEntity
 67
     1
  8
0
100
AcDbBlockBegin
  2
*Paper_Space
 70
     0
 71
     0
 10
0.0
 20
0.0
 30
0.0
  3
*Paper_Space
  1

  0
ENDBLK
  5
1D
330
1B
100
AcDbEntity
 67
     1
  8
0
100
AcDbBlockEnd
  0
BLOCK
  5
24
330
23
100
AcDbEntity
  8
0
100
AcDbBlockBegin
  2
*Paper_Space0
 70
     0
 71
     0
 10
0.0
 20
0.0
 30
0.0
  3
*Paper_Space0
  1

  0
ENDBLK
  5
25
330
23
100
AcDbEntity
  8
0
100
AcDbBlockEnd
  0
BLOCK
  5
DB
330
D3
100
AcDbEntity
  8
0
100
AcDbBlockBegin
  2
*D1
 70
     1
 71
     0
 10
0.0
 20
0.0
 30
0.0
  3
*D1
  1

  0
LINE
  5
D4
330
D3
100
AcDbEntity
  8
1
  6
Continuous
 62
     2
100
AcDbLine
 10
125307.8154448405
 20
290299.199448322
 30
0.0
 11
125307.8154448405
 21
290334.1994483221
 31
0.0
  0
LINE
  5
D5
330
D3
100
AcDbEntity
  8
1
  6
Continuous
 62
     2
100
AcDbLine
 10
125262.8154951143
 20
290334.1994483221
 30
0.0
 11
125309.8154448405
 21
290334.1994483221
 31
0.0
  0
LINE
  5
D6
330
D3
100
AcDbEntity
  8
1
  6
Continuous
 62
     2
100
AcDbLine
 10
125275.8154448405
 20
290299.199448322
 30
0.0
 11
125309.8154448405
 21
290299.199448322
 31
0.0
  0
SOLID
  5
D7
330
D3
100
AcDbEntity
  8
1
 62
     2
100
AcDbTrace
 10
125307.3546610989
 20
290302.699448322
 30
0.0
 11
125308.276228582
 21
290302.699448322
 31
0.0
 12
125307.8154448405
 22
290299.199448322
 32
0.0
 13
125307.8154448405
 23
290299.199448322
 33
0.0
  0
SOLID
  5
D8
330
D3
100
AcDbEntity
  8
1
 62
     2
100
AcDbTrace
 10
125308.276228582
 20
290330.6994483221
 30
0.0
 11
125307.3546610989
 21
290330.6994483221
 31
0.0
 12
125307.8154448405
 22
290334.1994483221
 32
0.0
 13
125307.8154448405
 23
290334.1994483221
 33
0.0
  0
MTEXT
  5
DA
330
D3
100
AcDbEntity
  8
1
 62
     2
100
AcDbMText
 10
125305.8154448405
 20
290311.9436938122
 30
0.0
 40
3.5
 41
0.0
 71
     7
 72
     1
  1
35
  7
CONVERTER_11
 11
0.0
 21
1.0
 31
0.0
 73
     1
 44
0.60024009603842
  0
ENDBLK
  5
DC
330
D3
100
AcDbEntity
  8
0
100
AcDbBlockEnd
  0
BLOCK
  5
E7
330
DF
100
AcDbEntity
  8
0
100
AcDbBlockBegin
  2
*D2
 70
     1
 71
     0
 10
0.0
 20
0.0
 30
0.0
  3
*D2
  1

  0
LINE
  5
E0
330
DF
100
AcDbEntity
  8
1
  6
Continuous
 62
     2
100
AcDbLine
 10
125176.0
 20
290320.1994483221
 30
0.0
 11
125176.0
 21
290289.1994483221
 31
0.0
  0
LINE
  5
E1
330
DF
100
AcDbEntity
  8
1
  6
Continuous
 62
     2
100
AcDbLine
 10
125214.3154448405
 20
290289.1994483221
 30
0.0
 11
125189.300146716
 21
290289.1994483221
 31
0.0
  0
LINE
  5
E2
330
DF
100
AcDbEntity
  8
1
  6
Continuous
 62
     2
100
AcDbLine
 10
125183.592979641
 20
290289.1994483221
 30
0.0
 11
125174.0
 21
290289.1994483221
 31
0.0
  0
LINE
  5
E3
330
DF
100
AcDbEntity
  8
1
  6
Continuous
 62
     2
100
AcDbLine
 10
125214.3154448405
 20
290320.1994483221
 30
0.0
 11
125174.0
 21
290320.1994483221
 31
0.0
  0
SOLID
  5
E4
330
DF
100
AcDbEntity
  8
1
 62
     2
100
AcDbTrace
 10
125176.4607837416
 20
290316.6994483221
 30
0.0
 11
125175.5392162584
 21
290316.6994483221
 31
0.0
 12
125176.0
 22
290320.1994483221
 32
0.0
 13
125176.0
 23
290320.1994483221
 33
0.0
  0
SOLID
  5
E5
330
DF
100
AcDbEntity
  8
1
 62
     2
100
AcDbTrace
 10
125175.5392162584
 20
290292.6994483221
 30
0.0
 11
125176.4607837416
 21
290292.6994483221
 31
0.0
 12
125176.0
 22
290289.1994483221
 32
0.0
 13
125176.0
 23
290289.1994483221
 33
0.0
  0
MTEXT
  5
E6
330
DF
100
AcDbEntity
  8
1
 62
     2
100
AcDbMText
 10
125174.0
 20
290301.742733363
 30
0.0
 40
3.5
 41
0.0
 71
     7
 72
     1
  1
31
  7
CONVERTER_11
 11
0.0
 21
1.0
 31
0.0
 73
     1
 44
0.60024009603842
  0
ENDBLK
  5
E8
330
DF
100
AcDbEntity
  8
0
100
AcDbBlockEnd
  0
BLOCK
  5
F4
330
EB
100
AcDbEntity
  8
0
100
AcDbBlockBegin
  2
*D3
 70
     1
 71
     0
 10
0.0
 20
0.0
 30
0.0
  3
*D3
  1

  0
LINE
  5
EC
330
EB
100
AcDbEntity
  8
1
  6
Continuous
 62
     2
100
AcDbLine
 10
125287.8154448405
 20
290306.199448322
 30
0.0
 11
125287.8154448405
 21
290299.199448322
 31
0.0
  0
LINE
  5
ED
330
EB
100
AcDbEntity
  8
1
  6
Continuous
 62
     2
100
AcDbLine
 10
125287.8154448405
 20
290299.199448322
 30
0.0
 11
125287.8154448405
 21
290293.1994483221
 31
0.0
  0
LINE
  5
EE
330
EB
100
AcDbEntity
  8
1
  6
Continuous
 62
     2
100
AcDbLine
 10
125287.8154448405
 20
290293.1994483221
 30
0.0
 11
125287.8154448405
 21
290286.1994483221
 31
0.0
  0
LINE
  5
EF
330
EB
100
AcDbEntity
  8
1
  6
Continuous
 62
     2
100
AcDbLine
 10
125242.8154448405
 20
290299.199448322
 30
0.0
 11
125289.8154448405
 21
290299.199448322
 31
0.0
  0
LINE
  5
F0
330
EB
100
AcDbEntity
  8
1
  6
Continuous
 62
     2
100
AcDbLine
 10
125237.8154448405
 20
290293.1994483221
 30
0.0
 11
125289.8154448405
 21
290293.1994483221
 31
0.0
  0
SOLID
  5
F1
330
EB
100
AcDbEntity
  8
1
 62
     2
100
AcDbTrace
 10
125287.3546610989
 20
290302.699448322
 30
0.0
 11
125288.276228582
 21
290302.699448322
 31
0.0
 12
125287.8154448405
 22
290299.199448322
 32
0.0
 13
125287.8154448405
 23
290299.199448322
 33
0.0
  0
SOLID
  5
F2
330
EB
100
AcDbEntity
  8
1
 62
     2
100
AcDbTrace
 10
125288.276228582
 20
290289.6994483221
 30
0.0
 11
125287.3546610989
 21
290289.6994483221
 31
0.0
 12
125287.8154448405
 22
290293.1994483221
 32
0.0
 13
125287.8154448405
 23
290293.1994483221
 33
0.0
  0
MTEXT
  5
F3
330
EB
100
AcDbEntity
  8
1
 62
     2
100
AcDbMText
 10
125285.8154448405
 20
290295.207333848
 30
0.0
 40
3.5
 41
0.0
 71
     7
 72
     1
  1
6
  7
CONVERTER_11
 11
0.0
 21
1.0
 31
0.0
 73
     1
 44
0.60024009603842
  0
ENDBLK
  5
F5
330
EB
100
AcDbEntity
  8
0
100
AcDbBlockEnd
  0
BLOCK
  5
101
330
F8
100
AcDbEntity
  8
0
100
AcDbBlockBegin
  2
*D4
 70
     1
 71
     0
 10
0.0
 20
0.0
 30
0.0
  3
*D4
  1

  0
LINE
  5
F9
330
F8
100
AcDbEntity
  8
1
  6
Continuous
 62
     2
100
AcDbLine
 10
125214.3154448405
 20
290262.2041164999
 30
0.0
 11
125206.072025921
 21
290262.2041164999
 31
0.0
  0
LINE
  5
FA
330
F8
100
AcDbEntity
  8
1
  6
Continuous
 62
     2
100
AcDbLine
 10
125222.8154448404
 20
290262.2041164999
 30
0.0
 11
125214.3154448405
 21
290262.2041164999
 31
0.0
  0
LINE
  5
FB
330
F8
100
AcDbEntity
  8
1
  6
Continuous
 62
     2
100
AcDbLine
 10
125229.8154448404
 20
290262.2041164999
 30
0.0
 11
125222.8154448404
 21
290262.2041164999
 31
0.0
  0
LINE
  5
FC
330
F8
100
AcDbEntity
  8
1
  6
Continuous
 62
     2
100
AcDbLine
 10
125214.3154448405
 20
290289.2041163218
 30
0.0
 11
125214.3154448405
 21
290260.2041164999
 31
0.0
  0
LINE
  5
FD
330
F8
100
AcDbEntity
  8
1
  6
Continuous
 62
     2
100
AcDbLine
 10
125222.8154448404
 20
290300.2132172418
 30
0.0
 11
125222.8154448404
 21
290260.2041164999
 31
0.0
  0
SOLID
  5
FE
330
F8
100
AcDbEntity
  8
1
 62
     2
100
AcDbTrace
 10
125226.3154448404
 20
290262.6649002415
 30
0.0
 11
125226.3154448404
 21
290261.7433327584
 31
0.0
 12
125222.8154448404
 22
290262.2041164999
 32
0.0
 13
125222.8154448404
 23
290262.2041164999
 33
0.0
  0
SOLID
  5
FF
330
F8
100
AcDbEntity
  8
1
 62
     2
100
AcDbTrace
 10
125210.8154448405
 20
290261.7433327584
 30
0.0
 11
125210.8154448405
 21
290262.6649002415
 31
0.0
 12
125214.3154448405
 22
290262.2041164999
 32
0.0
 13
125214.3154448405
 23
290262.2041164999
 33
0.0
  0
MTEXT
  5
100
330
F8
100
AcDbEntity
  8
1
 62
     2
100
AcDbMText
 10
125206.072025921
 20
290264.2041164999
 30
0.0
 40
3.5
 41
0.0
 71
     7
 72
     1
  1
8.5
  7
CONVERTER_11
 11
0.9999999999970621
 21
2.424068405545307E-6
 31
0.0
 73
     1
 44
0.60024009603842
  0
ENDBLK
  5
102
330
F8
100
AcDbEntity
  8
0
100
AcDbBlockEnd
  0
BLOCK
  5
10E
330
105
100
AcDbEntity
  8
0
100
AcDbBlockBegin
  2
*D5
 70
     1
 71
     0
 10
0.0
 20
0.0
 30
0.0
  3
*D5
  1

  0
LINE
  5
106
330
105
100
AcDbEntity
  8
1
  6
Continuous
 62
     2
100
AcDbLine
 10
125186.0
 20
290285.6994483221
 30
0.0
 11
125186.0
 21
290292.6994483221
 31
0.0
  0
LINE
  5
107
330
105
100
AcDbEntity
  8
1
  6
Continuous
 62
     2
100
AcDbLine
 10
125186.0
 20
290292.6994483221
 30
0.0
 11
125186.0
 21
290293.1994483221
 31
0.0
  0
LINE
  5
108
330
105
100
AcDbEntity
  8
1
  6
Continuous
 62
     2
100
AcDbLine
 10
125186.0
 20
290293.1994483221
 30
0.0
 11
125186.0
 21
290303.6808740371
 31
0.0
  0
LINE
  5
109
330
105
100
AcDbEntity
  8
1
  6
Continuous
 62
     2
100
AcDbLine
 10
125218.3264951143
 20
290292.6994483221
 30
0.0
 11
125184.0
 21
290292.6994483221
 31
0.0
  0
LINE
  5
10A
330
105
100
AcDbEntity
  8
1
  6
Continuous
 62
     2
100
AcDbLine
 10
125223.3154448405
 20
290293.1994483221
 30
0.0
 11
125184.0
 21
290293.1994483221
 31
0.0
  0
SOLID
  5
10B
330
105
100
AcDbEntity
  8
1
 62
     2
100
AcDbTrace
 10
125186.4607837416
 20
290289.1994483221
 30
0.0
 11
125185.5392162584
 21
290289.1994483221
 31
0.0
 12
125186.0
 22
290292.6994483221
 32
0.0
 13
125186.0
 23
290292.6994483221
 33
0.0
  0
SOLID
  5
10C
330
105
100
AcDbEntity
  8
1
 62
     2
100
AcDbTrace
 10
125185.5392162584
 20
290296.6994483221
 30
0.0
 11
125186.4607837416
 21
290296.6994483221
 31
0.0
 12
125186.0
 22
290293.1994483221
 32
0.0
 13
125186.0
 23
290293.1994483221
 33
0.0
  0
MTEXT
  5
10D
330
105
100
AcDbEntity
  8
1
 62
     2
100
AcDbMText
 10
125184.0
 20
290297.2933740371
 30
0.0
 40
3.5
 41
0.0
 71
     7
 72
     1
  1
0.5
  7
CONVERTER_11
 11
0.0
 21
1.0
 31
0.0
 73
     1
 44
0.60024009603842
  0
ENDBLK
  5
10F
330
105
100
AcDbEntity
  8
0
100
AcDbBlockEnd
  0
BLOCK
  5
119
330
112
100
AcDbEntity
  8
0
100
AcDbBlockBegin
  2
*D6
 70
     1
 71
     0
 10
0.0
 20
0.0
 30
0.0
  3
*D6
  1

  0
LINE
  5
113
330
112
100
AcDbEntity
  8
1
  6
Continuous
 62
     2
100
AcDbLine
 10
125222.8154448404
 20
290347.6167716652
 30
0.0
 11
125234.8154448405
 21
290347.6167716652
 31
0.0
  0
LINE
  5
114
330
112
100
AcDbEntity
  8
1
  6
Continuous
 62
     2
100
AcDbLine
 10
125234.8154448405
 20
290337.6167716652
 30
0.0
 11
125234.8154448405
 21
290349.6167716652
 31
0.0
  0
LINE
  5
115
330
112
100
AcDbEntity
  8
1
  6
Continuous
 62
     2
100
AcDbLine
 10
125222.8154448404
 20
290300.2132172418
 30
0.0
 11
125222.8154448404
 21
290349.6167716652
 31
0.0
  0
SOLID
  5
116
330
112
100
AcDbEntity
  8
1
 62
     2
100
AcDbTrace
 10
125226.3154448404
 20
290348.0775554068
 30
0.0
 11
125226.3154448404
 21
290347.1559879237
 31
0.0
 12
125222.8154448404
 22
290347.6167716652
 32
0.0
 13
125222.8154448404
 23
290347.6167716652
 33
0.0
  0
SOLID
  5
117
330
112
100
AcDbEntity
  8
1
 62
     2
100
AcDbTrace
 10
125231.3154448405
 20
290347.1559879237
 30
0.0
 11
125231.3154448405
 21
290348.0775554068
 31
0.0
 12
125234.8154448405
 22
290347.6167716652
 32
0.0
 13
125234.8154448405
 23
290347.6167716652
 33
0.0
  0
MTEXT
  5
118
330
112
100
AcDbEntity
  8
1
 62
     2
100
AcDbMText
 10
125227.232913476
 20
290349.6167716652
 30
0.0
 40
3.5
 41
0.0
 71
     7
 72
     1
  1
12
  7
CONVERTER_11
 11
0.9999999999970621
 21
2.424068405545307E-6
 31
0.0
 73
     1
 44
0.60024009603842
  0
ENDBLK
  5
11A
330
112
100
AcDbEntity
  8
0
100
AcDbBlockEnd
  0
BLOCK
  5
124
330
11D
100
AcDbEntity
  8
0
100
AcDbBlockBegin
  2
*D7
 70
     1
 71
     0
 10
0.0
 20
0.0
 30
0.0
  3
*D7
  1

  0
LINE
  5
11E
330
11D
100
AcDbEntity
  8
1
  6
Continuous
 62
     2
100
AcDbLine
 10
125297.8154448405
 20
290284.1994483221
 30
0.0
 11
125297.8154448405
 21
290299.199448322
 31
0.0
  0
LINE
  5
11F
330
11D
100
AcDbEntity
  8
1
  6
Continuous
 62
     2
100
AcDbLine
 10
125275.8154448405
 20
290299.199448322
 30
0.0
 11
125299.8154448405
 21
290299.199448322
 31
0.0
  0
LINE
  5
120
330
11D
100
AcDbEntity
  8
1
  6
Continuous
 62
     2
100
AcDbLine
 10
125265.2329951144
 20
290284.1994483221
 30
0.0
 11
125299.8154448405
 21
290284.1994483221
 31
0.0
  0
SOLID
  5
121
330
11D
100
AcDbEntity
  8
1
 62
     2
100
AcDbTrace
 10
125297.3546610989
 20
290287.6994483221
 30
0.0
 11
125298.276228582
 21
290287.6994483221
 31
0.0
 12
125297.8154448405
 22
290284.1994483221
 32
0.0
 13
125297.8154448405
 23
290284.1994483221
 33
0.0
  0
SOLID
  5
122
330
11D
100
AcDbEntity
  8
1
 62
     2
100
AcDbTrace
 10
125298.276228582
 20
290295.699448322
 30
0.0
 11
125297.3546610989
 21
290295.699448322
 31
0.0
 12
125297.8154448405
 22
290299.199448322
 32
0.0
 13
125297.8154448405
 23
290299.199448322
 33
0.0
  0
MTEXT
  5
123
330
11D
100
AcDbEntity
  8
1
 62
     2
100
AcDbMText
 10
125295.8154448405
 20
290290.7185655662
 30
0.0
 40
3.5
 41
0.0
 71
     7
 72
     1
  1
15
  7
CONVERTER_11
 11
0.0
 21
1.0
 31
0.0
 73
     1
 44
0.60024009603842
  0
ENDBLK
  5
125
330
11D
100
AcDbEntity
  8
0
100
AcDbBlockEnd
  0
BLOCK
  5
12F
330
128
100
AcDbEntity
  8
0
100
AcDbBlockBegin
  2
*D8
 70
     1
 71
     0
 10
0.0
 20
0.0
 30
0.0
  3
*D8
  1

  0
LINE
  5
129
330
128
100
AcDbEntity
  8
1
  6
Continuous
 62
     2
100
AcDbLine
 10
125297.8154448405
 20
290315.1991145002
 30
0.0
 11
125297.8154448405
 21
290299.199448322
 31
0.0
  0
LINE
  5
12A
330
128
100
AcDbEntity
  8
1
  6
Continuous
 62
     2
100
AcDbLine
 10
125275.8154448405
 20
290299.199448322
 30
0.0
 11
125299.8154448405
 21
290299.199448322
 31
0.0
  0
LINE
  5
12B
330
128
100
AcDbEntity
  8
1
  6
Continuous
 62
     2
100
AcDbLine
 10
125261.4264951143
 20
290315.1991145002
 30
0.0
 11
125299.8154448405
 21
290315.1991145002
 31
0.0
  0
SOLID
  5
12C
330
128
100
AcDbEntity
  8
1
 62
     2
100
AcDbTrace
 10
125298.276228582
 20
290311.6991145002
 30
0.0
 11
125297.3546610989
 21
290311.6991145002
 31
0.0
 12
125297.8154448405
 22
290315.1991145002
 32
0.0
 13
125297.8154448405
 23
290315.1991145002
 33
0.0
  0
SOLID
  5
12D
330
128
100
AcDbEntity
  8
1
 62
     2
100
AcDbTrace
 10
125297.3546610989
 20
290302.699448322
 30
0.0
 11
125298.276228582
 21
290302.699448322
 31
0.0
 12
125297.8154448405
 22
290299.199448322
 32
0.0
 13
125297.8154448405
 23
290299.199448322
 33
0.0
  0
MTEXT
  5
12E
330
128
100
AcDbEntity
  8
1
 62
     2
100
AcDbMText
 10
125295.8154448405
 20
290306.5649064937
 30
0.0
 40
3.5
 41
0.0
 71
     7
 72
     1
  1
16
  7
CONVERTER_11
 11
0.0
 21
1.0
 31
0.0
 73
     1
 44
0.60024009603842
  0
ENDBLK
  5
130
330
128
100
AcDbEntity
  8
0
100
AcDbBlockEnd
  0
BLOCK
  5
13C
330
133
100
AcDbEntity
  8
0
100
AcDbBlockBegin
  2
*D9
 70
     1
 71
     0
 10
0.0
 20
0.0
 30
0.0
  3
*D9
  1

  0
LINE
  5
134
330
133
100
AcDbEntity
  8
1
  6
Continuous
 62
     2
100
AcDbLine
 10
125234.8154448405
 20
290347.6167716652
 30
0.0
 11
125227.8154448405
 21
290347.6167716652
 31
0.0
  0
LINE
  5
135
330
133
100
AcDbEntity
  8
1
  6
Continuous
 62
     2
100
AcDbLine
 10
125242.8154951143
 20
290347.6167716652
 30
0.0
 11
125234.8154448405
 21
290347.6167716652
 31
0.0
  0
LINE
  5
136
330
133
100
AcDbEntity
  8
1
  6
Continuous
 62
     2
100
AcDbLine
 10
125249.8154951143
 20
290347.6167716652
 30
0.0
 11
125242.8154951143
 21
290347.6167716652
 31
0.0
  0
LINE
  5
137
330
133
100
AcDbEntity
  8
1
  6
Continuous
 62
     2
100
AcDbLine
 10
125234.8154448405
 20
290337.6167716652
 30
0.0
 11
125234.8154448405
 21
290349.6167716652
 31
0.0
  0
LINE
  5
138
330
133
100
AcDbEntity
  8
1
  6
Continuous
 62
     2
100
AcDbLine
 10
125242.8154951143
 20
290334.1994483221
 30
0.0
 11
125242.8154951143
 21
290349.6167716652
 31
0.0
  0
SOLID
  5
139
330
133
100
AcDbEntity
  8
1
 62
     2
100
AcDbTrace
 10
125246.3154951143
 20
290348.0775554068
 30
0.0
 11
125246.3154951143
 21
290347.1559879237
 31
0.0
 12
125242.8154951143
 22
290347.6167716652
 32
0.0
 13
125242.8154951143
 23
290347.6167716652
 33
0.0
  0
SOLID
  5
13A
330
133
100
AcDbEntity
  8
1
 62
     2
100
AcDbTrace
 10
125231.3154448405
 20
290347.1559879237
 30
0.0
 11
125231.3154448405
 21
290348.0775554068
 31
0.0
 12
125234.8154448405
 22
290347.6167716652
 32
0.0
 13
125234.8154448405
 23
290347.6167716652
 33
0.0
  0
MTEXT
  5
13B
330
133
100
AcDbEntity
  8
1
 62
     2
100
AcDbMText
 10
125237.440855879
 20
290349.6167716652
 30
0.0
 40
3.5
 41
0.0
 71
     7
 72
     1
  1
8
  7
CONVERTER_11
 11
0.9999999999970621
 21
2.424068405545307E-6
 31
0.0
 73
     1
 44
0.60024009603842
  0
ENDBLK
  5
13D
330
133
100
AcDbEntity
  8
0
100
AcDbBlockEnd
  0
BLOCK
  5
147
330
140
100
AcDbEntity
  8
0
100
AcDbBlockBegin
  2
*D10
 70
     1
 71
     0
 10
0.0
 20
0.0
 30
0.0
  3
*D10
  1

  0
LINE
  5
141
330
140
100
AcDbEntity
  8
1
  6
Continuous
 62
     2
100
AcDbLine
 10
125242.8154951143
 20
290347.6167716652
 30
0.0
 11
125262.8154951143
 21
290347.6167716652
 31
0.0
  0
LINE
  5
142
330
140
100
AcDbEntity
  8
1
  6
Continuous
 62
     2
100
AcDbLine
 10
125262.8154951143
 20
290334.1994483222
 30
0.0
 11
125262.8154951143
 21
290349.6167716652
 31
0.0
  0
LINE
  5
143
330
140
100
AcDbEntity
  8
1
  6
Continuous
 62
     2
100
AcDbLine
 10
125242.8154951143
 20
290332.1994483222
 30
0.0
 11
125242.8154951143
 21
290349.6167716652
 31
0.0
  0
SOLID
  5
144
330
140
100
AcDbEntity
  8
1
 62
     2
100
AcDbTrace
 10
125246.3154951143
 20
290348.0775554068
 30
0.0
 11
125246.3154951143
 21
290347.1559879237
 31
0.0
 12
125242.8154951143
 22
290347.6167716652
 32
0.0
 13
125242.8154951143
 23
290347.6167716652
 33
0.0
  0
SOLID
  5
145
330
140
100
AcDbEntity
  8
1
 62
     2
100
AcDbTrace
 10
125259.3154951143
 20
290347.1559879237
 30
0.0
 11
125259.3154951143
 21
290348.0775554068
 31
0.0
 12
125262.8154951143
 22
290347.6167716652
 32
0.0
 13
125262.8154951143
 23
290347.6167716652
 33
0.0
  0
MTEXT
  5
146
330
140
100
AcDbEntity
  8
1
 62
     2
100
AcDbMText
 10
125249.842739844
 20
290349.6167716652
 30
0.0
 40
3.5
 41
0.0
 71
     7
 72
     1
  1
20
  7
CONVERTER_11
 11
0.9999999999970621
 21
2.424068405545307E-6
 31
0.0
 73
     1
 44
0.60024009603842
  0
ENDBLK
  5
148
330
140
100
AcDbEntity
  8
0
100
AcDbBlockEnd
  0
BLOCK
  5
152
330
14B
100
AcDbEntity
  8
0
100
AcDbBlockBegin
  2
*D11
 70
     1
 71
     0
 10
0.0
 20
0.0
 30
0.0
  3
*D11
  1

  0
LINE
  5
14C
330
14B
100
AcDbEntity
  8
1
  6
Continuous
 62
     2
100
AcDbLine
 10
125240.8154453212
 20
290272.2041164999
 30
0.0
 11
125228.8154652503
 21
290272.2041164999
 31
0.0
  0
LINE
  5
14D
330
14B
100
AcDbEntity
  8
1
  6
Continuous
 62
     2
100
AcDbLine
 10
125228.8154652503
 20
290294.4434588322
 30
0.0
 11
125228.8154652503
 21
290270.2041164999
 31
0.0
  0
LINE
  5
14E
330
14B
100
AcDbEntity
  8
1
  6
Continuous
 62
     2
100
AcDbLine
 10
125240.8154453212
 20
290293.831327549
 30
0.0
 11
125240.8154453212
 21
290270.2041164999
 31
0.0
  0
SOLID
  5
14F
330
14B
100
AcDbEntity
  8
1
 62
     2
100
AcDbTrace
 10
125237.3154453212
 20
290271.7433327584
 30
0.0
 11
125237.3154453212
 21
290272.6649002415
 31
0.0
 12
125240.8154453212
 22
290272.2041164999
 32
0.0
 13
125240.8154453212
 23
290272.2041164999
 33
0.0
  0
SOLID
  5
150
330
14B
100
AcDbEntity
  8
1
 62
     2
100
AcDbTrace
 10
125232.3154652503
 20
290272.6649002415
 30
0.0
 11
125232.3154652503
 21
290271.7433327584
 31
0.0
 12
125228.8154652503
 22
290272.2041164999
 32
0.0
 13
125228.8154652503
 23
290272.2041164999
 33
0.0
  0
MTEXT
  5
151
330
14B
100
AcDbEntity
  8
1
 62
     2
100
AcDbMText
 10
125231.491276785
 20
290274.2041164999
 30
0.0
 40
3.5
 41
0.0
 71
     7
 72
     1
  1
12
  7
CONVERTER_11
 11
0.9999999999970621
 21
2.424068405545307E-6
 31
0.0
 73
     1
 44
0.60024009603842
  0
ENDBLK
  5
153
330
14B
100
AcDbEntity
  8
0
100
AcDbBlockEnd
  0
BLOCK
  5
15D
330
156
100
AcDbEntity
  8
0
100
AcDbBlockBegin
  2
*D12
 70
     1
 71
     0
 10
0.0
 20
0.0
 30
0.0
  3
*D12
  1

  0
LINE
  5
157
330
156
100
AcDbEntity
  8
1
  6
Continuous
 62
     2
100
AcDbLine
 10
125240.8154448405
 20
290262.233798921
 30
0.0
 11
125222.8154448404
 21
290262.233798921
 31
0.0
  0
LINE
  5
158
330
156
100
AcDbEntity
  8
1
  6
Continuous
 62
     2
100
AcDbLine
 10
125222.8154448404
 20
290300.2132172418
 30
0.0
 11
125222.8154448404
 21
290260.233798921
 31
0.0
  0
LINE
  5
159
330
156
100
AcDbEntity
  8
1
  6
Continuous
 62
     2
100
AcDbLine
 10
125240.8154448405
 20
290285.2041164999
 30
0.0
 11
125240.8154448405
 21
290260.233798921
 31
0.0
  0
SOLID
  5
15A
330
156
100
AcDbEntity
  8
1
 62
     2
100
AcDbTrace
 10
125237.3154448405
 20
290261.7730151794
 30
0.0
 11
125237.3154448405
 21
290262.6945826625
 31
0.0
 12
125240.8154448405
 22
290262.233798921
 32
0.0
 13
125240.8154448405
 23
290262.233798921
 33
0.0
  0
SOLID
  5
15B
330
156
100
AcDbEntity
  8
1
 62
     2
100
AcDbTrace
 10
125226.3154448404
 20
290262.6945826625
 30
0.0
 11
125226.3154448404
 21
290261.7730151794
 31
0.0
 12
125222.8154448404
 22
290262.233798921
 32
0.0
 13
125222.8154448404
 23
290262.233798921
 33
0.0
  0
MTEXT
  5
15C
330
156
100
AcDbEntity
  8
1
 62
     2
100
AcDbMText
 10
125231.404874625
 20
290264.233798921
 30
0.0
 40
3.5
 41
0.0
 71
     7
 72
     1
  1
18
  7
CONVERTER_11
 11
0.9999999999970621
 21
2.424068405545307E-6
 31
0.0
 73
     1
 44
0.60024009603842
  0
ENDBLK
  5
15E
330
156
100
AcDbEntity
  8
0
100
AcDbBlockEnd
  0
ENDSEC
  0
SECTION
  2
ENTITIES
  0
POINT
  5
36
330
1F
100
AcDbEntity
  8
1
 62
     3
 60
     1
100
AcDbPoint
 10
125214.3154448405
 20
290320.1994483221
 30
0.0
  0
POINT
  5
37
330
1F
100
AcDbEntity
  8
1
 62
     3
 60
     1
100
AcDbPoint
 10
125234.0025670416
 20
290299.199448322
 30
0.0
  0
POINT
  5
38
330
1F
100
AcDbEntity
  8
A_BEMASSUNGEN
 62
     3
100
AcDbPoint
 10
125240.8154448405
 20
290285.2041164999
 30
0.0
  0
POINT
  5
39
330
1F
100
AcDbEntity
  8
A_BEMASSUNGEN
 62
     7
100
AcDbPoint
 10
125218.3154951143
 20
290289.1994483221
 30
0.0
  0
POINT
  5
3A
330
1F
100
AcDbEntity
  8
A_BEMASSUNGEN
 62
     7
100
AcDbPoint
 10
125262.8154951143
 20
290334.1994483221
 30
0.0
  0
POINT
  5
3B
330
1F
100
AcDbEntity
  8
A_BEMASSUNGEN
 62
     7
100
AcDbPoint
 10
125242.8154951143
 20
290332.1994483221
 30
0.0
  0
POINT
  5
3C
330
1F
100
AcDbEntity
  8
A_BEMASSUNGEN
 62
     7
100
AcDbPoint
 10
125242.3264951143
 20
290298.1994483221
 30
0.0
  0
POINT
  5
3D
330
1F
100
AcDbEntity
  8
A_BEMASSUNGEN
 62
     7
100
AcDbPoint
 10
125241.8264951143
 20
290299.1994483221
 30
0.0
  0
POINT
  5
3E
330
1F
100
AcDbEntity
  8
A_BEMASSUNGEN
 62
     7
100
AcDbPoint
 10
125242.8761792425
 20
290334.1994483221
 30
0.0
  0
LINE
  5
3F
330
1F
100
AcDbEntity
  8
0
  6
Continuous
 62
     7
100
AcDbLine
 10
125262.8154951143
 20
290334.1994483221
 30
0.0
 11
125242.8154951143
 21
290334.1994483221
 31
0.0
  0
LINE
  5
40
330
1F
100
AcDbEntity
  8
1
  6
Continuous
 62
     7
100
AcDbLine
 10
125214.3154448405
 20
290293.011466119
 30
0.0
 11
125214.3154448405
 21
290320.1994483221
 31
0.0
  0
LINE
  5
41
330
1F
100
AcDbEntity
  8
1
  6
DOT_CENTER
 62
     2
100
AcDbLine
 10
125194.0
 20
290337.6167716652
 30
0.0
 11
125196.0
 21
290337.6167716652
 31
0.0
  0
LINE
  5
42
330
1F
100
AcDbEntity
  8
0
  6
Continuous
 62
     7
100
AcDbLine
 10
125239.0057841782
 20
290299.199448322
 30
0.0
 11
125242.8154448405
 21
290299.199448322
 31
0.0
  0
LINE
  5
43
330
1F
100
AcDbEntity
  8
1
  6
Continuous
 62
     7
100
AcDbLine
 10
125234.0025670416
 20
290299.199448322
 30
0.0
 11
125236.8154448405
 21
290299.199448322
 31
0.0
  0
LINE
  5
44
330
1F
100
AcDbEntity
  8
0
  6
Continuous
 62
     7
100
AcDbLine
 10
125218.180160346
 20
290289.1994483221
 30
0.0
 11
125242.9154951143
 21
290289.1994483221
 31
0.0
  0
LINE
  5
45
330
1F
100
AcDbEntity
  8
0
  6
Continuous
 62
     7
100
AcDbLine
 10
125214.3154448405
 20
290289.2041163218
 30
0.0
 11
125214.3154448405
 21
290293.011466119
 31
0.0
  0
LINE
  5
46
330
1F
100
AcDbEntity
  8
1
  6
Continuous
 62
     7
100
AcDbLine
 10
125222.8154448404
 20
290320.1994483221
 30
0.0
 11
125214.3154448405
 21
290320.1994483221
 31
0.0
  0
LINE
  5
47
330
1F
100
AcDbEntity
  8
0
  6
Continuous
 62
     7
100
AcDbLine
 10
125228.8154652503
 20
290294.4434588322
 30
0.0
 11
125226.6943251238
 21
290294.4434588322
 31
0.0
  0
LINE
  5
48
330
1F
100
AcDbEntity
  8
0
  6
Continuous
 62
     7
100
AcDbLine
 10
125231.1985041544
 20
290294.4434586009
 30
0.0
 11
125239.233013619
 21
290294.4434588922
 31
0.0
  0
LINE
  5
49
330
1F
100
AcDbEntity
  8
0
  6
Continuous
 62
     7
100
AcDbLine
 10
125233.8525102531
 20
290297.6122185038
 30
0.0
 11
125230.4265236215
 21
290297.6122185038
 31
0.0
  0
LINE
  5
4A
330
1F
100
AcDbEntity
  8
0
  6
Continuous
 62
     7
100
AcDbLine
 10
125233.8803823746
 20
290298.1603644585
 30
0.0
 11
125230.2882507151
 21
290298.1603644585
 31
0.0
  0
LINE
  5
4B
330
1F
100
AcDbEntity
  8
0
  6
Continuous
 62
     7
100
AcDbLine
 10
125239.6013358429
 20
290298.3744114785
 30
0.0
 11
125234.6147032278
 21
290298.3744114785
 31
0.0
  0
LINE
  5
4C
330
1F
100
AcDbEntity
  8
0
  6
Continuous
 62
     7
100
AcDbLine
 10
125239.2330137386
 20
290294.4434588322
 30
0.0
 11
125237.8500161132
 21
290295.137960728
 31
0.0
  0
LINE
  5
4D
330
1F
100
AcDbEntity
  8
0
  6
Continuous
 62
     7
100
AcDbLine
 10
125240.4658266407
 20
290294.4031615214
 30
0.0
 11
125238.6314977208
 21
290295.4754011239
 31
0.0
  0
LINE
  5
4E
330
1F
100
AcDbEntity
  8
0
  6
Continuous
 62
     7
100
AcDbLine
 10
125230.2955494035
 20
290298.0640397604
 30
0.0
 11
125230.2882507151
 21
290298.1603644585
 31
0.0
  0
LINE
  5
4F
330
1F
100
AcDbEntity
  8
0
  6
Continuous
 62
     2
100
AcDbLine
 10
125228.8154652503
 20
290299.4088717903
 30
0.0
 11
125228.8154652503
 21
290299.3108408473
 31
0.0
  0
LINE
  5
50
330
1F
100
AcDbEntity
  8
0
  6
Continuous
 62
     2
100
AcDbLine
 10
125228.8154652503
 20
290299.3108408473
 30
0.0
 11
125228.8154652503
 21
290294.4434588322
 31
0.0
  0
LINE
  5
51
330
1F
100
AcDbEntity
  8
0
  6
Continuous
 62
     7
100
AcDbLine
 10
125229.9533718987
 20
290298.1603644585
 30
0.0
 11
125229.9533718987
 21
290298.2709651419
 31
0.0
  0
LINE
  5
52
330
1F
100
AcDbEntity
  8
0
  6
Continuous
 62
     7
100
AcDbLine
 10
125227.6663307261
 20
290296.2424996006
 30
0.0
 11
125225.534341551
 21
290294.6863798384
 31
0.0
  0
LINE
  5
53
330
1F
100
AcDbEntity
  8
0
  6
Continuous
 62
     7
100
AcDbLine
 10
125226.6209881283
 20
290294.6683298078
 30
0.0
 11
125228.0526166032
 21
290295.7132612131
 31
0.0
  0
LINE
  5
54
330
1F
100
AcDbEntity
  8
0
  6
Continuous
 62
     7
100
AcDbLine
 10
125237.8435394312
 20
290297.479485472
 30
0.0
 11
125239.6013358429
 21
290298.3744114785
 31
0.0
  0
LINE
  5
55
330
1F
100
AcDbEntity
  8
0
  6
Continuous
 62
     7
100
AcDbLine
 10
125238.7819478005
 20
290297.3962625041
 30
0.0
 11
125240.4778914636
 21
290298.2402758754
 31
0.0
  0
LINE
  5
56
330
1F
100
AcDbEntity
  8
0
  6
Continuous
 62
     7
100
AcDbLine
 10
125226.1318796065
 20
290296.2424995925
 30
0.0
 11
125224.5962212395
 21
290295.1216375041
 31
0.0
  0
LINE
  5
57
330
1F
100
AcDbEntity
  8
0
  6
Continuous
 62
     7
100
AcDbLine
 10
125225.3872920037
 20
290294.8878478977
 30
0.0
 11
125226.5181654927
 21
290295.7132612115
 31
0.0
  0
LINE
  5
58
330
1F
100
AcDbEntity
  8
0
  6
Continuous
 62
     7
100
AcDbLine
 10
125214.3154448405
 20
290289.1994483221
 30
0.0
 11
125218.180160346
 21
290289.1994483221
 31
0.0
  0
LINE
  5
59
330
1F
100
AcDbEntity
  8
A_RUNDUNGEN
  6
Continuous
 62
     7
100
AcDbLine
 10
125241.3260971144
 20
290292.6994483221
 30
0.0
 11
125241.3260971144
 21
290289.1994483221
 31
0.0
  0
LINE
  5
5A
330
1F
100
AcDbEntity
  8
1
  6
Continuous
 62
     7
100
AcDbLine
 10
125242.8154448405
 20
290299.199448322
 30
0.0
 11
125262.8040278405
 21
290299.199448322
 31
0.0
  0
LINE
  5
5B
330
1F
100
AcDbEntity
  8
0
  6
Continuous
 62
     7
100
AcDbLine
 10
125249.8154951143
 20
290299.1994483221
 30
0.0
 11
125249.8154951143
 21
290298.1994483221
 31
0.0
  0
LINE
  5
5C
330
1F
100
AcDbEntity
  8
1
  6
DOT_CENTER
 62
     2
100
AcDbLine
 10
125233.8265038405
 20
290315.1991145002
 30
0.0
 11
125261.4264951143
 21
290315.1991145002
 31
0.0
  0
LINE
  5
5D
330
1F
100
AcDbEntity
  8
1
  6
Continuous
 62
     7
100
AcDbLine
 10
125228.8154951143
 20
290296.7162152418
 30
0.0
 11
125228.8154951143
 21
290299.3044269703
 31
0.0
  0
LINE
  5
5E
330
1F
100
AcDbEntity
  8
1
  6
DOT_CENTER
 62
     2
100
AcDbLine
 10
125252.8154951143
 20
290296.616948322
 30
0.0
 11
125252.8154951143
 21
290271.781948322
 31
0.0
  0
LINE
  5
5F
330
1F
100
AcDbEntity
  8
1
  6
DOT_CENTER
 62
     2
100
AcDbLine
 10
125265.2329951144
 20
290284.1994483221
 30
0.0
 11
125240.3979951143
 21
290284.1994483221
 31
0.0
  0
LINE
  5
60
330
1F
100
AcDbEntity
  8
1
  6
Continuous
 62
     7
100
AcDbLine
 10
125218.3264951143
 20
290292.6994483221
 30
0.0
 11
125241.3260971144
 21
290292.6994483221
 31
0.0
  0
LINE
  5
61
330
1F
100
AcDbEntity
  8
0
  6
Continuous
 62
     7
100
AcDbLine
 10
125252.8154951143
 20
290298.1994483221
 30
0.0
 11
125252.8154951143
 21
290296.699448322
 31
0.0
  0
LINE
  5
62
330
1F
100
AcDbEntity
  8
0
  6
Continuous
 62
     7
100
AcDbLine
 10
125252.8154951143
 20
290299.1994483221
 30
0.0
 11
125252.8154951143
 21
290298.1994483221
 31
0.0
  0
LINE
  5
63
330
1F
100
AcDbEntity
  8
0
  6
Continuous
 62
     7
100
AcDbLine
 10
125256.3154951143
 20
290298.1994483221
 30
0.0
 11
125256.3154951143
 21
290295.9661886097
 31
0.0
  0
LINE
  5
64
330
1F
100
AcDbEntity
  8
0
  6
Continuous
 62
     7
100
AcDbLine
 10
125256.3154951143
 20
290299.1994483221
 30
0.0
 11
125256.3154951143
 21
290298.1994483221
 31
0.0
  0
LINE
  5
65
330
1F
100
AcDbEntity
  8
0
  6
Continuous
 62
     7
100
AcDbLine
 10
125252.8154951143
 20
290296.699448322
 30
0.0
 11
125252.8154951143
 21
290295.8301115854
 31
0.0
  0
LINE
  5
66
330
1F
100
AcDbEntity
  8
0
  6
Continuous
 62
     7
100
AcDbLine
 10
125256.3154951143
 20
290298.1994483221
 30
0.0
 11
125263.3154951143
 21
290298.1994483221
 31
0.0
  0
LINE
  5
67
330
1F
100
AcDbEntity
  8
0
  6
Continuous
 62
     7
100
AcDbLine
 10
125252.8154951143
 20
290295.8301115854
 30
0.0
 11
125252.8154951143
 21
290295.7753730353
 31
0.0
  0
LINE
  5
68
330
1F
100
AcDbEntity
  8
0
  6
Continuous
 62
     7
100
AcDbLine
 10
125256.3154951143
 20
290295.9661886097
 30
0.0
 11
125256.3154951143
 21
290295.4338255893
 31
0.0
  0
LINE
  5
69
330
1F
100
AcDbEntity
  8
0
  6
Continuous
 62
     7
100
AcDbLine
 10
125220.8154448404
 20
290320.1994483221
 30
0.0
 11
125220.8154448404
 21
290315.7135492418
 31
0.0
  0
LINE
  5
6A
330
1F
100
AcDbEntity
  8
1
  6
Continuous
 62
     7
100
AcDbLine
 10
125220.8154448404
 20
290300.2135492418
 30
0.0
 11
125222.8154448404
 21
290300.2132172418
 31
0.0
  0
LINE
  5
6B
330
1F
100
AcDbEntity
  8
A_ACHSEN
  6
DOT_CENTER
 62
     2
100
AcDbLine
 10
125219.8154951143
 20
290302.1994483221
 30
0.0
 11
125199.2654951143
 21
290302.1994483221
 31
0.0
  0
LINE
  5
6C
330
1F
100
AcDbEntity
  8
A_ACHSEN
  6
DOT_CENTER
 62
     2
100
AcDbLine
 10
125223.8154951143
 20
290312.1994483221
 30
0.0
 11
125198.2654951143
 21
290312.1994483221
 31
0.0
  0
LINE
  5
6D
330
1F
100
AcDbEntity
  8
0
  6
Continuous
 62
     7
100
AcDbLine
 10
125256.3154951143
 20
290294.4401890628
 30
0.0
 11
125256.3154951143
 21
290295.4338255893
 31
0.0
  0
LINE
  5
6E
330
1F
100
AcDbEntity
  8
0
  6
Continuous
 62
     7
100
AcDbLine
 10
125228.8154951143
 20
290299.3044269703
 30
0.0
 11
125228.8154951143
 21
290299.7135492418
 31
0.0
  0
LINE
  5
6F
330
1F
100
AcDbEntity
  8
A_RUNDUNGEN
  6
Continuous
 62
     7
100
AcDbLine
 10
125241.3260971144
 20
290292.6994483221
 30
0.0
 11
125242.3260971144
 21
290292.6994483221
 31
0.0
  0
LINE
  5
70
330
1F
100
AcDbEntity
  8
0
  6
Continuous
 62
     7
100
AcDbLine
 10
125222.8154448458
 20
290296.7162152418
 30
0.0
 11
125228.8154951143
 21
290296.7162152418
 31
0.0
  0
LINE
  5
71
330
1F
100
AcDbEntity
  8
0
  6
Continuous
 62
     7
100
AcDbLine
 10
125221.3043038405
 20
290296.7162152418
 30
0.0
 11
125222.8154448458
 21
290296.7162152418
 31
0.0
  0
LINE
  5
72
330
1F
100
AcDbEntity
  8
0
  6
Continuous
 62
     7
100
AcDbLine
 10
125228.8154951143
 20
290299.7135492418
 30
0.0
 11
125221.3154448404
 21
290299.7135492418
 31
0.0
  0
LINE
  5
73
330
1F
100
AcDbEntity
  8
0
  6
Continuous
 62
     7
100
AcDbLine
 10
125217.8154951143
 20
290320.1994483221
 30
0.0
 11
125217.8154951143
 21
290293.1994483221
 31
0.0
  0
LINE
  5
74
330
1F
100
AcDbEntity
  8
0
  6
Continuous
 62
     7
100
AcDbLine
 10
125220.8154448404
 20
290315.7135492418
 30
0.0
 11
125220.8154448404
 21
290300.2135492418
 31
0.0
  0
LINE
  5
75
330
1F
100
AcDbEntity
  8
0
  6
Continuous
 62
     7
100
AcDbLine
 10
125242.9914819367
 20
290292.7052560488
 30
0.0
 11
125251.3109560307
 21
290293.98445533
 31
0.0
  0
LINE
  5
76
330
1F
100
AcDbEntity
  8
0
  6
Continuous
 62
     7
100
AcDbLine
 10
125243.5233896936
 20
290289.245910137
 30
0.0
 11
125251.8428637876
 21
290290.5251094181
 31
0.0
  0
LINE
  5
77
330
1F
100
AcDbEntity
  8
0
  6
Continuous
 62
     7
100
AcDbLine
 10
125247.3170011538
 20
290287.474591703
 30
0.0
 11
125244.2885337771
 21
290289.2784792683
 31
0.0
  0
LINE
  5
78
330
1F
100
AcDbEntity
  8
0
  6
Continuous
 62
     7
100
AcDbLine
 10
125259.0447259181
 20
290291.9582616072
 30
0.0
 11
125256.5024684407
 21
290293.9993351589
 31
0.0
  0
LINE
  5
79
330
1F
100
AcDbEntity
  8
0
  6
Continuous
 62
     7
100
AcDbLine
 10
125252.8154951143
 20
290294.1244483221
 30
0.0
 11
125252.8154951143
 21
290294.62755763
 31
0.0
  0
LINE
  5
7A
330
1F
100
AcDbEntity
  8
0
  6
Continuous
 62
     7
100
AcDbLine
 10
125256.3154951143
 20
290294.3892252736
 30
0.0
 11
125256.3154951143
 21
290294.4401890628
 31
0.0
  0
LINE
  5
7B
330
1F
100
AcDbEntity
  8
0
  6
Continuous
 62
     7
100
AcDbLine
 10
125252.8154951143
 20
290295.8301115854
 30
0.0
 11
125252.8154951143
 21
290296.616948322
 31
0.0
  0
LINE
  5
7C
330
1F
100
AcDbEntity
  8
0
  6
Continuous
 62
     7
100
AcDbLine
 10
125242.3260971144
 20
290292.6994483221
 30
0.0
 11
125242.9264951143
 21
290292.6994483221
 31
0.0
  0
LINE
  5
7D
330
1F
100
AcDbEntity
  8
0
  6
Continuous
 62
     7
100
AcDbLine
 10
125241.8264951143
 20
290298.6994483221
 30
0.0
 11
125241.8264951143
 21
290299.1994483221
 31
0.0
  0
LINE
  5
7E
330
1F
100
AcDbEntity
  8
A_RUNDUNGEN
  6
Continuous
 62
     7
100
AcDbLine
 10
125242.8154951143
 20
290332.1994483221
 30
0.0
 11
125242.8154951143
 21
290333.8697776309
 31
0.0
  0
LINE
  5
7F
330
1F
100
AcDbEntity
  8
0
  6
Continuous
 62
     7
100
AcDbLine
 10
125249.8154951143
 20
290298.1994483221
 30
0.0
 11
125252.8154951143
 21
290298.1994483221
 31
0.0
  0
LINE
  5
80
330
1F
100
AcDbEntity
  8
A_RUNDUNGEN
  6
Continuous
 62
     7
100
AcDbLine
 10
125249.8264951143
 20
290298.1994483221
 30
0.0
 11
125242.3264951143
 21
290298.1994483221
 31
0.0
  0
LINE
  5
81
330
1F
100
AcDbEntity
  8
0
  6
Continuous
 62
     7
100
AcDbLine
 10
125241.8264951143
 20
290299.1994483221
 30
0.0
 11
125242.8264951143
 21
290299.1994483221
 31
0.0
  0
LINE
  5
82
330
1F
100
AcDbEntity
  8
0
  6
Continuous
 62
     7
100
AcDbLine
 10
125262.8154951143
 20
290334.1994483221
 30
0.0
 11
125262.8154951143
 21
290299.1994483221
 31
0.0
  0
LINE
  5
83
330
1F
100
AcDbEntity
  8
0
  6
Continuous
 62
     7
100
AcDbLine
 10
125263.8154951143
 20
290298.6994483221
 30
0.0
 11
125263.8154951143
 21
290299.1994483221
 31
0.0
  0
LINE
  5
84
330
1F
100
AcDbEntity
  8
A_RUNDUNGEN
  6
Continuous
 62
     7
100
AcDbLine
 10
125246.8154951143
 20
290334.1994483221
 30
0.0
 11
125242.8154951143
 21
290334.1994483221
 31
0.0
  0
LINE
  5
85
330
1F
100
AcDbEntity
  8
0
  6
Continuous
 62
     7
100
AcDbLine
 10
125259.8154951143
 20
290299.1994483221
 30
0.0
 11
125259.8154951143
 21
290298.1994483221
 31
0.0
  0
LINE
  5
86
330
1F
100
AcDbEntity
  8
0
  6
Continuous
 62
     7
100
AcDbLine
 10
125252.8154951143
 20
290295.7753730353
 30
0.0
 11
125252.8154951143
 21
290294.62755763
 31
0.0
  0
LINE
  5
87
330
1F
100
AcDbEntity
  8
0
  6
DASHED
 62
     2
100
AcDbLine
 10
125256.8535392032
 20
290289.2290308034
 30
0.0
 11
125254.3112817258
 21
290291.2701043551
 31
0.0
  0
LINE
  5
88
330
1F
100
AcDbEntity
  8
0
  6
Continuous
 62
     7
100
AcDbLine
 10
125222.8154448404
 20
290320.1994483221
 30
0.0
 11
125222.8154448404
 21
290300.2132172418
 31
0.0
  0
LINE
  5
89
330
1F
100
AcDbEntity
  8
0
  6
Continuous
 62
     7
100
AcDbLine
 10
125196.0
 20
290282.2041164999
 30
0.0
 11
125237.8154448405
 21
290282.2041164999
 31
0.0
  0
LINE
  5
8A
330
1F
100
AcDbEntity
  8
0
  6
Continuous
 62
     7
100
AcDbLine
 10
125240.8154448405
 20
290285.2041164999
 30
0.0
 11
125240.8154448405
 21
290289.1994483221
 31
0.0
  0
LINE
  5
8B
330
1F
100
AcDbEntity
  8
1
  6
DOT_CENTER
 62
     2
100
AcDbLine
 10
125196.0
 20
290337.6167716652
 30
0.0
 11
125196.0
 21
290282.2041164999
 31
0.0
  0
LINE
  5
8C
330
1F
100
AcDbEntity
  8
1
  6
DOT_CENTER
 62
     2
100
AcDbLine
 10
125196.0
 20
290282.2041164999
 30
0.0
 11
125196.0
 21
290280.2041164999
 31
0.0
  0
LINE
  5
8D
330
1F
100
AcDbEntity
  8
1
  6
DOT_CENTER
 62
     2
100
AcDbLine
 10
125196.0
 20
290337.6167716652
 30
0.0
 11
125223.0813295007
 21
290337.6167716652
 31
0.0
  0
LINE
  5
8E
330
1F
100
AcDbEntity
  8
1
  6
DOT_CENTER
 62
     2
100
AcDbLine
 10
125232.0813295007
 20
290337.6167716649
 30
0.0
 11
125233.503291054
 21
290337.6167716652
 31
0.0
  0
LINE
  5
8F
330
1F
100
AcDbEntity
  8
1
  6
DOT_CENTER
 62
     2
100
AcDbLine
 10
125223.0813295007
 20
290337.6167716652
 30
0.0
 11
125226.0373077922
 21
290337.6167716652
 31
0.0
  0
LINE
  5
90
330
1F
100
AcDbEntity
  8
1
  6
DOT_CENTER
 62
     2
100
AcDbLine
 10
125233.503291054
 20
290337.6167716652
 30
0.0
 11
125282.0354378373
 21
290337.6167716651
 31
0.0
  0
LINE
  5
91
330
1F
100
AcDbEntity
  8
1
  6
Continuous
 62
     7
100
AcDbLine
 10
125277.8154448405
 20
290337.6167716651
 30
0.0
 11
125277.8154448405
 21
290301.199448322
 31
0.0
  0
LINE
  5
92
330
1F
100
AcDbEntity
  8
0
  6
Continuous
 62
     7
100
AcDbLine
 10
125234.8154448405
 20
290318.199448322
 30
0.0
 11
125234.8154448405
 21
290337.6167716652
 31
0.0
  0
LINE
  5
93
330
1F
100
AcDbEntity
  8
0
  6
Continuous
 62
     7
100
AcDbLine
 10
125234.8154448405
 20
290312.199448322
 30
0.0
 11
125234.8154448405
 21
290318.199448322
 31
0.0
  0
LINE
  5
94
330
1F
100
AcDbEntity
  8
0
  6
Continuous
 62
     7
100
AcDbLine
 10
125234.8154448405
 20
290301.199448322
 30
0.0
 11
125234.8154448405
 21
290312.199448322
 31
0.0
  0
LINE
  5
95
330
1F
100
AcDbEntity
  8
0
  6
Continuous
 62
     7
100
AcDbLine
 10
125236.8154448405
 20
290299.199448322
 30
0.0
 11
125239.0057841782
 21
290299.199448322
 31
0.0
  0
LINE
  5
96
330
1F
100
AcDbEntity
  8
0
  6
Continuous
 62
     7
100
AcDbLine
 10
125242.8154448405
 20
290312.199448322
 30
0.0
 11
125234.8154448405
 21
290312.199448322
 31
0.0
  0
LINE
  5
97
330
1F
100
AcDbEntity
  8
0
  6
Continuous
 62
     7
100
AcDbLine
 10
125234.8154448405
 20
290318.199448322
 30
0.0
 11
125242.8154448405
 21
290318.199448322
 31
0.0
  0
LINE
  5
98
330
1F
100
AcDbEntity
  8
0
  6
Continuous
 62
     7
100
AcDbLine
 10
125262.8154448405
 20
290299.199448322
 30
0.0
 11
125263.8154951143
 21
290299.1994483221
 31
0.0
  0
LINE
  5
99
330
1F
100
AcDbEntity
  8
0
  6
Continuous
 62
     7
100
AcDbLine
 10
125223.3154448405
 20
290293.203448322
 30
0.0
 11
125223.3154448405
 21
290296.3041164999
 31
0.0
  0
LINE
  5
9A
330
1F
100
AcDbEntity
  8
0
  6
Continuous
 62
     7
100
AcDbLine
 10
125223.3154448405
 20
290296.3041164999
 30
0.0
 11
125228.8154448405
 21
290296.3041164999
 31
0.0
  0
LINE
  5
9B
330
1F
100
AcDbEntity
  8
0
  6
DASHED
 62
     2
100
AcDbLine
 10
125227.824171376
 20
290298.6604060056
 30
0.0
 11
125223.706718305
 21
290298.6963384742
 31
0.0
  0
LINE
  5
9C
330
1F
100
AcDbEntity
  8
0
  6
Continuous
 62
     7
100
AcDbLine
 10
125237.8154448405
 20
290293.1994483221
 30
0.0
 11
125223.3154448405
 21
290293.1994483221
 31
0.0
  0
LINE
  5
9D
330
1F
100
AcDbEntity
  8
0
  6
Continuous
 62
     7
100
AcDbLine
 10
125263.8154951143
 20
290299.1994483221
 30
0.0
 11
125275.8154448405
 21
290299.199448322
 31
0.0
  0
LINE
  5
9E
330
1F
100
AcDbEntity
  8
0
  6
Continuous
 62
     7
100
AcDbLine
 10
125242.8154951143
 20
290334.1994483221
 30
0.0
 11
125242.8154951143
 21
290299.1994483221
 31
0.0
  0
LINE
  5
9F
330
1F
100
AcDbEntity
  8
1
  6
DOT_CENTER
 62
     2
100
AcDbLine
 10
125252.8458371784
 20
290335.1994483221
 30
0.0
 11
125252.8458371784
 21
290299.199448322
 31
0.0
  0
LINE
  5
A0
330
1F
100
AcDbEntity
  8
0
  6
DASHED
 62
     2
100
AcDbLine
 10
125240.8154448405
 20
290289.1994483221
 30
0.0
 11
125240.8154448405
 21
290290.1994483221
 31
0.0
  0
LINE
  5
A1
330
1F
100
AcDbEntity
  8
0
  6
Continuous
 62
     7
100
AcDbLine
 10
125222.8154448405
 20
290320.574262811
 30
0.0
 11
125222.8154448406
 21
290337.6167716654
 31
0.0
  0
ARC
  5
A2
330
1F
100
AcDbEntity
  8
0
  6
Continuous
 62
     7
100
AcDbCircle
 10
125210.3342816433
 20
290294.4434588322
 30
0.0
 40
20.34058075786047
100
AcDbArc
 50
1.45618139907804
 51
8.96233305952561
  0
ARC
  5
A3
330
1F
100
AcDbEntity
  8
0
  6
Continuous
 62
     7
100
AcDbCircle
 10
125238.4387621226
 20
290296.3103605349
 30
0.0
 40
1.311923462338899
100
AcDbArc
 50
116.9814689270552
 51
-116.6645082841766
  0
ARC
  5
A4
330
1F
100
AcDbEntity
  8
0
  6
Continuous
 62
     7
100
AcDbCircle
 10
125228.8154652503
 20
290298.2709651419
 30
0.0
 40
1.137906648393255
100
AcDbArc
 50
0.0
 51
90.0
  0
ARC
  5
A5
330
1F
100
AcDbEntity
  8
0
  6
Continuous
 62
     7
100
AcDbCircle
 10
125239.1923570528
 20
290296.397794859
 30
0.0
 40
1.079524614196928
100
AcDbArc
 50
112.3445793362676
 51
-121.3015940887027
  0
ARC
  5
A6
330
1F
100
AcDbEntity
  8
0
  6
Continuous
 62
     7
100
AcDbCircle
 10
125233.8525102531
 20
290298.3744114785
 30
0.0
 40
0.7621929747401737
100
AcDbArc
 50
-90.0
 51
0.0
  0
ARC
  5
A7
330
1F
100
AcDbEntity
  8
0
  6
Continuous
 62
     7
100
AcDbCircle
 10
125231.1985041544
 20
290294.9738405855
 30
0.0
 40
0.5303819845898214
100
AcDbArc
 50
-178.5438185924971
 51
-90.0
  0
ARC
  5
A8
330
1F
100
AcDbEntity
  8
0
  6
Continuous
 62
     7
100
AcDbCircle
 10
125233.8803823746
 20
290298.5491039914
 30
0.0
 40
0.3887395329074934
100
AcDbArc
 50
-90.0
 51
53.61296809131556
  0
ARC
  5
A9
330
1F
100
AcDbEntity
  8
DEFAULT_2
  6
Continuous
 62
     7
100
AcDbCircle
 10
125227.8594736759
 20
290295.977880415
 30
0.0
 40
0.3276087796970213
100
AcDbArc
 50
60.3438753293778
 51
126.1253398220067
  0
ARC
  5
AA
330
1F
100
AcDbEntity
  8
0
  6
Continuous
 62
     7
100
AcDbCircle
 10
125227.8594736759
 20
290295.977880415
 30
0.0
 40
0.3276087794571232
100
AcDbArc
 50
-53.87466503446264
 51
60.3438753293778
  0
ARC
  5
AB
330
1F
100
AcDbEntity
  8
0
  6
Continuous
 62
     7
100
AcDbCircle
 10
125234.2907141951
 20
290299.1059282564
 30
0.0
 40
0.3029435339051508
100
AcDbArc
 50
162.0188183675154
 51
-126.38704221957
  0
ARC
  5
AC
330
1F
100
AcDbEntity
  8
0
  6
Continuous
 62
     7
100
AcDbCircle
 10
125230.1208113069
 20
290298.0992384199
 30
0.0
 40
0.1782479958277431
100
AcDbArc
 50
159.9447006580256
 51
-11.38905947721994
  0
ARC
  5
AD
330
1F
100
AcDbEntity
  8
0
  6
Continuous
 62
     7
100
AcDbCircle
 10
125240.1812156578
 20
290293.8363554399
 30
0.0
 40
0.634249592539394
100
AcDbArc
 50
-0.45420596142118
 51
63.33734793298673
  0
ARC
  5
AE
330
1F
100
AcDbEntity
  8
0
  6
Continuous
 62
     7
100
AcDbCircle
 10
125240.1975363021
 20
290298.7909441514
 30
0.0
 40
0.6179276388081217
100
AcDbArc
 50
-63.01853409600907
 51
41.38285622497389
  0
ARC
  5
AF
330
1F
100
AcDbEntity
  8
DEFAULT_2
  6
Continuous
 62
     7
100
AcDbCircle
 10
125226.3250225675
 20
290295.977880415
 30
0.0
 40
0.3276087796898211
100
AcDbArc
 50
60.34387533158943
 51
126.1253422391005
  0
ARC
  5
B0
330
1F
100
AcDbEntity
  8
0
  6
Continuous
 62
     7
100
AcDbCircle
 10
125226.3250225675
 20
290295.977880415
 30
0.0
 40
0.3276087794825817
100
AcDbArc
 50
-53.87466549457908
 51
60.34387533158943
  0
ARC
  5
B1
330
1F
100
AcDbEntity
  8
0
  6
Continuous
 62
     7
100
AcDbCircle
 10
125225.4608167726
 20
290294.7871138646
 30
0.0
 40
0.124712617910556
100
AcDbArc
 50
126.1253344511681
 51
-53.87466016223286
  0
ARC
  5
B2
330
1F
100
AcDbEntity
  8
0
  6
Continuous
 62
     7
100
AcDbCircle
 10
125226.6943251387
 20
290294.5678529933
 30
0.0
 40
0.1243941612164612
100
AcDbArc
 50
126.1253280522328
 51
-90.00000686345435
  0
ARC
  5
B3
330
1F
100
AcDbEntity
  8
0
  6
Continuous
 62
     7
100
AcDbCircle
 10
125225.2222370728
 20
290294.2639526361
 30
0.0
 40
1.061847049394612
100
AcDbArc
 50
126.1253422234313
 51
-90.04014455365345
  0
ARC
  5
B4
330
1F
100
AcDbEntity
  8
0
  6
Continuous
 62
     7
100
AcDbCircle
 10
125252.8154951143
 20
290284.1994483221
 30
0.0
 40
9.924999999915345
100
AcDbArc
 50
149.2201231654203
 51
90.0
  0
ARC
  5
B5
330
1F
100
AcDbEntity
  8
0
  6
Continuous
 62
     7
100
AcDbCircle
 10
125218.3154951143
 20
290293.1994483221
 30
0.0
 40
4.0
100
AcDbArc
 50
180.0
 51
-94.75531636923907
  0
ARC
  5
B6
330
1F
100
AcDbEntity
  8
0
  6
Continuous
 62
     7
100
AcDbCircle
 10
125221.3154448404
 20
290300.2135492418
 30
0.0
 40
0.5
100
AcDbArc
 50
180.0
 51
-90.0
  0
ARC
  5
B7
330
1F
100
AcDbEntity
  8
0
  6
Continuous
 62
     7
100
AcDbCircle
 10
125221.3113307747
 20
290300.2120944165
 30
0.0
 40
3.495886236988573
100
AcDbArc
 50
179.9761561603435
 51
-90.11516791866201
  0
ARC
  5
B8
330
1F
100
AcDbEntity
  8
0
  6
Continuous
 62
     7
100
AcDbCircle
 10
125242.9154951143
 20
290293.1994483221
 30
0.0
 40
0.5
100
AcDbArc
 50
-90.0
 51
-81.25868048049007
  0
ARC
  5
B9
330
1F
100
AcDbEntity
  8
0
  6
Continuous
 62
     7
100
AcDbCircle
 10
125242.9154951143
 20
290293.1994483221
 30
0.0
 40
4.0
100
AcDbArc
 50
-90.0
 51
-81.25868047605428
  0
ARC
  5
BA
330
1F
100
AcDbEntity
  8
0
  6
DASHED
 62
     2
100
AcDbCircle
 10
125256.8107794979
 20
290294.3990348347
 30
0.0
 40
4.004709110398495
100
AcDbArc
 50
-176.0683781831037
 51
-128.6190684185582
  0
ARC
  5
BB
330
1F
100
AcDbEntity
  8
0
  6
Continuous
 62
     7
100
AcDbCircle
 10
125256.8154951143
 20
290294.3892252736
 30
0.0
 40
0.5
100
AcDbArc
 50
180.0
 51
-128.7595421718193
  0
ARC
  5
BC
330
1F
100
AcDbEntity
  8
0
  6
Continuous
 62
     7
100
AcDbCircle
 10
125252.8133128304
 20
290284.2243919419
 30
0.0
 40
9.900056620718484
100
AcDbArc
 50
89.98737020782904
 51
100.0126297927292
  0
ARC
  5
BD
330
1F
100
AcDbEntity
  8
0
  6
Continuous
 62
     7
100
AcDbCircle
 10
125218.3154951143
 20
290293.1994483221
 30
0.0
 40
3.999999999963245
100
AcDbArc
 50
-94.75531636923907
 51
-90.0
  0
ARC
  5
BE
330
1F
100
AcDbEntity
  8
0
  6
Continuous
 62
     7
100
AcDbCircle
 10
125218.3154951143
 20
290293.1994483221
 30
0.0
 40
0.5
100
AcDbArc
 50
180.0
 51
-90.0
  0
ARC
  5
BF
330
1F
100
AcDbEntity
  8
0
  6
Continuous
 62
     7
100
AcDbCircle
 10
125242.3264951143
 20
290298.6994483221
 30
0.0
 40
0.5
100
AcDbArc
 50
180.0
 51
-90.0
  0
ARC
  5
C0
330
1F
100
AcDbEntity
  8
0
  6
Continuous
 62
     7
100
AcDbCircle
 10
125263.3154951143
 20
290298.6994483221
 30
0.0
 40
0.5
100
AcDbArc
 50
-90.0
 51
0.0
  0
ARC
  5
C1
330
1F
100
AcDbEntity
  8
0
  6
Continuous
 62
     7
100
AcDbCircle
 10
125237.8154448405
 20
290285.2041164999
 30
0.0
 40
3.0
100
AcDbArc
 50
-90.0
 51
0.0
  0
ARC
  5
C2
330
1F
100
AcDbEntity
  8
0
  6
Continuous
 62
     7
100
AcDbCircle
 10
125236.8154448405
 20
290301.199448322
 30
0.0
 40
2.0
100
AcDbArc
 50
180.0
 51
-90.0
  0
ARC
  5
C3
330
1F
100
AcDbEntity
  8
0
  6
DASHED
 62
     2
100
AcDbCircle
 10
125227.8153154889
 20
290297.6602953789
 30
0.0
 40
1.000149769587944
100
AcDbArc
 50
0.00733177702746
 51
89.49266443097542
  0
ARC
  5
C4
330
1F
100
AcDbEntity
  8
0
  6
DASHED
 62
     2
100
AcDbCircle
 10
125223.7154448405
 20
290299.6963003972
 30
0.0
 40
1.000000000023031
100
AcDbArc
 50
161.8051276593546
 51
-90.50000000073062
  0
ARC
  5
C5
330
1F
100
AcDbEntity
  8
0
  6
Continuous
 62
     2
100
AcDbCircle
 10
125221.8154448405
 20
290300.3208001971
 30
0.0
 40
0.9999999999910316
100
AcDbArc
 50
-18.19487233773745
 51
0.0
  0
ARC
  5
C6
330
1F
100
AcDbEntity
  8
0
  6
Continuous
 62
     7
100
AcDbCircle
 10
125240.1812156578
 20
290293.8363554399
 30
0.0
 40
0.6342495926073752
100
AcDbArc
 50
-90.0
 51
-0.45420596142118
  0
CIRCLE
  5
C7
330
1F
100
AcDbEntity
  8
1
  6
Continuous
 62
     7
100
AcDbCircle
 10
125252.8154951143
 20
290284.1994483221
 30
0.0
 40
6.425000000104774
  0
CIRCLE
  5
C8
330
1F
100
AcDbEntity
  8
A_RUNDUNGEN
  6
DASHED
 62
     2
100
AcDbCircle
 10
125252.8154951143
 20
290284.1994483221
 30
0.0
 40
5.025000000139698
  0
LWPOLYLINE
  5
C9
330
1F
100
AcDbEntity
  8
1
  6
Continuous
 62
     7
 60
     1
100
AcDbPolyline
 90
        5
 70
     0
 43
0.0
 10
125222.7032108405
 20
290337.3832153219
 10
125227.7785148367
 20
290320.0450460304
 10
125228.2750108376
 20
290319.3318566886
 10
125229.0834366129
 20
290319.0359715896
 10
125233.2914728405
 20
290319.5461217708
  0
LWPOLYLINE
  5
CA
330
1F
100
AcDbEntity
  8
1
  6
Continuous
 62
     7
 60
     1
100
AcDbPolyline
 90
        5
 70
     0
 43
0.0
 10
125222.7032108405
 20
290337.8923160635
 10
125227.7785148367
 20
290320.554146772
 10
125228.2750108376
 20
290319.8409574303
 10
125229.0834366129
 20
290319.5450723312
 10
125233.2914728405
 20
290320.0552225124
  0
LWPOLYLINE
  5
CB
330
1F
100
AcDbEntity
  8
1
  6
Continuous
 62
     7
 60
     1
100
AcDbPolyline
 90
        5
 70
     0
 43
0.0
 10
125222.8264448405
 20
290338.1591435
 10
125222.8154448405
 20
290320.574262811
 10
125233.014491054
 20
290336.7044485
 10
125214.3266448405
 20
290289.7044485
 10
125240.8265038405
 20
290289.7071145
  0
LWPOLYLINE
  5
CC
330
1F
100
AcDbEntity
  8
1
  6
Continuous
 62
     7
 60
     1
100
AcDbPolyline
 90
        5
 70
     0
 43
0.0
 10
125222.7202989599
 20
290338.7573613821
 10
125222.8154448405
 20
290337.0833635527
 10
125233.014491054
 20
290337.2135492416
 10
125214.3266448405
 20
290290.2135492416
 10
125240.8265038405
 20
290290.2162152416
  0
LWPOLYLINE
  5
CD
330
1F
100
AcDbEntity
  8
1
  6
Continuous
 62
     3
 60
     1
100
AcDbPolyline
 90
        2
 70
     0
 43
0.0
 10
125240.8265038405
 20
290282.0252575
 10
125240.8265038405
 20
290289.7071145
  0
LWPOLYLINE
  5
CE
330
1F
100
AcDbEntity
  8
1
  6
Continuous
 62
     3
 60
     1
100
AcDbPolyline
 90
        2
 70
     0
 43
0.0
 10
125240.8265038405
 20
290282.5343582416
 10
125240.8265038405
 20
290290.2162152416
  0
LWPOLYLINE
  5
CF
330
1F
100
AcDbEntity
  8
1
  6
Continuous
 62
     3
 60
     1
100
AcDbPolyline
 90
        3
 70
     0
 43
0.0
 10
125214.3154448404
 20
290318.074309969
 10
125214.3154951143
 20
290320.1994483221
 10
125222.6515870373
 20
290320.2132170637
  0
ARC
  5
D0
330
1F
100
AcDbEntity
  8
1
  6
Continuous
 62
     7
100
AcDbCircle
 10
125275.8154448405
 20
290301.199448322
 30
0.0
 40
2.0
100
AcDbArc
 50
-90.0
 51
0.0
  0
ARC
  5
D1
330
1F
100
AcDbEntity
  8
1
  6
Continuous
 62
     7
100
AcDbCircle
 10
125237.8154448405
 20
290290.1994483221
 30
0.0
 40
3.000000000012593
100
AcDbArc
 50
56.44269023771669
 51
90.0
  0
ARC
  5
D2
330
1F
100
AcDbEntity
  8
1
  6
DASHED
 62
     2
100
AcDbCircle
 10
125237.8154448405
 20
290290.1994483221
 30
0.0
 40
3.0
100
AcDbArc
 50
0.0
 51
56.44269023771669
  0
DIMENSION
  5
DE
330
1F
100
AcDbEntity
  8
1
100
AcDbDimension
  2
*D1
 10
125307.8154448405
 20
290299.199448322
 30
0.0
 11
125304.0654448405
 21
290314.5686938122
 31
0.0
 70
    32
  1
<>
 71
     5
 42
-1.0
 53
90.0
  3
ME10_DIM_10
100
AcDbAlignedDimension
 13
125262.8154951143
 23
290334.1994483221
 33
0.0
 14
125275.8154448405
 24
290299.199448322
 34
0.0
 50
90.0
100
AcDbRotatedDimension
  0
DIMENSION
  5
EA
330
1F
100
AcDbEntity
  8
1
100
AcDbDimension
  2
*D2
 10
125176.0
 20
290320.1994483221
 30
0.0
 11
125172.25
 21
290303.842733363
 31
0.0
 70
    32
  1
<>
 71
     5
 42
-1.0
 53
90.0
  3
ME10_DIM_11
100
AcDbAlignedDimension
 13
125214.3154448405
 23
290289.1994483221
 33
0.0
 14
125214.3154448405
 24
290320.1994483221
 34
0.0
 50
90.0
100
AcDbRotatedDimension
  0
DIMENSION
  5
F7
330
1F
100
AcDbEntity
  8
1
100
AcDbDimension
  2
*D3
 10
125287.8154448405
 20
290299.199448322
 30
0.0
 11
125284.0654448405
 21
290296.257333848
 31
0.0
 70
    32
  1
<>
 71
     5
 42
-1.0
 53
90.0
  3
ME10_DIM_12
100
AcDbAlignedDimension
 13
125237.8154448405
 23
290293.1994483221
 33
0.0
 14
125242.8154448405
 24
290299.199448322
 34
0.0
 50
90.0
100
AcDbRotatedDimension
  0
DIMENSION
  5
104
330
1F
100
AcDbEntity
  8
1
100
AcDbDimension
  2
*D4
 10
125222.8154448404
 20
290262.2041164999
 30
0.0
 11
125209.265775921
 21
290265.9541164999
 31
0.0
 70
    32
  1
<>
 71
     5
 42
-1.0
 53
0.00013888888889
  3
ME10_DIM_13
100
AcDbAlignedDimension
 13
125214.3154448405
 23
290289.2041163218
 33
0.0
 14
125222.8154448404
 24
290300.2132172418
 34
0.0
100
AcDbRotatedDimension
  0
DIMENSION
  5
111
330
1F
100
AcDbEntity
  8
1
100
AcDbDimension
  2
*D5
 10
125186.0
 20
290292.6994483221
 30
0.0
 11
125182.25
 21
290300.4871240371
 31
0.0
 70
    32
  1
<>
 71
     5
 42
-1.0
 53
90.0
  3
ME10_DIM_14
100
AcDbAlignedDimension
 13
125223.3154448405
 23
290293.1994483221
 33
0.0
 14
125218.3264951143
 24
290292.6994483221
 34
0.0
 50
90.0
100
AcDbRotatedDimension
  0
DIMENSION
  5
11C
330
1F
100
AcDbEntity
  8
1
100
AcDbDimension
  2
*D6
 10
125222.8154448404
 20
290347.6167716652
 30
0.0
 11
125229.332913476
 21
290351.3667716652
 31
0.0
 70
    32
  1
<>
 71
     5
 42
-1.0
 53
0.00013888888889
  3
ME10_DIM_15
100
AcDbAlignedDimension
 13
125234.8154448405
 23
290337.6167716652
 33
0.0
 14
125222.8154448404
 24
290300.2132172418
 34
0.0
100
AcDbRotatedDimension
  0
DIMENSION
  5
127
330
1F
100
AcDbEntity
  8
1
100
AcDbDimension
  2
*D7
 10
125297.8154448405
 20
290284.1994483221
 30
0.0
 11
125294.0654448405
 21
290292.8185655662
 31
0.0
 70
    32
  1
<>
 71
     5
 42
-1.0
 53
90.0
  3
ME10_DIM_16
100
AcDbAlignedDimension
 13
125275.8154448405
 23
290299.199448322
 33
0.0
 14
125265.2329951144
 24
290284.1994483221
 34
0.0
 50
90.0
100
AcDbRotatedDimension
  0
DIMENSION
  5
132
330
1F
100
AcDbEntity
  8
1
100
AcDbDimension
  2
*D8
 10
125297.8154448405
 20
290315.1991145002
 30
0.0
 11
125294.0654448405
 21
290308.6649064937
 31
0.0
 70
    32
  1
<>
 71
     5
 42
-1.0
 53
90.0
  3
ME10_DIM_17
100
AcDbAlignedDimension
 13
125275.8154448405
 23
290299.199448322
 33
0.0
 14
125261.4264951143
 24
290315.1991145002
 34
0.0
 50
90.0
100
AcDbRotatedDimension
  0
DIMENSION
  5
13F
330
1F
100
AcDbEntity
  8
1
100
AcDbDimension
  2
*D9
 10
125242.8154951143
 20
290347.6167716652
 30
0.0
 11
125238.490855879
 21
290351.3667716652
 31
0.0
 70
    32
  1
<>
 71
     5
 42
-1.0
 53
0.00013888888889
  3
ME10_DIM_18
100
AcDbAlignedDimension
 13
125234.8154448405
 23
290337.6167716652
 33
0.0
 14
125242.8154951143
 24
290334.1994483221
 34
0.0
100
AcDbRotatedDimension
  0
DIMENSION
  5
14A
330
1F
100
AcDbEntity
  8
1
100
AcDbDimension
  2
*D10
 10
125242.8154951143
 20
290347.6167716652
 30
0.0
 11
125252.467739844
 21
290351.3667716652
 31
0.0
 70
    32
  1
<>
 71
     5
 42
-1.0
 53
0.00013888888889
  3
ME10_DIM_19
100
AcDbAlignedDimension
 13
125262.8154951143
 23
290334.1994483221
 33
0.0
 14
125242.8154951143
 24
290332.1994483221
 34
0.0
100
AcDbRotatedDimension
  0
DIMENSION
  5
155
330
1F
100
AcDbEntity
  8
1
100
AcDbDimension
  2
*D11
 10
125240.8154453212
 20
290272.2041164999
 30
0.0
 11
125233.591276785
 21
290275.9541164999
 31
0.0
 70
    32
  1
<>
 71
     5
 42
-1.0
 53
0.00013888888889
  3
ME10_DIM_20
100
AcDbAlignedDimension
 13
125228.8154652503
 23
290294.4434588322
 33
0.0
 14
125240.8154453212
 24
290293.831327549
 34
0.0
100
AcDbRotatedDimension
  0
DIMENSION
  5
160
330
1F
100
AcDbEntity
  8
1
100
AcDbDimension
  2
*D12
 10
125240.8154448405
 20
290262.233798921
 30
0.0
 11
125233.504874625
 21
290265.983798921
 31
0.0
 70
    32
  1
<>
 71
     5
 42
-1.0
 53
0.00013888888889
  3
ME10_DIM_21
100
AcDbAlignedDimension
 13
125222.8154448404
 23
290300.2132172418
 33
0.0
 14
125240.8154448405
 24
290285.2041164999
 34
0.0
100
AcDbRotatedDimension
  0
ENDSEC
  0
SECTION
  2
OBJECTS
  0
DICTIONARY
  5
C
330
0
100
AcDbDictionary
281
     1
  3
ACAD_GROUP
350
D
  3
ACAD_LAYOUT
350
1A
  3
ACAD_MLINESTYLE
350
17
  3
ACAD_PLOTSETTINGS
350
19
  3
ACAD_PLOTSTYLENAME
350
E
  0
DICTIONARY
  5
D
102
{ACAD_REACTORS
330
C
102
}
330
C
100
AcDbDictionary
281
     1
  0
DICTIONARY
  5
1A
102
{ACAD_REACTORS
330
C
102
}
330
C
100
AcDbDictionary
281
     1
  3
Layout1
350
1E
  3
Layout2
350
26
  3
Model
350
22
  0
DICTIONARY
  5
17
102
{ACAD_REACTORS
330
C
102
}
330
C
100
AcDbDictionary
281
     1
  3
Standard
350
18
  0
DICTIONARY
  5
19
102
{ACAD_REACTORS
330
C
102
}
330
C
100
AcDbDictionary
281
     1
  0
ACDBDICTIONARYWDFLT
  5
E
102
{ACAD_REACTORS
330
C
102
}
330
C
100
AcDbDictionary
281
     1
  3
Normal
350
F
100
AcDbDictionaryWithDefault
340
F
  0
LAYOUT
  5
1E
102
{ACAD_REACTORS
330
1A
102
}
330
1A
100
AcDbPlotSettings
  1

  2

  4

  6

 40
0.0
 41
0.0
 42
0.0
 43
0.0
 44
0.0
 45
0.0
 46
0.0
 47
0.0
 48
0.0
 49
0.0
140
0.0
141
0.0
142
1.0
143
1.0
 70
   688
 72
     0
 73
     0
 74
     5
  7

 75
    16
 76
     0
 77
     2
 78
   300
147
1.0
148
0.0
149
0.0
100
AcDbLayout
  1
Layout1
 70
     1
 71
     1
 10
0.0
 20
0.0
 11
0.0
 21
0.0
 12
0.0
 22
0.0
 32
0.0
 14
0.0
 24
0.0
 34
0.0
 15
0.0
 25
0.0
 35
0.0
146
0.0
 13
0.0
 23
0.0
 33
0.0
 16
1.0
 26
0.0
 36
0.0
 17
0.0
 27
1.0
 37
0.0
 76
     0
330
1B
  0
LAYOUT
  5
26
102
{ACAD_REACTORS
330
1A
102
}
330
1A
100
AcDbPlotSettings
  1

  2

  4

  6

 40
0.0
 41
0.0
 42
0.0
 43
0.0
 44
0.0
 45
0.0
 46
0.0
 47
0.0
 48
0.0
 49
0.0
140
0.0
141
0.0
142
1.0
143
1.0
 70
   688
 72
     0
 73
     0
 74
     5
  7

 75
    16
 76
     0
 77
     2
 78
   300
147
1.0
148
0.0
149
0.0
100
AcDbLayout
  1
Layout2
 70
     1
 71
     2
 10
0.0
 20
0.0
 11
0.0
 21
0.0
 12
0.0
 22
0.0
 32
0.0
 14
0.0
 24
0.0
 34
0.0
 15
0.0
 25
0.0
 35
0.0
146
0.0
 13
0.0
 23
0.0
 33
0.0
 16
1.0
 26
0.0
 36
0.0
 17
0.0
 27
1.0
 37
0.0
 76
     0
330
23
  0
LAYOUT
  5
22
102
{ACAD_REACTORS
330
1A
102
}
330
1A
100
AcDbPlotSettings
  1

  2

  4

  6

 40
0.0
 41
0.0
 42
0.0
 43
0.0
 44
0.0
 45
0.0
 46
0.0
 47
0.0
 48
0.0
 49
0.0
140
0.0
141
0.0
142
1.0
143
1.0
 70
  1712
 72
     0
 73
     0
 74
     0
  7

 75
     0
 76
     0
 77
     2
 78
   300
147
1.0
148
0.0
149
0.0
100
AcDbLayout
  1
Model
 70
     1
 71
     0
 10
0.0
 20
0.0
 11
0.0
 21
0.0
 12
0.0
 22
0.0
 32
0.0
 14
125170.5
 24
290260.2041164999
 34
0.0
 15
125309.8154448405
 25
290353.1167716652
 35
0.0
146
0.0
 13
0.0
 23
0.0
 33
0.0
 16
1.0
 26
0.0
 36
0.0
 17
0.0
 27
1.0
 37
0.0
 76
     0
330
1F
  0
MLINESTYLE
  5
18
102
{ACAD_REACTORS
330
17
102
}
330
17
100
AcDbMlineStyle
  2
Standard
 70
     0
  3

 62
   256
 51
90.0
 52
90.0
 71
     2
 49
0.5
 62
   256
  6
BYLAYER
 49
-0.5
 62
   256
  6
BYLAYER
  0
ACDBPLACEHOLDER
  5
F
102
{ACAD_REACTORS
330
E
102
}
330
E
  0
ENDSEC
  0
EOF
