  0
SECTION
  2
HEADER
  9
$ACADVER
  1
AC1014
  9
$ACADMAINTVER
 70
     9
  9
$DWGCODEPAGE
  3
ANSI_1252
  9
$INSBASE
 10
0.0
 20
0.0
 30
0.0
  9
$EXTMIN
 10
125196.202185012
 20
290837.364130561
 30
0.0
  9
$EXTMAX
 10
125371.1435460268
 20
290927.4603521617
 30
0.0
  9
$LIMMIN
 10
0.0
 20
0.0
  9
$LIMMAX
 10
12.0
 20
9.0
  9
$ORTHOMODE
 70
     0
  9
$REGENMODE
 70
     1
  9
$FILLMODE
 70
     1
  9
$QTEXTMODE
 70
     0
  9
$MIRRTEXT
 70
     1
  9
$DRAGMODE
 70
     2
  9
$LTSCALE
 40
1.0
  9
$OSMODE
 70
    37
  9
$ATTMODE
 70
     1
  9
$TEXTSIZE
 40
0.2
  9
$TRACEWID
 40
0.05
  9
$TEXTSTYLE
  7
STANDARD
  9
$CLAYER
  8
0
  9
$CELTYPE
  6
BYLAYER
  9
$CECOLOR
 62
   256
  9
$CELTSCALE
 40
1.0
  9
$DELOBJ
 70
     1
  9
$DISPSILH
 70
     0
  9
$DIMSCALE
 40
1.0
  9
$DIMASZ
 40
0.18
  9
$DIMEXO
 40
0.0625
  9
$DIMDLI
 40
0.38
  9
$DIMRND
 40
0.0
  9
$DIMDLE
 40
0.0
  9
$DIMEXE
 40
0.18
  9
$DIMTP
 40
0.0
  9
$DIMTM
 40
0.0
  9
$DIMTXT
 40
0.18
  9
$DIMCEN
 40
0.09
  9
$DIMTSZ
 40
0.0
  9
$DIMTOL
 70
     0
  9
$DIMLIM
 70
     0
  9
$DIMTIH
 70
     1
  9
$DIMTOH
 70
     1
  9
$DIMSE1
 70
     0
  9
$DIMSE2
 70
     0
  9
$DIMTAD
 70
     0
  9
$DIMZIN
 70
     0
  9
$DIMBLK
  1

  9
$DIMASO
 70
     1
  9
$DIMSHO
 70
     1
  9
$DIMPOST
  1

  9
$DIMAPOST
  1

  9
$DIMALT
 70
     0
  9
$DIMALTD
 70
     2
  9
$DIMALTF
 40
25.4
  9
$DIMLFAC
 40
1.0
  9
$DIMTOFL
 70
     0
  9
$DIMTVP
 40
0.0
  9
$DIMTIX
 70
     0
  9
$DIMSOXD
 70
     0
  9
$DIMSAH
 70
     0
  9
$DIMBLK1
  1

  9
$DIMBLK2
  1

  9
$DIMSTYLE
  2
STANDARD
  9
$DIMCLRD
 70
     0
  9
$DIMCLRE
 70
     0
  9
$DIMCLRT
 70
     0
  9
$DIMTFAC
 40
1.0
  9
$DIMGAP
 40
0.09
  9
$DIMJUST
 70
     0
  9
$DIMSD1
 70
     0
  9
$DIMSD2
 70
     0
  9
$DIMTOLJ
 70
     1
  9
$DIMTZIN
 70
     0
  9
$DIMALTZ
 70
     0
  9
$DIMALTTZ
 70
     0
  9
$DIMFIT
 70
     3
  9
$DIMUPT
 70
     0
  9
$DIMUNIT
 70
     2
  9
$DIMDEC
 70
     4
  9
$DIMTDEC
 70
     4
  9
$DIMALTU
 70
     2
  9
$DIMALTTD
 70
     2
  9
$DIMTXSTY
  7
STANDARD
  9
$DIMAUNIT
 70
     0
  9
$LUNITS
 70
     2
  9
$LUPREC
 70
     4
  9
$SKETCHINC
 40
0.1
  9
$FILLETRAD
 40
0.5
  9
$AUNITS
 70
     0
  9
$AUPREC
 70
     0
  9
$MENU
  1
.
  9
$ELEVATION
 40
0.0
  9
$PELEVATION
 40
0.0
  9
$THICKNESS
 40
0.0
  9
$LIMCHECK
 70
     0
  9
$CHAMFERA
 40
0.5
  9
$CHAMFERB
 40
0.5
  9
$CHAMFERC
 40
1.0
  9
$CHAMFERD
 40
0.0
  9
$SKPOLY
 70
     0
  9
$TDCREATE
 40
2457052.360097535
  9
$TDUPDATE
 40
2457052.360097546
  9
$TDINDWG
 40
0.0000000116
  9
$TDUSRTIMER
 40
0.0000000116
  9
$USRTIMER
 70
     1
  9
$ANGBASE
 50
0.0
  9
$ANGDIR
 70
     0
  9
$PDMODE
 70
     0
  9
$PDSIZE
 40
0.0
  9
$PLINEWID
 40
0.0
  9
$COORDS
 70
     1
  9
$SPLFRAME
 70
     0
  9
$SPLINETYPE
 70
     6
  9
$SPLINESEGS
 70
     8
  9
$ATTDIA
 70
     0
  9
$ATTREQ
 70
     1
  9
$HANDLING
 70
     1
  9
$HANDSEED
  5
177
  9
$SURFTAB1
 70
     6
  9
$SURFTAB2
 70
     6
  9
$SURFTYPE
 70
     6
  9
$SURFU
 70
     6
  9
$SURFV
 70
     6
  9
$UCSNAME
  2

  9
$UCSORG
 10
0.0
 20
0.0
 30
0.0
  9
$UCSXDIR
 10
1.0
 20
0.0
 30
0.0
  9
$UCSYDIR
 10
0.0
 20
1.0
 30
0.0
  9
$PUCSNAME
  2

  9
$PUCSORG
 10
0.0
 20
0.0
 30
0.0
  9
$PUCSXDIR
 10
1.0
 20
0.0
 30
0.0
  9
$PUCSYDIR
 10
0.0
 20
1.0
 30
0.0
  9
$USERI1
 70
     0
  9
$USERI2
 70
     0
  9
$USERI3
 70
     0
  9
$USERI4
 70
     0
  9
$USERI5
 70
     0
  9
$USERR1
 40
14.5
  9
$USERR2
 40
0.0
  9
$USERR3
 40
0.0
  9
$USERR4
 40
0.0
  9
$USERR5
 40
0.0
  9
$WORLDVIEW
 70
     1
  9
$SHADEDGE
 70
     3
  9
$SHADEDIF
 70
    70
  9
$TILEMODE
 70
     1
  9
$MAXACTVP
 70
    64
  9
$PINSBASE
 10
0.0
 20
0.0
 30
0.0
  9
$PLIMCHECK
 70
     0
  9
$PEXTMIN
 10
1.00000000000000E+20
 20
1.00000000000000E+20
 30
1.00000000000000E+20
  9
$PEXTMAX
 10
-1.00000000000000E+20
 20
-1.00000000000000E+20
 30
-1.00000000000000E+20
  9
$PLIMMIN
 10
0.0
 20
0.0
  9
$PLIMMAX
 10
12.0
 20
9.0
  9
$UNITMODE
 70
     0
  9
$VISRETAIN
 70
     1
  9
$PLINEGEN
 70
     0
  9
$PSLTSCALE
 70
     1
  9
$TREEDEPTH
 70
  3020
  9
$PICKSTYLE
 70
     1
  9
$CMLSTYLE
  2
STANDARD
  9
$CMLJUST
 70
     0
  9
$CMLSCALE
 40
1.0
  9
$PROXYGRAPHICS
 70
     1
  9
$MEASUREMENT
 70
     1
  0
ENDSEC
  0
SECTION
  2
CLASSES
  0
CLASS
  1
ACDBDICTIONARYWDFLT
  2
AcDbDictionaryWithDefault
  3
ObjectDBX Classes
 90
        0
280
     0
281
     0
  0
CLASS
  1

  2
exOdDbCircle
  3

 90
        0
280
     0
281
     1
  0
CLASS
  1

  2
exOdDbPolyline
  3

 90
        0
280
     0
281
     1
  0
CLASS
  1
XRECORD
  2
AcDbXrecord
  3
AutoCAD 2000
 90
        0
280
     0
281
     0
  0
CLASS
  1
LWPOLYLINE
  2
AcDbPolyline
  3
AutoCAD 2000
 90
        0
280
     0
281
     1
  0
CLASS
  1
HATCH
  2
AcDbHatch
  3
AutoCAD 2000
 90
        0
280
     0
281
     1
  0
CLASS
  1
ACDBPLACEHOLDER
  2
AcDbPlaceHolder
  3
ObjectDBX Classes
 90
        0
280
     0
281
     0
  0
CLASS
  1
LAYOUT
  2
AcDbLayout
  3
ObjectDBX Classes
 90
        0
280
     0
281
     0
  0
ENDSEC
  0
SECTION
  2
TABLES
  0
TABLE
  2
VPORT
  5
8
330
0
100
AcDbSymbolTable
 70
     1
  0
VPORT
  5
29
330
8
100
AcDbSymbolTableRecord
100
AcDbViewportTableRecord
  2
*ACTIVE
 70
     0
 10
0.0
 20
0.0
 11
1.0
 21
1.0
 12
125283.6728655194
 22
290882.4122413613
 13
0.0
 23
0.0
 14
0.5
 24
0.5
 15
0.5
 25
0.5
 16
0.0
 26
0.0
 36
1.0
 17
0.0
 27
0.0
 37
0.0
 40
120.0711736881452
 41
1.60267857142857
 42
50.0
 43
0.0
 44
0.0
 50
0.0
 51
0.0
 71
     0
 72
   100
 73
     1
 74
     3
 75
     0
 76
     0
 77
     0
 78
     0
  0
ENDTAB
  0
TABLE
  2
LTYPE
  5
5
330
0
100
AcDbSymbolTable
 70
     8
  0
LTYPE
  5
14
330
5
100
AcDbSymbolTableRecord
100
AcDbLinetypeTableRecord
  2
BYBLOCK
 70
     0
  3

 72
    65
 73
     0
 40
0.0
  0
LTYPE
  5
15
330
5
100
AcDbSymbolTableRecord
100
AcDbLinetypeTableRecord
  2
BYLAYER
 70
     0
  3

 72
    65
 73
     0
 40
0.0
  0
LTYPE
  5
16
330
5
100
AcDbSymbolTableRecord
100
AcDbLinetypeTableRecord
  2
CONTINUOUS
 70
     0
  3
Solid line
 72
    65
 73
     0
 40
0.0
  0
LTYPE
  5
2A
330
5
100
AcDbSymbolTableRecord
100
AcDbLinetypeTableRecord
  2
DASHED
 70
     0
  3
Dashed
 72
    65
 73
     2
 40
15.0
 49
7.0
 74
     0
 49
-8.0
 74
     0
  0
LTYPE
  5
2B
330
5
100
AcDbSymbolTableRecord
100
AcDbLinetypeTableRecord
  2
DOTTED
 70
     0
  3
Dotted
 72
    65
 73
     2
 40
1.0
 49
0.0
 74
     0
 49
-1.0
 74
     0
  0
LTYPE
  5
2C
330
5
100
AcDbSymbolTableRecord
100
AcDbLinetypeTableRecord
  2
DOT_CENTER
 70
     0
  3
Dot_Center
 72
    65
 73
     4
 40
14.0
 49
12.0
 74
     0
 49
-1.0
 74
     0
 49
0.0
 74
     0
 49
-1.0
 74
     0
  0
LTYPE
  5
2D
330
5
100
AcDbSymbolTableRecord
100
AcDbLinetypeTableRecord
  2
LONG_DASHED
 70
     0
  3
Long_Dashed
 72
    65
 73
     2
 40
15.0
 49
10.0
 74
     0
 49
-5.0
 74
     0
  0
LTYPE
  5
2E
330
5
100
AcDbSymbolTableRecord
100
AcDbLinetypeTableRecord
  2
DASH_CENTER
 70
     0
  3
Dash_Center
 72
    65
 73
     4
 40
14.0
 49
11.0
 74
     0
 49
-1.0
 74
     0
 49
1.0
 74
     0
 49
-1.0
 74
     0
  0
LTYPE
  5
2F
330
5
100
AcDbSymbolTableRecord
100
AcDbLinetypeTableRecord
  2
PHANTOM
 70
     0
  3
Phantom
 72
    65
 73
     6
 40
13.0
 49
10.0
 74
     0
 49
-1.0
 74
     0
 49
0.0
 74
     0
 49
-1.0
 74
     0
 49
0.0
 74
     0
 49
-1.0
 74
     0
  0
LTYPE
  5
30
330
5
100
AcDbSymbolTableRecord
100
AcDbLinetypeTableRecord
  2
CENTER_DASH_DASH
 70
     0
  3
Center_Dash_Dash
 72
    65
 73
     6
 40
14.0
 49
9.0
 74
     0
 49
-1.0
 74
     0
 49
1.0
 74
     0
 49
-1.0
 74
     0
 49
1.0
 74
     0
 49
-1.0
 74
     0
  0
ENDTAB
  0
TABLE
  2
LAYER
  5
2
330
0
100
AcDbSymbolTable
 70
     5
  0
LAYER
  5
10
330
2
100
AcDbSymbolTableRecord
100
AcDbLayerTableRecord
  2
0
 70
     0
 62
     7
  6
CONTINUOUS
  0
LAYER
  5
31
330
2
100
AcDbSymbolTableRecord
100
AcDbLayerTableRecord
  2
1
 70
     0
 62
     7
  6
CONTINUOUS
  0
LAYER
  5
32
330
2
100
AcDbSymbolTableRecord
100
AcDbLayerTableRecord
  2
A_ACHSEN
 70
     0
 62
     7
  6
CONTINUOUS
  0
LAYER
  5
33
330
2
100
AcDbSymbolTableRecord
100
AcDbLayerTableRecord
  2
A_BEMASSUNGEN
 70
     0
 62
     7
  6
CONTINUOUS
  0
LAYER
  5
34
330
2
100
AcDbSymbolTableRecord
100
AcDbLayerTableRecord
  2
A_RUNDUNGEN
 70
     0
 62
     7
  6
CONTINUOUS
  0
ENDTAB
  0
TABLE
  2
STYLE
  5
3
330
0
100
AcDbSymbolTable
 70
     2
  0
STYLE
  5
11
330
3
100
AcDbSymbolTableRecord
100
AcDbTextStyleTableRecord
  2
STANDARD
 70
     0
 40
0.0
 41
1.0
 50
0.0
 71
     0
 42
0.2
  3
txt
  4

  0
STYLE
  5
DD
330
3
100
AcDbSymbolTableRecord
100
AcDbTextStyleTableRecord
  2
CONVERTER_11
 70
     0
 40
0.0
 41
0.9
 50
0.0
 71
     0
 42
0.2
  3
txt.shx
  4

  0
ENDTAB
  0
TABLE
  2
VIEW
  5
6
330
0
100
AcDbSymbolTable
 70
     0
  0
ENDTAB
  0
TABLE
  2
UCS
  5
7
330
0
100
AcDbSymbolTable
 70
     0
  0
ENDTAB
  0
TABLE
  2
APPID
  5
9
330
0
100
AcDbSymbolTable
 70
     1
  0
APPID
  5
12
330
9
100
AcDbSymbolTableRecord
100
AcDbRegAppTableRecord
  2
ACAD
 70
     0
  0
ENDTAB
  0
TABLE
  2
DIMSTYLE
  5
A
330
0
100
AcDbSymbolTable
 70
    12
  0
DIMSTYLE
105
27
330
A
100
AcDbSymbolTableRecord
100
AcDbDimStyleTableRecord
  2
STANDARD
 70
     0
  3

  4

  5

  6

  7

 40
1.0
 41
0.18
 42
0.0625
 43
0.38
 44
0.18
 45
0.0
 46
0.0
 47
0.0
 48
0.0
140
0.18
141
0.09
142
0.0
143
25.4
144
1.0
145
0.0
146
1.0
147
0.09
 71
     0
 72
     0
 73
     1
 74
     1
 75
     0
 76
     0
 77
     0
 78
     0
170
     0
171
     2
172
     0
173
     0
174
     0
175
     0
176
     0
177
     0
178
     0
270
     2
271
     4
272
     4
273
     2
274
     2
340
11
275
     0
280
     0
281
     0
282
     0
283
     1
284
     0
285
     0
286
     0
287
     3
288
     0
  0
DIMSTYLE
105
E1
102
{ACAD_REACTORS
330
E2
102
}
330
A
100
AcDbSymbolTableRecord
100
AcDbDimStyleTableRecord
  2
ME10_DIM_10
 70
     0
  3

  4

  5

  6

  7

 40
1.0
 41
3.5
 42
0.0
 43
0.38
 44
2.0
 45
0.0
 46
0.0
 47
0.0
 48
0.0
140
3.5
141
0.09
142
0.0
143
25.4
144
1.0
145
0.0
146
1.0
147
2.0
 71
     0
 72
     0
 73
     0
 74
     0
 75
     0
 76
     0
 77
     1
 78
     8
170
     0
171
     2
172
     1
173
     1
174
     0
175
     0
176
     2
177
     2
178
     2
270
     2
271
     3
272
     4
273
     2
274
     2
340
DD
275
     0
280
     0
281
     0
282
     0
283
     1
284
     0
285
     0
286
     0
287
     3
288
     0
  0
DIMSTYLE
105
EC
102
{ACAD_REACTORS
330
ED
102
}
330
A
100
AcDbSymbolTableRecord
100
AcDbDimStyleTableRecord
  2
ME10_DIM_11
 70
     0
  3

  4

  5

  6

  7

 40
1.0
 41
3.5
 42
0.0
 43
0.38
 44
2.0
 45
0.0
 46
0.0
 47
0.0
 48
0.0
140
3.5
141
0.09
142
0.0
143
25.4
144
1.0
145
0.0
146
1.0
147
2.0
 71
     0
 72
     0
 73
     0
 74
     0
 75
     0
 76
     0
 77
     1
 78
     8
170
     0
171
     2
172
     1
173
     1
174
     0
175
     0
176
     2
177
     2
178
     2
270
     2
271
     3
272
     4
273
     2
274
     2
340
DD
275
     0
280
     0
281
     0
282
     0
283
     1
284
     0
285
     0
286
     0
287
     3
288
     0
  0
DIMSTYLE
105
F7
102
{ACAD_REACTORS
330
F8
102
}
330
A
100
AcDbSymbolTableRecord
100
AcDbDimStyleTableRecord
  2
ME10_DIM_12
 70
     0
  3

  4

  5

  6

  7

 40
1.0
 41
3.5
 42
0.0
 43
0.38
 44
2.0
 45
0.0
 46
0.0
 47
0.0
 48
0.0
140
3.5
141
0.09
142
0.0
143
25.4
144
1.0
145
0.0
146
1.0
147
2.0
 71
     0
 72
     0
 73
     0
 74
     0
 75
     0
 76
     0
 77
     1
 78
     8
170
     0
171
     2
172
     1
173
     1
174
     0
175
     0
176
     2
177
     2
178
     2
270
     2
271
     3
272
     4
273
     2
274
     2
340
DD
275
     0
280
     0
281
     0
282
     0
283
     1
284
     0
285
     0
286
     0
287
     3
288
     0
  0
DIMSTYLE
105
102
102
{ACAD_REACTORS
330
103
102
}
330
A
100
AcDbSymbolTableRecord
100
AcDbDimStyleTableRecord
  2
ME10_DIM_13
 70
     0
  3

  4

  5

  6

  7

 40
1.0
 41
3.5
 42
0.0
 43
0.38
 44
2.0
 45
0.0
 46
0.0
 47
0.0
 48
0.0
140
3.5
141
0.09
142
0.0
143
25.4
144
1.0
145
0.0
146
1.0
147
2.0
 71
     0
 72
     0
 73
     0
 74
     0
 75
     0
 76
     0
 77
     1
 78
     8
170
     0
171
     2
172
     1
173
     1
174
     0
175
     0
176
     2
177
     2
178
     2
270
     2
271
     3
272
     4
273
     2
274
     2
340
DD
275
     0
280
     0
281
     0
282
     0
283
     1
284
     0
285
     0
286
     0
287
     3
288
     0
  0
DIMSTYLE
105
10D
102
{ACAD_REACTORS
330
10E
102
}
330
A
100
AcDbSymbolTableRecord
100
AcDbDimStyleTableRecord
  2
ME10_DIM_14
 70
     0
  3

  4

  5

  6

  7

 40
1.0
 41
3.5
 42
0.0
 43
0.38
 44
2.0
 45
0.0
 46
0.0
 47
0.0
 48
0.0
140
3.5
141
0.09
142
0.0
143
25.4
144
1.0
145
0.0
146
1.0
147
2.0
 71
     0
 72
     0
 73
     0
 74
     0
 75
     0
 76
     0
 77
     1
 78
     8
170
     0
171
     2
172
     1
173
     1
174
     0
175
     0
176
     2
177
     2
178
     2
270
     2
271
     3
272
     4
273
     2
274
     2
340
DD
275
     0
280
     0
281
     0
282
     0
283
     1
284
     0
285
     0
286
     0
287
     3
288
     0
  0
DIMSTYLE
105
118
102
{ACAD_REACTORS
330
119
102
}
330
A
100
AcDbSymbolTableRecord
100
AcDbDimStyleTableRecord
  2
ME10_DIM_15
 70
     0
  3

  4

  5

  6

  7

 40
1.0
 41
3.5
 42
0.0
 43
0.38
 44
2.0
 45
0.0
 46
0.0
 47
0.0
 48
0.0
140
3.5
141
0.09
142
0.0
143
25.4
144
1.0
145
0.0
146
1.0
147
2.0
 71
     0
 72
     0
 73
     0
 74
     0
 75
     0
 76
     0
 77
     1
 78
     8
170
     0
171
     2
172
     1
173
     1
174
     0
175
     0
176
     2
177
     2
178
     2
270
     2
271
     3
272
     4
273
     2
274
     2
340
DD
275
     0
280
     0
281
     0
282
     0
283
     1
284
     0
285
     0
286
     0
287
     3
288
     0
  0
DIMSTYLE
105
123
102
{ACAD_REACTORS
330
124
102
}
330
A
100
AcDbSymbolTableRecord
100
AcDbDimStyleTableRecord
  2
ME10_DIM_16
 70
     0
  3

  4

  5

  6

  7

 40
1.0
 41
3.5
 42
0.0
 43
0.38
 44
2.0
 45
0.0
 46
0.0
 47
0.0
 48
0.0
140
3.5
141
0.09
142
0.0
143
25.4
144
1.0
145
0.0
146
1.0
147
2.0
 71
     0
 72
     0
 73
     0
 74
     0
 75
     0
 76
     0
 77
     1
 78
     8
170
     0
171
     2
172
     1
173
     1
174
     0
175
     0
176
     2
177
     2
178
     2
270
     2
271
     3
272
     4
273
     2
274
     2
340
DD
275
     0
280
     0
281
     0
282
     0
283
     1
284
     0
285
     0
286
     0
287
     3
288
     0
  0
DIMSTYLE
105
130
102
{ACAD_REACTORS
330
131
102
}
330
A
100
AcDbSymbolTableRecord
100
AcDbDimStyleTableRecord
  2
ME10_DIM_17
 70
     0
  3

  4

  5

  6

  7

 40
1.0
 41
3.5
 42
0.0
 43
0.38
 44
2.0
 45
0.0
 46
0.0
 47
0.0
 48
0.0
140
3.5
141
0.09
142
0.0
143
25.4
144
1.0
145
0.0
146
1.0
147
2.0
 71
     0
 72
     0
 73
     0
 74
     0
 75
     0
 76
     0
 77
     1
 78
     8
170
     0
171
     2
172
     1
173
     1
174
     0
175
     0
176
     2
177
     2
178
     2
270
     2
271
     3
272
     4
273
     2
274
     2
340
DD
275
     0
280
     0
281
     0
282
     0
283
     1
284
     0
285
     0
286
     0
287
     3
288
     0
  0
DIMSTYLE
105
13D
102
{ACAD_REACTORS
330
13E
102
}
330
A
100
AcDbSymbolTableRecord
100
AcDbDimStyleTableRecord
  2
ME10_DIM_18
 70
     0
  3

  4

  5

  6

  7

 40
1.0
 41
3.5
 42
0.0
 43
0.38
 44
2.0
 45
0.0
 46
0.0
 47
0.0
 48
0.0
140
3.5
141
0.09
142
0.0
143
25.4
144
1.0
145
0.0
146
1.0
147
2.0
 71
     0
 72
     0
 73
     0
 74
     0
 75
     0
 76
     0
 77
     1
 78
     8
170
     0
171
     2
172
     1
173
     1
174
     0
175
     0
176
     2
177
     2
178
     2
270
     2
271
     3
272
     4
273
     2
274
     2
340
DD
275
     0
280
     0
281
     0
282
     0
283
     1
284
     0
285
     0
286
     0
287
     3
288
     0
  0
DIMSTYLE
105
148
102
{ACAD_REACTORS
330
149
102
}
330
A
100
AcDbSymbolTableRecord
100
AcDbDimStyleTableRecord
  2
ME10_DIM_19
 70
     0
  3

  4

  5

  6

  7

 40
1.0
 41
3.5
 42
0.0
 43
0.38
 44
2.0
 45
0.0
 46
0.0
 47
0.0
 48
0.0
140
3.5
141
0.09
142
0.0
143
25.4
144
1.0
145
0.0
146
1.0
147
2.0
 71
     0
 72
     0
 73
     0
 74
     0
 75
     0
 76
     0
 77
     1
 78
     8
170
     0
171
     2
172
     1
173
     1
174
     0
175
     0
176
     2
177
     2
178
     2
270
     2
271
     3
272
     4
273
     2
274
     2
340
DD
275
     0
280
     0
281
     0
282
     0
283
     1
284
     0
285
     0
286
     0
287
     3
288
     0
  0
DIMSTYLE
105
155
102
{ACAD_REACTORS
330
156
102
}
330
A
100
AcDbSymbolTableRecord
100
AcDbDimStyleTableRecord
  2
ME10_DIM_20
 70
     0
  3

  4

  5

  6

  7

 40
1.0
 41
3.5
 42
0.0
 43
0.38
 44
2.0
 45
0.0
 46
0.0
 47
0.0
 48
0.0
140
3.5
141
0.09
142
0.0
143
25.4
144
1.0
145
0.0
146
1.0
147
2.0
 71
     0
 72
     0
 73
     0
 74
     0
 75
     0
 76
     0
 77
     1
 78
     8
170
     0
171
     2
172
     1
173
     1
174
     0
175
     0
176
     2
177
     2
178
     2
270
     2
271
     3
272
     4
273
     2
274
     2
340
DD
275
     0
280
     0
281
     0
282
     0
283
     1
284
     0
285
     0
286
     0
287
     3
288
     0
  0
ENDTAB
  0
TABLE
  2
BLOCK_RECORD
  5
1
330
0
100
AcDbSymbolTable
 70
    12
  0
BLOCK_RECORD
  5
1F
330
1
100
AcDbSymbolTableRecord
100
AcDbBlockTableRecord
  2
*MODEL_SPACE
  0
BLOCK_RECORD
  5
1B
330
1
100
AcDbSymbolTableRecord
100
AcDbBlockTableRecord
  2
*PAPER_SPACE
  0
BLOCK_RECORD
  5
D7
330
1
100
AcDbSymbolTableRecord
100
AcDbBlockTableRecord
  2
*D1
  0
BLOCK_RECORD
  5
E3
330
1
100
AcDbSymbolTableRecord
100
AcDbBlockTableRecord
  2
*D2
  0
BLOCK_RECORD
  5
EE
330
1
100
AcDbSymbolTableRecord
100
AcDbBlockTableRecord
  2
*D3
  0
BLOCK_RECORD
  5
F9
330
1
100
AcDbSymbolTableRecord
100
AcDbBlockTableRecord
  2
*D4
  0
BLOCK_RECORD
  5
104
330
1
100
AcDbSymbolTableRecord
100
AcDbBlockTableRecord
  2
*D5
  0
BLOCK_RECORD
  5
10F
330
1
100
AcDbSymbolTableRecord
100
AcDbBlockTableRecord
  2
*D6
  0
BLOCK_RECORD
  5
11A
330
1
100
AcDbSymbolTableRecord
100
AcDbBlockTableRecord
  2
*D7
  0
BLOCK_RECORD
  5
125
330
1
100
AcDbSymbolTableRecord
100
AcDbBlockTableRecord
  2
*D8
  0
BLOCK_RECORD
  5
132
330
1
100
AcDbSymbolTableRecord
100
AcDbBlockTableRecord
  2
*D9
  0
BLOCK_RECORD
  5
13F
330
1
100
AcDbSymbolTableRecord
100
AcDbBlockTableRecord
  2
*D10
  0
BLOCK_RECORD
  5
14A
330
1
100
AcDbSymbolTableRecord
100
AcDbBlockTableRecord
  2
*D11
  0
ENDTAB
  0
ENDSEC
  0
SECTION
  2
BLOCKS
  0
BLOCK
  5
20
330
1F
100
AcDbEntity
  8
0
100
AcDbBlockBegin
  2
*MODEL_SPACE
 70
     0
 71
     0
 10
0.0
 20
0.0
 30
0.0
  3
*MODEL_SPACE
  1

  0
ENDBLK
  5
21
330
1F
100
AcDbEntity
  8
0
100
AcDbBlockEnd
  0
BLOCK
  5
1C
330
1B
100
AcDbEntity
 67
     1
  8
0
100
AcDbBlockBegin
  2
*PAPER_SPACE
 70
     0
 71
     0
 10
0.0
 20
0.0
 30
0.0
  3
*PAPER_SPACE
  1

  0
ENDBLK
  5
1D
330
1B
100
AcDbEntity
 67
     1
  8
0
100
AcDbBlockEnd
  0
BLOCK
  5
DF
330
D7
100
AcDbEntity
  8
0
100
AcDbBlockBegin
  2
*D1
 70
     1
 71
     0
 10
0.0
 20
0.0
 30
0.0
  3
*D1
  1

  0
LINE
  5
D8
330
D7
100
AcDbEntity
  8
1
  6
CONTINUOUS
 62
     2
100
AcDbLine
 10
125201.702185012
 20
290894.364130561
 30
0.0
 11
125201.702185012
 21
290863.364130561
 31
0.0
  0
LINE
  5
D9
330
D7
100
AcDbEntity
  8
1
  6
CONTINUOUS
 62
     2
100
AcDbLine
 10
125263.6759611956
 20
290863.364130561
 30
0.0
 11
125199.702185012
 21
290863.364130561
 31
0.0
  0
LINE
  5
DA
330
D7
100
AcDbEntity
  8
1
  6
CONTINUOUS
 62
     2
100
AcDbLine
 10
125263.6759611956
 20
290894.364130561
 30
0.0
 11
125199.702185012
 21
290894.364130561
 31
0.0
  0
SOLID
  5
DB
330
D7
100
AcDbEntity
  8
1
 62
     2
100
AcDbTrace
 10
125202.1629687536
 20
290890.864130561
 30
0.0
 11
125201.2414012705
 21
290890.864130561
 31
0.0
 12
125201.702185012
 22
290894.364130561
 32
0.0
 13
125201.702185012
 23
290894.364130561
 33
0.0
  0
SOLID
  5
DC
330
D7
100
AcDbEntity
  8
1
 62
     2
100
AcDbTrace
 10
125201.2414012705
 20
290866.864130561
 30
0.0
 11
125202.1629687536
 21
290866.864130561
 31
0.0
 12
125201.702185012
 22
290863.364130561
 32
0.0
 13
125201.702185012
 23
290863.364130561
 33
0.0
  0
MTEXT
  5
DE
330
D7
100
AcDbEntity
  8
1
 62
     2
100
AcDbMText
 10
125199.702185012
 20
290876.573389495
 30
0.0
 40
3.5
 41
0.0
 71
     7
 72
     1
  1
31
  7
CONVERTER_11
 11
0.0
 21
1.0
 31
0.0
1001
ACAD
1000
MTEXTBEGIN
1070
    44
1040
0.60024009603842
1000
MTEXTEND
  0
ENDBLK
  5
E0
330
D7
100
AcDbEntity
  8
0
100
AcDbBlockEnd
  0
BLOCK
  5
EA
330
E3
100
AcDbEntity
  8
0
100
AcDbBlockBegin
  2
*D2
 70
     1
 71
     0
 10
0.0
 20
0.0
 30
0.0
  3
*D2
  1

  0
LINE
  5
E4
330
E3
100
AcDbEntity
  8
1
  6
CONTINUOUS
 62
     2
100
AcDbLine
 10
125293.1759611956
 20
290839.364130561
 30
0.0
 11
125278.1759611956
 21
290839.364130561
 31
0.0
  0
LINE
  5
E5
330
E3
100
AcDbEntity
  8
1
  6
CONTINUOUS
 62
     2
100
AcDbLine
 10
125293.1759611956
 20
290851.364130561
 30
0.0
 11
125293.1759611956
 21
290837.364130561
 31
0.0
  0
LINE
  5
E6
330
E3
100
AcDbEntity
  8
1
  6
CONTINUOUS
 62
     2
100
AcDbLine
 10
125278.1759611956
 20
290871.864130561
 30
0.0
 11
125278.1759611956
 21
290837.364130561
 31
0.0
  0
SOLID
  5
E7
330
E3
100
AcDbEntity
  8
1
 62
     2
100
AcDbTrace
 10
125289.6759611956
 20
290838.9033468195
 30
0.0
 11
125289.6759611956
 21
290839.8249143026
 31
0.0
 12
125293.1759611956
 22
290839.364130561
 32
0.0
 13
125293.1759611956
 23
290839.364130561
 33
0.0
  0
SOLID
  5
E8
330
E3
100
AcDbEntity
  8
1
 62
     2
100
AcDbTrace
 10
125281.6759611956
 20
290839.8249143026
 30
0.0
 11
125281.6759611956
 21
290838.9033468195
 31
0.0
 12
125278.1759611956
 22
290839.364130561
 32
0.0
 13
125278.1759611956
 23
290839.364130561
 33
0.0
  0
MTEXT
  5
E9
330
E3
100
AcDbEntity
  8
1
 62
     2
100
AcDbMText
 10
125283.7137334258
 20
290841.364130561
 30
0.0
 40
3.5
 41
0.0
 71
     7
 72
     1
  1
15
  7
CONVERTER_11
 11
0.9999999999970621
 21
2.424068405545307E-6
 31
0.0
1001
ACAD
1000
MTEXTBEGIN
1070
    44
1040
0.60024009603842
1000
MTEXTEND
  0
ENDBLK
  5
EB
330
E3
100
AcDbEntity
  8
0
100
AcDbBlockEnd
  0
BLOCK
  5
F5
330
EE
100
AcDbEntity
  8
0
100
AcDbBlockBegin
  2
*D3
 70
     1
 71
     0
 10
0.0
 20
0.0
 30
0.0
  3
*D3
  1

  0
LINE
  5
EF
330
EE
100
AcDbEntity
  8
1
  6
CONTINUOUS
 62
     2
100
AcDbLine
 10
125369.1435460268
 20
290873.364130561
 30
0.0
 11
125369.1435460268
 21
290908.364130561
 31
0.0
  0
LINE
  5
F0
330
EE
100
AcDbEntity
  8
1
  6
CONTINUOUS
 62
     2
100
AcDbLine
 10
125316.1759611956
 20
290873.364130561
 30
0.0
 11
125371.1435460268
 21
290873.364130561
 31
0.0
  0
LINE
  5
F1
330
EE
100
AcDbEntity
  8
1
  6
CONTINUOUS
 62
     2
100
AcDbLine
 10
125315.1759611956
 20
290908.364130561
 30
0.0
 11
125371.1435460268
 21
290908.364130561
 31
0.0
  0
SOLID
  5
F2
330
EE
100
AcDbEntity
  8
1
 62
     2
100
AcDbTrace
 10
125368.6827622852
 20
290876.864130561
 30
0.0
 11
125369.6043297683
 21
290876.864130561
 31
0.0
 12
125369.1435460268
 22
290873.364130561
 32
0.0
 13
125369.1435460268
 23
290873.364130561
 33
0.0
  0
SOLID
  5
F3
330
EE
100
AcDbEntity
  8
1
 62
     2
100
AcDbTrace
 10
125369.6043297683
 20
290904.864130561
 30
0.0
 11
125368.6827622852
 21
290904.864130561
 31
0.0
 12
125369.1435460268
 22
290908.364130561
 32
0.0
 13
125369.1435460268
 23
290908.364130561
 33
0.0
  0
MTEXT
  5
F4
330
EE
100
AcDbEntity
  8
1
 62
     2
100
AcDbMText
 10
125367.1435460268
 20
290887.9116606487
 30
0.0
 40
3.5
 41
0.0
 71
     7
 72
     1
  1
35
  7
CONVERTER_11
 11
0.0
 21
1.0
 31
0.0
1001
ACAD
1000
MTEXTBEGIN
1070
    44
1040
0.60024009603842
1000
MTEXTEND
  0
ENDBLK
  5
F6
330
EE
100
AcDbEntity
  8
0
100
AcDbBlockEnd
  0
BLOCK
  5
100
330
F9
100
AcDbEntity
  8
0
100
AcDbBlockBegin
  2
*D4
 70
     1
 71
     0
 10
0.0
 20
0.0
 30
0.0
  3
*D4
  1

  0
LINE
  5
FA
330
F9
100
AcDbEntity
  8
1
  6
CONTINUOUS
 62
     2
100
AcDbLine
 10
125360.1435460268
 20
290873.364130561
 30
0.0
 11
125360.1435460268
 21
290858.364130561
 31
0.0
  0
LINE
  5
FB
330
F9
100
AcDbEntity
  8
1
  6
CONTINUOUS
 62
     2
100
AcDbLine
 10
125316.1759611956
 20
290873.364130561
 30
0.0
 11
125362.1435460268
 21
290873.364130561
 31
0.0
  0
LINE
  5
FC
330
F9
100
AcDbEntity
  8
1
  6
CONTINUOUS
 62
     2
100
AcDbLine
 10
125317.5934611957
 20
290858.364130561
 30
0.0
 11
125362.1435460268
 21
290858.364130561
 31
0.0
  0
SOLID
  5
FD
330
F9
100
AcDbEntity
  8
1
 62
     2
100
AcDbTrace
 10
125360.6043297683
 20
290869.864130561
 30
0.0
 11
125359.6827622852
 21
290869.864130561
 31
0.0
 12
125360.1435460268
 22
290873.364130561
 32
0.0
 13
125360.1435460268
 23
290873.364130561
 33
0.0
  0
SOLID
  5
FE
330
F9
100
AcDbEntity
  8
1
 62
     2
100
AcDbTrace
 10
125359.6827622852
 20
290861.864130561
 30
0.0
 11
125360.6043297683
 21
290861.864130561
 31
0.0
 12
125360.1435460268
 22
290858.364130561
 32
0.0
 13
125360.1435460268
 23
290858.364130561
 33
0.0
  0
MTEXT
  5
FF
330
F9
100
AcDbEntity
  8
1
 62
     2
100
AcDbMText
 10
125358.1435460268
 20
290864.6277601035
 30
0.0
 40
3.5
 41
0.0
 71
     7
 72
     1
  1
15
  7
CONVERTER_11
 11
0.0
 21
1.0
 31
0.0
1001
ACAD
1000
MTEXTBEGIN
1070
    44
1040
0.60024009603842
1000
MTEXTEND
  0
ENDBLK
  5
101
330
F9
100
AcDbEntity
  8
0
100
AcDbBlockEnd
  0
BLOCK
  5
10B
330
104
100
AcDbEntity
  8
0
100
AcDbBlockBegin
  2
*D5
 70
     1
 71
     0
 10
0.0
 20
0.0
 30
0.0
  3
*D5
  1

  0
LINE
  5
105
330
104
100
AcDbEntity
  8
1
  6
CONTINUOUS
 62
     2
100
AcDbLine
 10
125360.1435460268
 20
290873.364130561
 30
0.0
 11
125360.1435460268
 21
290889.364130561
 31
0.0
  0
LINE
  5
106
330
104
100
AcDbEntity
  8
1
  6
CONTINUOUS
 62
     2
100
AcDbLine
 10
125337.1759611956
 20
290873.364130561
 30
0.0
 11
125362.1435460268
 21
290873.364130561
 31
0.0
  0
LINE
  5
107
330
104
100
AcDbEntity
  8
1
  6
CONTINUOUS
 62
     2
100
AcDbLine
 10
125295.7759611956
 20
290889.364130561
 30
0.0
 11
125362.1435460268
 21
290889.364130561
 31
0.0
  0
SOLID
  5
108
330
104
100
AcDbEntity
  8
1
 62
     2
100
AcDbTrace
 10
125359.6827622852
 20
290876.864130561
 30
0.0
 11
125360.6043297683
 21
290876.864130561
 31
0.0
 12
125360.1435460268
 22
290873.364130561
 32
0.0
 13
125360.1435460268
 23
290873.364130561
 33
0.0
  0
SOLID
  5
109
330
104
100
AcDbEntity
  8
1
 62
     2
100
AcDbTrace
 10
125360.6043297683
 20
290885.864130561
 30
0.0
 11
125359.6827622852
 21
290885.864130561
 31
0.0
 12
125360.1435460268
 22
290889.364130561
 32
0.0
 13
125360.1435460268
 23
290889.364130561
 33
0.0
  0
MTEXT
  5
10A
330
104
100
AcDbEntity
  8
1
 62
     2
100
AcDbMText
 10
125358.1435460268
 20
290879.4460466546
 30
0.0
 40
3.5
 41
0.0
 71
     7
 72
     1
  1
16
  7
CONVERTER_11
 11
0.0
 21
1.0
 31
0.0
1001
ACAD
1000
MTEXTBEGIN
1070
    44
1040
0.60024009603842
1000
MTEXTEND
  0
ENDBLK
  5
10C
330
104
100
AcDbEntity
  8
0
100
AcDbBlockEnd
  0
BLOCK
  5
116
330
10F
100
AcDbEntity
  8
0
100
AcDbBlockBegin
  2
*D6
 70
     1
 71
     0
 10
0.0
 20
0.0
 30
0.0
  3
*D6
  1

  0
LINE
  5
110
330
10F
100
AcDbEntity
  8
1
  6
CONTINUOUS
 62
     2
100
AcDbLine
 10
125278.1759611956
 20
290839.364130561
 30
0.0
 11
125263.6759611956
 21
290839.364130561
 31
0.0
  0
LINE
  5
111
330
10F
100
AcDbEntity
  8
1
  6
CONTINUOUS
 62
     2
100
AcDbLine
 10
125278.1759611956
 20
290871.8641305609
 30
0.0
 11
125278.1759611956
 21
290837.364130561
 31
0.0
  0
LINE
  5
112
330
10F
100
AcDbEntity
  8
1
  6
CONTINUOUS
 62
     2
100
AcDbLine
 10
125263.6759611956
 20
290863.3641305609
 30
0.0
 11
125263.6759611956
 21
290837.364130561
 31
0.0
  0
SOLID
  5
113
330
10F
100
AcDbEntity
  8
1
 62
     2
100
AcDbTrace
 10
125274.6759611956
 20
290838.9033468195
 30
0.0
 11
125274.6759611956
 21
290839.8249143026
 31
0.0
 12
125278.1759611956
 22
290839.364130561
 32
0.0
 13
125278.1759611956
 23
290839.364130561
 33
0.0
  0
SOLID
  5
114
330
10F
100
AcDbEntity
  8
1
 62
     2
100
AcDbTrace
 10
125267.1759611956
 20
290839.8249143026
 30
0.0
 11
125267.1759611956
 21
290838.9033468195
 31
0.0
 12
125263.6759611956
 22
290839.364130561
 32
0.0
 13
125263.6759611956
 23
290839.364130561
 33
0.0
  0
MTEXT
  5
115
330
10F
100
AcDbEntity
  8
1
 62
     2
100
AcDbMText
 10
125266.8126166357
 20
290841.364130561
 30
0.0
 40
3.5
 41
0.0
 71
     7
 72
     1
  1
14.5
  7
CONVERTER_11
 11
0.9999999999970621
 21
2.424068405545307E-6
 31
0.0
1001
ACAD
1000
MTEXTBEGIN
1070
    44
1040
0.60024009603842
1000
MTEXTEND
  0
ENDBLK
  5
117
330
10F
100
AcDbEntity
  8
0
100
AcDbBlockEnd
  0
BLOCK
  5
121
330
11A
100
AcDbEntity
  8
0
100
AcDbBlockBegin
  2
*D7
 70
     1
 71
     0
 10
0.0
 20
0.0
 30
0.0
  3
*D7
  1

  0
LINE
  5
11B
330
11A
100
AcDbEntity
  8
1
  6
CONTINUOUS
 62
     2
100
AcDbLine
 10
125295.1759611956
 20
290921.9603521617
 30
0.0
 11
125282.1759611956
 21
290921.9603521617
 31
0.0
  0
LINE
  5
11C
330
11A
100
AcDbEntity
  8
1
  6
CONTINUOUS
 62
     2
100
AcDbLine
 10
125295.1759611956
 20
290908.364130561
 30
0.0
 11
125295.1759611956
 21
290923.9603521617
 31
0.0
  0
LINE
  5
11D
330
11A
100
AcDbEntity
  8
1
  6
CONTINUOUS
 62
     2
100
AcDbLine
 10
125282.1759611956
 20
290873.364130561
 30
0.0
 11
125282.1759611956
 21
290923.9603521617
 31
0.0
  0
SOLID
  5
11E
330
11A
100
AcDbEntity
  8
1
 62
     2
100
AcDbTrace
 10
125291.6759611956
 20
290921.4995684202
 30
0.0
 11
125291.6759611956
 21
290922.4211359033
 31
0.0
 12
125295.1759611956
 22
290921.9603521617
 32
0.0
 13
125295.1759611956
 23
290921.9603521617
 33
0.0
  0
SOLID
  5
11F
330
11A
100
AcDbEntity
  8
1
 62
     2
100
AcDbTrace
 10
125285.6759611956
 20
290922.4211359033
 30
0.0
 11
125285.6759611956
 21
290921.4995684202
 31
0.0
 12
125282.1759611956
 22
290921.9603521617
 32
0.0
 13
125282.1759611956
 23
290921.9603521617
 33
0.0
  0
MTEXT
  5
120
330
11A
100
AcDbEntity
  8
1
 62
     2
100
AcDbMText
 10
125285.6151703541
 20
290923.9603521617
 30
0.0
 40
3.5
 41
0.0
 71
     7
 72
     1
  1
13
  7
CONVERTER_11
 11
0.9999999999970621
 21
2.424068405545307E-6
 31
0.0
1001
ACAD
1000
MTEXTBEGIN
1070
    44
1040
0.60024009603842
1000
MTEXTEND
  0
ENDBLK
  5
122
330
11A
100
AcDbEntity
  8
0
100
AcDbBlockEnd
  0
BLOCK
  5
12E
330
125
100
AcDbEntity
  8
0
100
AcDbBlockBegin
  2
*D8
 70
     1
 71
     0
 10
0.0
 20
0.0
 30
0.0
  3
*D8
  1

  0
LINE
  5
126
330
125
100
AcDbEntity
  8
1
  6
CONTINUOUS
 62
     2
100
AcDbLine
 10
125349.1759611956
 20
290867.364130561
 30
0.0
 11
125349.1759611956
 21
290860.364130561
 31
0.0
  0
LINE
  5
127
330
125
100
AcDbEntity
  8
1
  6
CONTINUOUS
 62
     2
100
AcDbLine
 10
125349.1759611956
 20
290873.364130561
 30
0.0
 11
125349.1759611956
 21
290867.364130561
 31
0.0
  0
LINE
  5
128
330
125
100
AcDbEntity
  8
1
  6
CONTINUOUS
 62
     2
100
AcDbLine
 10
125349.1759611956
 20
290880.364130561
 30
0.0
 11
125349.1759611956
 21
290873.364130561
 31
0.0
  0
LINE
  5
129
330
125
100
AcDbEntity
  8
1
  6
CONTINUOUS
 62
     2
100
AcDbLine
 10
125292.6644518643
 20
290867.364130561
 30
0.0
 11
125351.1759611956
 21
290867.364130561
 31
0.0
  0
LINE
  5
12A
330
125
100
AcDbEntity
  8
1
  6
CONTINUOUS
 62
     2
100
AcDbLine
 10
125294.1759611956
 20
290873.364130561
 30
0.0
 11
125351.1759611956
 21
290873.364130561
 31
0.0
  0
SOLID
  5
12B
330
125
100
AcDbEntity
  8
1
 62
     2
100
AcDbTrace
 10
125348.715177454
 20
290876.864130561
 30
0.0
 11
125349.6367449371
 21
290876.864130561
 31
0.0
 12
125349.1759611956
 22
290873.364130561
 32
0.0
 13
125349.1759611956
 23
290873.364130561
 33
0.0
  0
SOLID
  5
12C
330
125
100
AcDbEntity
  8
1
 62
     2
100
AcDbTrace
 10
125349.6367449371
 20
290863.864130561
 30
0.0
 11
125348.715177454
 21
290863.864130561
 31
0.0
 12
125349.1759611956
 22
290867.364130561
 32
0.0
 13
125349.1759611956
 23
290867.364130561
 33
0.0
  0
MTEXT
  5
12D
330
125
100
AcDbEntity
  8
1
 62
     2
100
AcDbMText
 10
125347.1759611956
 20
290869.931380936
 30
0.0
 40
3.5
 41
0.0
 71
     7
 72
     1
  1
6
  7
CONVERTER_11
 11
0.0
 21
1.0
 31
0.0
1001
ACAD
1000
MTEXTBEGIN
1070
    44
1040
0.60024009603842
1000
MTEXTEND
  0
ENDBLK
  5
12F
330
125
100
AcDbEntity
  8
0
100
AcDbBlockEnd
  0
BLOCK
  5
13B
330
132
100
AcDbEntity
  8
0
100
AcDbBlockBegin
  2
*D9
 70
     1
 71
     0
 10
0.0
 20
0.0
 30
0.0
  3
*D9
  1

  0
LINE
  5
133
330
132
100
AcDbEntity
  8
1
  6
CONTINUOUS
 62
     2
100
AcDbLine
 10
125289.1759611956
 20
290921.9603521617
 30
0.0
 11
125282.1759611956
 21
290921.9603521617
 31
0.0
  0
LINE
  5
134
330
132
100
AcDbEntity
  8
1
  6
CONTINUOUS
 62
     2
100
AcDbLine
 10
125282.1759611956
 20
290921.9603521617
 30
0.0
 11
125278.1759611956
 21
290921.9603521617
 31
0.0
  0
LINE
  5
135
330
132
100
AcDbEntity
  8
1
  6
CONTINUOUS
 62
     2
100
AcDbLine
 10
125278.1759611956
 20
290921.9603521617
 30
0.0
 11
125271.1759611956
 21
290921.9603521617
 31
0.0
  0
LINE
  5
136
330
132
100
AcDbEntity
  8
1
  6
CONTINUOUS
 62
     2
100
AcDbLine
 10
125282.1759611956
 20
290873.364130561
 30
0.0
 11
125282.1759611956
 21
290923.9603521617
 31
0.0
  0
LINE
  5
137
330
132
100
AcDbEntity
  8
1
  6
CONTINUOUS
 62
     2
100
AcDbLine
 10
125278.1759611956
 20
290911.9603521617
 30
0.0
 11
125278.1759611956
 21
290923.9603521617
 31
0.0
  0
SOLID
  5
138
330
132
100
AcDbEntity
  8
1
 62
     2
100
AcDbTrace
 10
125285.6759611956
 20
290922.4211359033
 30
0.0
 11
125285.6759611956
 21
290921.4995684202
 31
0.0
 12
125282.1759611956
 22
290921.9603521617
 32
0.0
 13
125282.1759611956
 23
290921.9603521617
 33
0.0
  0
SOLID
  5
139
330
132
100
AcDbEntity
  8
1
 62
     2
100
AcDbTrace
 10
125274.6759611956
 20
290921.4995684202
 30
0.0
 11
125274.6759611956
 21
290922.4211359033
 31
0.0
 12
125278.1759611956
 22
290921.9603521617
 32
0.0
 13
125278.1759611956
 23
290921.9603521617
 33
0.0
  0
MTEXT
  5
13A
330
132
100
AcDbEntity
  8
1
 62
     2
100
AcDbMText
 10
125278.3403558605
 20
290923.9603521617
 30
0.0
 40
3.5
 41
0.0
 71
     7
 72
     1
  1
4
  7
CONVERTER_11
 11
0.9999999999970621
 21
2.424068405545307E-6
 31
0.0
1001
ACAD
1000
MTEXTBEGIN
1070
    44
1040
0.60024009603842
1000
MTEXTEND
  0
ENDBLK
  5
13C
330
132
100
AcDbEntity
  8
0
100
AcDbBlockEnd
  0
BLOCK
  5
146
330
13F
100
AcDbEntity
  8
0
100
AcDbBlockBegin
  2
*D10
 70
     1
 71
     0
 10
0.0
 20
0.0
 30
0.0
  3
*D10
  1

  0
LINE
  5
140
330
13F
100
AcDbEntity
  8
1
  6
CONTINUOUS
 62
     2
100
AcDbLine
 10
125315.1759611956
 20
290921.9603521617
 30
0.0
 11
125295.1759611956
 21
290921.9603521617
 31
0.0
  0
LINE
  5
141
330
13F
100
AcDbEntity
  8
1
  6
CONTINUOUS
 62
     2
100
AcDbLine
 10
125315.1759611956
 20
290908.364130561
 30
0.0
 11
125315.1759611956
 21
290923.9603521617
 31
0.0
  0
LINE
  5
142
330
13F
100
AcDbEntity
  8
1
  6
CONTINUOUS
 62
     2
100
AcDbLine
 10
125295.1759611956
 20
290908.364130561
 30
0.0
 11
125295.1759611956
 21
290923.9603521617
 31
0.0
  0
SOLID
  5
143
330
13F
100
AcDbEntity
  8
1
 62
     2
100
AcDbTrace
 10
125311.6759611956
 20
290921.4995684202
 30
0.0
 11
125311.6759611956
 21
290922.4211359033
 31
0.0
 12
125315.1759611956
 22
290921.9603521617
 32
0.0
 13
125315.1759611956
 23
290921.9603521617
 33
0.0
  0
SOLID
  5
144
330
13F
100
AcDbEntity
  8
1
 62
     2
100
AcDbTrace
 10
125298.6759611956
 20
290922.4211359033
 30
0.0
 11
125298.6759611956
 21
290921.4995684202
 31
0.0
 12
125295.1759611956
 22
290921.9603521617
 32
0.0
 13
125295.1759611956
 23
290921.9603521617
 33
0.0
  0
MTEXT
  5
145
330
13F
100
AcDbEntity
  8
1
 62
     2
100
AcDbMText
 10
125302.5666072648
 20
290923.9603521617
 30
0.0
 40
3.5
 41
0.0
 71
     7
 72
     1
  1
20
  7
CONVERTER_11
 11
0.9999999999970621
 21
2.424068405545307E-6
 31
0.0
1001
ACAD
1000
MTEXTBEGIN
1070
    44
1040
0.60024009603842
1000
MTEXTEND
  0
ENDBLK
  5
147
330
13F
100
AcDbEntity
  8
0
100
AcDbBlockEnd
  0
BLOCK
  5
153
330
14A
100
AcDbEntity
  8
0
100
AcDbBlockBegin
  2
*D11
 70
     1
 71
     0
 10
0.0
 20
0.0
 30
0.0
  3
*D11
  1

  0
LINE
  5
14B
330
14A
100
AcDbEntity
  8
1
  6
CONTINUOUS
 62
     2
100
AcDbLine
 10
125214.207177682
 20
290876.29754501
 30
0.0
 11
125214.207177682
 21
290867.364130561
 31
0.0
  0
LINE
  5
14C
330
14A
100
AcDbEntity
  8
1
  6
CONTINUOUS
 62
     2
100
AcDbLine
 10
125214.207177682
 20
290867.364130561
 30
0.0
 11
125214.207177682
 21
290866.864130561
 31
0.0
  0
LINE
  5
14D
330
14A
100
AcDbEntity
  8
1
  6
CONTINUOUS
 62
     2
100
AcDbLine
 10
125214.207177682
 20
290866.864130561
 30
0.0
 11
125214.207177682
 21
290859.864130561
 31
0.0
  0
LINE
  5
14E
330
14A
100
AcDbEntity
  8
1
  6
CONTINUOUS
 62
     2
100
AcDbLine
 10
125269.1759611956
 20
290867.364130561
 30
0.0
 11
125212.207177682
 21
290867.364130561
 31
0.0
  0
LINE
  5
14F
330
14A
100
AcDbEntity
  8
1
  6
CONTINUOUS
 62
     2
100
AcDbLine
 10
125267.6759611956
 20
290866.864130561
 30
0.0
 11
125212.207177682
 21
290866.864130561
 31
0.0
  0
SOLID
  5
150
330
14A
100
AcDbEntity
  8
1
 62
     2
100
AcDbTrace
 10
125213.7463939404
 20
290870.864130561
 30
0.0
 11
125214.6679614235
 21
290870.864130561
 31
0.0
 12
125214.207177682
 22
290867.364130561
 32
0.0
 13
125214.207177682
 23
290867.364130561
 33
0.0
  0
SOLID
  5
151
330
14A
100
AcDbEntity
  8
1
 62
     2
100
AcDbTrace
 10
125214.6679614235
 20
290863.364130561
 30
0.0
 11
125213.7463939404
 21
290863.364130561
 31
0.0
 12
125214.207177682
 22
290866.864130561
 32
0.0
 13
125214.207177682
 23
290866.864130561
 33
0.0
  0
MTEXT
  5
152
330
14A
100
AcDbEntity
  8
1
 62
     2
100
AcDbMText
 10
125212.207177682
 20
290869.91004501
 30
0.0
 40
3.5
 41
0.0
 71
     7
 72
     1
  1
0.5
  7
CONVERTER_11
 11
0.0
 21
1.0
 31
0.0
1001
ACAD
1000
MTEXTBEGIN
1070
    44
1040
0.60024009603842
1000
MTEXTEND
  0
ENDBLK
  5
154
330
14A
100
AcDbEntity
  8
0
100
AcDbBlockEnd
  0
ENDSEC
  0
SECTION
  2
ENTITIES
  0
POINT
  5
35
330
1F
100
AcDbEntity
  8
1
 62
     3
 60
     1
100
AcDbPoint
 10
125292.6759611956
 20
290873.364130561
 30
0.0
  0
POINT
  5
36
330
1F
100
AcDbEntity
  8
1
 62
     3
 60
     1
100
AcDbPoint
 10
125292.9408135337
 20
290872.440039487
 30
0.0
  0
POINT
  5
37
330
1F
100
AcDbEntity
  8
A_BEMASSUNGEN
 62
     3
100
AcDbPoint
 10
125337.1759611956
 20
290873.364130561
 30
0.0
  0
POINT
  5
38
330
1F
100
AcDbEntity
  8
A_BEMASSUNGEN
 62
     3
100
AcDbPoint
 10
125282.1759611956
 20
290914.364130561
 30
0.0
  0
POINT
  5
39
330
1F
100
AcDbEntity
  8
A_BEMASSUNGEN
 62
     3
100
AcDbPoint
 10
125315.1759611956
 20
290908.1836501405
 30
0.0
  0
POINT
  5
3A
330
1F
100
AcDbEntity
  8
1
 62
     3
100
AcDbPoint
 10
125315.1759611956
 20
290908.364130561
 30
0.0
  0
POINT
  5
3B
330
1F
100
AcDbEntity
  8
1
 62
     3
 60
     1
100
AcDbPoint
 10
125219.1759611956
 20
290911.9603521617
 30
0.0
  0
POINT
  5
3C
330
1F
100
AcDbEntity
  8
1
 62
     3
 60
     1
100
AcDbPoint
 10
125219.1759611956
 20
290911.9603521617
 30
0.0
  0
POINT
  5
3D
330
1F
100
AcDbEntity
  8
1
 62
     3
 60
     1
100
AcDbPoint
 10
125281.362145723
 20
290911.9603521617
 30
0.0
  0
POINT
  5
3E
330
1F
100
AcDbEntity
  8
1
 62
     3
 60
     1
100
AcDbPoint
 10
125342.362145723
 20
290911.9603521617
 30
0.0
  0
POINT
  5
3F
330
1F
100
AcDbEntity
  8
A_BEMASSUNGEN
 62
     3
100
AcDbPoint
 10
125315.6759611956
 20
290872.364130561
 30
0.0
  0
POINT
  5
40
330
1F
100
AcDbEntity
  8
A_BEMASSUNGEN
 62
     7
100
AcDbPoint
 10
125263.6759611956
 20
290894.364130561
 30
0.0
  0
POINT
  5
41
330
1F
100
AcDbEntity
  8
A_BEMASSUNGEN
 62
     7
100
AcDbPoint
 10
125267.1759611956
 20
290894.364130561
 30
0.0
  0
POINT
  5
42
330
1F
100
AcDbEntity
  8
A_BEMASSUNGEN
 62
     3
100
AcDbPoint
 10
125316.1759611956
 20
290873.364130561
 30
0.0
  0
LINE
  5
43
330
1F
100
AcDbEntity
  8
0
  6
CONTINUOUS
 62
     7
100
AcDbLine
 10
125293.1759611956
 20
290866.864130561
 30
0.0
 11
125293.6755631956
 21
290866.864130561
 31
0.0
  0
LINE
  5
44
330
1F
100
AcDbEntity
  8
1
  6
DASHED
 62
     2
100
AcDbLine
 10
125293.1759611956
 20
290863.364130561
 30
0.0
 11
125293.1759611956
 21
290866.864130561
 31
0.0
  0
LINE
  5
45
330
1F
100
AcDbEntity
  8
1
  6
CONTINUOUS
 62
     7
100
AcDbLine
 10
125292.6759611956
 20
290873.364130561
 30
0.0
 11
125282.1759611956
 21
290873.364130561
 31
0.0
  0
LINE
  5
46
330
1F
100
AcDbEntity
  8
1
  6
CONTINUOUS
 62
     7
100
AcDbLine
 10
125267.6759611956
 20
290863.3641305608
 30
0.0
 11
125293.1759611956
 21
290863.364130561
 31
0.0
  0
LINE
  5
47
330
1F
100
AcDbEntity
  8
0
  6
DOT_CENTER
 62
     2
100
AcDbLine
 10
125223.1759611956
 20
290912.364130561
 30
0.0
 11
125223.1759611956
 21
290849.364130561
 31
0.0
  0
LINE
  5
48
330
1F
100
AcDbEntity
  8
1
  6
DOT_CENTER
 62
     2
100
AcDbLine
 10
125223.1759611956
 20
290912.364130561
 30
0.0
 11
125223.1759611956
 21
290916.364130561
 31
0.0
  0
LINE
  5
49
330
1F
100
AcDbEntity
  8
1
  6
DOT_CENTER
 62
     2
100
AcDbLine
 10
125223.1759611956
 20
290849.364130561
 30
0.0
 11
125223.1759611956
 21
290844.364130561
 31
0.0
  0
LINE
  5
4A
330
1F
100
AcDbEntity
  8
0
  6
CONTINUOUS
 62
     7
100
AcDbLine
 10
125276.1759611956
 20
290894.364130561
 30
0.0
 11
125263.6759611956
 21
290894.364130561
 31
0.0
  0
LINE
  5
4B
330
1F
100
AcDbEntity
  8
0
  6
CONTINUOUS
 62
     7
100
AcDbLine
 10
125278.1759611956
 20
290872.2848506936
 30
0.0
 11
125278.1759611956
 21
290871.864130561
 31
0.0
  0
LINE
  5
4C
330
1F
100
AcDbEntity
  8
1
  6
CONTINUOUS
 62
     7
100
AcDbLine
 10
125278.1759611956
 20
290871.864130561
 30
0.0
 11
125278.1759611956
 21
290868.9641305611
 31
0.0
  0
LINE
  5
4D
330
1F
100
AcDbEntity
  8
0
  6
CONTINUOUS
 62
     7
100
AcDbLine
 10
125278.1759611956
 20
290875.364130561
 30
0.0
 11
125278.1759611956
 21
290872.2848506936
 31
0.0
  0
LINE
  5
4E
330
1F
100
AcDbEntity
  8
1
  6
CONTINUOUS
 62
     7
100
AcDbLine
 10
125293.1759611956
 20
290863.364130561
 30
0.0
 11
125296.1823152852
 21
290863.3641305609
 31
0.0
  0
LINE
  5
4F
330
1F
100
AcDbEntity
  8
0
  6
CONTINUOUS
 62
     7
100
AcDbLine
 10
125290.1604598448
 20
290867.364130561
 30
0.0
 11
125292.6644518643
 21
290867.364130561
 31
0.0
  0
LINE
  5
50
330
1F
100
AcDbEntity
  8
0
  6
CONTINUOUS
 62
     7
100
AcDbLine
 10
125223.1759611956
 20
290849.364130561
 30
0.0
 11
125291.1759611956
 21
290849.364130561
 31
0.0
  0
LINE
  5
51
330
1F
100
AcDbEntity
  8
0
  6
CONTINUOUS
 62
     7
100
AcDbLine
 10
125278.1759611956
 20
290894.364130561
 30
0.0
 11
125278.1759611956
 21
290911.9603521617
 31
0.0
  0
LINE
  5
52
330
1F
100
AcDbEntity
  8
0
  6
DASHED
 62
     2
100
AcDbLine
 10
125293.1759611956
 20
290863.3641305609
 30
0.0
 11
125293.1759611956
 21
290863.364130561
 31
0.0
  0
LINE
  5
53
330
1F
100
AcDbEntity
  8
0
  6
CONTINUOUS
 62
     7
100
AcDbLine
 10
125293.1759611956
 20
290851.364130561
 30
0.0
 11
125293.1759611956
 21
290863.3641305609
 31
0.0
  0
LINE
  5
54
330
1F
100
AcDbEntity
  8
1
  6
CONTINUOUS
 62
     7
100
AcDbLine
 10
125271.5707714516
 20
290867.364130561
 30
0.0
 11
125269.1759611956
 21
290867.364130561
 31
0.0
  0
LINE
  5
55
330
1F
100
AcDbEntity
  8
1
  6
CONTINUOUS
 62
     7
100
AcDbLine
 10
125337.1759611956
 20
290873.364130561
 30
0.0
 11
125316.1759611956
 21
290873.364130561
 31
0.0
  0
LINE
  5
56
330
1F
100
AcDbEntity
  8
0
  6
CONTINUOUS
 62
     7
100
AcDbLine
 10
125282.1759611956
 20
290886.364130561
 30
0.0
 11
125295.1759611956
 21
290886.364130561
 31
0.0
  0
LINE
  5
57
330
1F
100
AcDbEntity
  8
0
  6
CONTINUOUS
 62
     7
100
AcDbLine
 10
125295.1759611956
 20
290892.364130561
 30
0.0
 11
125282.1759611956
 21
290892.364130561
 31
0.0
  0
LINE
  5
58
330
1F
100
AcDbEntity
  8
0
  6
CONTINUOUS
 62
     7
100
AcDbLine
 10
125339.1759611956
 20
290875.364130561
 30
0.0
 11
125339.1759611956
 21
290911.9603521617
 31
0.0
  0
LINE
  5
59
330
1F
100
AcDbEntity
  8
1
  6
DOT_CENTER
 62
     2
100
AcDbLine
 10
125281.1759611956
 20
290889.364130561
 30
0.0
 11
125295.7759611956
 21
290889.364130561
 31
0.0
  0
LINE
  5
5A
330
1F
100
AcDbEntity
  8
0
  6
CONTINUOUS
 62
     7
100
AcDbLine
 10
125269.1759611956
 20
290867.364130561
 30
0.0
 11
125269.1759611956
 21
290871.864130561
 31
0.0
  0
LINE
  5
5B
330
1F
100
AcDbEntity
  8
0
  6
CONTINUOUS
 62
     7
100
AcDbLine
 10
125263.6759611956
 20
290863.364130561
 30
0.0
 11
125267.6759611956
 21
290863.3641305609
 31
0.0
  0
LINE
  5
5C
330
1F
100
AcDbEntity
  8
0
  6
CONTINUOUS
 62
     7
100
AcDbLine
 10
125263.6759611956
 20
290863.364130561
 30
0.0
 11
125263.6759611956
 21
290867.364130561
 31
0.0
  0
LINE
  5
5D
330
1F
100
AcDbEntity
  8
0
  6
CONTINUOUS
 62
     7
100
AcDbLine
 10
125282.1759611956
 20
290911.9603521617
 30
0.0
 11
125282.1759611956
 21
290873.364130561
 31
0.0
  0
LINE
  5
5E
330
1F
100
AcDbEntity
  8
1
  6
CONTINUOUS
 62
     7
100
AcDbLine
 10
125294.1759611956
 20
290873.364130561
 30
0.0
 11
125292.6759611956
 21
290873.364130561
 31
0.0
  0
LINE
  5
5F
330
1F
100
AcDbEntity
  8
0
  6
DOT_CENTER
 62
     2
100
AcDbLine
 10
125219.1759611956
 20
290911.9603521617
 30
0.0
 11
125280.1759611956
 21
290911.9603521617
 31
0.0
  0
LINE
  5
60
330
1F
100
AcDbEntity
  8
1
  6
DOT_CENTER
 62
     2
100
AcDbLine
 10
125281.362145723
 20
290911.9603521617
 30
0.0
 11
125342.362145723
 21
290911.9603521617
 31
0.0
  0
LINE
  5
61
330
1F
100
AcDbEntity
  8
0
  6
CONTINUOUS
 62
     7
100
AcDbLine
 10
125287.8462633215
 20
290868.4641305611
 30
0.0
 11
125287.8462633215
 21
290870.5449385197
 31
0.0
  0
LINE
  5
62
330
1F
100
AcDbEntity
  8
0
  6
CONTINUOUS
 62
     7
100
AcDbLine
 10
125286.3668459243
 20
290868.4641305611
 30
0.0
 11
125287.8462633215
 21
290868.4641305611
 31
0.0
  0
LINE
  5
63
330
1F
100
AcDbEntity
  8
0
  6
CONTINUOUS
 62
     7
100
AcDbLine
 10
125279.6759611956
 20
290868.4641305611
 30
0.0
 11
125285.3668459243
 21
290868.4641305611
 31
0.0
  0
LINE
  5
64
330
1F
100
AcDbEntity
  8
0
  6
CONTINUOUS
 62
     7
100
AcDbLine
 10
125288.8462633215
 20
290868.4641305611
 30
0.0
 11
125290.5699897168
 21
290868.4641305611
 31
0.0
  0
LINE
  5
65
330
1F
100
AcDbEntity
  8
0
  6
CONTINUOUS
 62
     7
100
AcDbLine
 10
125290.5395009838
 20
290872.364130561
 30
0.0
 11
125287.1171543874
 21
290872.364130561
 31
0.0
  0
LINE
  5
66
330
1F
100
AcDbEntity
  8
0
  6
CONTINUOUS
 62
     7
100
AcDbLine
 10
125287.0959548585
 20
290872.364130561
 30
0.0
 11
125281.8522814802
 21
290872.364130561
 31
0.0
  0
LINE
  5
67
330
1F
100
AcDbEntity
  8
0
  6
CONTINUOUS
 62
     7
100
AcDbLine
 10
125281.2536692874
 20
290872.563091584
 30
0.0
 11
125281.183201409
 21
290872.615751857
 31
0.0
  0
LINE
  5
68
330
1F
100
AcDbEntity
  8
0
  6
CONTINUOUS
 62
     7
100
AcDbLine
 10
125281.5860397693
 20
290873.563091584
 30
0.0
 11
125281.4825075054
 21
290873.6404606975
 31
0.0
  0
LINE
  5
69
330
1F
100
AcDbEntity
  8
0
  6
CONTINUOUS
 62
     7
100
AcDbLine
 10
125290.6466542394
 20
290868.7430590334
 30
0.0
 11
125290.1227162408
 21
290869.0546074127
 31
0.0
  0
LINE
  5
6A
330
1F
100
AcDbEntity
  8
0
  6
CONTINUOUS
 62
     7
100
AcDbLine
 10
125285.3668459243
 20
290868.4641305611
 30
0.0
 11
125285.3668459243
 21
290870.7365341528
 31
0.0
  0
LINE
  5
6B
330
1F
100
AcDbEntity
  8
0
  6
CONTINUOUS
 62
     7
100
AcDbLine
 10
125286.3668459243
 20
290870.6962517041
 30
0.0
 11
125286.3668459243
 21
290868.4641305611
 31
0.0
  0
LINE
  5
6C
330
1F
100
AcDbEntity
  8
0
  6
CONTINUOUS
 62
     7
100
AcDbLine
 10
125288.8462633215
 20
290870.7365341528
 30
0.0
 11
125288.8462633215
 21
290868.4641305611
 31
0.0
  0
LINE
  5
6D
330
1F
100
AcDbEntity
  8
0
  6
CONTINUOUS
 62
     7
100
AcDbLine
 10
125281.183201409
 20
290872.615751857
 30
0.0
 11
125279.5773490029
 21
290871.4157068434
 31
0.0
  0
LINE
  5
6E
330
1F
100
AcDbEntity
  8
0
  6
CONTINUOUS
 62
     7
100
AcDbLine
 10
125290.1005121353
 20
290871.7600561637
 30
0.0
 11
125290.6194961223
 21
290872.0872417207
 31
0.0
  0
LINE
  5
6F
330
1F
100
AcDbEntity
  8
0
  6
CONTINUOUS
 62
     7
100
AcDbLine
 10
125280.8838953127
 20
290873.6404606975
 30
0.0
 11
125279.1759611956
 21
290872.364130561
 31
0.0
  0
LINE
  5
70
330
1F
100
AcDbEntity
  8
0
  6
CONTINUOUS
 62
     7
100
AcDbLine
 10
125279.1759611956
 20
290870.6146678663
 30
0.0
 11
125279.1759611956
 21
290868.9641305611
 31
0.0
  0
LINE
  5
71
330
1F
100
AcDbEntity
  8
1
  6
CONTINUOUS
 62
     7
100
AcDbLine
 10
125278.1759611956
 20
290872.2848506936
 30
0.0
 11
125278.1759611956
 21
290871.864130561
 31
0.0
  0
LINE
  5
72
330
1F
100
AcDbEntity
  8
0
  6
CONTINUOUS
 62
     7
100
AcDbLine
 10
125277.6759611956
 20
290868.4641305611
 30
0.0
 11
125275.5010826755
 21
290868.4641305611
 31
0.0
  0
LINE
  5
73
330
1F
100
AcDbEntity
  8
0
  6
CONTINUOUS
 62
     7
100
AcDbLine
 10
125273.9183939638
 20
290868.4641305611
 30
0.0
 11
125272.6217228655
 21
290868.4641305611
 31
0.0
  0
LINE
  5
74
330
1F
100
AcDbEntity
  8
0
  6
CONTINUOUS
 62
     7
100
AcDbLine
 10
125276.8198181628
 20
290871.864130561
 30
0.0
 11
125276.6111625186
 21
290871.864130561
 31
0.0
  0
LINE
  5
75
330
1F
100
AcDbEntity
  8
0
  6
CONTINUOUS
 62
     7
100
AcDbLine
 10
125274.2094980678
 20
290871.864130561
 30
0.0
 11
125274.1077254993
 21
290871.864130561
 31
0.0
  0
LINE
  5
76
330
1F
100
AcDbEntity
  8
0
  6
CONTINUOUS
 62
     7
100
AcDbLine
 10
125275.3067491549
 20
290868.7114008768
 30
0.0
 11
125276.9169849231
 21
290871.7404954032
 31
0.0
  0
LINE
  5
77
330
1F
100
AcDbEntity
  8
0
  6
CONTINUOUS
 62
     7
100
AcDbLine
 10
125272.4314783017
 20
290868.7258315007
 30
0.0
 11
125274.3046203497
 21
290871.7332800912
 31
0.0
  0
LINE
  5
78
330
1F
100
AcDbEntity
  8
0
  6
CONTINUOUS
 62
     7
100
AcDbLine
 10
125276.5202948342
 20
290871.805880578
 30
0.0
 11
125274.1001293325
 21
290868.5806305267
 31
0.0
  0
LINE
  5
79
330
1F
100
AcDbEntity
  8
0
  6
CONTINUOUS
 62
     7
100
AcDbLine
 10
125274.0190340909
 20
290871.8103240028
 30
0.0
 11
125271.1273144095
 21
290868.0950977705
 31
0.0
  0
LINE
  5
7A
330
1F
100
AcDbEntity
  8
0
  6
CONTINUOUS
 62
     7
100
AcDbLine
 10
125279.1759611956
 20
290872.364130561
 30
0.0
 11
125279.1759611956
 21
290875.364130561
 31
0.0
  0
LINE
  5
7B
330
1F
100
AcDbEntity
  8
0
  6
CONTINUOUS
 62
     7
100
AcDbLine
 10
125293.0185484032
 20
290868.4960993559
 30
0.0
 11
125290.7071358245
 21
290869.7871548496
 31
0.0
  0
LINE
  5
7C
330
1F
100
AcDbEntity
  8
0
  6
CONTINUOUS
 62
     7
100
AcDbLine
 10
125290.7038052088
 20
290871.0429721623
 30
0.0
 11
125292.9408135337
 21
290872.440039487
 31
0.0
  0
LINE
  5
7D
330
1F
100
AcDbEntity
  8
0
  6
CONTINUOUS
 62
     7
100
AcDbLine
 10
125271.5707714516
 20
290867.364130561
 30
0.0
 11
125290.1604598448
 21
290867.364130561
 31
0.0
  0
LINE
  5
7E
330
1F
100
AcDbEntity
  8
0
  6
CONTINUOUS
 62
     7
100
AcDbLine
 10
125315.1759611956
 20
290908.364130561
 30
0.0
 11
125315.1759611956
 21
290873.364130561
 31
0.0
  0
LINE
  5
7F
330
1F
100
AcDbEntity
  8
1
  6
CONTINUOUS
 62
     7
100
AcDbLine
 10
125293.6755631956
 20
290866.864130561
 30
0.0
 11
125296.1823152859
 21
290866.864130561
 31
0.0
  0
LINE
  5
80
330
1F
100
AcDbEntity
  8
1
  6
DOT_CENTER
 62
     2
100
AcDbLine
 10
125305.1759611956
 20
290845.946630561
 30
0.0
 11
125305.1759611956
 21
290865.8170742156
 31
0.0
  0
LINE
  5
81
330
1F
100
AcDbEntity
  8
A_RUNDUNGEN
  6
DASHED
 62
     2
100
AcDbLine
 10
125305.1759611956
 20
290867.2891305609
 30
0.0
 11
125305.1759611956
 21
290868.2891305609
 31
0.0
  0
LINE
  5
82
330
1F
100
AcDbEntity
  8
1
  6
CONTINUOUS
 62
     7
100
AcDbLine
 10
125311.5774593865
 20
290865.9487495964
 30
0.0
 11
125310.1815291244
 21
290867.0623121986
 31
0.0
  0
LINE
  5
83
330
1F
100
AcDbEntity
  8
A_RUNDUNGEN
  6
DASHED
 62
     2
100
AcDbLine
 10
125305.1759611956
 20
290865.8170742156
 30
0.0
 11
125305.1759611956
 21
290867.2891305609
 31
0.0
  0
LINE
  5
84
330
1F
100
AcDbEntity
  8
0
  6
CONTINUOUS
 62
     7
100
AcDbLine
 10
125299.6347741695
 20
290861.6161870398
 30
0.0
 11
125296.6162287078
 21
290863.3877353162
 31
0.0
  0
LINE
  5
85
330
1F
100
AcDbEntity
  8
1
  6
CONTINUOUS
 62
     7
100
AcDbLine
 10
125303.4525030323
 20
290868.1383475096
 30
0.0
 11
125296.2691393747
 21
290866.8717266845
 31
0.0
  0
LINE
  5
86
330
1F
100
AcDbEntity
  8
1
  6
CONTINUOUS
 62
     7
100
AcDbLine
 10
125296.8769079959
 20
290863.4248995489
 30
0.0
 11
125304.0602716541
 21
290864.691520374
 31
0.0
  0
LINE
  5
87
330
1F
100
AcDbEntity
  8
1
  6
DOT_CENTER
 62
     2
100
AcDbLine
 10
125317.5934611957
 20
290858.364130561
 30
0.0
 11
125292.7584611956
 21
290858.364130561
 31
0.0
  0
LINE
  5
88
330
1F
100
AcDbEntity
  8
1
  6
DOT_CENTER
 62
     2
100
AcDbLine
 10
125305.1759611956
 20
290870.781630561
 30
0.0
 11
125305.1759611956
 21
290870.7816305609
 31
0.0
  0
LINE
  5
89
330
1F
100
AcDbEntity
  8
A_RUNDUNGEN
  6
CONTINUOUS
 62
     7
100
AcDbLine
 10
125305.1759611956
 20
290868.2891305609
 30
0.0
 11
125305.1759611956
 21
290870.7816305609
 31
0.0
  0
LINE
  5
8A
330
1F
100
AcDbEntity
  8
A_RUNDUNGEN
  6
CONTINUOUS
 62
     7
100
AcDbLine
 10
125305.1759611956
 20
290870.781630561
 30
0.0
 11
125305.1759611956
 21
290872.364130561
 31
0.0
  0
LINE
  5
8B
330
1F
100
AcDbEntity
  8
A_RUNDUNGEN
  6
CONTINUOUS
 62
     7
100
AcDbLine
 10
125308.6759611956
 20
290870.1892609737
 30
0.0
 11
125308.6759611956
 21
290871.7997563229
 31
0.0
  0
LINE
  5
8C
330
1F
100
AcDbEntity
  8
0
  6
CONTINUOUS
 62
     7
100
AcDbLine
 10
125302.1759611956
 20
290872.364130561
 30
0.0
 11
125305.1759611956
 21
290872.364130561
 31
0.0
  0
LINE
  5
8D
330
1F
100
AcDbEntity
  8
0
  6
CONTINUOUS
 62
     7
100
AcDbLine
 10
125308.6759611956
 20
290871.7997563229
 30
0.0
 11
125308.6759611956
 21
290872.364130561
 31
0.0
  0
LINE
  5
8E
330
1F
100
AcDbEntity
  8
0
  6
CONTINUOUS
 62
     7
100
AcDbLine
 10
125305.1759611956
 20
290873.364130561
 30
0.0
 11
125305.1759611956
 21
290872.364130561
 31
0.0
  0
LINE
  5
8F
330
1F
100
AcDbEntity
  8
0
  6
CONTINUOUS
 62
     7
100
AcDbLine
 10
125308.6759611956
 20
290873.364130561
 30
0.0
 11
125308.6759611956
 21
290872.364130561
 31
0.0
  0
LINE
  5
90
330
1F
100
AcDbEntity
  8
0
  6
CONTINUOUS
 62
     7
100
AcDbLine
 10
125312.1759611956
 20
290873.364130561
 30
0.0
 11
125312.1759611956
 21
290872.364130561
 31
0.0
  0
LINE
  5
91
330
1F
100
AcDbEntity
  8
0
  6
CONTINUOUS
 62
     7
100
AcDbLine
 10
125302.1759611956
 20
290873.364130561
 30
0.0
 11
125302.1759611956
 21
290872.364130561
 31
0.0
  0
LINE
  5
92
330
1F
100
AcDbEntity
  8
A_RUNDUNGEN
  6
CONTINUOUS
 62
     7
100
AcDbLine
 10
125302.1759611956
 20
290872.364130561
 30
0.0
 11
125294.6759611956
 21
290872.364130561
 31
0.0
  0
LINE
  5
93
330
1F
100
AcDbEntity
  8
0
  6
CONTINUOUS
 62
     7
100
AcDbLine
 10
125308.6759611956
 20
290872.364130561
 30
0.0
 11
125315.6759611956
 21
290872.364130561
 31
0.0
  0
LINE
  5
94
330
1F
100
AcDbEntity
  8
0
  6
CONTINUOUS
 62
     7
100
AcDbLine
 10
125294.1759611956
 20
290872.864130561
 30
0.0
 11
125294.1759611956
 21
290873.364130561
 31
0.0
  0
LINE
  5
95
330
1F
100
AcDbEntity
  8
0
  6
CONTINUOUS
 62
     7
100
AcDbLine
 10
125302.1759611956
 20
290873.364130561
 30
0.0
 11
125305.1759611956
 21
290873.364130561
 31
0.0
  0
LINE
  5
96
330
1F
100
AcDbEntity
  8
0
  6
CONTINUOUS
 62
     7
100
AcDbLine
 10
125305.1759611956
 20
290873.364130561
 30
0.0
 11
125308.6759611956
 21
290873.364130561
 31
0.0
  0
LINE
  5
97
330
1F
100
AcDbEntity
  8
0
  6
CONTINUOUS
 62
     7
100
AcDbLine
 10
125308.6759611956
 20
290873.364130561
 30
0.0
 11
125312.1759611956
 21
290873.364130561
 31
0.0
  0
LINE
  5
98
330
1F
100
AcDbEntity
  8
0
  6
CONTINUOUS
 62
     7
100
AcDbLine
 10
125295.1759611956
 20
290897.364130561
 30
0.0
 11
125295.1759611956
 21
290873.364130561
 31
0.0
  0
LINE
  5
99
330
1F
100
AcDbEntity
  8
A_RUNDUNGEN
  6
CONTINUOUS
 62
     7
100
AcDbLine
 10
125315.1759611956
 20
290908.364130561
 30
0.0
 11
125295.1759611956
 21
290908.364130561
 31
0.0
  0
LINE
  5
9A
330
1F
100
AcDbEntity
  8
A_ACHSEN
  6
CONTINUOUS
 62
     7
100
AcDbLine
 10
125295.1759611956
 20
290897.364130561
 30
0.0
 11
125295.1759611956
 21
290908.364130561
 31
0.0
  0
LINE
  5
9B
330
1F
100
AcDbEntity
  8
1
  6
CONTINUOUS
 62
     7
100
AcDbLine
 10
125263.6759611956
 20
290867.364130561
 30
0.0
 11
125263.6759611956
 21
290894.364130561
 31
0.0
  0
LINE
  5
9C
330
1F
100
AcDbEntity
  8
0
  6
CONTINUOUS
 62
     7
100
AcDbLine
 10
125278.1759611956
 20
290894.364130561
 30
0.0
 11
125276.1759611956
 21
290894.364130561
 31
0.0
  0
LINE
  5
9D
330
1F
100
AcDbEntity
  8
0
  6
CONTINUOUS
 62
     7
100
AcDbLine
 10
125267.1759611956
 20
290871.864130561
 30
0.0
 11
125267.1759611956
 21
290867.364130561
 31
0.0
  0
LINE
  5
9E
330
1F
100
AcDbEntity
  8
0
  6
CONTINUOUS
 62
     7
100
AcDbLine
 10
125267.1759611956
 20
290894.364130561
 30
0.0
 11
125267.1759611956
 21
290871.864130561
 31
0.0
  0
LINE
  5
9F
330
1F
100
AcDbEntity
  8
A_ACHSEN
  6
DOT_CENTER
 62
     2
100
AcDbLine
 10
125267.1759611956
 20
290876.364130561
 30
0.0
 11
125259.6259611957
 21
290876.364130561
 31
0.0
  0
LINE
  5
A0
330
1F
100
AcDbEntity
  8
0
  6
CONTINUOUS
 62
     7
100
AcDbLine
 10
125267.1759611956
 20
290871.864130561
 30
0.0
 11
125278.1759611956
 21
290871.864130561
 31
0.0
  0
LINE
  5
A1
330
1F
100
AcDbEntity
  8
0
  6
CONTINUOUS
 62
     7
100
AcDbLine
 10
125273.1759611956
 20
290894.364130561
 30
0.0
 11
125273.1759611956
 21
290871.864130561
 31
0.0
  0
LINE
  5
A2
330
1F
100
AcDbEntity
  8
0
  6
CONTINUOUS
 62
     7
100
AcDbLine
 10
125276.1759611956
 20
290894.364130561
 30
0.0
 11
125276.1759611956
 21
290871.864130561
 31
0.0
  0
LINE
  5
A3
330
1F
100
AcDbEntity
  8
0
  6
CONTINUOUS
 62
     7
100
AcDbLine
 10
125278.1759611956
 20
290894.364130561
 30
0.0
 11
125278.1759611956
 21
290875.364130561
 31
0.0
  0
LINE
  5
A4
330
1F
100
AcDbEntity
  8
A_ACHSEN
  6
DOT_CENTER
 62
     2
100
AcDbLine
 10
125259.6259611957
 20
290886.364130561
 30
0.0
 11
125279.183518911
 21
290886.364130561
 31
0.0
  0
LINE
  5
A5
330
1F
100
AcDbEntity
  8
A_ACHSEN
  6
DOT_CENTER
 62
     2
100
AcDbLine
 10
125269.1759611956
 20
290876.364130561
 30
0.0
 11
125267.1759611956
 21
290876.364130561
 31
0.0
  0
LINE
  5
A6
330
1F
100
AcDbEntity
  8
0
  6
CONTINUOUS
 62
     7
100
AcDbLine
 10
125267.6759611956
 20
290866.864130561
 30
0.0
 11
125293.1759611956
 21
290866.864130561
 31
0.0
  0
LINE
  5
A7
330
1F
100
AcDbEntity
  8
0
  6
CONTINUOUS
 62
     7
100
AcDbLine
 10
125316.1759611956
 20
290873.364130561
 30
0.0
 11
125316.1759611956
 21
290872.864130561
 31
0.0
  0
LINE
  5
A8
330
1F
100
AcDbEntity
  8
0
  6
CONTINUOUS
 62
     7
100
AcDbLine
 10
125312.1759611956
 20
290873.364130561
 30
0.0
 11
125316.1759611956
 21
290873.364130561
 31
0.0
  0
LINE
  5
A9
330
1F
100
AcDbEntity
  8
0
  6
CONTINUOUS
 62
     7
100
AcDbLine
 10
125294.1759611956
 20
290873.364130561
 30
0.0
 11
125302.1759611956
 21
290873.364130561
 31
0.0
  0
LINE
  5
AA
330
1F
100
AcDbEntity
  8
A_RUNDUNGEN
  6
CONTINUOUS
 62
     7
100
AcDbLine
 10
125293.6755631956
 20
290866.864130561
 30
0.0
 11
125293.6755631956
 21
290863.3641305609
 31
0.0
  0
LINE
  5
AB
330
1F
100
AcDbEntity
  8
1
  6
DOT_CENTER
 62
     2
100
AcDbLine
 10
125305.1759611956
 20
290909.364130561
 30
0.0
 11
125305.1759611956
 21
290873.364130561
 31
0.0
  0
ARC
  5
AC
330
1F
100
AcDbEntity
  8
1
  6
CONTINUOUS
 62
     7
100
AcDbCircle
 10
125292.6759611956
 20
290872.864130561
 30
0.0
 40
0.5000000000756033
100
AcDbArc
 50
-58.01449684373078
 51
90.0
  0
ARC
  5
AD
330
1F
100
AcDbEntity
  8
0
  6
CONTINUOUS
 62
     7
100
AcDbCircle
 10
125291.1759611956
 20
290851.364130561
 30
0.0
 40
2.0
100
AcDbArc
 50
-90.0
 51
0.0
  0
ARC
  5
AE
330
1F
100
AcDbEntity
  8
0
  6
CONTINUOUS
 62
     7
100
AcDbCircle
 10
125337.1759611956
 20
290875.364130561
 30
0.0
 40
2.0
100
AcDbArc
 50
-90.0
 51
0.0
  0
ARC
  5
AF
330
1F
100
AcDbEntity
  8
0
  6
CONTINUOUS
 62
     7
100
AcDbCircle
 10
125287.1065546229
 20
290870.6205951119
 30
0.0
 40
1.743567669233602
100
AcDbArc
 50
3.81271283474998
 51
89.6516765472075
  0
ARC
  5
B0
330
1F
100
AcDbEntity
  8
0
  6
CONTINUOUS
 62
     7
100
AcDbCircle
 10
125287.1065546229
 20
290870.6205951119
 30
0.0
 40
1.743567669243755
100
AcDbArc
 50
90.3483234494452
 51
176.1872871652182
  0
ARC
  5
B1
330
1F
100
AcDbEntity
  8
0
  6
CONTINUOUS
 62
     7
100
AcDbCircle
 10
125287.1065546229
 20
290870.6205951119
 30
0.0
 40
0.7435676692350864
100
AcDbArc
 50
-5.83984233624589
 51
174.16015766364
  0
ARC
  5
B2
330
1F
100
AcDbEntity
  8
0
  6
CONTINUOUS
 62
     7
100
AcDbCircle
 10
125282.1825080097
 20
290874.357583911
 30
0.0
 40
0.9934749213572732
100
AcDbArc
 50
-126.8975338899592
 51
-90.37757121208762
  0
ARC
  5
B3
330
1F
100
AcDbEntity
  8
0
  6
CONTINUOUS
 62
     7
100
AcDbCircle
 10
125281.8522814802
 20
290873.364130561
 30
0.0
 40
1.000000000014198
100
AcDbArc
 50
-126.7705678018396
 51
-90.0
  0
ARC
  5
B4
330
1F
100
AcDbEntity
  8
0
  6
CONTINUOUS
 62
     7
100
AcDbCircle
 10
125281.183201409
 20
290873.239941209
 30
0.0
 40
0.50000000004937
100
AcDbArc
 50
53.22943220282111
 51
126.7705677891644
  0
ARC
  5
B5
330
1F
100
AcDbEntity
  8
0
  6
CONTINUOUS
 62
     7
100
AcDbCircle
 10
125290.9400074666
 20
290870.4141305611
 30
0.0
 40
1.586274925420208
100
AcDbArc
 50
121.9530628886755
 51
-121.0126104274437
  0
ARC
  5
B6
330
1F
100
AcDbEntity
  8
0
  6
CONTINUOUS
 62
     7
100
AcDbCircle
 10
125291.0899947553
 20
290870.416083322
 30
0.0
 40
0.7362961251391373
100
AcDbArc
 50
121.634793307223
 51
-121.3308800208031
  0
ARC
  5
B7
330
1F
100
AcDbEntity
  8
0
  6
CONTINUOUS
 62
     7
100
AcDbCircle
 10
125290.5699897168
 20
290868.614130561
 30
0.0
 40
0.1499999999068677
100
AcDbArc
 50
-90.0
 51
59.26308416850989
  0
ARC
  5
B8
330
1F
100
AcDbEntity
  8
0
  6
CONTINUOUS
 62
     7
100
AcDbCircle
 10
125290.5395009838
 20
290872.2141305611
 30
0.0
 40
0.150000000005433
100
AcDbArc
 50
-57.77124257001233
 51
90.0
  0
ARC
  5
B9
330
1F
100
AcDbEntity
  8
0
  6
CONTINUOUS
 62
     7
100
AcDbCircle
 10
125280.1759611956
 20
290870.6146678663
 30
0.0
 40
1.000000000046474
100
AcDbArc
 50
126.7705677931716
 51
180.0
  0
ARC
  5
BA
330
1F
100
AcDbEntity
  8
0
  6
CONTINUOUS
 62
     7
100
AcDbCircle
 10
125279.6759611956
 20
290868.9641305611
 30
0.0
 40
0.5
100
AcDbArc
 50
180.0
 51
-90.0
  0
ARC
  5
BB
330
1F
100
AcDbEntity
  8
0
  6
CONTINUOUS
 62
     7
100
AcDbCircle
 10
125277.6759611956
 20
290868.9641305611
 30
0.0
 40
0.5
100
AcDbArc
 50
-90.0
 51
0.0
  0
ARC
  5
BC
330
1F
100
AcDbEntity
  8
0
  6
CONTINUOUS
 62
     7
100
AcDbCircle
 10
125272.6217228655
 20
290868.6641305611
 30
0.0
 40
0.2000000000071581
100
AcDbArc
 50
162.0308602602717
 51
-90.0
  0
ARC
  5
BD
330
1F
100
AcDbEntity
  8
0
  6
CONTINUOUS
 62
     7
100
AcDbCircle
 10
125273.9183939638
 20
290868.6641305611
 30
0.0
 40
0.2000000000116415
100
AcDbArc
 50
-90.0
 51
-24.67686320791099
  0
ARC
  5
BE
330
1F
100
AcDbEntity
  8
0
  6
CONTINUOUS
 62
     7
100
AcDbCircle
 10
125275.5010826755
 20
290868.6641305611
 30
0.0
 40
0.1999999999392113
100
AcDbArc
 50
166.3286929019615
 51
-90.0
  0
ARC
  5
BF
330
1F
100
AcDbEntity
  8
0
  6
CONTINUOUS
 62
     7
100
AcDbCircle
 10
125274.1077254993
 20
290871.7641305609
 30
0.0
 40
0.1000000000931323
100
AcDbArc
 50
90.0
 51
152.4879973625915
  0
ARC
  5
C0
330
1F
100
AcDbEntity
  8
0
  6
CONTINUOUS
 62
     7
100
AcDbCircle
 10
125274.2094980678
 20
290871.7641305609
 30
0.0
 40
0.0999999999904852
100
AcDbArc
 50
-17.96913968957044
 51
90.0
  0
ARC
  5
C1
330
1F
100
AcDbEntity
  8
0
  6
CONTINUOUS
 62
     7
100
AcDbCircle
 10
125276.6111625186
 20
290871.7641305609
 30
0.0
 40
0.1000000000931323
100
AcDbArc
 50
90.0
 51
155.3231368648821
  0
ARC
  5
C2
330
1F
100
AcDbEntity
  8
0
  6
CONTINUOUS
 62
     7
100
AcDbCircle
 10
125276.8198181628
 20
290871.7641305609
 30
0.0
 40
0.0999999999420907
100
AcDbArc
 50
-13.67130703322728
 51
90.0
  0
ARC
  5
C3
330
1F
100
AcDbEntity
  8
0
  6
CONTINUOUS
 62
     7
100
AcDbCircle
 10
125278.6759611956
 20
290875.364130561
 30
0.0
 40
0.5
100
AcDbArc
 50
0.0
 51
180.0
  0
ARC
  5
C4
330
1F
100
AcDbEntity
  8
0
  6
CONTINUOUS
 62
     7
100
AcDbCircle
 10
125271.5707714516
 20
290867.864130561
 30
0.0
 40
0.5000000000521218
100
AcDbArc
 50
152.4879973687538
 51
-90.0
  0
ARC
  5
C5
330
1F
100
AcDbEntity
  8
0
  6
CONTINUOUS
 62
     7
100
AcDbCircle
 10
125292.2921459217
 20
290867.981319484
 30
0.0
 40
0.8903139230738226
100
AcDbArc
 50
-17.472183424198
 51
35.32406808511249
  0
ARC
  5
C6
330
1F
100
AcDbEntity
  8
0
  6
CONTINUOUS
 62
     7
100
AcDbCircle
 10
125292.6644518643
 20
290867.864130561
 30
0.0
 40
0.5
100
AcDbArc
 50
-90.0
 51
-17.4721834238102
  0
ARC
  5
C7
330
1F
100
AcDbEntity
  8
1
  6
CONTINUOUS
 62
     7
100
AcDbCircle
 10
125305.1759611956
 20
290858.3641305611
 30
0.0
 40
9.924999999876176
100
AcDbArc
 50
149.5918364669121
 51
49.83528247922102
  0
ARC
  5
C8
330
1F
100
AcDbEntity
  8
1
  6
CONTINUOUS
 62
     7
100
AcDbCircle
 10
125305.1759611957
 20
290858.3641305612
 30
0.0
 40
9.924999999837453
100
AcDbArc
 50
49.83528247945367
 51
90.00000000058805
  0
ARC
  5
C9
330
1F
100
AcDbEntity
  8
1
  6
DASHED
 62
     2
100
AcDbCircle
 10
125305.1759611957
 20
290858.3641305609
 30
0.0
 40
9.9250000000792
100
AcDbArc
 50
100.0000000002259
 51
149.5918364660505
  0
ARC
  5
CA
330
1F
100
AcDbEntity
  8
0
  6
CONTINUOUS
 62
     7
100
AcDbCircle
 10
125294.6759611956
 20
290872.864130561
 30
0.0
 40
0.5
100
AcDbArc
 50
180.0
 51
-90.0
  0
ARC
  5
CB
330
1F
100
AcDbEntity
  8
0
  6
CONTINUOUS
 62
     7
100
AcDbCircle
 10
125267.6759611956
 20
290867.364130561
 30
0.0
 40
0.5
100
AcDbArc
 50
180.0
 51
-90.0
  0
ARC
  5
CC
330
1F
100
AcDbEntity
  8
0
  6
CONTINUOUS
 62
     7
100
AcDbCircle
 10
125267.6759611956
 20
290867.364130561
 30
0.0
 40
4.0
100
AcDbArc
 50
180.0
 51
-90.0
  0
ARC
  5
CD
330
1F
100
AcDbEntity
  8
0
  6
CONTINUOUS
 62
     7
100
AcDbCircle
 10
125315.6759611956
 20
290872.864130561
 30
0.0
 40
0.5
100
AcDbArc
 50
-90.0
 51
0.0
  0
ARC
  5
CE
330
1F
100
AcDbEntity
  8
1
  6
CONTINUOUS
 62
     7
100
AcDbCircle
 10
125305.1759611957
 20
290858.3641305609
 30
0.0
 40
9.924999999988358
100
AcDbArc
 50
90.00000000058805
 51
100.0000000002259
  0
CIRCLE
  5
CF
330
1F
100
AcDbEntity
  8
1
  6
DASHED
 62
     2
100
AcDbCircle
 10
125305.1759611956
 20
290858.364130561
 30
0.0
 40
5.0
  0
CIRCLE
  5
D0
330
1F
100
AcDbEntity
  8
1
  6
CONTINUOUS
 62
     7
100
AcDbCircle
 10
125305.1759611956
 20
290858.3641305611
 30
0.0
 40
6.42499999991897
  0
XLINE
  5
D1
330
1F
100
AcDbEntity
  8
1
  6
DOT_CENTER
 62
     3
 60
     1
100
AcDbXline
 10
125219.1759611956
 20
290911.9603521617
 30
0.0
 11
0.0
 21
1.0
 31
0.0
  0
LWPOLYLINE
  5
D2
330
1F
100
AcDbEntity
  8
1
  6
CONTINUOUS
 62
     7
 60
     1
100
AcDbPolyline
 90
        3
 70
     0
 43
0.0
 10
125293.1759611956
 20
290864.364130561
 10
125263.6759611956
 20
290864.364130561
 10
125263.6759611956
 20
290895.364130561
  0
ARC
  5
D3
330
1F
100
AcDbEntity
  8
1
  6
CONTINUOUS
 62
     7
100
AcDbCircle
 10
125296.1823152852
 20
290867.3641305609
 30
0.0
 40
4.0
100
AcDbArc
 50
-90.0
 51
-83.77239313194943
  0
ARC
  5
D4
330
1F
100
AcDbEntity
  8
1
  6
CONTINUOUS
 62
     7
100
AcDbCircle
 10
125296.1823152852
 20
290867.3641305609
 30
0.0
 40
4.000000000058558
100
AcDbArc
 50
-83.77239313194943
 51
-79.9999999994528
  0
ARC
  5
D5
330
1F
100
AcDbEntity
  8
1
  6
CONTINUOUS
 62
     7
100
AcDbCircle
 10
125296.1823152859
 20
290867.364130561
 30
0.0
 40
0.5
100
AcDbArc
 50
-90.0
 51
-80.00000000437937
  0
ARC
  5
D6
330
1F
100
AcDbEntity
  8
1
  6
CONTINUOUS
 62
     7
100
AcDbCircle
 10
125312.6759611956
 20
290870.1892609737
 30
0.0
 40
4.0
100
AcDbArc
 50
180.0
 51
-128.580092437294
  0
DIMENSION
  5
E2
330
1F
100
AcDbEntity
  8
1
100
AcDbDimension
  2
*D1
 10
125201.702185012
 20
290894.364130561
 30
0.0
 11
125197.952185012
 21
290878.673389495
 31
0.0
 70
    32
  1
<>
 53
90.0
  3
ME10_DIM_10
100
AcDbAlignedDimension
 13
125263.6759611956
 23
290863.364130561
 33
0.0
 14
125263.6759611956
 24
290894.364130561
 34
0.0
 50
90.0
100
AcDbRotatedDimension
  0
DIMENSION
  5
ED
330
1F
100
AcDbEntity
  8
1
100
AcDbDimension
  2
*D2
 10
125293.1759611956
 20
290839.364130561
 30
0.0
 11
125285.8137334258
 21
290843.114130561
 31
0.0
 70
    32
  1
<>
 53
0.00013888888889
  3
ME10_DIM_11
100
AcDbAlignedDimension
 13
125278.1759611956
 23
290871.864130561
 33
0.0
 14
125293.1759611956
 24
290851.364130561
 34
0.0
100
AcDbRotatedDimension
  0
DIMENSION
  5
F8
330
1F
100
AcDbEntity
  8
1
100
AcDbDimension
  2
*D3
 10
125369.1435460268
 20
290873.364130561
 30
0.0
 11
125365.3935460268
 21
290890.5366606487
 31
0.0
 70
    32
  1
<>
 53
90.0
  3
ME10_DIM_12
100
AcDbAlignedDimension
 13
125315.1759611956
 23
290908.364130561
 33
0.0
 14
125316.1759611956
 24
290873.364130561
 34
0.0
 50
90.0
100
AcDbRotatedDimension
  0
DIMENSION
  5
103
330
1F
100
AcDbEntity
  8
1
100
AcDbDimension
  2
*D4
 10
125360.1435460268
 20
290873.364130561
 30
0.0
 11
125356.3935460268
 21
290866.7277601035
 31
0.0
 70
    32
  1
<>
 53
90.0
  3
ME10_DIM_13
100
AcDbAlignedDimension
 13
125317.5934611957
 23
290858.364130561
 33
0.0
 14
125316.1759611956
 24
290873.364130561
 34
0.0
 50
90.0
100
AcDbRotatedDimension
  0
DIMENSION
  5
10E
330
1F
100
AcDbEntity
  8
1
100
AcDbDimension
  2
*D5
 10
125360.1435460268
 20
290873.364130561
 30
0.0
 11
125356.3935460268
 21
290881.5460466546
 31
0.0
 70
    32
  1
<>
 53
90.0
  3
ME10_DIM_14
100
AcDbAlignedDimension
 13
125295.7759611956
 23
290889.364130561
 33
0.0
 14
125337.1759611956
 24
290873.364130561
 34
0.0
 50
90.0
100
AcDbRotatedDimension
  0
DIMENSION
  5
119
330
1F
100
AcDbEntity
  8
1
100
AcDbDimension
  2
*D6
 10
125278.1759611956
 20
290839.364130561
 30
0.0
 11
125271.0563666357
 21
290843.114130561
 31
0.0
 70
    32
  1
<>
 53
0.00013888888889
  3
ME10_DIM_15
100
AcDbAlignedDimension
 13
125263.6759611956
 23
290863.364130561
 33
0.0
 14
125278.1759611956
 24
290871.864130561
 34
0.0
100
AcDbRotatedDimension
  0
DIMENSION
  5
124
330
1F
100
AcDbEntity
  8
1
100
AcDbDimension
  2
*D7
 10
125295.1759611956
 20
290921.9603521617
 30
0.0
 11
125287.7151703541
 21
290925.7103521617
 31
0.0
 70
    32
  1
<>
 53
0.00013888888889
  3
ME10_DIM_16
100
AcDbAlignedDimension
 13
125282.1759611956
 23
290873.364130561
 33
0.0
 14
125295.1759611956
 24
290908.364130561
 34
0.0
100
AcDbRotatedDimension
  0
DIMENSION
  5
131
330
1F
100
AcDbEntity
  8
1
100
AcDbDimension
  2
*D8
 10
125349.1759611956
 20
290873.364130561
 30
0.0
 11
125345.4259611956
 21
290870.981380936
 31
0.0
 70
    32
  1
<>
 53
90.0
  3
ME10_DIM_17
100
AcDbAlignedDimension
 13
125292.6644518643
 23
290867.364130561
 33
0.0
 14
125294.1759611956
 24
290873.364130561
 34
0.0
 50
90.0
100
AcDbRotatedDimension
  0
DIMENSION
  5
13E
330
1F
100
AcDbEntity
  8
1
100
AcDbDimension
  2
*D9
 10
125282.1759611956
 20
290921.9603521617
 30
0.0
 11
125279.3903558605
 21
290925.7103521617
 31
0.0
 70
    32
  1
<>
 53
0.00013888888889
  3
ME10_DIM_18
100
AcDbAlignedDimension
 13
125278.1759611956
 23
290911.9603521617
 33
0.0
 14
125282.1759611956
 24
290873.364130561
 34
0.0
100
AcDbRotatedDimension
  0
DIMENSION
  5
149
330
1F
100
AcDbEntity
  8
1
100
AcDbDimension
  2
*D10
 10
125315.1759611956
 20
290921.9603521617
 30
0.0
 11
125305.1916072648
 21
290925.7103521617
 31
0.0
 70
    32
  1
<>
 53
0.00013888888889
  3
ME10_DIM_19
100
AcDbAlignedDimension
 13
125295.1759611956
 23
290908.364130561
 33
0.0
 14
125315.1759611956
 24
290908.364130561
 34
0.0
100
AcDbRotatedDimension
  0
DIMENSION
  5
156
330
1F
100
AcDbEntity
  8
1
100
AcDbDimension
  2
*D11
 10
125214.207177682
 20
290867.364130561
 30
0.0
 11
125210.457177682
 21
290873.10379501
 31
0.0
 70
    32
  1
<>
 53
90.0
  3
ME10_DIM_20
100
AcDbAlignedDimension
 13
125267.6759611956
 23
290866.864130561
 33
0.0
 14
125269.1759611956
 24
290867.364130561
 34
0.0
 50
90.0
100
AcDbRotatedDimension
  0
ENDSEC
  0
SECTION
  2
OBJECTS
  0
DICTIONARY
  5
C
330
0
100
AcDbDictionary
  3
ACAD_GROUP
350
D
  3
ACAD_LAYOUT
350
1A
  3
ACAD_MLINESTYLE
350
17
  3
ACAD_PLOTSETTINGS
350
19
  3
ACDBHEADERROUNDTRIPXREC
350
157
  0
DICTIONARY
  5
D
102
{ACAD_REACTORS
330
C
102
}
330
C
100
AcDbDictionary
  0
DICTIONARY
  5
1A
102
{ACAD_REACTORS
330
C
102
}
330
C
100
AcDbDictionary
  0
DICTIONARY
  5
17
102
{ACAD_REACTORS
330
C
102
}
330
C
100
AcDbDictionary
  3
STANDARD
350
18
  0
DICTIONARY
  5
19
102
{ACAD_REACTORS
330
C
102
}
330
C
100
AcDbDictionary
  0
DICTIONARY
  5
157
102
{ACAD_REACTORS
330
C
102
}
330
C
100
AcDbDictionary
  3
CEPSNTYPE
350
160
  3
DIMSTYLEDATA
350
176
  3
FINGERPRINTGUID
350
161
  3
HYPERLINKBASE
350
15A
  3
INSUNITS
350
15F
  3
LAYOUTDICT
350
15C
  3
LWETCUNION
350
15E
  3
PLOTSETDICT
350
15D
  3
PSVPSCALE
350
163
  3
PUCSBASE
350
166
  3
PUCSORGBACK
350
16C
  3
PUCSORGBOTTOM
350
168
  3
PUCSORGFRONT
350
16B
  3
PUCSORGLEFT
350
169
  3
PUCSORGRIGHT
350
16A
  3
PUCSORGTOP
350
167
  3
PUCSORTHOREF
350
164
  3
PUCSORTHOVIEW
350
165
  3
STYLESHEET
350
15B
  3
TSTACKALIGN
350
158
  3
TSTACKSIZE
350
159
  3
UCSBASE
350
16F
  3
UCSORGBACK
350
175
  3
UCSORGBOTTOM
350
171
  3
UCSORGFRONT
350
174
  3
UCSORGLEFT
350
172
  3
UCSORGRIGHT
350
173
  3
UCSORGTOP
350
170
  3
UCSORTHOREF
350
16D
  3
UCSORTHOVIEW
350
16E
  3
VERSIONGUID
350
162
  0
MLINESTYLE
  5
18
102
{ACAD_REACTORS
330
17
102
}
330
17
100
AcDbMlineStyle
  2
Standard
 70
     0
  3

 62
   256
 51
90.0
 52
90.0
 71
     2
 49
0.5
 62
   256
  6
BYLAYER
 49
-0.5
 62
   256
  6
BYLAYER
  0
XRECORD
  5
160
102
{ACAD_REACTORS
330
157
102
}
330
157
100
AcDbXrecord
 90
        0
  0
XRECORD
  5
176
102
{ACAD_REACTORS
330
157
102
}
330
157
100
AcDbXrecord
1000
DSTYLE
1002
{
1070
   171
 70
     2
1070
   143
 40
25.4
1070
   274
 70
     2
1070
    41
 40
0.18
1070
   141
 40
0.09
1070
   271
 70
     4
1070
    43
 40
0.38
1070
   278
 70
    46
1070
    44
 40
0.18
1070
    42
 40
0.0625
1070
   147
 40
0.09
1070
    77
 70
     0
1070
   272
 70
     4
1070
    73
 70
     1
1070
   172
 70
     0
1070
    74
 70
     1
1070
   283
 70
     1
1070
   340
340
11
1070
   140
 40
0.18
1070
   284
 70
     0
1070
    78
 70
     0
1002
}
  0
XRECORD
  5
161
102
{ACAD_REACTORS
330
157
102
}
330
157
100
AcDbXrecord
  1
{E0DBA52B-47BC-4A80-802E-2FCB26C40052}
  0
XRECORD
  5
15A
102
{ACAD_REACTORS
330
157
102
}
330
157
100
AcDbXrecord
  1

  0
XRECORD
  5
15F
102
{ACAD_REACTORS
330
157
102
}
330
157
100
AcDbXrecord
 90
        1
  0
XRECORD
  5
15C
102
{ACAD_REACTORS
330
157
102
}
330
157
100
AcDbXrecord
340
1A
  0
XRECORD
  5
15E
102
{ACAD_REACTORS
330
157
102
}
330
157
100
AcDbXrecord
 90
    10781
  0
XRECORD
  5
15D
102
{ACAD_REACTORS
330
157
102
}
330
157
100
AcDbXrecord
340
19
  0
XRECORD
  5
163
102
{ACAD_REACTORS
330
157
102
}
330
157
100
AcDbXrecord
 40
0.0
  0
XRECORD
  5
166
102
{ACAD_REACTORS
330
157
102
}
330
157
100
AcDbXrecord
340
0
  0
XRECORD
  5
16C
102
{ACAD_REACTORS
330
157
102
}
330
157
100
AcDbXrecord
 10
0.0
 20
0.0
 30
0.0
  0
XRECORD
  5
168
102
{ACAD_REACTORS
330
157
102
}
330
157
100
AcDbXrecord
 10
0.0
 20
0.0
 30
0.0
  0
XRECORD
  5
16B
102
{ACAD_REACTORS
330
157
102
}
330
157
100
AcDbXrecord
 10
0.0
 20
0.0
 30
0.0
  0
XRECORD
  5
169
102
{ACAD_REACTORS
330
157
102
}
330
157
100
AcDbXrecord
 10
0.0
 20
0.0
 30
0.0
  0
XRECORD
  5
16A
102
{ACAD_REACTORS
330
157
102
}
330
157
100
AcDbXrecord
 10
0.0
 20
0.0
 30
0.0
  0
XRECORD
  5
167
102
{ACAD_REACTORS
330
157
102
}
330
157
100
AcDbXrecord
 10
0.0
 20
0.0
 30
0.0
  0
XRECORD
  5
164
102
{ACAD_REACTORS
330
157
102
}
330
157
100
AcDbXrecord
340
0
  0
XRECORD
  5
165
102
{ACAD_REACTORS
330
157
102
}
330
157
100
AcDbXrecord
 70
     0
  0
XRECORD
  5
15B
102
{ACAD_REACTORS
330
157
102
}
330
157
100
AcDbXrecord
  1

  0
XRECORD
  5
158
102
{ACAD_REACTORS
330
157
102
}
330
157
100
AcDbXrecord
 90
        1
  0
XRECORD
  5
159
102
{ACAD_REACTORS
330
157
102
}
330
157
100
AcDbXrecord
 90
       70
  0
XRECORD
  5
16F
102
{ACAD_REACTORS
330
157
102
}
330
157
100
AcDbXrecord
340
0
  0
XRECORD
  5
175
102
{ACAD_REACTORS
330
157
102
}
330
157
100
AcDbXrecord
 10
0.0
 20
0.0
 30
0.0
  0
XRECORD
  5
171
102
{ACAD_REACTORS
330
157
102
}
330
157
100
AcDbXrecord
 10
0.0
 20
0.0
 30
0.0
  0
XRECORD
  5
174
102
{ACAD_REACTORS
330
157
102
}
330
157
100
AcDbXrecord
 10
0.0
 20
0.0
 30
0.0
  0
XRECORD
  5
172
102
{ACAD_REACTORS
330
157
102
}
330
157
100
AcDbXrecord
 10
0.0
 20
0.0
 30
0.0
  0
XRECORD
  5
173
102
{ACAD_REACTORS
330
157
102
}
330
157
100
AcDbXrecord
 10
0.0
 20
0.0
 30
0.0
  0
XRECORD
  5
170
102
{ACAD_REACTORS
330
157
102
}
330
157
100
AcDbXrecord
 10
0.0
 20
0.0
 30
0.0
  0
XRECORD
  5
16D
102
{ACAD_REACTORS
330
157
102
}
330
157
100
AcDbXrecord
340
0
  0
XRECORD
  5
16E
102
{ACAD_REACTORS
330
157
102
}
330
157
100
AcDbXrecord
 70
     0
  0
XRECORD
  5
162
102
{ACAD_REACTORS
330
157
102
}
330
157
100
AcDbXrecord
  1
{FAEB1C32-E019-11D5-929B-00C0DF256EC4}
  0
ENDSEC
  0
EOF
