  0
SECTION
  2
HEADER
  9
$ACADVER
  1
AC1018
  9
$ACADMAINTVER
 70
     0
  9
$DWGCODEPAGE
  3
ANSI_1252
  9
$INSBASE
 10
0.0
 20
0.0
 30
0.0
  9
$EXTMIN
 10
124949.6759611956
 20
290837.364130561
 30
0.0
  9
$EXTMAX
 10
125121.1759611956
 20
290927.4603521617
 30
0.0
  9
$LIMMIN
 10
0.0
 20
0.0
  9
$LIMMAX
 10
12.0
 20
9.0
  9
$ORTHOMODE
 70
     0
  9
$REGENMODE
 70
     1
  9
$FILLMODE
 70
     1
  9
$QTEXTMODE
 70
     0
  9
$MIRRTEXT
 70
     1
  9
$LTSCALE
 40
1.0
  9
$ATTMODE
 70
     1
  9
$TEXTSIZE
 40
0.2
  9
$TRACEWID
 40
0.05
  9
$TEXTSTYLE
  7
Standard
  9
$CLAYER
  8
0
  9
$CELTYPE
  6
ByLayer
  9
$CECOLOR
 62
   256
  9
$CELTSCALE
 40
1.0
  9
$DISPSILH
 70
     0
  9
$DIMSCALE
 40
1.0
  9
$DIMASZ
 40
0.18
  9
$DIMEXO
 40
0.0625
  9
$DIMDLI
 40
0.38
  9
$DIMRND
 40
0.0
  9
$DIMDLE
 40
0.0
  9
$DIMEXE
 40
0.18
  9
$DIMTP
 40
0.0
  9
$DIMTM
 40
0.0
  9
$DIMTXT
 40
0.18
  9
$DIMCEN
 40
0.09
  9
$DIMTSZ
 40
0.0
  9
$DIMTOL
 70
     0
  9
$DIMLIM
 70
     0
  9
$DIMTIH
 70
     1
  9
$DIMTOH
 70
     1
  9
$DIMSE1
 70
     0
  9
$DIMSE2
 70
     0
  9
$DIMTAD
 70
     0
  9
$DIMZIN
 70
     0
  9
$DIMBLK
  1

  9
$DIMASO
 70
     1
  9
$DIMSHO
 70
     1
  9
$DIMPOST
  1

  9
$DIMAPOST
  1

  9
$DIMALT
 70
     0
  9
$DIMALTD
 70
     2
  9
$DIMALTF
 40
25.4
  9
$DIMLFAC
 40
1.0
  9
$DIMTOFL
 70
     0
  9
$DIMTVP
 40
0.0
  9
$DIMTIX
 70
     0
  9
$DIMSOXD
 70
     0
  9
$DIMSAH
 70
     0
  9
$DIMBLK1
  1

  9
$DIMBLK2
  1

  9
$DIMSTYLE
  2
Standard
  9
$DIMCLRD
 70
     0
  9
$DIMCLRE
 70
     0
  9
$DIMCLRT
 70
     0
  9
$DIMTFAC
 40
1.0
  9
$DIMGAP
 40
0.09
  9
$DIMJUST
 70
     0
  9
$DIMSD1
 70
     0
  9
$DIMSD2
 70
     0
  9
$DIMTOLJ
 70
     1
  9
$DIMTZIN
 70
     0
  9
$DIMALTZ
 70
     0
  9
$DIMALTTZ
 70
     0
  9
$DIMUPT
 70
     0
  9
$DIMDEC
 70
     4
  9
$DIMTDEC
 70
     4
  9
$DIMALTU
 70
     2
  9
$DIMALTTD
 70
     2
  9
$DIMTXSTY
  7
Standard
  9
$DIMAUNIT
 70
     0
  9
$DIMADEC
 70
     0
  9
$DIMALTRND
 40
0.0
  9
$DIMAZIN
 70
     0
  9
$DIMDSEP
 70
    46
  9
$DIMATFIT
 70
     3
  9
$DIMFRAC
 70
     0
  9
$DIMLDRBLK
  1

  9
$DIMLUNIT
 70
     2
  9
$DIMLWD
 70
    -2
  9
$DIMLWE
 70
    -2
  9
$DIMTMOVE
 70
     0
  9
$LUNITS
 70
     2
  9
$LUPREC
 70
     4
  9
$SKETCHINC
 40
0.1
  9
$FILLETRAD
 40
0.5
  9
$AUNITS
 70
     0
  9
$AUPREC
 70
     0
  9
$MENU
  1
.
  9
$ELEVATION
 40
0.0
  9
$PELEVATION
 40
0.0
  9
$THICKNESS
 40
0.0
  9
$LIMCHECK
 70
     0
  9
$CHAMFERA
 40
0.5
  9
$CHAMFERB
 40
0.5
  9
$CHAMFERC
 40
1.0
  9
$CHAMFERD
 40
0.0
  9
$SKPOLY
 70
     0
  9
$TDCREATE
 40
2456624.396106678
  9
$TDUCREATE
 40
2456624.354440012
  9
$TDUPDATE
 40
2456624.39610669
  9
$TDUUPDATE
 40
2456624.354440023
  9
$TDINDWG
 40
0.0000000116
  9
$TDUSRTIMER
 40
0.0000000116
  9
$USRTIMER
 70
     1
  9
$ANGBASE
 50
0.0
  9
$ANGDIR
 70
     0
  9
$PDMODE
 70
     0
  9
$PDSIZE
 40
0.0
  9
$PLINEWID
 40
0.0
  9
$SPLFRAME
 70
     0
  9
$SPLINETYPE
 70
     6
  9
$SPLINESEGS
 70
     8
  9
$HANDSEED
  5
159
  9
$SURFTAB1
 70
     6
  9
$SURFTAB2
 70
     6
  9
$SURFTYPE
 70
     6
  9
$SURFU
 70
     6
  9
$SURFV
 70
     6
  9
$UCSBASE
  2

  9
$UCSNAME
  2

  9
$UCSORG
 10
0.0
 20
0.0
 30
0.0
  9
$UCSXDIR
 10
1.0
 20
0.0
 30
0.0
  9
$UCSYDIR
 10
0.0
 20
1.0
 30
0.0
  9
$UCSORTHOREF
  2

  9
$UCSORTHOVIEW
 70
     0
  9
$UCSORGTOP
 10
0.0
 20
0.0
 30
0.0
  9
$UCSORGBOTTOM
 10
0.0
 20
0.0
 30
0.0
  9
$UCSORGLEFT
 10
0.0
 20
0.0
 30
0.0
  9
$UCSORGRIGHT
 10
0.0
 20
0.0
 30
0.0
  9
$UCSORGFRONT
 10
0.0
 20
0.0
 30
0.0
  9
$UCSORGBACK
 10
0.0
 20
0.0
 30
0.0
  9
$PUCSBASE
  2

  9
$PUCSNAME
  2

  9
$PUCSORG
 10
0.0
 20
0.0
 30
0.0
  9
$PUCSXDIR
 10
1.0
 20
0.0
 30
0.0
  9
$PUCSYDIR
 10
0.0
 20
1.0
 30
0.0
  9
$PUCSORTHOREF
  2

  9
$PUCSORTHOVIEW
 70
     0
  9
$PUCSORGTOP
 10
0.0
 20
0.0
 30
0.0
  9
$PUCSORGBOTTOM
 10
0.0
 20
0.0
 30
0.0
  9
$PUCSORGLEFT
 10
0.0
 20
0.0
 30
0.0
  9
$PUCSORGRIGHT
 10
0.0
 20
0.0
 30
0.0
  9
$PUCSORGFRONT
 10
0.0
 20
0.0
 30
0.0
  9
$PUCSORGBACK
 10
0.0
 20
0.0
 30
0.0
  9
$USERI1
 70
     0
  9
$USERI2
 70
     0
  9
$USERI3
 70
     0
  9
$USERI4
 70
     0
  9
$USERI5
 70
     0
  9
$USERR1
 40
14.5
  9
$USERR2
 40
0.0
  9
$USERR3
 40
0.0
  9
$USERR4
 40
0.0
  9
$USERR5
 40
0.0
  9
$WORLDVIEW
 70
     1
  9
$SHADEDGE
 70
     3
  9
$SHADEDIF
 70
    70
  9
$TILEMODE
 70
     1
  9
$MAXACTVP
 70
    64
  9
$PINSBASE
 10
0.0
 20
0.0
 30
0.0
  9
$PLIMCHECK
 70
     0
  9
$PEXTMIN
 10
1.00000000000000E+20
 20
1.00000000000000E+20
 30
1.00000000000000E+20
  9
$PEXTMAX
 10
-1.00000000000000E+20
 20
-1.00000000000000E+20
 30
-1.00000000000000E+20
  9
$PLIMMIN
 10
0.0
 20
0.0
  9
$PLIMMAX
 10
12.0
 20
9.0
  9
$UNITMODE
 70
     0
  9
$VISRETAIN
 70
     1
  9
$PLINEGEN
 70
     0
  9
$PSLTSCALE
 70
     1
  9
$TREEDEPTH
 70
  3020
  9
$CMLSTYLE
  2
Standard
  9
$CMLJUST
 70
     0
  9
$CMLSCALE
 40
1.0
  9
$PROXYGRAPHICS
 70
     1
  9
$MEASUREMENT
 70
     1
  9
$CELWEIGHT
370
    -1
  9
$ENDCAPS
280
     0
  9
$JOINSTYLE
280
     0
  9
$LWDISPLAY
290
     0
  9
$INSUNITS
 70
     1
  9
$HYPERLINKBASE
  1

  9
$STYLESHEET
  1

  9
$XEDIT
290
     1
  9
$CEPSNTYPE
380
     0
  9
$PSTYLEMODE
290
     1
  9
$FINGERPRINTGUID
  2
{568F9F38-B998-4EDD-AE39-9B7613E6FF78}
  9
$VERSIONGUID
  2
{FAEB1C32-E019-11D5-929B-00C0DF256EC4}
  9
$EXTNAMES
290
     1
  9
$PSVPSCALE
 40
0.0
  9
$OLESTARTUP
290
     0
  9
$SORTENTS
280
   127
  9
$INDEXCTL
280
     0
  9
$HIDETEXT
280
     1
  9
$XCLIPFRAME
290
     0
  9
$HALOGAP
280
     0
  9
$OBSCOLOR
 70
   257
  9
$OBSLTYPE
280
     0
  9
$INTERSECTIONDISPLAY
280
     0
  9
$INTERSECTIONCOLOR
 70
   257
  9
$DIMASSOC
280
     2
  9
$PROJECTNAME
  1

  0
ENDSEC
  0
SECTION
  2
CLASSES
  0
CLASS
  1
ACDBDICTIONARYWDFLT
  2
AcDbDictionaryWithDefault
  3
ObjectDBX Classes
 90
        0
 91
        3
280
     0
281
     0
  0
CLASS
  1

  2
exOdDbCircle
  3

 90
        0
 91
        3
280
     0
281
     1
  0
CLASS
  1

  2
exOdDbPolyline
  3

 90
        0
 91
        3
280
     0
281
     1
  0
ENDSEC
  0
SECTION
  2
TABLES
  0
TABLE
  2
VPORT
  5
8
330
0
100
AcDbSymbolTable
 70
     1
  0
VPORT
  5
29
330
8
100
AcDbSymbolTableRecord
100
AcDbViewportTableRecord
  2
*Active
 70
     0
 10
0.0
 20
0.0
 11
1.0
 21
1.0
 12
125035.4259611956
 22
290882.4122413613
 13
0.0
 23
0.0
 14
0.5
 24
0.5
 15
0.5
 25
0.5
 16
0.0
 26
0.0
 36
1.0
 17
0.0
 27
0.0
 37
0.0
 40
117.7091922005572
 41
1.60267857142857
 42
50.0
 43
0.0
 44
0.0
 50
0.0
 51
0.0
 71
     0
 72
   100
 73
     1
 74
     3
 75
     0
 76
     0
 77
     0
 78
     0
281
     0
 65
     1
110
0.0
120
0.0
130
0.0
111
1.0
121
0.0
131
0.0
112
0.0
122
1.0
132
0.0
 79
     0
146
0.0
  0
ENDTAB
  0
TABLE
  2
LTYPE
  5
5
330
0
100
AcDbSymbolTable
 70
     8
  0
LTYPE
  5
14
330
5
100
AcDbSymbolTableRecord
100
AcDbLinetypeTableRecord
  2
ByBlock
 70
     0
  3

 72
    65
 73
     0
 40
0.0
  0
LTYPE
  5
15
330
5
100
AcDbSymbolTableRecord
100
AcDbLinetypeTableRecord
  2
ByLayer
 70
     0
  3

 72
    65
 73
     0
 40
0.0
  0
LTYPE
  5
16
330
5
100
AcDbSymbolTableRecord
100
AcDbLinetypeTableRecord
  2
Continuous
 70
     0
  3
Solid line
 72
    65
 73
     0
 40
0.0
  0
LTYPE
  5
2A
330
5
100
AcDbSymbolTableRecord
100
AcDbLinetypeTableRecord
  2
DASHED
 70
     0
  3
Dashed
 72
    65
 73
     2
 40
15.0
 49
7.0
 74
     0
 49
-8.0
 74
     0
  0
LTYPE
  5
2B
330
5
100
AcDbSymbolTableRecord
100
AcDbLinetypeTableRecord
  2
DOTTED
 70
     0
  3
Dotted
 72
    65
 73
     2
 40
1.0
 49
0.0
 74
     0
 49
-1.0
 74
     0
  0
LTYPE
  5
2C
330
5
100
AcDbSymbolTableRecord
100
AcDbLinetypeTableRecord
  2
DOT_CENTER
 70
     0
  3
Dot_Center
 72
    65
 73
     4
 40
14.0
 49
12.0
 74
     0
 49
-1.0
 74
     0
 49
0.0
 74
     0
 49
-1.0
 74
     0
  0
LTYPE
  5
2D
330
5
100
AcDbSymbolTableRecord
100
AcDbLinetypeTableRecord
  2
LONG_DASHED
 70
     0
  3
Long_Dashed
 72
    65
 73
     2
 40
15.0
 49
10.0
 74
     0
 49
-5.0
 74
     0
  0
LTYPE
  5
2E
330
5
100
AcDbSymbolTableRecord
100
AcDbLinetypeTableRecord
  2
DASH_CENTER
 70
     0
  3
Dash_Center
 72
    65
 73
     4
 40
14.0
 49
11.0
 74
     0
 49
-1.0
 74
     0
 49
1.0
 74
     0
 49
-1.0
 74
     0
  0
LTYPE
  5
2F
330
5
100
AcDbSymbolTableRecord
100
AcDbLinetypeTableRecord
  2
PHANTOM
 70
     0
  3
Phantom
 72
    65
 73
     6
 40
13.0
 49
10.0
 74
     0
 49
-1.0
 74
     0
 49
0.0
 74
     0
 49
-1.0
 74
     0
 49
0.0
 74
     0
 49
-1.0
 74
     0
  0
LTYPE
  5
30
330
5
100
AcDbSymbolTableRecord
100
AcDbLinetypeTableRecord
  2
CENTER_DASH_DASH
 70
     0
  3
Center_Dash_Dash
 72
    65
 73
     6
 40
14.0
 49
9.0
 74
     0
 49
-1.0
 74
     0
 49
1.0
 74
     0
 49
-1.0
 74
     0
 49
1.0
 74
     0
 49
-1.0
 74
     0
  0
ENDTAB
  0
TABLE
  2
LAYER
  5
2
330
0
100
AcDbSymbolTable
 70
     5
  0
LAYER
  5
10
330
2
100
AcDbSymbolTableRecord
100
AcDbLayerTableRecord
  2
0
 70
     0
 62
     7
  6
Continuous
370
    -3
390
F
  0
LAYER
  5
31
330
2
100
AcDbSymbolTableRecord
100
AcDbLayerTableRecord
  2
1
 70
     0
 62
     7
  6
Continuous
370
    -3
390
F
  0
LAYER
  5
32
330
2
100
AcDbSymbolTableRecord
100
AcDbLayerTableRecord
  2
A_ACHSEN
 70
     0
 62
     7
  6
Continuous
370
    -3
390
F
  0
LAYER
  5
33
330
2
100
AcDbSymbolTableRecord
100
AcDbLayerTableRecord
  2
A_BEMASSUNGEN
 70
     0
 62
     7
  6
Continuous
370
    -3
390
F
  0
LAYER
  5
34
330
2
100
AcDbSymbolTableRecord
100
AcDbLayerTableRecord
  2
A_RUNDUNGEN
 70
     0
 62
     7
  6
Continuous
370
    -3
390
F
  0
ENDTAB
  0
TABLE
  2
STYLE
  5
3
330
0
100
AcDbSymbolTable
 70
     2
  0
STYLE
  5
11
330
3
100
AcDbSymbolTableRecord
100
AcDbTextStyleTableRecord
  2
Standard
 70
     0
 40
0.0
 41
1.0
 50
0.0
 71
     0
 42
0.2
  3
txt
  4

  0
STYLE
  5
DE
330
3
100
AcDbSymbolTableRecord
100
AcDbTextStyleTableRecord
  2
CONVERTER_11
 70
     0
 40
0.0
 41
0.9
 50
0.0
 71
     0
 42
0.2
  3
txt.shx
  4

  0
ENDTAB
  0
TABLE
  2
VIEW
  5
6
330
0
100
AcDbSymbolTable
 70
     0
  0
ENDTAB
  0
TABLE
  2
UCS
  5
7
330
0
100
AcDbSymbolTable
 70
     0
  0
ENDTAB
  0
TABLE
  2
APPID
  5
9
330
0
100
AcDbSymbolTable
 70
     1
  0
APPID
  5
12
330
9
100
AcDbSymbolTableRecord
100
AcDbRegAppTableRecord
  2
ACAD
 70
     0
  0
ENDTAB
  0
TABLE
  2
DIMSTYLE
  5
A
330
0
100
AcDbSymbolTable
 70
    12
100
AcDbDimStyleTable
  0
DIMSTYLE
105
27
330
A
100
AcDbSymbolTableRecord
100
AcDbDimStyleTableRecord
  2
Standard
 70
     0
340
11
  0
DIMSTYLE
105
E2
102
{ACAD_REACTORS
330
E3
102
}
330
A
100
AcDbSymbolTableRecord
100
AcDbDimStyleTableRecord
  2
ME10_DIM_10
 70
     0
 41
3.5
 42
0.0
 44
2.0
 73
     0
 74
     0
 77
     1
 78
     8
140
3.5
147
2.0
172
     1
173
     1
176
     2
177
     2
178
     2
271
     3
340
DE
  0
DIMSTYLE
105
EF
102
{ACAD_REACTORS
330
F0
102
}
330
A
100
AcDbSymbolTableRecord
100
AcDbDimStyleTableRecord
  2
ME10_DIM_11
 70
     0
 41
3.5
 42
0.0
 44
2.0
 73
     0
 74
     0
 77
     1
 78
     8
140
3.5
147
2.0
172
     1
173
     1
176
     2
177
     2
178
     2
271
     3
340
DE
  0
DIMSTYLE
105
FA
102
{ACAD_REACTORS
330
FB
102
}
330
A
100
AcDbSymbolTableRecord
100
AcDbDimStyleTableRecord
  2
ME10_DIM_12
 70
     0
 41
3.5
 42
0.0
 44
2.0
 73
     0
 74
     0
 77
     1
 78
     8
140
3.5
147
2.0
172
     1
173
     1
176
     2
177
     2
178
     2
271
     3
340
DE
  0
DIMSTYLE
105
105
102
{ACAD_REACTORS
330
106
102
}
330
A
100
AcDbSymbolTableRecord
100
AcDbDimStyleTableRecord
  2
ME10_DIM_13
 70
     0
 41
3.5
 42
0.0
 44
2.0
 73
     0
 74
     0
 77
     1
 78
     8
140
3.5
147
2.0
172
     1
173
     1
176
     2
177
     2
178
     2
271
     3
340
DE
  0
DIMSTYLE
105
110
102
{ACAD_REACTORS
330
111
102
}
330
A
100
AcDbSymbolTableRecord
100
AcDbDimStyleTableRecord
  2
ME10_DIM_14
 70
     0
 41
3.5
 42
0.0
 44
2.0
 73
     0
 74
     0
 77
     1
 78
     8
140
3.5
147
2.0
172
     1
173
     1
176
     2
177
     2
178
     2
271
     3
340
DE
  0
DIMSTYLE
105
11D
102
{ACAD_REACTORS
330
11E
102
}
330
A
100
AcDbSymbolTableRecord
100
AcDbDimStyleTableRecord
  2
ME10_DIM_15
 70
     0
 41
3.5
 42
0.0
 44
2.0
 73
     0
 74
     0
 77
     1
 78
     8
140
3.5
147
2.0
172
     1
173
     1
176
     2
177
     2
178
     2
271
     3
340
DE
  0
DIMSTYLE
105
128
102
{ACAD_REACTORS
330
129
102
}
330
A
100
AcDbSymbolTableRecord
100
AcDbDimStyleTableRecord
  2
ME10_DIM_16
 70
     0
 41
3.5
 42
0.0
 44
2.0
 73
     0
 74
     0
 77
     1
 78
     8
140
3.5
147
2.0
172
     1
173
     1
176
     2
177
     2
178
     2
271
     3
340
DE
  0
DIMSTYLE
105
133
102
{ACAD_REACTORS
330
134
102
}
330
A
100
AcDbSymbolTableRecord
100
AcDbDimStyleTableRecord
  2
ME10_DIM_17
 70
     0
 41
3.5
 42
0.0
 44
2.0
 73
     0
 74
     0
 77
     1
 78
     8
140
3.5
147
2.0
172
     1
173
     1
176
     2
177
     2
178
     2
271
     3
340
DE
  0
DIMSTYLE
105
13F
102
{ACAD_REACTORS
330
140
102
}
330
A
100
AcDbSymbolTableRecord
100
AcDbDimStyleTableRecord
  2
ME10_DIM_18
 70
     0
 41
3.5
 42
0.0
 44
2.0
 73
     0
 74
     0
 77
     1
 78
     8
140
3.5
147
2.0
172
     1
173
     1
176
     2
177
     2
178
     2
271
     3
340
DE
  0
DIMSTYLE
105
14A
102
{ACAD_REACTORS
330
14B
102
}
330
A
100
AcDbSymbolTableRecord
100
AcDbDimStyleTableRecord
  2
ME10_DIM_19
 70
     0
 41
3.5
 42
0.0
 44
2.0
 73
     0
 74
     0
 77
     1
 78
     8
140
3.5
147
2.0
172
     1
173
     1
176
     2
177
     2
178
     2
271
     3
340
DE
  0
DIMSTYLE
105
157
102
{ACAD_REACTORS
330
158
102
}
330
A
100
AcDbSymbolTableRecord
100
AcDbDimStyleTableRecord
  2
ME10_DIM_20
 70
     0
 41
3.5
 42
0.0
 44
2.0
 73
     0
 74
     0
 77
     1
 78
     8
140
3.5
147
2.0
172
     1
173
     1
176
     2
177
     2
178
     2
271
     3
340
DE
  0
ENDTAB
  0
TABLE
  2
BLOCK_RECORD
  5
1
330
0
100
AcDbSymbolTable
 70
    12
  0
BLOCK_RECORD
  5
1F
330
1
100
AcDbSymbolTableRecord
100
AcDbBlockTableRecord
  2
*Model_Space
340
22
  0
BLOCK_RECORD
  5
1B
330
1
100
AcDbSymbolTableRecord
100
AcDbBlockTableRecord
  2
*Paper_Space
340
1E
  0
BLOCK_RECORD
  5
23
330
1
100
AcDbSymbolTableRecord
100
AcDbBlockTableRecord
  2
*Paper_Space0
340
26
  0
BLOCK_RECORD
  5
D8
330
1
100
AcDbSymbolTableRecord
100
AcDbBlockTableRecord
  2
*D1
340
0
  0
BLOCK_RECORD
  5
E4
330
1
100
AcDbSymbolTableRecord
100
AcDbBlockTableRecord
  2
*D2
340
0
  0
BLOCK_RECORD
  5
F1
330
1
100
AcDbSymbolTableRecord
100
AcDbBlockTableRecord
  2
*D3
340
0
  0
BLOCK_RECORD
  5
FC
330
1
100
AcDbSymbolTableRecord
100
AcDbBlockTableRecord
  2
*D4
340
0
  0
BLOCK_RECORD
  5
107
330
1
100
AcDbSymbolTableRecord
100
AcDbBlockTableRecord
  2
*D5
340
0
  0
BLOCK_RECORD
  5
112
330
1
100
AcDbSymbolTableRecord
100
AcDbBlockTableRecord
  2
*D6
340
0
  0
BLOCK_RECORD
  5
11F
330
1
100
AcDbSymbolTableRecord
100
AcDbBlockTableRecord
  2
*D7
340
0
  0
BLOCK_RECORD
  5
12A
330
1
100
AcDbSymbolTableRecord
100
AcDbBlockTableRecord
  2
*D8
340
0
  0
BLOCK_RECORD
  5
135
330
1
100
AcDbSymbolTableRecord
100
AcDbBlockTableRecord
  2
*D9
340
0
  0
BLOCK_RECORD
  5
141
330
1
100
AcDbSymbolTableRecord
100
AcDbBlockTableRecord
  2
*D10
340
0
  0
BLOCK_RECORD
  5
14C
330
1
100
AcDbSymbolTableRecord
100
AcDbBlockTableRecord
  2
*D11
340
0
  0
ENDTAB
  0
ENDSEC
  0
SECTION
  2
BLOCKS
  0
BLOCK
  5
20
330
1F
100
AcDbEntity
  8
0
100
AcDbBlockBegin
  2
*Model_Space
 70
     0
 71
     0
 10
0.0
 20
0.0
 30
0.0
  3
*Model_Space
  1

  0
ENDBLK
  5
21
330
1F
100
AcDbEntity
  8
0
100
AcDbBlockEnd
  0
BLOCK
  5
1C
330
1B
100
AcDbEntity
 67
     1
  8
0
100
AcDbBlockBegin
  2
*Paper_Space
 70
     0
 71
     0
 10
0.0
 20
0.0
 30
0.0
  3
*Paper_Space
  1

  0
ENDBLK
  5
1D
330
1B
100
AcDbEntity
 67
     1
  8
0
100
AcDbBlockEnd
  0
BLOCK
  5
24
330
23
100
AcDbEntity
  8
0
100
AcDbBlockBegin
  2
*Paper_Space0
 70
     0
 71
     0
 10
0.0
 20
0.0
 30
0.0
  3
*Paper_Space0
  1

  0
ENDBLK
  5
25
330
23
100
AcDbEntity
  8
0
100
AcDbBlockEnd
  0
BLOCK
  5
E0
330
D8
100
AcDbEntity
  8
0
100
AcDbBlockBegin
  2
*D1
 70
     1
 71
     0
 10
0.0
 20
0.0
 30
0.0
  3
*D1
  1

  0
LINE
  5
D9
330
D8
100
AcDbEntity
  8
1
  6
Continuous
 62
     2
100
AcDbLine
 10
125068.1759611956
 20
290921.9603521617
 30
0.0
 11
125048.1759611956
 21
290921.9603521617
 31
0.0
  0
LINE
  5
DA
330
D8
100
AcDbEntity
  8
1
  6
Continuous
 62
     2
100
AcDbLine
 10
125048.1759611956
 20
290908.364130561
 30
0.0
 11
125048.1759611956
 21
290923.9603521617
 31
0.0
  0
LINE
  5
DB
330
D8
100
AcDbEntity
  8
1
  6
Continuous
 62
     2
100
AcDbLine
 10
125068.1759611956
 20
290908.364130561
 30
0.0
 11
125068.1759611956
 21
290923.9603521617
 31
0.0
  0
SOLID
  5
DC
330
D8
100
AcDbEntity
  8
1
 62
     2
100
AcDbTrace
 10
125064.6759611956
 20
290921.4995684202
 30
0.0
 11
125064.6759611956
 21
290922.4211359033
 31
0.0
 12
125068.1759611956
 22
290921.9603521617
 32
0.0
 13
125068.1759611956
 23
290921.9603521617
 33
0.0
  0
SOLID
  5
DD
330
D8
100
AcDbEntity
  8
1
 62
     2
100
AcDbTrace
 10
125051.6759611956
 20
290922.4211359033
 30
0.0
 11
125051.6759611956
 21
290921.4995684202
 31
0.0
 12
125048.1759611956
 22
290921.9603521617
 32
0.0
 13
125048.1759611956
 23
290921.9603521617
 33
0.0
  0
MTEXT
  5
DF
330
D8
100
AcDbEntity
  8
1
 62
     2
100
AcDbMText
 10
125054.6759841298
 20
290923.9603521617
 30
0.0
 40
3.5
 41
0.0
 71
     7
 72
     1
  1
20
  7
CONVERTER_11
 11
0.9999999999970621
 21
2.424068405545307E-6
 31
0.0
 73
     1
 44
0.60024009603842
  0
ENDBLK
  5
E1
330
D8
100
AcDbEntity
  8
0
100
AcDbBlockEnd
  0
BLOCK
  5
ED
330
E4
100
AcDbEntity
  8
0
100
AcDbBlockBegin
  2
*D2
 70
     1
 71
     0
 10
0.0
 20
0.0
 30
0.0
  3
*D2
  1

  0
LINE
  5
E5
330
E4
100
AcDbEntity
  8
1
  6
Continuous
 62
     2
100
AcDbLine
 10
125028.1759611956
 20
290921.9603521617
 30
0.0
 11
125021.1759611956
 21
290921.9603521617
 31
0.0
  0
LINE
  5
E6
330
E4
100
AcDbEntity
  8
1
  6
Continuous
 62
     2
100
AcDbLine
 10
125032.1759611956
 20
290921.9603521617
 30
0.0
 11
125028.1759611956
 21
290921.9603521617
 31
0.0
  0
LINE
  5
E7
330
E4
100
AcDbEntity
  8
1
  6
Continuous
 62
     2
100
AcDbLine
 10
125039.1759611956
 20
290921.9603521617
 30
0.0
 11
125032.1759611956
 21
290921.9603521617
 31
0.0
  0
LINE
  5
E8
330
E4
100
AcDbEntity
  8
1
  6
Continuous
 62
     2
100
AcDbLine
 10
125028.1759611956
 20
290911.9603521617
 30
0.0
 11
125028.1759611956
 21
290923.9603521617
 31
0.0
  0
LINE
  5
E9
330
E4
100
AcDbEntity
  8
1
  6
Continuous
 62
     2
100
AcDbLine
 10
125032.1759611956
 20
290873.364130561
 30
0.0
 11
125032.1759611956
 21
290923.9603521617
 31
0.0
  0
SOLID
  5
EA
330
E4
100
AcDbEntity
  8
1
 62
     2
100
AcDbTrace
 10
125035.6759611956
 20
290922.4211359033
 30
0.0
 11
125035.6759611956
 21
290921.4995684202
 31
0.0
 12
125032.1759611956
 22
290921.9603521617
 32
0.0
 13
125032.1759611956
 23
290921.9603521617
 33
0.0
  0
SOLID
  5
EB
330
E4
100
AcDbEntity
  8
1
 62
     2
100
AcDbTrace
 10
125024.6759611956
 20
290921.4995684202
 30
0.0
 11
125024.6759611956
 21
290922.4211359033
 31
0.0
 12
125028.1759611956
 22
290921.9603521617
 32
0.0
 13
125028.1759611956
 23
290921.9603521617
 33
0.0
  0
MTEXT
  5
EC
330
E4
100
AcDbEntity
  8
1
 62
     2
100
AcDbMText
 10
125028.3403558605
 20
290923.9603521617
 30
0.0
 40
3.5
 41
0.0
 71
     7
 72
     1
  1
4
  7
CONVERTER_11
 11
0.9999999999970621
 21
2.424068405545307E-6
 31
0.0
 73
     1
 44
0.60024009603842
  0
ENDBLK
  5
EE
330
E4
100
AcDbEntity
  8
0
100
AcDbBlockEnd
  0
BLOCK
  5
F8
330
F1
100
AcDbEntity
  8
0
100
AcDbBlockBegin
  2
*D3
 70
     1
 71
     0
 10
0.0
 20
0.0
 30
0.0
  3
*D3
  1

  0
LINE
  5
F2
330
F1
100
AcDbEntity
  8
1
  6
Continuous
 62
     2
100
AcDbLine
 10
125048.1759611956
 20
290921.9603521617
 30
0.0
 11
125032.1759611956
 21
290921.9603521617
 31
0.0
  0
LINE
  5
F3
330
F1
100
AcDbEntity
  8
1
  6
Continuous
 62
     2
100
AcDbLine
 10
125032.1759611956
 20
290873.364130561
 30
0.0
 11
125032.1759611956
 21
290923.9603521617
 31
0.0
  0
LINE
  5
F4
330
F1
100
AcDbEntity
  8
1
  6
Continuous
 62
     2
100
AcDbLine
 10
125048.1759611956
 20
290908.364130561
 30
0.0
 11
125048.1759611956
 21
290923.9603521617
 31
0.0
  0
SOLID
  5
F5
330
F1
100
AcDbEntity
  8
1
 62
     2
100
AcDbTrace
 10
125044.6759611956
 20
290921.4995684202
 30
0.0
 11
125044.6759611956
 21
290922.4211359033
 31
0.0
 12
125048.1759611956
 22
290921.9603521617
 32
0.0
 13
125048.1759611956
 23
290921.9603521617
 33
0.0
  0
SOLID
  5
F6
330
F1
100
AcDbEntity
  8
1
 62
     2
100
AcDbTrace
 10
125035.6759611956
 20
290922.4211359033
 30
0.0
 11
125035.6759611956
 21
290921.4995684202
 31
0.0
 12
125032.1759611956
 22
290921.9603521617
 32
0.0
 13
125032.1759611956
 23
290921.9603521617
 33
0.0
  0
MTEXT
  5
F7
330
F1
100
AcDbEntity
  8
1
 62
     2
100
AcDbMText
 10
125036.8934493907
 20
290923.9603521617
 30
0.0
 40
3.5
 41
0.0
 71
     7
 72
     1
  1
16
  7
CONVERTER_11
 11
0.9999999999970621
 21
2.424068405545307E-6
 31
0.0
 73
     1
 44
0.60024009603842
  0
ENDBLK
  5
F9
330
F1
100
AcDbEntity
  8
0
100
AcDbBlockEnd
  0
BLOCK
  5
103
330
FC
100
AcDbEntity
  8
0
100
AcDbBlockBegin
  2
*D4
 70
     1
 71
     0
 10
0.0
 20
0.0
 30
0.0
  3
*D4
  1

  0
LINE
  5
FD
330
FC
100
AcDbEntity
  8
1
  6
Continuous
 62
     2
100
AcDbLine
 10
125109.1759611956
 20
290873.364130561
 30
0.0
 11
125109.1759611956
 21
290858.364130561
 31
0.0
  0
LINE
  5
FE
330
FC
100
AcDbEntity
  8
1
  6
Continuous
 62
     2
100
AcDbLine
 10
125066.1759611956
 20
290873.364130561
 30
0.0
 11
125111.1759611956
 21
290873.364130561
 31
0.0
  0
LINE
  5
FF
330
FC
100
AcDbEntity
  8
1
  6
Continuous
 62
     2
100
AcDbLine
 10
125070.5934611957
 20
290858.364130561
 30
0.0
 11
125111.1759611956
 21
290858.364130561
 31
0.0
  0
SOLID
  5
100
330
FC
100
AcDbEntity
  8
1
 62
     2
100
AcDbTrace
 10
125109.6367449371
 20
290869.864130561
 30
0.0
 11
125108.715177454
 21
290869.864130561
 31
0.0
 12
125109.1759611956
 22
290873.364130561
 32
0.0
 13
125109.1759611956
 23
290873.364130561
 33
0.0
  0
SOLID
  5
101
330
FC
100
AcDbEntity
  8
1
 62
     2
100
AcDbTrace
 10
125108.715177454
 20
290861.864130561
 30
0.0
 11
125109.6367449371
 21
290861.864130561
 31
0.0
 12
125109.1759611956
 22
290858.364130561
 32
0.0
 13
125109.1759611956
 23
290858.364130561
 33
0.0
  0
MTEXT
  5
102
330
FC
100
AcDbEntity
  8
1
 62
     2
100
AcDbMText
 10
125107.1759611956
 20
290863.5969386514
 30
0.0
 40
3.5
 41
0.0
 71
     7
 72
     1
  1
15
  7
CONVERTER_11
 11
0.0
 21
1.0
 31
0.0
 73
     1
 44
0.60024009603842
  0
ENDBLK
  5
104
330
FC
100
AcDbEntity
  8
0
100
AcDbBlockEnd
  0
BLOCK
  5
10E
330
107
100
AcDbEntity
  8
0
100
AcDbBlockBegin
  2
*D5
 70
     1
 71
     0
 10
0.0
 20
0.0
 30
0.0
  3
*D5
  1

  0
LINE
  5
108
330
107
100
AcDbEntity
  8
1
  6
Continuous
 62
     2
100
AcDbLine
 10
125119.1759611956
 20
290873.364130561
 30
0.0
 11
125119.1759611956
 21
290908.364130561
 31
0.0
  0
LINE
  5
109
330
107
100
AcDbEntity
  8
1
  6
Continuous
 62
     2
100
AcDbLine
 10
125066.1759611956
 20
290873.364130561
 30
0.0
 11
125121.1759611956
 21
290873.364130561
 31
0.0
  0
LINE
  5
10A
330
107
100
AcDbEntity
  8
1
  6
Continuous
 62
     2
100
AcDbLine
 10
125068.1759611956
 20
290908.364130561
 30
0.0
 11
125121.1759611956
 21
290908.364130561
 31
0.0
  0
SOLID
  5
10B
330
107
100
AcDbEntity
  8
1
 62
     2
100
AcDbTrace
 10
125118.715177454
 20
290876.864130561
 30
0.0
 11
125119.6367449371
 21
290876.864130561
 31
0.0
 12
125119.1759611956
 22
290873.364130561
 32
0.0
 13
125119.1759611956
 23
290873.364130561
 33
0.0
  0
SOLID
  5
10C
330
107
100
AcDbEntity
  8
1
 62
     2
100
AcDbTrace
 10
125119.6367449371
 20
290904.864130561
 30
0.0
 11
125118.715177454
 21
290904.864130561
 31
0.0
 12
125119.1759611956
 22
290908.364130561
 32
0.0
 13
125119.1759611956
 23
290908.364130561
 33
0.0
  0
MTEXT
  5
10D
330
107
100
AcDbEntity
  8
1
 62
     2
100
AcDbMText
 10
125117.1759611956
 20
290889.4706154908
 30
0.0
 40
3.5
 41
0.0
 71
     7
 72
     1
  1
35
  7
CONVERTER_11
 11
0.0
 21
1.0
 31
0.0
 73
     1
 44
0.60024009603842
  0
ENDBLK
  5
10F
330
107
100
AcDbEntity
  8
0
100
AcDbBlockEnd
  0
BLOCK
  5
11B
330
112
100
AcDbEntity
  8
0
100
AcDbBlockBegin
  2
*D6
 70
     1
 71
     0
 10
0.0
 20
0.0
 30
0.0
  3
*D6
  1

  0
LINE
  5
113
330
112
100
AcDbEntity
  8
1
  6
Continuous
 62
     2
100
AcDbLine
 10
124965.1759611956
 20
290866.864130561
 30
0.0
 11
124965.1759611956
 21
290859.864130561
 31
0.0
  0
LINE
  5
114
330
112
100
AcDbEntity
  8
1
  6
Continuous
 62
     2
100
AcDbLine
 10
124965.1759611956
 20
290867.364130561
 30
0.0
 11
124965.1759611956
 21
290866.864130561
 31
0.0
  0
LINE
  5
115
330
112
100
AcDbEntity
  8
1
  6
Continuous
 62
     2
100
AcDbLine
 10
124965.1759611956
 20
290877.751630561
 30
0.0
 11
124965.1759611956
 21
290867.364130561
 31
0.0
  0
LINE
  5
116
330
112
100
AcDbEntity
  8
1
  6
Continuous
 62
     2
100
AcDbLine
 10
125046.6755631956
 20
290866.864130561
 30
0.0
 11
124963.1759611956
 21
290866.864130561
 31
0.0
  0
LINE
  5
117
330
112
100
AcDbEntity
  8
1
  6
Continuous
 62
     2
100
AcDbLine
 10
125046.1759611956
 20
290867.364130561
 30
0.0
 11
124963.1759611956
 21
290867.364130561
 31
0.0
  0
SOLID
  5
118
330
112
100
AcDbEntity
  8
1
 62
     2
100
AcDbTrace
 10
124964.715177454
 20
290870.864130561
 30
0.0
 11
124965.6367449371
 21
290870.864130561
 31
0.0
 12
124965.1759611956
 22
290867.364130561
 32
0.0
 13
124965.1759611956
 23
290867.364130561
 33
0.0
  0
SOLID
  5
119
330
112
100
AcDbEntity
  8
1
 62
     2
100
AcDbTrace
 10
124965.6367449371
 20
290863.364130561
 30
0.0
 11
124964.715177454
 21
290863.364130561
 31
0.0
 12
124965.1759611956
 22
290866.864130561
 32
0.0
 13
124965.1759611956
 23
290866.864130561
 33
0.0
  0
MTEXT
  5
11A
330
112
100
AcDbEntity
  8
1
 62
     2
100
AcDbMText
 10
124963.1759611956
 20
290871.364130561
 30
0.0
 40
3.5
 41
0.0
 71
     7
 72
     1
  1
0.5
  7
CONVERTER_11
 11
0.0
 21
1.0
 31
0.0
 73
     1
 44
0.60024009603842
  0
ENDBLK
  5
11C
330
112
100
AcDbEntity
  8
0
100
AcDbBlockEnd
  0
BLOCK
  5
126
330
11F
100
AcDbEntity
  8
0
100
AcDbBlockBegin
  2
*D7
 70
     1
 71
     0
 10
0.0
 20
0.0
 30
0.0
  3
*D7
  1

  0
LINE
  5
120
330
11F
100
AcDbEntity
  8
1
  6
Continuous
 62
     2
100
AcDbLine
 10
125046.1759611957
 20
290839.364130561
 30
0.0
 11
125028.1759611957
 21
290839.364130561
 31
0.0
  0
LINE
  5
121
330
11F
100
AcDbEntity
  8
1
  6
Continuous
 62
     2
100
AcDbLine
 10
125028.1759611957
 20
290871.8641305609
 30
0.0
 11
125028.1759611957
 21
290837.364130561
 31
0.0
  0
LINE
  5
122
330
11F
100
AcDbEntity
  8
1
  6
Continuous
 62
     2
100
AcDbLine
 10
125046.1759611957
 20
290851.3641305609
 30
0.0
 11
125046.1759611957
 21
290837.364130561
 31
0.0
  0
SOLID
  5
123
330
11F
100
AcDbEntity
  8
1
 62
     2
100
AcDbTrace
 10
125042.6759611957
 20
290838.9033468195
 30
0.0
 11
125042.6759611957
 21
290839.8249143026
 31
0.0
 12
125046.1759611957
 22
290839.364130561
 32
0.0
 13
125046.1759611957
 23
290839.364130561
 33
0.0
  0
SOLID
  5
124
330
11F
100
AcDbEntity
  8
1
 62
     2
100
AcDbTrace
 10
125031.6759611957
 20
290839.8249143026
 30
0.0
 11
125031.6759611957
 21
290838.9033468195
 31
0.0
 12
125028.1759611957
 22
290839.364130561
 32
0.0
 13
125028.1759611957
 23
290839.364130561
 33
0.0
  0
MTEXT
  5
125
330
11F
100
AcDbEntity
  8
1
 62
     2
100
AcDbMText
 10
125035.2412878719
 20
290841.364130561
 30
0.0
 40
3.5
 41
0.0
 71
     7
 72
     1
  1
18
  7
CONVERTER_11
 11
0.9999999999970621
 21
2.424068405545307E-6
 31
0.0
 73
     1
 44
0.60024009603842
  0
ENDBLK
  5
127
330
11F
100
AcDbEntity
  8
0
100
AcDbBlockEnd
  0
BLOCK
  5
131
330
12A
100
AcDbEntity
  8
0
100
AcDbBlockBegin
  2
*D8
 70
     1
 71
     0
 10
0.0
 20
0.0
 30
0.0
  3
*D8
  1

  0
LINE
  5
12B
330
12A
100
AcDbEntity
  8
1
  6
Continuous
 62
     2
100
AcDbLine
 10
125109.1759611956
 20
290873.364130561
 30
0.0
 11
125109.1759611956
 21
290889.364130561
 31
0.0
  0
LINE
  5
12C
330
12A
100
AcDbEntity
  8
1
  6
Continuous
 62
     2
100
AcDbLine
 10
125087.1759611956
 20
290873.364130561
 30
0.0
 11
125111.1759611956
 21
290873.364130561
 31
0.0
  0
LINE
  5
12D
330
12A
100
AcDbEntity
  8
1
  6
Continuous
 62
     2
100
AcDbLine
 10
125048.7759611956
 20
290889.364130561
 30
0.0
 11
125111.1759611956
 21
290889.364130561
 31
0.0
  0
SOLID
  5
12E
330
12A
100
AcDbEntity
  8
1
 62
     2
100
AcDbTrace
 10
125108.715177454
 20
290876.864130561
 30
0.0
 11
125109.6367449371
 21
290876.864130561
 31
0.0
 12
125109.1759611956
 22
290873.364130561
 32
0.0
 13
125109.1759611956
 23
290873.364130561
 33
0.0
  0
SOLID
  5
12F
330
12A
100
AcDbEntity
  8
1
 62
     2
100
AcDbTrace
 10
125109.6367449371
 20
290885.864130561
 30
0.0
 11
125108.715177454
 21
290885.864130561
 31
0.0
 12
125109.1759611956
 22
290889.364130561
 32
0.0
 13
125109.1759611956
 23
290889.364130561
 33
0.0
  0
MTEXT
  5
130
330
12A
100
AcDbEntity
  8
1
 62
     2
100
AcDbMText
 10
125107.1759611956
 20
290879.4460466546
 30
0.0
 40
3.5
 41
0.0
 71
     7
 72
     1
  1
16
  7
CONVERTER_11
 11
0.0
 21
1.0
 31
0.0
 73
     1
 44
0.60024009603842
  0
ENDBLK
  5
132
330
12A
100
AcDbEntity
  8
0
100
AcDbBlockEnd
  0
BLOCK
  5
13D
330
135
100
AcDbEntity
  8
0
100
AcDbBlockBegin
  2
*D9
 70
     1
 71
     0
 10
0.0
 20
0.0
 30
0.0
  3
*D9
  1

  0
LINE
  5
136
330
135
100
AcDbEntity
  8
1
  6
Continuous
 62
     2
100
AcDbLine
 10
124955.1759611956
 20
290894.364130561
 30
0.0
 11
124955.1759611956
 21
290863.364130561
 31
0.0
  0
LINE
  5
137
330
135
100
AcDbEntity
  8
1
  6
Continuous
 62
     2
100
AcDbLine
 10
125016.6759611956
 20
290894.364130561
 30
0.0
 11
124953.1759611956
 21
290894.364130561
 31
0.0
  0
LINE
  5
138
330
135
100
AcDbEntity
  8
1
  6
Continuous
 62
     2
100
AcDbLine
 10
124962.870025564
 20
290863.364130561
 30
0.0
 11
124953.1759611956
 21
290863.364130561
 31
0.0
  0
LINE
  5
139
330
135
100
AcDbEntity
  8
1
  6
Continuous
 62
     2
100
AcDbLine
 10
125016.6759611956
 20
290863.364130561
 30
0.0
 11
124967.643287933
 21
290863.364130561
 31
0.0
  0
SOLID
  5
13A
330
135
100
AcDbEntity
  8
1
 62
     2
100
AcDbTrace
 10
124955.6367449371
 20
290890.864130561
 30
0.0
 11
124954.715177454
 21
290890.864130561
 31
0.0
 12
124955.1759611956
 22
290894.364130561
 32
0.0
 13
124955.1759611956
 23
290894.364130561
 33
0.0
  0
SOLID
  5
13B
330
135
100
AcDbEntity
  8
1
 62
     2
100
AcDbTrace
 10
124954.715177454
 20
290866.864130561
 30
0.0
 11
124955.6367449371
 21
290866.864130561
 31
0.0
 12
124955.1759611956
 22
290863.364130561
 32
0.0
 13
124955.1759611956
 23
290863.364130561
 33
0.0
  0
MTEXT
  5
13C
330
135
100
AcDbEntity
  8
1
 62
     2
100
AcDbMText
 10
124953.1759611956
 20
290876.573389495
 30
0.0
 40
3.5
 41
0.0
 71
     7
 72
     1
  1
31
  7
CONVERTER_11
 11
0.0
 21
1.0
 31
0.0
 73
     1
 44
0.60024009603842
  0
ENDBLK
  5
13E
330
135
100
AcDbEntity
  8
0
100
AcDbBlockEnd
  0
BLOCK
  5
148
330
141
100
AcDbEntity
  8
0
100
AcDbBlockBegin
  2
*D10
 70
     1
 71
     0
 10
0.0
 20
0.0
 30
0.0
  3
*D10
  1

  0
LINE
  5
142
330
141
100
AcDbEntity
  8
1
  6
Continuous
 62
     2
100
AcDbLine
 10
125028.1759611956
 20
290839.364130561
 30
0.0
 11
125016.6759611956
 21
290839.364130561
 31
0.0
  0
LINE
  5
143
330
141
100
AcDbEntity
  8
1
  6
Continuous
 62
     2
100
AcDbLine
 10
125016.6759611956
 20
290863.3641305609
 30
0.0
 11
125016.6759611956
 21
290837.364130561
 31
0.0
  0
LINE
  5
144
330
141
100
AcDbEntity
  8
1
  6
Continuous
 62
     2
100
AcDbLine
 10
125028.1759611956
 20
290871.8641305609
 30
0.0
 11
125028.1759611956
 21
290837.364130561
 31
0.0
  0
SOLID
  5
145
330
141
100
AcDbEntity
  8
1
 62
     2
100
AcDbTrace
 10
125024.6759611956
 20
290838.9033468195
 30
0.0
 11
125024.6759611956
 21
290839.8249143026
 31
0.0
 12
125028.1759611956
 22
290839.364130561
 32
0.0
 13
125028.1759611956
 23
290839.364130561
 33
0.0
  0
SOLID
  5
146
330
141
100
AcDbEntity
  8
1
 62
     2
100
AcDbTrace
 10
125020.1759611956
 20
290839.8249143026
 30
0.0
 11
125020.1759611956
 21
290838.9033468195
 31
0.0
 12
125016.6759611956
 22
290839.364130561
 32
0.0
 13
125016.6759611956
 23
290839.364130561
 33
0.0
  0
MTEXT
  5
147
330
141
100
AcDbEntity
  8
1
 62
     2
100
AcDbMText
 10
125018.8106361998
 20
290841.364130561
 30
0.0
 40
3.5
 41
0.0
 71
     7
 72
     1
  1
11.5
  7
CONVERTER_11
 11
0.9999999999970621
 21
2.424068405545307E-6
 31
0.0
 73
     1
 44
0.60024009603842
  0
ENDBLK
  5
149
330
141
100
AcDbEntity
  8
0
100
AcDbBlockEnd
  0
BLOCK
  5
155
330
14C
100
AcDbEntity
  8
0
100
AcDbBlockBegin
  2
*D11
 70
     1
 71
     0
 10
0.0
 20
0.0
 30
0.0
  3
*D11
  1

  0
LINE
  5
14D
330
14C
100
AcDbEntity
  8
1
  6
Continuous
 62
     2
100
AcDbLine
 10
125099.1759611956
 20
290867.364130561
 30
0.0
 11
125099.1759611956
 21
290860.364130561
 31
0.0
  0
LINE
  5
14E
330
14C
100
AcDbEntity
  8
1
  6
Continuous
 62
     2
100
AcDbLine
 10
125099.1759611956
 20
290873.364130561
 30
0.0
 11
125099.1759611956
 21
290867.364130561
 31
0.0
  0
LINE
  5
14F
330
14C
100
AcDbEntity
  8
1
  6
Continuous
 62
     2
100
AcDbLine
 10
125099.1759611956
 20
290880.364130561
 30
0.0
 11
125099.1759611956
 21
290873.364130561
 31
0.0
  0
LINE
  5
150
330
14C
100
AcDbEntity
  8
1
  6
Continuous
 62
     2
100
AcDbLine
 10
125045.6799532151
 20
290867.364130561
 30
0.0
 11
125101.1759611956
 21
290867.364130561
 31
0.0
  0
LINE
  5
151
330
14C
100
AcDbEntity
  8
1
  6
Continuous
 62
     2
100
AcDbLine
 10
125044.1759611956
 20
290873.364130561
 30
0.0
 11
125101.1759611956
 21
290873.364130561
 31
0.0
  0
SOLID
  5
152
330
14C
100
AcDbEntity
  8
1
 62
     2
100
AcDbTrace
 10
125098.715177454
 20
290876.864130561
 30
0.0
 11
125099.6367449371
 21
290876.864130561
 31
0.0
 12
125099.1759611956
 22
290873.364130561
 32
0.0
 13
125099.1759611956
 23
290873.364130561
 33
0.0
  0
SOLID
  5
153
330
14C
100
AcDbEntity
  8
1
 62
     2
100
AcDbTrace
 10
125099.6367449371
 20
290863.864130561
 30
0.0
 11
125098.715177454
 21
290863.864130561
 31
0.0
 12
125099.1759611956
 22
290867.364130561
 32
0.0
 13
125099.1759611956
 23
290867.364130561
 33
0.0
  0
MTEXT
  5
154
330
14C
100
AcDbEntity
  8
1
 62
     2
100
AcDbMText
 10
125097.1759611956
 20
290868.757498453
 30
0.0
 40
3.5
 41
0.0
 71
     7
 72
     1
  1
6
  7
CONVERTER_11
 11
0.0
 21
1.0
 31
0.0
 73
     1
 44
0.60024009603842
  0
ENDBLK
  5
156
330
14C
100
AcDbEntity
  8
0
100
AcDbBlockEnd
  0
ENDSEC
  0
SECTION
  2
ENTITIES
  0
POINT
  5
35
330
1F
100
AcDbEntity
  8
A_BEMASSUNGEN
 62
     3
100
AcDbPoint
 10
125032.1759611956
 20
290914.364130561
 30
0.0
  0
POINT
  5
36
330
1F
100
AcDbEntity
  8
A_BEMASSUNGEN
 62
     3
100
AcDbPoint
 10
125087.1759611956
 20
290873.364130561
 30
0.0
  0
POINT
  5
37
330
1F
100
AcDbEntity
  8
A_BEMASSUNGEN
 62
     3
100
AcDbPoint
 10
125069.1759611956
 20
290873.364130561
 30
0.0
  0
POINT
  5
38
330
1F
100
AcDbEntity
  8
A_BEMASSUNGEN
 62
     7
100
AcDbPoint
 10
125020.1759611956
 20
290894.364130561
 30
0.0
  0
POINT
  5
39
330
1F
100
AcDbEntity
  8
A_BEMASSUNGEN
 62
     7
100
AcDbPoint
 10
125016.6759611956
 20
290894.364130561
 30
0.0
  0
POINT
  5
3A
330
1F
100
AcDbEntity
  8
A_BEMASSUNGEN
 62
     7
100
AcDbPoint
 10
125047.6759611956
 20
290872.364130561
 30
0.0
  0
POINT
  5
3B
330
1F
100
AcDbEntity
  8
A_BEMASSUNGEN
 62
     3
100
AcDbPoint
 10
125068.6759611956
 20
290872.364130561
 30
0.0
  0
LINE
  5
3C
330
1F
100
AcDbEntity
  8
1
  6
DOT_CENTER
 62
     2
100
AcDbLine
 10
125058.1759611956
 20
290909.364130561
 30
0.0
 11
125058.1759611956
 21
290873.364130561
 31
0.0
  0
LINE
  5
3D
330
1F
100
AcDbEntity
  8
1
  6
DOT_CENTER
 62
     2
100
AcDbLine
 10
125031.362145723
 20
290911.9603521617
 30
0.0
 11
125092.362145723
 21
290911.9603521617
 31
0.0
  0
LINE
  5
3E
330
1F
100
AcDbEntity
  8
0
  6
DOT_CENTER
 62
     2
100
AcDbLine
 10
124971.1759611956
 20
290911.9603521617
 30
0.0
 11
125030.1759611956
 21
290911.9603521617
 31
0.0
  0
LINE
  5
3F
330
1F
100
AcDbEntity
  8
1
  6
DOT_CENTER
 62
     2
100
AcDbLine
 10
124975.1759611956
 20
290849.364130561
 30
0.0
 11
124975.1759611956
 21
290844.364130561
 31
0.0
  0
LINE
  5
40
330
1F
100
AcDbEntity
  8
1
  6
DOT_CENTER
 62
     2
100
AcDbLine
 10
124975.1759611956
 20
290912.364130561
 30
0.0
 11
124975.1759611956
 21
290916.364130561
 31
0.0
  0
LINE
  5
41
330
1F
100
AcDbEntity
  8
0
  6
Continuous
 62
     7
100
AcDbLine
 10
125032.1759611956
 20
290911.9603521617
 30
0.0
 11
125032.1759611956
 21
290873.364130561
 31
0.0
  0
LINE
  5
42
330
1F
100
AcDbEntity
  8
0
  6
Continuous
 62
     7
100
AcDbLine
 10
125016.6759611956
 20
290863.364130561
 30
0.0
 11
125020.6759611955
 21
290863.3641305609
 31
0.0
  0
LINE
  5
43
330
1F
100
AcDbEntity
  8
0
  6
Continuous
 62
     7
100
AcDbLine
 10
125022.1759611956
 20
290867.364130561
 30
0.0
 11
125022.1759611956
 21
290871.864130561
 31
0.0
  0
LINE
  5
44
330
1F
100
AcDbEntity
  8
1
  6
DOT_CENTER
 62
     2
100
AcDbLine
 10
125031.1759611956
 20
290889.364130561
 30
0.0
 11
125048.7759611956
 21
290889.364130561
 31
0.0
  0
LINE
  5
45
330
1F
100
AcDbEntity
  8
0
  6
Continuous
 62
     7
100
AcDbLine
 10
125089.1759611956
 20
290875.364130561
 30
0.0
 11
125089.1759611956
 21
290911.9603521617
 31
0.0
  0
LINE
  5
46
330
1F
100
AcDbEntity
  8
0
  6
Continuous
 62
     7
100
AcDbLine
 10
125048.1759611956
 20
290892.364130561
 30
0.0
 11
125032.1759611956
 21
290892.364130561
 31
0.0
  0
LINE
  5
47
330
1F
100
AcDbEntity
  8
0
  6
Continuous
 62
     7
100
AcDbLine
 10
125032.1759611956
 20
290886.364130561
 30
0.0
 11
125048.1759611956
 21
290886.364130561
 31
0.0
  0
LINE
  5
48
330
1F
100
AcDbEntity
  8
1
  6
Continuous
 62
     7
100
AcDbLine
 10
125087.1759611956
 20
290873.364130561
 30
0.0
 11
125069.1759611956
 21
290873.364130561
 31
0.0
  0
LINE
  5
49
330
1F
100
AcDbEntity
  8
0
  6
Continuous
 62
     7
100
AcDbLine
 10
125024.5707714516
 20
290867.364130561
 30
0.0
 11
125045.6799532151
 21
290867.364130561
 31
0.0
  0
LINE
  5
4A
330
1F
100
AcDbEntity
  8
1
  6
Continuous
 62
     3
100
AcDbLine
 10
125024.5707714516
 20
290867.364130561
 30
0.0
 11
125022.5707714516
 21
290867.364130561
 31
0.0
  0
LINE
  5
4B
330
1F
100
AcDbEntity
  8
0
  6
Continuous
 62
     7
100
AcDbLine
 10
125046.1759611956
 20
290851.364130561
 30
0.0
 11
125046.1759611956
 21
290863.3641305609
 31
0.0
  0
LINE
  5
4C
330
1F
100
AcDbEntity
  8
0
  6
DASHED
 62
     2
100
AcDbLine
 10
125046.1759611956
 20
290863.3641305609
 30
0.0
 11
125046.1759611956
 21
290866.864130561
 31
0.0
  0
LINE
  5
4D
330
1F
100
AcDbEntity
  8
0
  6
Continuous
 62
     7
100
AcDbLine
 10
125028.1759611956
 20
290894.364130561
 30
0.0
 11
125028.1759611956
 21
290911.9603521617
 31
0.0
  0
LINE
  5
4E
330
1F
100
AcDbEntity
  8
0
  6
Continuous
 62
     7
100
AcDbLine
 10
124975.1759611956
 20
290849.364130561
 30
0.0
 11
125044.1759611956
 21
290849.364130561
 31
0.0
  0
LINE
  5
4F
330
1F
100
AcDbEntity
  8
0
  6
DOT_CENTER
 62
     2
100
AcDbLine
 10
124975.1759611956
 20
290912.364130561
 30
0.0
 11
124975.1759611956
 21
290849.364130561
 31
0.0
  0
LINE
  5
50
330
1F
100
AcDbEntity
  8
1
  6
Continuous
 62
     7
100
AcDbLine
 10
125045.6493144096
 20
290873.364130561
 30
0.0
 11
125044.1759611956
 21
290873.364130561
 31
0.0
  0
LINE
  5
51
330
1F
100
AcDbEntity
  8
0
  6
Continuous
 62
     2
100
AcDbLine
 10
125022.5707714516
 20
290867.364130561
 30
0.0
 11
125024.5707714516
 21
290867.364130561
 31
0.0
  0
LINE
  5
52
330
1F
100
AcDbEntity
  8
0
  6
Continuous
 62
     7
100
AcDbLine
 10
125043.7193065596
 20
290871.0429721623
 30
0.0
 11
125045.9493144095
 21
290872.364130561
 31
0.0
  0
LINE
  5
53
330
1F
100
AcDbEntity
  8
0
  6
Continuous
 62
     7
100
AcDbLine
 10
125046.034049754
 20
290868.4960993559
 30
0.0
 11
125043.7226371754
 21
290869.7871548496
 31
0.0
  0
LINE
  5
54
330
1F
100
AcDbEntity
  8
0
  6
Continuous
 62
     7
100
AcDbLine
 10
125028.1759611956
 20
290875.364130561
 30
0.0
 11
125028.1759611956
 21
290872.2848506936
 31
0.0
  0
LINE
  5
55
330
1F
100
AcDbEntity
  8
0
  6
Continuous
 62
     7
100
AcDbLine
 10
125029.1759611956
 20
290872.364130561
 30
0.0
 11
125029.1759611956
 21
290875.364130561
 31
0.0
  0
LINE
  5
56
330
1F
100
AcDbEntity
  8
1
  6
Continuous
 62
     7
100
AcDbLine
 10
125028.1759611956
 20
290875.364130561
 30
0.0
 11
125028.1759611956
 21
290872.2848506936
 31
0.0
  0
LINE
  5
57
330
1F
100
AcDbEntity
  8
0
  6
Continuous
 62
     7
100
AcDbLine
 10
125025.0190340909
 20
290871.8685739858
 30
0.0
 11
125022.1273144095
 21
290868.0950977705
 31
0.0
  0
LINE
  5
58
330
1F
100
AcDbEntity
  8
0
  6
Continuous
 62
     7
100
AcDbLine
 10
125027.5202948342
 20
290871.864130561
 30
0.0
 11
125025.1001293325
 21
290868.5806305267
 31
0.0
  0
LINE
  5
59
330
1F
100
AcDbEntity
  8
0
  6
Continuous
 62
     7
100
AcDbLine
 10
125023.4314783017
 20
290868.7258315007
 30
0.0
 11
125025.3046203497
 21
290871.7915300742
 31
0.0
  0
LINE
  5
5A
330
1F
100
AcDbEntity
  8
0
  6
Continuous
 62
     7
100
AcDbLine
 10
125026.3067491549
 20
290868.7114008768
 30
0.0
 11
125027.9169849231
 21
290871.7987453861
 31
0.0
  0
LINE
  5
5B
330
1F
100
AcDbEntity
  8
0
  6
Continuous
 62
     7
100
AcDbLine
 10
125025.2094980678
 20
290871.922380544
 30
0.0
 11
125025.1077254993
 21
290871.922380544
 31
0.0
  0
LINE
  5
5C
330
1F
100
AcDbEntity
  8
0
  6
Continuous
 62
     7
100
AcDbLine
 10
125027.8198181628
 20
290871.922380544
 30
0.0
 11
125027.6111625186
 21
290871.922380544
 31
0.0
  0
LINE
  5
5D
330
1F
100
AcDbEntity
  8
0
  6
Continuous
 62
     7
100
AcDbLine
 10
125024.9183939638
 20
290868.4641305611
 30
0.0
 11
125023.6217228655
 21
290868.4641305611
 31
0.0
  0
LINE
  5
5E
330
1F
100
AcDbEntity
  8
0
  6
Continuous
 62
     7
100
AcDbLine
 10
125027.6759611956
 20
290868.4641305611
 30
0.0
 11
125026.5010826755
 21
290868.4641305611
 31
0.0
  0
LINE
  5
5F
330
1F
100
AcDbEntity
  8
1
  6
Continuous
 62
     7
100
AcDbLine
 10
125028.1759611956
 20
290872.2848506936
 30
0.0
 11
125028.1759611956
 21
290871.864130561
 31
0.0
  0
LINE
  5
60
330
1F
100
AcDbEntity
  8
0
  6
Continuous
 62
     7
100
AcDbLine
 10
125029.1759611956
 20
290870.6146678663
 30
0.0
 11
125029.1759611956
 21
290868.9641305611
 31
0.0
  0
LINE
  5
61
330
1F
100
AcDbEntity
  8
0
  6
Continuous
 62
     7
100
AcDbLine
 10
125030.8838953127
 20
290873.6404606975
 30
0.0
 11
125029.1759611956
 21
290872.364130561
 31
0.0
  0
LINE
  5
62
330
1F
100
AcDbEntity
  8
0
  6
Continuous
 62
     7
100
AcDbLine
 10
125043.1160134861
 20
290871.7600561637
 30
0.0
 11
125043.6349974731
 21
290872.0872417207
 31
0.0
  0
LINE
  5
63
330
1F
100
AcDbEntity
  8
0
  6
Continuous
 62
     7
100
AcDbLine
 10
125031.183201409
 20
290872.615751857
 30
0.0
 11
125029.5773490029
 21
290871.4157068434
 31
0.0
  0
LINE
  5
64
330
1F
100
AcDbEntity
  8
0
  6
Continuous
 62
     7
100
AcDbLine
 10
125038.8462633215
 20
290870.7365341528
 30
0.0
 11
125038.8462633215
 21
290868.4641305611
 31
0.0
  0
LINE
  5
65
330
1F
100
AcDbEntity
  8
0
  6
Continuous
 62
     7
100
AcDbLine
 10
125036.3668459243
 20
290870.6962517041
 30
0.0
 11
125036.3668459243
 21
290868.4641305611
 31
0.0
  0
LINE
  5
66
330
1F
100
AcDbEntity
  8
0
  6
Continuous
 62
     7
100
AcDbLine
 10
125035.3668459243
 20
290868.4641305611
 30
0.0
 11
125035.3668459243
 21
290870.7365341528
 31
0.0
  0
LINE
  5
67
330
1F
100
AcDbEntity
  8
0
  6
Continuous
 62
     7
100
AcDbLine
 10
125043.6621555902
 20
290868.7430590334
 30
0.0
 11
125043.1382175917
 21
290869.0546074126
 31
0.0
  0
LINE
  5
68
330
1F
100
AcDbEntity
  8
0
  6
Continuous
 62
     7
100
AcDbLine
 10
125031.5860397693
 20
290873.563091584
 30
0.0
 11
125031.4825075054
 21
290873.6404606975
 31
0.0
  0
LINE
  5
69
330
1F
100
AcDbEntity
  8
0
  6
Continuous
 62
     7
100
AcDbLine
 10
125031.2536692874
 20
290872.563091584
 30
0.0
 11
125031.183201409
 21
290872.615751857
 31
0.0
  0
LINE
  5
6A
330
1F
100
AcDbEntity
  8
0
  6
Continuous
 62
     7
100
AcDbLine
 10
125037.0959548585
 20
290872.364130561
 30
0.0
 11
125031.8522814802
 21
290872.364130561
 31
0.0
  0
LINE
  5
6B
330
1F
100
AcDbEntity
  8
0
  6
Continuous
 62
     7
100
AcDbLine
 10
125043.5550023346
 20
290872.364130561
 30
0.0
 11
125037.1171543874
 21
290872.364130561
 31
0.0
  0
LINE
  5
6C
330
1F
100
AcDbEntity
  8
0
  6
Continuous
 62
     7
100
AcDbLine
 10
125038.8462633215
 20
290868.4641305611
 30
0.0
 11
125043.5854910676
 21
290868.4641305611
 31
0.0
  0
LINE
  5
6D
330
1F
100
AcDbEntity
  8
0
  6
Continuous
 62
     7
100
AcDbLine
 10
125029.6759611956
 20
290868.4641305611
 30
0.0
 11
125035.3668459243
 21
290868.4641305611
 31
0.0
  0
LINE
  5
6E
330
1F
100
AcDbEntity
  8
0
  6
Continuous
 62
     7
100
AcDbLine
 10
125036.3668459243
 20
290868.4641305611
 30
0.0
 11
125037.8462633215
 21
290868.4641305611
 31
0.0
  0
LINE
  5
6F
330
1F
100
AcDbEntity
  8
0
  6
Continuous
 62
     7
100
AcDbLine
 10
125037.8462633215
 20
290868.4641305611
 30
0.0
 11
125037.8462633215
 21
290870.5449385197
 31
0.0
  0
LINE
  5
70
330
1F
100
AcDbEntity
  8
0
  6
Continuous
 62
     7
100
AcDbLine
 10
125020.1759611956
 20
290876.364130561
 30
0.0
 11
125020.1759611956
 21
290871.864130561
 31
0.0
  0
LINE
  5
71
330
1F
100
AcDbEntity
  8
0
  6
Continuous
 62
     7
100
AcDbLine
 10
125028.1759611956
 20
290894.364130561
 30
0.0
 11
125016.6759611956
 21
290894.364130561
 31
0.0
  0
LINE
  5
72
330
1F
100
AcDbEntity
  8
A_RUNDUNGEN
  6
Continuous
 62
     7
100
AcDbLine
 10
125046.6755631956
 20
290866.864130561
 30
0.0
 11
125046.6755631956
 21
290863.3641305609
 31
0.0
  0
LINE
  5
73
330
1F
100
AcDbEntity
  8
0
  6
Continuous
 62
     7
100
AcDbLine
 10
125047.1759611956
 20
290873.364130561
 30
0.0
 11
125055.1759611956
 21
290873.364130561
 31
0.0
  0
LINE
  5
74
330
1F
100
AcDbEntity
  8
1
  6
Continuous
 62
     7
100
AcDbLine
 10
125034.6755631956
 20
290863.3641305609
 30
0.0
 11
125046.1759611956
 21
290863.364130561
 31
0.0
  0
LINE
  5
75
330
1F
100
AcDbEntity
  8
0
  6
Continuous
 62
     7
100
AcDbLine
 10
125065.1759611956
 20
290873.364130561
 30
0.0
 11
125066.1759611956
 21
290873.364130561
 31
0.0
  0
LINE
  5
76
330
1F
100
AcDbEntity
  8
0
  6
Continuous
 62
     7
100
AcDbLine
 10
125069.1759611956
 20
290873.364130561
 30
0.0
 11
125069.1759611956
 21
290872.864130561
 31
0.0
  0
LINE
  5
77
330
1F
100
AcDbEntity
  8
1
  6
Continuous
 62
     7
100
AcDbLine
 10
125034.6755631956
 20
290863.3641305609
 30
0.0
 11
125020.6759611956
 21
290863.3641305609
 31
0.0
  0
LINE
  5
78
330
1F
100
AcDbEntity
  8
0
  6
Continuous
 62
     7
100
AcDbLine
 10
125020.6759611956
 20
290866.864130561
 30
0.0
 11
125046.6755631956
 21
290866.864130561
 31
0.0
  0
LINE
  5
79
330
1F
100
AcDbEntity
  8
A_ACHSEN
  6
DOT_CENTER
 62
     2
100
AcDbLine
 10
125022.1759611956
 20
290876.364130561
 30
0.0
 11
125020.1759611956
 21
290876.364130561
 31
0.0
  0
LINE
  5
7A
330
1F
100
AcDbEntity
  8
A_ACHSEN
  6
DOT_CENTER
 62
     2
100
AcDbLine
 10
125001.6759611956
 20
290886.364130561
 30
0.0
 11
125029.183518911
 21
290886.364130561
 31
0.0
  0
LINE
  5
7B
330
1F
100
AcDbEntity
  8
0
  6
Continuous
 62
     7
100
AcDbLine
 10
125028.1759611956
 20
290894.364130561
 30
0.0
 11
125028.1759611956
 21
290875.364130561
 31
0.0
  0
LINE
  5
7C
330
1F
100
AcDbEntity
  8
0
  6
Continuous
 62
     7
100
AcDbLine
 10
125026.1759611956
 20
290894.364130561
 30
0.0
 11
125026.1759611956
 21
290871.864130561
 31
0.0
  0
LINE
  5
7D
330
1F
100
AcDbEntity
  8
0
  6
Continuous
 62
     7
100
AcDbLine
 10
125020.1759611956
 20
290871.864130561
 30
0.0
 11
125028.1759611956
 21
290871.864130561
 31
0.0
  0
LINE
  5
7E
330
1F
100
AcDbEntity
  8
A_ACHSEN
  6
DOT_CENTER
 62
     2
100
AcDbLine
 10
125020.1759611956
 20
290876.364130561
 30
0.0
 11
125001.6759611956
 21
290876.364130561
 31
0.0
  0
LINE
  5
7F
330
1F
100
AcDbEntity
  8
0
  6
Continuous
 62
     7
100
AcDbLine
 10
125020.1759611956
 20
290894.364130561
 30
0.0
 11
125020.1759611956
 21
290876.364130561
 31
0.0
  0
LINE
  5
80
330
1F
100
AcDbEntity
  8
0
  6
Continuous
 62
     7
100
AcDbLine
 10
125020.1759611956
 20
290871.864130561
 30
0.0
 11
125020.1759611956
 21
290867.364130561
 31
0.0
  0
LINE
  5
81
330
1F
100
AcDbEntity
  8
1
  6
Continuous
 62
     7
100
AcDbLine
 10
125016.6759611956
 20
290867.364130561
 30
0.0
 11
125016.6759611956
 21
290894.364130561
 31
0.0
  0
LINE
  5
82
330
1F
100
AcDbEntity
  8
A_ACHSEN
  6
Continuous
 62
     7
100
AcDbLine
 10
125048.1759611956
 20
290897.364130561
 30
0.0
 11
125048.1759611956
 21
290908.364130561
 31
0.0
  0
LINE
  5
83
330
1F
100
AcDbEntity
  8
A_RUNDUNGEN
  6
Continuous
 62
     7
100
AcDbLine
 10
125068.1759611956
 20
290908.364130561
 30
0.0
 11
125048.1759611956
 21
290908.364130561
 31
0.0
  0
LINE
  5
84
330
1F
100
AcDbEntity
  8
0
  6
Continuous
 62
     7
100
AcDbLine
 10
125048.1759611956
 20
290897.364130561
 30
0.0
 11
125048.1759611956
 21
290873.364130561
 31
0.0
  0
LINE
  5
85
330
1F
100
AcDbEntity
  8
0
  6
Continuous
 62
     7
100
AcDbLine
 10
125061.6759611956
 20
290873.364130561
 30
0.0
 11
125065.1759611956
 21
290873.364130561
 31
0.0
  0
LINE
  5
86
330
1F
100
AcDbEntity
  8
0
  6
Continuous
 62
     7
100
AcDbLine
 10
125058.1759611956
 20
290873.364130561
 30
0.0
 11
125061.6759611956
 21
290873.364130561
 31
0.0
  0
LINE
  5
87
330
1F
100
AcDbEntity
  8
0
  6
Continuous
 62
     7
100
AcDbLine
 10
125055.1759611956
 20
290873.364130561
 30
0.0
 11
125058.1759611956
 21
290873.364130561
 31
0.0
  0
LINE
  5
88
330
1F
100
AcDbEntity
  8
0
  6
Continuous
 62
     7
100
AcDbLine
 10
125047.1759611956
 20
290872.864130561
 30
0.0
 11
125047.1759611956
 21
290873.364130561
 31
0.0
  0
LINE
  5
89
330
1F
100
AcDbEntity
  8
0
  6
Continuous
 62
     7
100
AcDbLine
 10
125061.6759611956
 20
290872.364130561
 30
0.0
 11
125068.6759611956
 21
290872.364130561
 31
0.0
  0
LINE
  5
8A
330
1F
100
AcDbEntity
  8
A_RUNDUNGEN
  6
Continuous
 62
     7
100
AcDbLine
 10
125055.1759611956
 20
290872.364130561
 30
0.0
 11
125047.6759611956
 21
290872.364130561
 31
0.0
  0
LINE
  5
8B
330
1F
100
AcDbEntity
  8
0
  6
Continuous
 62
     7
100
AcDbLine
 10
125055.1759611956
 20
290873.364130561
 30
0.0
 11
125055.1759611956
 21
290872.364130561
 31
0.0
  0
LINE
  5
8C
330
1F
100
AcDbEntity
  8
0
  6
Continuous
 62
     7
100
AcDbLine
 10
125065.1759611956
 20
290873.364130561
 30
0.0
 11
125065.1759611956
 21
290872.364130561
 31
0.0
  0
LINE
  5
8D
330
1F
100
AcDbEntity
  8
0
  6
Continuous
 62
     7
100
AcDbLine
 10
125061.6759611956
 20
290873.364130561
 30
0.0
 11
125061.6759611956
 21
290872.364130561
 31
0.0
  0
LINE
  5
8E
330
1F
100
AcDbEntity
  8
0
  6
Continuous
 62
     7
100
AcDbLine
 10
125058.1759611956
 20
290873.364130561
 30
0.0
 11
125058.1759611956
 21
290872.364130561
 31
0.0
  0
LINE
  5
8F
330
1F
100
AcDbEntity
  8
0
  6
Continuous
 62
     7
100
AcDbLine
 10
125061.6759611956
 20
290871.7997563229
 30
0.0
 11
125061.6759611956
 21
290872.364130561
 31
0.0
  0
LINE
  5
90
330
1F
100
AcDbEntity
  8
0
  6
Continuous
 62
     7
100
AcDbLine
 10
125055.1759611956
 20
290872.364130561
 30
0.0
 11
125058.1759611956
 21
290872.364130561
 31
0.0
  0
LINE
  5
91
330
1F
100
AcDbEntity
  8
A_RUNDUNGEN
  6
Continuous
 62
     7
100
AcDbLine
 10
125061.6759611956
 20
290870.1892609737
 30
0.0
 11
125061.6759611956
 21
290871.7997563229
 31
0.0
  0
LINE
  5
92
330
1F
100
AcDbEntity
  8
A_RUNDUNGEN
  6
Continuous
 62
     7
100
AcDbLine
 10
125058.1759611956
 20
290870.781630561
 30
0.0
 11
125058.1759611956
 21
290872.364130561
 31
0.0
  0
LINE
  5
93
330
1F
100
AcDbEntity
  8
A_RUNDUNGEN
  6
Continuous
 62
     7
100
AcDbLine
 10
125058.1759611956
 20
290868.2891305609
 30
0.0
 11
125058.1759611956
 21
290870.7816305609
 31
0.0
  0
LINE
  5
94
330
1F
100
AcDbEntity
  8
1
  6
DOT_CENTER
 62
     2
100
AcDbLine
 10
125058.1759611956
 20
290870.781630561
 30
0.0
 11
125058.1759611956
 21
290870.7816305609
 31
0.0
  0
LINE
  5
95
330
1F
100
AcDbEntity
  8
1
  6
DOT_CENTER
 62
     2
100
AcDbLine
 10
125070.5934611957
 20
290858.364130561
 30
0.0
 11
125045.7584611956
 21
290858.364130561
 31
0.0
  0
LINE
  5
96
330
1F
100
AcDbEntity
  8
1
  6
Continuous
 62
     7
100
AcDbLine
 10
125049.8769079959
 20
290863.4248995489
 30
0.0
 11
125057.0602716541
 21
290864.691520374
 31
0.0
  0
LINE
  5
97
330
1F
100
AcDbEntity
  8
1
  6
Continuous
 62
     7
100
AcDbLine
 10
125056.4525030323
 20
290868.1383475096
 30
0.0
 11
125049.2691393747
 21
290866.8717266845
 31
0.0
  0
LINE
  5
98
330
1F
100
AcDbEntity
  8
0
  6
Continuous
 62
     7
100
AcDbLine
 10
125052.6347741695
 20
290861.6161870398
 30
0.0
 11
125049.6162287078
 21
290863.3877353162
 31
0.0
  0
LINE
  5
99
330
1F
100
AcDbEntity
  8
A_RUNDUNGEN
  6
DASHED
 62
     2
100
AcDbLine
 10
125058.1759611956
 20
290865.8170742156
 30
0.0
 11
125058.1759611956
 21
290867.2891305609
 31
0.0
  0
LINE
  5
9A
330
1F
100
AcDbEntity
  8
1
  6
Continuous
 62
     7
100
AcDbLine
 10
125064.5774593865
 20
290865.9487495964
 30
0.0
 11
125063.1815291244
 21
290867.0623121986
 31
0.0
  0
LINE
  5
9B
330
1F
100
AcDbEntity
  8
1
  6
DASHED
 62
     2
100
AcDbLine
 10
125061.6759611956
 20
290863.7521380776
 30
0.0
 11
125058.3618539452
 21
290866.4280541193
 31
0.0
  0
LINE
  5
9C
330
1F
100
AcDbEntity
  8
A_RUNDUNGEN
  6
DASHED
 62
     2
100
AcDbLine
 10
125058.1759611956
 20
290867.2891305609
 30
0.0
 11
125058.1759611956
 21
290868.2891305609
 31
0.0
  0
LINE
  5
9D
330
1F
100
AcDbEntity
  8
1
  6
DOT_CENTER
 62
     2
100
AcDbLine
 10
125058.1759611956
 20
290845.946630561
 30
0.0
 11
125058.1759611956
 21
290865.8170742156
 31
0.0
  0
LINE
  5
9E
330
1F
100
AcDbEntity
  8
1
  6
Continuous
 62
     7
100
AcDbLine
 10
125046.6755631956
 20
290866.864130561
 30
0.0
 11
125049.1823152859
 21
290866.864130561
 31
0.0
  0
LINE
  5
9F
330
1F
100
AcDbEntity
  8
0
  6
Continuous
 62
     7
100
AcDbLine
 10
125068.1759611956
 20
290908.364130561
 30
0.0
 11
125068.1759611956
 21
290873.364130561
 31
0.0
  0
LINE
  5
A0
330
1F
100
AcDbEntity
  8
0
  6
Continuous
 62
     7
100
AcDbLine
 10
125024.5707714516
 20
290867.364130561
 30
0.0
 11
125045.6799532151
 21
290867.364130561
 31
0.0
  0
LINE
  5
A1
330
1F
100
AcDbEntity
  8
1
  6
Continuous
 62
     3
100
AcDbLine
 10
125022.5707714516
 20
290867.364130561
 30
0.0
 11
125022.1759611956
 21
290867.364130561
 31
0.0
  0
LINE
  5
A2
330
1F
100
AcDbEntity
  8
0
  6
Continuous
 62
     7
100
AcDbLine
 10
125066.1759611956
 20
290873.364130561
 30
0.0
 11
125069.1759611956
 21
290873.364130561
 31
0.0
  0
LINE
  5
A3
330
1F
100
AcDbEntity
  8
1
  6
Continuous
 62
     3
100
AcDbLine
 10
125069.1759611956
 20
290873.364130561
 30
0.0
 11
125066.1759611956
 21
290873.364130561
 31
0.0
  0
LINE
  5
A4
330
1F
100
AcDbEntity
  8
0
  6
Continuous
 62
     7
100
AcDbLine
 10
125045.6799532151
 20
290867.364130561
 30
0.0
 11
125046.1759611956
 21
290867.364130561
 31
0.0
  0
LINE
  5
A5
330
1F
100
AcDbEntity
  8
1
  6
Continuous
 62
     7
100
AcDbLine
 10
125046.1759611956
 20
290863.364130561
 30
0.0
 11
125049.1823152852
 21
290863.3641305609
 31
0.0
  0
LINE
  5
A6
330
1F
100
AcDbEntity
  8
0
  6
Continuous
 62
     7
100
AcDbLine
 10
125028.1759611956
 20
290872.2848506936
 30
0.0
 11
125028.1759611956
 21
290871.864130561
 31
0.0
  0
LINE
  5
A7
330
1F
100
AcDbEntity
  8
0
  6
Continuous
 62
     7
100
AcDbLine
 10
125028.1759611956
 20
290875.364130561
 30
0.0
 11
125028.1759611956
 21
290872.2848506936
 31
0.0
  0
LINE
  5
A8
330
1F
100
AcDbEntity
  8
0
  6
Continuous
 62
     7
100
AcDbLine
 10
125028.1759611956
 20
290872.2848506936
 30
0.0
 11
125028.1759611956
 21
290871.864130561
 31
0.0
  0
LINE
  5
A9
330
1F
100
AcDbEntity
  8
1
  6
Continuous
 62
     7
100
AcDbLine
 10
125028.1759611956
 20
290871.864130561
 30
0.0
 11
125028.1759611956
 21
290868.9641305611
 31
0.0
  0
LINE
  5
AA
330
1F
100
AcDbEntity
  8
0
  6
Continuous
 62
     7
100
AcDbLine
 10
125016.6759611956
 20
290863.364130561
 30
0.0
 11
125016.6759611956
 21
290867.364130561
 31
0.0
  0
LINE
  5
AB
330
1F
100
AcDbEntity
  8
0
  6
Continuous
 62
     7
100
AcDbLine
 10
125046.1759611956
 20
290866.864130561
 30
0.0
 11
125046.1759611956
 21
290867.364130561
 31
0.0
  0
LINE
  5
AC
330
1F
100
AcDbEntity
  8
1
  6
Continuous
 62
     7
100
AcDbLine
 10
125044.1759611956
 20
290873.364130561
 30
0.0
 11
125032.1759611956
 21
290873.364130561
 31
0.0
  0
ARC
  5
AD
330
1F
100
AcDbEntity
  8
0
  6
Continuous
 62
     7
100
AcDbCircle
 10
125087.1759611956
 20
290875.364130561
 30
0.0
 40
2.0
100
AcDbArc
 50
-90.0
 51
0.0
  0
ARC
  5
AE
330
1F
100
AcDbEntity
  8
0
  6
Continuous
 62
     7
100
AcDbCircle
 10
125044.1759611956
 20
290851.364130561
 30
0.0
 40
2.0
100
AcDbArc
 50
-90.0
 51
0.0
  0
ARC
  5
AF
330
1F
100
AcDbEntity
  8
0
  6
Continuous
 62
     7
100
AcDbCircle
 10
125045.6799532151
 20
290867.864130561
 30
0.0
 40
0.5
100
AcDbArc
 50
-90.0
 51
-17.4721834238102
  0
ARC
  5
B0
330
1F
100
AcDbEntity
  8
0
  6
Continuous
 62
     7
100
AcDbCircle
 10
125045.6280298994
 20
290872.8127452081
 30
0.0
 40
0.5517960112372035
100
AcDbArc
 50
-54.39088443696144
 51
87.78937288691435
  0
ARC
  5
B1
330
1F
100
AcDbEntity
  8
0
  6
Continuous
 62
     7
100
AcDbCircle
 10
125045.3076472725
 20
290867.981319484
 30
0.0
 40
0.8903139230877032
100
AcDbArc
 50
-17.47218342391683
 51
35.32406808457102
  0
ARC
  5
B2
330
1F
100
AcDbEntity
  8
0
  6
Continuous
 62
     7
100
AcDbCircle
 10
125022.5707714516
 20
290867.864130561
 30
0.0
 40
0.5000000000521218
100
AcDbArc
 50
152.4879973687538
 51
-90.0
  0
ARC
  5
B3
330
1F
100
AcDbEntity
  8
0
  6
Continuous
 62
     7
100
AcDbCircle
 10
125028.6759611956
 20
290875.364130561
 30
0.0
 40
0.5
100
AcDbArc
 50
0.0
 51
180.0
  0
ARC
  5
B4
330
1F
100
AcDbEntity
  8
0
  6
Continuous
 62
     7
100
AcDbCircle
 10
125027.8198181628
 20
290871.8223805439
 30
0.0
 40
0.0999999999558482
100
AcDbArc
 50
-13.67130706563291
 51
90.0
  0
ARC
  5
B5
330
1F
100
AcDbEntity
  8
0
  6
Continuous
 62
     7
100
AcDbCircle
 10
125027.6111625186
 20
290871.8223805439
 30
0.0
 40
0.1000000000931323
100
AcDbArc
 50
90.0
 51
155.3231368648821
  0
ARC
  5
B6
330
1F
100
AcDbEntity
  8
0
  6
Continuous
 62
     7
100
AcDbCircle
 10
125025.2094980678
 20
290871.8223805439
 30
0.0
 40
0.0999999999904852
100
AcDbArc
 50
-17.96913968957044
 51
90.0
  0
ARC
  5
B7
330
1F
100
AcDbEntity
  8
0
  6
Continuous
 62
     7
100
AcDbCircle
 10
125025.1077254993
 20
290871.8223805439
 30
0.0
 40
0.1000000000931323
100
AcDbArc
 50
90.0
 51
152.4879973625915
  0
ARC
  5
B8
330
1F
100
AcDbEntity
  8
0
  6
Continuous
 62
     7
100
AcDbCircle
 10
125026.5010826755
 20
290868.6641305611
 30
0.0
 40
0.1999999999392113
100
AcDbArc
 50
166.3286929019615
 51
-90.0
  0
ARC
  5
B9
330
1F
100
AcDbEntity
  8
0
  6
Continuous
 62
     7
100
AcDbCircle
 10
125024.9183939638
 20
290868.6641305611
 30
0.0
 40
0.2000000000116415
100
AcDbArc
 50
-90.0
 51
-24.67686320791099
  0
ARC
  5
BA
330
1F
100
AcDbEntity
  8
0
  6
Continuous
 62
     7
100
AcDbCircle
 10
125023.6217228655
 20
290868.6641305611
 30
0.0
 40
0.2000000000071581
100
AcDbArc
 50
162.0308602602717
 51
-90.0
  0
ARC
  5
BB
330
1F
100
AcDbEntity
  8
0
  6
Continuous
 62
     7
100
AcDbCircle
 10
125027.6759611956
 20
290868.9641305611
 30
0.0
 40
0.5
100
AcDbArc
 50
-90.0
 51
0.0
  0
ARC
  5
BC
330
1F
100
AcDbEntity
  8
0
  6
Continuous
 62
     7
100
AcDbCircle
 10
125029.6759611956
 20
290868.9641305611
 30
0.0
 40
0.5
100
AcDbArc
 50
180.0
 51
-90.0
  0
ARC
  5
BD
330
1F
100
AcDbEntity
  8
0
  6
Continuous
 62
     7
100
AcDbCircle
 10
125030.1759611956
 20
290870.6146678663
 30
0.0
 40
1.000000000046474
100
AcDbArc
 50
126.7705677931716
 51
180.0
  0
ARC
  5
BE
330
1F
100
AcDbEntity
  8
0
  6
Continuous
 62
     7
100
AcDbCircle
 10
125043.5550023346
 20
290872.2141305611
 30
0.0
 40
0.150000000005433
100
AcDbArc
 50
-57.77124257001233
 51
90.0
  0
ARC
  5
BF
330
1F
100
AcDbEntity
  8
0
  6
Continuous
 62
     7
100
AcDbCircle
 10
125043.5854910676
 20
290868.614130561
 30
0.0
 40
0.1499999999068677
100
AcDbArc
 50
-90.0
 51
59.2630841732875
  0
ARC
  5
C0
330
1F
100
AcDbEntity
  8
0
  6
Continuous
 62
     7
100
AcDbCircle
 10
125044.1054961061
 20
290870.416083322
 30
0.0
 40
0.7362961251467698
100
AcDbArc
 50
121.6347933081872
 51
-121.3308800149996
  0
ARC
  5
C1
330
1F
100
AcDbEntity
  8
0
  6
Continuous
 62
     7
100
AcDbCircle
 10
125043.9555088175
 20
290870.414130561
 30
0.0
 40
1.586274925565191
100
AcDbArc
 50
121.953062889126
 51
-121.0126104274437
  0
ARC
  5
C2
330
1F
100
AcDbEntity
  8
0
  6
Continuous
 62
     7
100
AcDbCircle
 10
125031.183201409
 20
290873.239941209
 30
0.0
 40
0.50000000004937
100
AcDbArc
 50
53.22943220282111
 51
126.7705677891644
  0
ARC
  5
C3
330
1F
100
AcDbEntity
  8
0
  6
Continuous
 62
     7
100
AcDbCircle
 10
125031.8522814802
 20
290873.364130561
 30
0.0
 40
1.000000000014198
100
AcDbArc
 50
-126.7705678018396
 51
-90.0
  0
ARC
  5
C4
330
1F
100
AcDbEntity
  8
0
  6
Continuous
 62
     7
100
AcDbCircle
 10
125032.1825080097
 20
290874.357583911
 30
0.0
 40
0.9934749213572732
100
AcDbArc
 50
-126.8975338899592
 51
-90.37757121208762
  0
ARC
  5
C5
330
1F
100
AcDbEntity
  8
0
  6
Continuous
 62
     7
100
AcDbCircle
 10
125037.1065546229
 20
290870.6205951119
 30
0.0
 40
0.7435676692350864
100
AcDbArc
 50
-5.83984233624589
 51
174.16015766364
  0
ARC
  5
C6
330
1F
100
AcDbEntity
  8
0
  6
Continuous
 62
     7
100
AcDbCircle
 10
125037.1065546229
 20
290870.6205951119
 30
0.0
 40
1.743567669243755
100
AcDbArc
 50
90.3483234494452
 51
176.1872871652182
  0
ARC
  5
C7
330
1F
100
AcDbEntity
  8
0
  6
Continuous
 62
     7
100
AcDbCircle
 10
125037.1065546229
 20
290870.6205951119
 30
0.0
 40
1.743567669233602
100
AcDbArc
 50
3.81271283474998
 51
89.6516765472075
  0
ARC
  5
C8
330
1F
100
AcDbEntity
  8
1
  6
Continuous
 62
     7
100
AcDbCircle
 10
125058.1759611957
 20
290858.3641305609
 30
0.0
 40
9.924999999988358
100
AcDbArc
 50
90.00000000058805
 51
100.0000000002259
  0
ARC
  5
C9
330
1F
100
AcDbEntity
  8
0
  6
Continuous
 62
     7
100
AcDbCircle
 10
125068.6759611956
 20
290872.864130561
 30
0.0
 40
0.5
100
AcDbArc
 50
-90.0
 51
0.0
  0
ARC
  5
CA
330
1F
100
AcDbEntity
  8
0
  6
Continuous
 62
     7
100
AcDbCircle
 10
125020.6759611956
 20
290867.364130561
 30
0.0
 40
4.0
100
AcDbArc
 50
180.0
 51
-90.0
  0
ARC
  5
CB
330
1F
100
AcDbEntity
  8
0
  6
Continuous
 62
     7
100
AcDbCircle
 10
125020.6759611956
 20
290867.364130561
 30
0.0
 40
0.5
100
AcDbArc
 50
180.0
 51
-90.0
  0
ARC
  5
CC
330
1F
100
AcDbEntity
  8
0
  6
Continuous
 62
     7
100
AcDbCircle
 10
125047.6759611956
 20
290872.864130561
 30
0.0
 40
0.5
100
AcDbArc
 50
180.0
 51
-90.0
  0
ARC
  5
CD
330
1F
100
AcDbEntity
  8
1
  6
DASHED
 62
     2
100
AcDbCircle
 10
125058.1759611957
 20
290858.3641305609
 30
0.0
 40
9.9250000000792
100
AcDbArc
 50
100.0000000002259
 51
149.5918364660505
  0
ARC
  5
CE
330
1F
100
AcDbEntity
  8
1
  6
Continuous
 62
     7
100
AcDbCircle
 10
125058.1759611957
 20
290858.3641305612
 30
0.0
 40
9.924999999837453
100
AcDbArc
 50
49.83528247945367
 51
90.00000000058805
  0
ARC
  5
CF
330
1F
100
AcDbEntity
  8
1
  6
Continuous
 62
     7
100
AcDbCircle
 10
125058.1759611956
 20
290858.3641305611
 30
0.0
 40
9.924999999876176
100
AcDbArc
 50
149.5918364669121
 51
49.83528247922102
  0
CIRCLE
  5
D0
330
1F
100
AcDbEntity
  8
1
  6
Continuous
 62
     7
100
AcDbCircle
 10
125058.1759611956
 20
290858.3641305611
 30
0.0
 40
6.42499999991897
  0
CIRCLE
  5
D1
330
1F
100
AcDbEntity
  8
1
  6
DASHED
 62
     2
100
AcDbCircle
 10
125058.1759611956
 20
290858.364130561
 30
0.0
 40
5.0
  0
LWPOLYLINE
  5
D2
330
1F
100
AcDbEntity
  8
1
  6
Continuous
 62
     7
 60
     1
100
AcDbPolyline
 90
        3
 70
     0
 43
0.0
 10
125046.1759611956
 20
290864.364130561
 10
125016.6759611956
 20
290864.364130561
 10
125016.6759611956
 20
290895.364130561
  0
ARC
  5
D3
330
1F
100
AcDbEntity
  8
1
  6
Continuous
 62
     7
100
AcDbCircle
 10
125065.6759611956
 20
290870.1892609737
 30
0.0
 40
4.0
100
AcDbArc
 50
180.0
 51
-128.580092437294
  0
ARC
  5
D4
330
1F
100
AcDbEntity
  8
1
  6
Continuous
 62
     7
100
AcDbCircle
 10
125049.1823152859
 20
290867.364130561
 30
0.0
 40
0.5
100
AcDbArc
 50
-90.0
 51
-80.00000000437937
  0
ARC
  5
D5
330
1F
100
AcDbEntity
  8
1
  6
Continuous
 62
     7
100
AcDbCircle
 10
125049.1823152852
 20
290867.3641305609
 30
0.0
 40
4.000000000058558
100
AcDbArc
 50
-83.77239313194943
 51
-79.9999999994528
  0
ARC
  5
D6
330
1F
100
AcDbEntity
  8
1
  6
DASHED
 62
     2
100
AcDbCircle
 10
125058.6759611956
 20
290866.8170742156
 30
0.0
 40
0.5
100
AcDbArc
 50
180.0
 51
-128.9185141389441
  0
ARC
  5
D7
330
1F
100
AcDbEntity
  8
1
  6
Continuous
 62
     7
100
AcDbCircle
 10
125049.1823152852
 20
290867.3641305609
 30
0.0
 40
4.0
100
AcDbArc
 50
-90.0
 51
-83.77239313194943
  0
DIMENSION
  5
E3
330
1F
100
AcDbEntity
  8
1
100
AcDbDimension
  2
*D1
 10
125068.1759611956
 20
290921.9603521617
 30
0.0
 11
125057.3009841298
 21
290925.7103521617
 31
0.0
 70
    32
  1
<>
 71
     5
 42
-1.0
 53
0.00013888888889
  3
ME10_DIM_10
100
AcDbAlignedDimension
 13
125048.1759611956
 23
290908.364130561
 33
0.0
 14
125068.1759611956
 24
290908.364130561
 34
0.0
100
AcDbRotatedDimension
  0
DIMENSION
  5
F0
330
1F
100
AcDbEntity
  8
1
100
AcDbDimension
  2
*D2
 10
125032.1759611956
 20
290921.9603521617
 30
0.0
 11
125029.3903558605
 21
290925.7103521617
 31
0.0
 70
    32
  1
<>
 71
     5
 42
-1.0
 53
0.00013888888889
  3
ME10_DIM_11
100
AcDbAlignedDimension
 13
125028.1759611956
 23
290911.9603521617
 33
0.0
 14
125032.1759611956
 24
290873.364130561
 34
0.0
100
AcDbRotatedDimension
  0
DIMENSION
  5
FB
330
1F
100
AcDbEntity
  8
1
100
AcDbDimension
  2
*D3
 10
125048.1759611956
 20
290921.9603521617
 30
0.0
 11
125038.9934493907
 21
290925.7103521617
 31
0.0
 70
    32
  1
<>
 71
     5
 42
-1.0
 53
0.00013888888889
  3
ME10_DIM_12
100
AcDbAlignedDimension
 13
125032.1759611956
 23
290873.364130561
 33
0.0
 14
125048.1759611956
 24
290908.364130561
 34
0.0
100
AcDbRotatedDimension
  0
DIMENSION
  5
106
330
1F
100
AcDbEntity
  8
1
100
AcDbDimension
  2
*D4
 10
125109.1759611956
 20
290873.364130561
 30
0.0
 11
125105.4259611956
 21
290865.6969386514
 31
0.0
 70
    32
  1
<>
 71
     5
 42
-1.0
 53
90.0
  3
ME10_DIM_13
100
AcDbAlignedDimension
 13
125070.5934611957
 23
290858.364130561
 33
0.0
 14
125066.1759611956
 24
290873.364130561
 34
0.0
 50
90.0
100
AcDbRotatedDimension
  0
DIMENSION
  5
111
330
1F
100
AcDbEntity
  8
1
100
AcDbDimension
  2
*D5
 10
125119.1759611956
 20
290873.364130561
 30
0.0
 11
125115.4259611956
 21
290892.0956154908
 31
0.0
 70
    32
  1
<>
 71
     5
 42
-1.0
 53
90.0
  3
ME10_DIM_14
100
AcDbAlignedDimension
 13
125068.1759611956
 23
290908.364130561
 33
0.0
 14
125066.1759611956
 24
290873.364130561
 34
0.0
 50
90.0
100
AcDbRotatedDimension
  0
DIMENSION
  5
11E
330
1F
100
AcDbEntity
  8
1
100
AcDbDimension
  2
*D6
 10
124965.1759611956
 20
290867.364130561
 30
0.0
 11
124961.4259611956
 21
290874.557880561
 31
0.0
 70
    32
  1
<>
 71
     5
 42
-1.0
 53
90.0
  3
ME10_DIM_15
100
AcDbAlignedDimension
 13
125046.6755631956
 23
290866.864130561
 33
0.0
 14
125046.1759611956
 24
290867.364130561
 34
0.0
 50
90.0
100
AcDbRotatedDimension
  0
DIMENSION
  5
129
330
1F
100
AcDbEntity
  8
1
100
AcDbDimension
  2
*D7
 10
125046.1759611957
 20
290839.364130561
 30
0.0
 11
125037.3412878719
 21
290843.114130561
 31
0.0
 70
    32
  1
<>
 71
     5
 42
-1.0
 53
0.00013888888889
  3
ME10_DIM_16
100
AcDbAlignedDimension
 13
125028.1759611956
 23
290871.864130561
 33
0.0
 14
125046.1759611956
 24
290851.364130561
 34
0.0
100
AcDbRotatedDimension
  0
DIMENSION
  5
134
330
1F
100
AcDbEntity
  8
1
100
AcDbDimension
  2
*D8
 10
125109.1759611956
 20
290873.364130561
 30
0.0
 11
125105.4259611956
 21
290881.5460466546
 31
0.0
 70
    32
  1
<>
 71
     5
 42
-1.0
 53
90.0
  3
ME10_DIM_17
100
AcDbAlignedDimension
 13
125048.7759611956
 23
290889.364130561
 33
0.0
 14
125087.1759611956
 24
290873.364130561
 34
0.0
 50
90.0
100
AcDbRotatedDimension
  0
DIMENSION
  5
140
330
1F
100
AcDbEntity
  8
1
100
AcDbDimension
  2
*D9
 10
124955.1759611956
 20
290894.364130561
 30
0.0
 11
124951.4259611956
 21
290878.673389495
 31
0.0
 70
    32
  1
<>
 71
     5
 42
-1.0
 53
90.0
  3
ME10_DIM_18
100
AcDbAlignedDimension
 13
125016.6759611956
 23
290863.364130561
 33
0.0
 14
125016.6759611956
 24
290894.364130561
 34
0.0
 50
90.0
100
AcDbRotatedDimension
  0
DIMENSION
  5
14B
330
1F
100
AcDbEntity
  8
1
100
AcDbDimension
  2
*D10
 10
125028.1759611956
 20
290839.364130561
 30
0.0
 11
125022.5293861998
 21
290843.114130561
 31
0.0
 70
    32
  1
<>
 71
     5
 42
-1.0
 53
0.00013888888889
  3
ME10_DIM_19
100
AcDbAlignedDimension
 13
125016.6759611956
 23
290863.364130561
 33
0.0
 14
125028.1759611956
 24
290871.864130561
 34
0.0
100
AcDbRotatedDimension
  0
DIMENSION
  5
158
330
1F
100
AcDbEntity
  8
1
100
AcDbDimension
  2
*D11
 10
125099.1759611956
 20
290873.364130561
 30
0.0
 11
125095.4259611956
 21
290869.807498453
 31
0.0
 70
    32
  1
<>
 71
     5
 42
-1.0
 53
90.0
  3
ME10_DIM_20
100
AcDbAlignedDimension
 13
125045.6799532151
 23
290867.364130561
 33
0.0
 14
125044.1759611956
 24
290873.364130561
 34
0.0
 50
90.0
100
AcDbRotatedDimension
  0
ENDSEC
  0
SECTION
  2
OBJECTS
  0
DICTIONARY
  5
C
330
0
100
AcDbDictionary
281
     1
  3
ACAD_GROUP
350
D
  3
ACAD_LAYOUT
350
1A
  3
ACAD_MLINESTYLE
350
17
  3
ACAD_PLOTSETTINGS
350
19
  3
ACAD_PLOTSTYLENAME
350
E
  0
DICTIONARY
  5
D
102
{ACAD_REACTORS
330
C
102
}
330
C
100
AcDbDictionary
281
     1
  0
DICTIONARY
  5
1A
102
{ACAD_REACTORS
330
C
102
}
330
C
100
AcDbDictionary
281
     1
  3
Layout1
350
1E
  3
Layout2
350
26
  3
Model
350
22
  0
DICTIONARY
  5
17
102
{ACAD_REACTORS
330
C
102
}
330
C
100
AcDbDictionary
281
     1
  3
Standard
350
18
  0
DICTIONARY
  5
19
102
{ACAD_REACTORS
330
C
102
}
330
C
100
AcDbDictionary
281
     1
  0
ACDBDICTIONARYWDFLT
  5
E
102
{ACAD_REACTORS
330
C
102
}
330
C
100
AcDbDictionary
281
     1
  3
Normal
350
F
100
AcDbDictionaryWithDefault
340
F
  0
LAYOUT
  5
1E
102
{ACAD_REACTORS
330
1A
102
}
330
1A
100
AcDbPlotSettings
  1

  2

  4

  6

 40
0.0
 41
0.0
 42
0.0
 43
0.0
 44
0.0
 45
0.0
 46
0.0
 47
0.0
 48
0.0
 49
0.0
140
0.0
141
0.0
142
1.0
143
1.0
 70
   688
 72
     0
 73
     0
 74
     5
  7

 75
    16
 76
     0
 77
     2
 78
   300
147
1.0
148
0.0
149
0.0
100
AcDbLayout
  1
Layout1
 70
     1
 71
     1
 10
0.0
 20
0.0
 11
0.0
 21
0.0
 12
0.0
 22
0.0
 32
0.0
 14
0.0
 24
0.0
 34
0.0
 15
0.0
 25
0.0
 35
0.0
146
0.0
 13
0.0
 23
0.0
 33
0.0
 16
1.0
 26
0.0
 36
0.0
 17
0.0
 27
1.0
 37
0.0
 76
     0
330
1B
  0
LAYOUT
  5
26
102
{ACAD_REACTORS
330
1A
102
}
330
1A
100
AcDbPlotSettings
  1

  2

  4

  6

 40
0.0
 41
0.0
 42
0.0
 43
0.0
 44
0.0
 45
0.0
 46
0.0
 47
0.0
 48
0.0
 49
0.0
140
0.0
141
0.0
142
1.0
143
1.0
 70
   688
 72
     0
 73
     0
 74
     5
  7

 75
    16
 76
     0
 77
     2
 78
   300
147
1.0
148
0.0
149
0.0
100
AcDbLayout
  1
Layout2
 70
     1
 71
     2
 10
0.0
 20
0.0
 11
0.0
 21
0.0
 12
0.0
 22
0.0
 32
0.0
 14
0.0
 24
0.0
 34
0.0
 15
0.0
 25
0.0
 35
0.0
146
0.0
 13
0.0
 23
0.0
 33
0.0
 16
1.0
 26
0.0
 36
0.0
 17
0.0
 27
1.0
 37
0.0
 76
     0
330
23
  0
LAYOUT
  5
22
102
{ACAD_REACTORS
330
1A
102
}
330
1A
100
AcDbPlotSettings
  1

  2

  4

  6

 40
0.0
 41
0.0
 42
0.0
 43
0.0
 44
0.0
 45
0.0
 46
0.0
 47
0.0
 48
0.0
 49
0.0
140
0.0
141
0.0
142
1.0
143
1.0
 70
  1712
 72
     0
 73
     0
 74
     0
  7

 75
     0
 76
     0
 77
     2
 78
   300
147
1.0
148
0.0
149
0.0
100
AcDbLayout
  1
Model
 70
     1
 71
     0
 10
0.0
 20
0.0
 11
0.0
 21
0.0
 12
0.0
 22
0.0
 32
0.0
 14
124949.6759611956
 24
290837.364130561
 34
0.0
 15
125121.1759611956
 25
290927.4603521617
 35
0.0
146
0.0
 13
0.0
 23
0.0
 33
0.0
 16
1.0
 26
0.0
 36
0.0
 17
0.0
 27
1.0
 37
0.0
 76
     0
330
1F
  0
MLINESTYLE
  5
18
102
{ACAD_REACTORS
330
17
102
}
330
17
100
AcDbMlineStyle
  2
Standard
 70
     0
  3

 62
   256
 51
90.0
 52
90.0
 71
     2
 49
0.5
 62
   256
  6
BYLAYER
 49
-0.5
 62
   256
  6
BYLAYER
  0
ACDBPLACEHOLDER
  5
F
102
{ACAD_REACTORS
330
E
102
}
330
E
  0
ENDSEC
  0
EOF
