  0
SECTION
  2
HEADER
  9
$ACADVER
  1
AC1018
  9
$ACADMAINTVER
 70
     0
  9
$DWGCODEPAGE
  3
ANSI_1252
  9
$INSBASE
 10
0.0
 20
0.0
 30
0.0
  9
$EXTMIN
 10
-108.7105155123358
 20
-93.35689115234209
 30
0.0
  9
$EXTMAX
 10
70.07092359565121
 20
115.523044177291
 30
0.0
  9
$LIMMIN
 10
0.0
 20
0.0
  9
$LIMMAX
 10
12.0
 20
9.0
  9
$ORTHOMODE
 70
     0
  9
$REGENMODE
 70
     1
  9
$FILLMODE
 70
     1
  9
$QTEXTMODE
 70
     0
  9
$MIRRTEXT
 70
     1
  9
$LTSCALE
 40
1.0
  9
$ATTMODE
 70
     1
  9
$TEXTSIZE
 40
0.2
  9
$TRACEWID
 40
0.05
  9
$TEXTSTYLE
  7
Standard
  9
$CLAYER
  8
0
  9
$CELTYPE
  6
ByLayer
  9
$CECOLOR
 62
   256
  9
$CELTSCALE
 40
1.0
  9
$DISPSILH
 70
     0
  9
$DIMSCALE
 40
1.0
  9
$DIMASZ
 40
0.18
  9
$DIMEXO
 40
0.0625
  9
$DIMDLI
 40
0.38
  9
$DIMRND
 40
0.0
  9
$DIMDLE
 40
0.0
  9
$DIMEXE
 40
0.18
  9
$DIMTP
 40
0.0
  9
$DIMTM
 40
0.0
  9
$DIMTXT
 40
0.18
  9
$DIMCEN
 40
0.09
  9
$DIMTSZ
 40
0.0
  9
$DIMTOL
 70
     0
  9
$DIMLIM
 70
     0
  9
$DIMTIH
 70
     1
  9
$DIMTOH
 70
     1
  9
$DIMSE1
 70
     0
  9
$DIMSE2
 70
     0
  9
$DIMTAD
 70
     0
  9
$DIMZIN
 70
     0
  9
$DIMBLK
  1

  9
$DIMASO
 70
     1
  9
$DIMSHO
 70
     1
  9
$DIMPOST
  1

  9
$DIMAPOST
  1

  9
$DIMALT
 70
     0
  9
$DIMALTD
 70
     2
  9
$DIMALTF
 40
25.4
  9
$DIMLFAC
 40
1.0
  9
$DIMTOFL
 70
     0
  9
$DIMTVP
 40
0.0
  9
$DIMTIX
 70
     0
  9
$DIMSOXD
 70
     0
  9
$DIMSAH
 70
     0
  9
$DIMBLK1
  1

  9
$DIMBLK2
  1

  9
$DIMSTYLE
  2
Standard
  9
$DIMCLRD
 70
     0
  9
$DIMCLRE
 70
     0
  9
$DIMCLRT
 70
     0
  9
$DIMTFAC
 40
1.0
  9
$DIMGAP
 40
0.09
  9
$DIMJUST
 70
     0
  9
$DIMSD1
 70
     0
  9
$DIMSD2
 70
     0
  9
$DIMTOLJ
 70
     1
  9
$DIMTZIN
 70
     0
  9
$DIMALTZ
 70
     0
  9
$DIMALTTZ
 70
     0
  9
$DIMUPT
 70
     0
  9
$DIMDEC
 70
     4
  9
$DIMTDEC
 70
     4
  9
$DIMALTU
 70
     2
  9
$DIMALTTD
 70
     2
  9
$DIMTXSTY
  7
Standard
  9
$DIMAUNIT
 70
     0
  9
$DIMADEC
 70
     0
  9
$DIMALTRND
 40
0.0
  9
$DIMAZIN
 70
     0
  9
$DIMDSEP
 70
    46
  9
$DIMATFIT
 70
     3
  9
$DIMFRAC
 70
     0
  9
$DIMLDRBLK
  1

  9
$DIMLUNIT
 70
     2
  9
$DIMLWD
 70
    -2
  9
$DIMLWE
 70
    -2
  9
$DIMTMOVE
 70
     0
  9
$LUNITS
 70
     2
  9
$LUPREC
 70
     4
  9
$SKETCHINC
 40
0.1
  9
$FILLETRAD
 40
0.5
  9
$AUNITS
 70
     0
  9
$AUPREC
 70
     0
  9
$MENU
  1
.
  9
$ELEVATION
 40
0.0
  9
$PELEVATION
 40
0.0
  9
$THICKNESS
 40
0.0
  9
$LIMCHECK
 70
     0
  9
$CHAMFERA
 40
0.5
  9
$CHAMFERB
 40
0.5
  9
$CHAMFERC
 40
1.0
  9
$CHAMFERD
 40
0.0
  9
$SKPOLY
 70
     0
  9
$TDCREATE
 40
2454735.432658195
  9
$TDUCREATE
 40
2454735.349324861
  9
$TDUPDATE
 40
2454735.432658206
  9
$TDUUPDATE
 40
2454735.349324873
  9
$TDINDWG
 40
0.0000000116
  9
$TDUSRTIMER
 40
0.0000000116
  9
$USRTIMER
 70
     1
  9
$ANGBASE
 50
0.0
  9
$ANGDIR
 70
     0
  9
$PDMODE
 70
     0
  9
$PDSIZE
 40
0.0
  9
$PLINEWID
 40
0.0
  9
$SPLFRAME
 70
     0
  9
$SPLINETYPE
 70
     6
  9
$SPLINESEGS
 70
     8
  9
$HANDSEED
  5
16F
  9
$SURFTAB1
 70
     6
  9
$SURFTAB2
 70
     6
  9
$SURFTYPE
 70
     6
  9
$SURFU
 70
     6
  9
$SURFV
 70
     6
  9
$UCSBASE
  2

  9
$UCSNAME
  2

  9
$UCSORG
 10
0.0
 20
0.0
 30
0.0
  9
$UCSXDIR
 10
1.0
 20
0.0
 30
0.0
  9
$UCSYDIR
 10
0.0
 20
1.0
 30
0.0
  9
$UCSORTHOREF
  2

  9
$UCSORTHOVIEW
 70
     0
  9
$UCSORGTOP
 10
0.0
 20
0.0
 30
0.0
  9
$UCSORGBOTTOM
 10
0.0
 20
0.0
 30
0.0
  9
$UCSORGLEFT
 10
0.0
 20
0.0
 30
0.0
  9
$UCSORGRIGHT
 10
0.0
 20
0.0
 30
0.0
  9
$UCSORGFRONT
 10
0.0
 20
0.0
 30
0.0
  9
$UCSORGBACK
 10
0.0
 20
0.0
 30
0.0
  9
$PUCSBASE
  2

  9
$PUCSNAME
  2

  9
$PUCSORG
 10
0.0
 20
0.0
 30
0.0
  9
$PUCSXDIR
 10
1.0
 20
0.0
 30
0.0
  9
$PUCSYDIR
 10
0.0
 20
1.0
 30
0.0
  9
$PUCSORTHOREF
  2

  9
$PUCSORTHOVIEW
 70
     0
  9
$PUCSORGTOP
 10
0.0
 20
0.0
 30
0.0
  9
$PUCSORGBOTTOM
 10
0.0
 20
0.0
 30
0.0
  9
$PUCSORGLEFT
 10
0.0
 20
0.0
 30
0.0
  9
$PUCSORGRIGHT
 10
0.0
 20
0.0
 30
0.0
  9
$PUCSORGFRONT
 10
0.0
 20
0.0
 30
0.0
  9
$PUCSORGBACK
 10
0.0
 20
0.0
 30
0.0
  9
$USERI1
 70
     0
  9
$USERI2
 70
     0
  9
$USERI3
 70
     0
  9
$USERI4
 70
     0
  9
$USERI5
 70
     0
  9
$USERR1
 40
14.5
  9
$USERR2
 40
0.0
  9
$USERR3
 40
0.0
  9
$USERR4
 40
0.0
  9
$USERR5
 40
0.0
  9
$WORLDVIEW
 70
     1
  9
$SHADEDGE
 70
     3
  9
$SHADEDIF
 70
    70
  9
$TILEMODE
 70
     1
  9
$MAXACTVP
 70
    64
  9
$PINSBASE
 10
0.0
 20
0.0
 30
0.0
  9
$PLIMCHECK
 70
     0
  9
$PEXTMIN
 10
1.00000000000000E+20
 20
1.00000000000000E+20
 30
1.00000000000000E+20
  9
$PEXTMAX
 10
-1.00000000000000E+20
 20
-1.00000000000000E+20
 30
-1.00000000000000E+20
  9
$PLIMMIN
 10
0.0
 20
0.0
  9
$PLIMMAX
 10
12.0
 20
9.0
  9
$UNITMODE
 70
     0
  9
$VISRETAIN
 70
     1
  9
$PLINEGEN
 70
     0
  9
$PSLTSCALE
 70
     1
  9
$TREEDEPTH
 70
  3020
  9
$CMLSTYLE
  2
Standard
  9
$CMLJUST
 70
     0
  9
$CMLSCALE
 40
1.0
  9
$PROXYGRAPHICS
 70
     1
  9
$MEASUREMENT
 70
     1
  9
$CELWEIGHT
370
    -1
  9
$ENDCAPS
280
     0
  9
$JOINSTYLE
280
     0
  9
$LWDISPLAY
290
     0
  9
$INSUNITS
 70
     1
  9
$HYPERLINKBASE
  1

  9
$STYLESHEET
  1

  9
$XEDIT
290
     1
  9
$CEPSNTYPE
380
     0
  9
$PSTYLEMODE
290
     1
  9
$FINGERPRINTGUID
  2
{D8043B7B-260B-4088-B6F8-AB39ABA02D61}
  9
$VERSIONGUID
  2
{FAEB1C32-E019-11D5-929B-00C0DF256EC4}
  9
$EXTNAMES
290
     1
  9
$PSVPSCALE
 40
0.0
  9
$OLESTARTUP
290
     0
  9
$SORTENTS
280
   127
  9
$INDEXCTL
280
     0
  9
$HIDETEXT
280
     1
  9
$XCLIPFRAME
290
     0
  9
$HALOGAP
280
     0
  9
$OBSCOLOR
 70
   257
  9
$OBSLTYPE
280
     0
  9
$INTERSECTIONDISPLAY
280
     0
  9
$INTERSECTIONCOLOR
 70
   257
  9
$DIMASSOC
280
     2
  9
$PROJECTNAME
  1

  0
ENDSEC
  0
SECTION
  2
CLASSES
  0
CLASS
  1
ACDBDICTIONARYWDFLT
  2
AcDbDictionaryWithDefault
  3
ObjectDBX Classes
 90
        0
 91
        3
280
     0
281
     0
  0
CLASS
  1

  2
exOdDbCircle
  3

 90
        0
 91
        3
280
     0
281
     1
  0
ENDSEC
  0
SECTION
  2
TABLES
  0
TABLE
  2
VPORT
  5
8
330
0
100
AcDbSymbolTable
 70
     1
  0
VPORT
  5
29
330
8
100
AcDbSymbolTableRecord
100
AcDbViewportTableRecord
  2
*Active
 70
     0
 10
0.0
 20
0.0
 11
1.0
 21
1.0
 12
-19.3197959583423
 22
11.08307651247446
 13
0.0
 23
0.0
 14
0.5
 24
0.5
 15
0.5
 25
0.5
 16
0.0
 26
0.0
 36
1.0
 17
0.0
 27
0.0
 37
0.0
 40
229.7679288625964
 41
1.60267857142857
 42
50.0
 43
0.0
 44
0.0
 50
0.0
 51
0.0
 71
     0
 72
   100
 73
     1
 74
     3
 75
     0
 76
     0
 77
     0
 78
     0
281
     0
 65
     1
110
0.0
120
0.0
130
0.0
111
1.0
121
0.0
131
0.0
112
0.0
122
1.0
132
0.0
 79
     0
146
0.0
  0
ENDTAB
  0
TABLE
  2
LTYPE
  5
5
330
0
100
AcDbSymbolTable
 70
     8
  0
LTYPE
  5
14
330
5
100
AcDbSymbolTableRecord
100
AcDbLinetypeTableRecord
  2
ByBlock
 70
     0
  3

 72
    65
 73
     0
 40
0.0
  0
LTYPE
  5
15
330
5
100
AcDbSymbolTableRecord
100
AcDbLinetypeTableRecord
  2
ByLayer
 70
     0
  3

 72
    65
 73
     0
 40
0.0
  0
LTYPE
  5
16
330
5
100
AcDbSymbolTableRecord
100
AcDbLinetypeTableRecord
  2
Continuous
 70
     0
  3
Solid line
 72
    65
 73
     0
 40
0.0
  0
LTYPE
  5
2A
330
5
100
AcDbSymbolTableRecord
100
AcDbLinetypeTableRecord
  2
DASHED
 70
     0
  3
Dashed
 72
    65
 73
     2
 40
15.0
 49
7.0
 74
     0
 49
-8.0
 74
     0
  0
LTYPE
  5
2B
330
5
100
AcDbSymbolTableRecord
100
AcDbLinetypeTableRecord
  2
DOTTED
 70
     0
  3
Dotted
 72
    65
 73
     2
 40
1.0
 49
0.0
 74
     0
 49
-1.0
 74
     0
  0
LTYPE
  5
2C
330
5
100
AcDbSymbolTableRecord
100
AcDbLinetypeTableRecord
  2
DOT_CENTER
 70
     0
  3
Dot_Center
 72
    65
 73
     4
 40
14.0
 49
12.0
 74
     0
 49
-1.0
 74
     0
 49
0.0
 74
     0
 49
-1.0
 74
     0
  0
LTYPE
  5
2D
330
5
100
AcDbSymbolTableRecord
100
AcDbLinetypeTableRecord
  2
LONG_DASHED
 70
     0
  3
Long_Dashed
 72
    65
 73
     2
 40
15.0
 49
10.0
 74
     0
 49
-5.0
 74
     0
  0
LTYPE
  5
2E
330
5
100
AcDbSymbolTableRecord
100
AcDbLinetypeTableRecord
  2
DASH_CENTER
 70
     0
  3
Dash_Center
 72
    65
 73
     4
 40
14.0
 49
11.0
 74
     0
 49
-1.0
 74
     0
 49
1.0
 74
     0
 49
-1.0
 74
     0
  0
LTYPE
  5
2F
330
5
100
AcDbSymbolTableRecord
100
AcDbLinetypeTableRecord
  2
PHANTOM
 70
     0
  3
Phantom
 72
    65
 73
     6
 40
13.0
 49
10.0
 74
     0
 49
-1.0
 74
     0
 49
0.0
 74
     0
 49
-1.0
 74
     0
 49
0.0
 74
     0
 49
-1.0
 74
     0
  0
LTYPE
  5
30
330
5
100
AcDbSymbolTableRecord
100
AcDbLinetypeTableRecord
  2
CENTER_DASH_DASH
 70
     0
  3
Center_Dash_Dash
 72
    65
 73
     6
 40
14.0
 49
9.0
 74
     0
 49
-1.0
 74
     0
 49
1.0
 74
     0
 49
-1.0
 74
     0
 49
1.0
 74
     0
 49
-1.0
 74
     0
  0
ENDTAB
  0
TABLE
  2
LAYER
  5
2
330
0
100
AcDbSymbolTable
 70
     3
  0
LAYER
  5
10
330
2
100
AcDbSymbolTableRecord
100
AcDbLayerTableRecord
  2
0
 70
     0
 62
     7
  6
Continuous
370
    -3
390
F
  0
LAYER
  5
31
330
2
100
AcDbSymbolTableRecord
100
AcDbLayerTableRecord
  2
1
 70
     0
 62
     7
  6
Continuous
370
    -3
390
F
  0
LAYER
  5
32
330
2
100
AcDbSymbolTableRecord
100
AcDbLayerTableRecord
  2
DEFAULT_1
 70
     0
 62
     7
  6
Continuous
370
    -3
390
F
  0
ENDTAB
  0
TABLE
  2
STYLE
  5
3
330
0
100
AcDbSymbolTable
 70
     2
  0
STYLE
  5
11
330
3
100
AcDbSymbolTableRecord
100
AcDbTextStyleTableRecord
  2
Standard
 70
     0
 40
0.0
 41
1.0
 50
0.0
 71
     0
 42
0.2
  3
txt
  4

  0
STYLE
  5
11C
330
3
100
AcDbSymbolTableRecord
100
AcDbTextStyleTableRecord
  2
CONVERTER_11
 70
     0
 40
0.0
 41
0.9
 50
0.0
 71
     0
 42
0.2
  3
txt.shx
  4

  0
ENDTAB
  0
TABLE
  2
VIEW
  5
6
330
0
100
AcDbSymbolTable
 70
     0
  0
ENDTAB
  0
TABLE
  2
UCS
  5
7
330
0
100
AcDbSymbolTable
 70
     0
  0
ENDTAB
  0
TABLE
  2
APPID
  5
9
330
0
100
AcDbSymbolTable
 70
     1
  0
APPID
  5
12
330
9
100
AcDbSymbolTableRecord
100
AcDbRegAppTableRecord
  2
ACAD
 70
     0
  0
ENDTAB
  0
TABLE
  2
DIMSTYLE
  5
A
330
0
100
AcDbSymbolTable
 70
     9
100
AcDbDimStyleTable
  0
DIMSTYLE
105
27
330
A
100
AcDbSymbolTableRecord
100
AcDbDimStyleTableRecord
  2
Standard
 70
     0
340
11
  0
DIMSTYLE
105
120
102
{ACAD_REACTORS
330
121
102
}
330
A
100
AcDbSymbolTableRecord
100
AcDbDimStyleTableRecord
  2
ME10_DIM_10
 70
     0
 41
3.5
 42
0.0
 44
2.0
 73
     0
 74
     0
 77
     1
 78
     8
140
3.5
147
2.0
172
     1
173
     1
176
     2
177
     2
178
     2
271
     2
340
11C
  0
DIMSTYLE
105
12B
102
{ACAD_REACTORS
330
12C
102
}
330
A
100
AcDbSymbolTableRecord
100
AcDbDimStyleTableRecord
  2
ME10_DIM_11
 70
     0
 41
3.5
 42
0.0
 44
2.0
 73
     0
 74
     0
 77
     1
 78
     8
140
3.5
147
2.0
172
     1
173
     1
176
     2
177
     2
178
     2
271
     2
340
11C
  0
DIMSTYLE
105
136
102
{ACAD_REACTORS
330
137
102
}
330
A
100
AcDbSymbolTableRecord
100
AcDbDimStyleTableRecord
  2
ME10_DIM_12
 70
     0
 41
3.5
 42
0.0
 44
2.0
 73
     0
 74
     0
 77
     1
 78
     8
140
3.5
147
2.0
172
     1
173
     1
176
     2
177
     2
178
     2
271
     2
340
11C
  0
DIMSTYLE
105
141
102
{ACAD_REACTORS
330
142
102
}
330
A
100
AcDbSymbolTableRecord
100
AcDbDimStyleTableRecord
  2
ME10_DIM_13
 70
     0
 41
3.5
 42
0.0
 44
2.0
 73
     0
 74
     0
 77
     1
 78
     8
140
3.5
147
2.0
172
     1
173
     1
176
     2
177
     2
178
     2
271
     2
340
11C
  0
DIMSTYLE
105
14C
102
{ACAD_REACTORS
330
14D
102
}
330
A
100
AcDbSymbolTableRecord
100
AcDbDimStyleTableRecord
  2
ME10_DIM_14
 70
     0
 41
3.5
 42
0.0
 44
2.0
 73
     0
 74
     0
 77
     1
 78
     8
140
3.5
147
2.0
172
     1
173
     1
176
     2
177
     2
178
     2
271
     2
340
11C
  0
DIMSTYLE
105
157
102
{ACAD_REACTORS
330
158
102
}
330
A
100
AcDbSymbolTableRecord
100
AcDbDimStyleTableRecord
  2
ME10_DIM_15
 70
     0
 41
3.5
 42
0.0
 44
2.0
 73
     0
 74
     0
 77
     1
 78
     8
140
3.5
147
2.0
172
     1
173
     1
176
     2
177
     2
178
     2
271
     2
340
11C
  0
DIMSTYLE
105
162
102
{ACAD_REACTORS
330
163
102
}
330
A
100
AcDbSymbolTableRecord
100
AcDbDimStyleTableRecord
  2
ME10_DIM_16
 70
     0
  3
ø<>
 41
3.5
 42
0.0
 44
2.0
 73
     0
 74
     0
 77
     1
 78
     8
140
3.5
147
2.0
172
     1
173
     1
176
     2
177
     2
178
     2
271
     2
340
11C
  0
DIMSTYLE
105
16D
102
{ACAD_REACTORS
330
16E
102
}
330
A
100
AcDbSymbolTableRecord
100
AcDbDimStyleTableRecord
  2
ME10_DIM_17
 70
     0
 41
3.5
 42
0.0
 44
2.0
 73
     0
 74
     0
 77
     1
 78
     8
140
3.5
147
2.0
172
     1
173
     1
176
     2
177
     2
178
     2
271
     2
340
11C
  0
ENDTAB
  0
TABLE
  2
BLOCK_RECORD
  5
1
330
0
100
AcDbSymbolTable
 70
     9
  0
BLOCK_RECORD
  5
1F
330
1
100
AcDbSymbolTableRecord
100
AcDbBlockTableRecord
  2
*Model_Space
340
22
  0
BLOCK_RECORD
  5
1B
330
1
100
AcDbSymbolTableRecord
100
AcDbBlockTableRecord
  2
*Paper_Space
340
1E
  0
BLOCK_RECORD
  5
23
330
1
100
AcDbSymbolTableRecord
100
AcDbBlockTableRecord
  2
*Paper_Space0
340
26
  0
BLOCK_RECORD
  5
116
330
1
100
AcDbSymbolTableRecord
100
AcDbBlockTableRecord
  2
*D1
340
0
  0
BLOCK_RECORD
  5
122
330
1
100
AcDbSymbolTableRecord
100
AcDbBlockTableRecord
  2
*D2
340
0
  0
BLOCK_RECORD
  5
12D
330
1
100
AcDbSymbolTableRecord
100
AcDbBlockTableRecord
  2
*D3
340
0
  0
BLOCK_RECORD
  5
138
330
1
100
AcDbSymbolTableRecord
100
AcDbBlockTableRecord
  2
*D4
340
0
  0
BLOCK_RECORD
  5
143
330
1
100
AcDbSymbolTableRecord
100
AcDbBlockTableRecord
  2
*D5
340
0
  0
BLOCK_RECORD
  5
14E
330
1
100
AcDbSymbolTableRecord
100
AcDbBlockTableRecord
  2
*D6
340
0
  0
BLOCK_RECORD
  5
159
330
1
100
AcDbSymbolTableRecord
100
AcDbBlockTableRecord
  2
*D7
340
0
  0
BLOCK_RECORD
  5
164
330
1
100
AcDbSymbolTableRecord
100
AcDbBlockTableRecord
  2
*D8
340
0
  0
ENDTAB
  0
ENDSEC
  0
SECTION
  2
BLOCKS
  0
BLOCK
  5
20
330
1F
100
AcDbEntity
  8
0
100
AcDbBlockBegin
  2
*Model_Space
 70
     0
 71
     0
 10
0.0
 20
0.0
 30
0.0
  3
*Model_Space
  1

  0
ENDBLK
  5
21
330
1F
100
AcDbEntity
  8
0
100
AcDbBlockEnd
  0
BLOCK
  5
1C
330
1B
100
AcDbEntity
 67
     1
  8
0
100
AcDbBlockBegin
  2
*Paper_Space
 70
     0
 71
     0
 10
0.0
 20
0.0
 30
0.0
  3
*Paper_Space
  1

  0
ENDBLK
  5
1D
330
1B
100
AcDbEntity
 67
     1
  8
0
100
AcDbBlockEnd
  0
BLOCK
  5
24
330
23
100
AcDbEntity
  8
0
100
AcDbBlockBegin
  2
*Paper_Space0
 70
     0
 71
     0
 10
0.0
 20
0.0
 30
0.0
  3
*Paper_Space0
  1

  0
ENDBLK
  5
25
330
23
100
AcDbEntity
  8
0
100
AcDbBlockEnd
  0
BLOCK
  5
11E
330
116
100
AcDbEntity
  8
0
100
AcDbBlockBegin
  2
*D1
 70
     1
 71
     0
 10
0.0
 20
0.0
 30
0.0
  3
*D1
  1

  0
LINE
  5
117
330
116
100
AcDbEntity
  8
1
  6
Continuous
 62
     2
100
AcDbLine
 10
10.77405100341923
 20
70.862782174999
 30
0.0
 11
52.77404459471922
 21
70.862782174999
 31
0.0
  0
LINE
  5
118
330
116
100
AcDbEntity
  8
1
  6
Continuous
 62
     2
100
AcDbLine
 10
52.77404459471922
 20
61.76450912771871
 30
0.0
 11
52.77404459471922
 21
72.862782174999
 31
0.0
  0
LINE
  5
119
330
116
100
AcDbEntity
  8
1
  6
Continuous
 62
     2
100
AcDbLine
 10
10.77405100341923
 20
62.7645213348188
 30
0.0
 11
10.77405100341923
 21
72.862782174999
 31
0.0
  0
SOLID
  5
11A
330
116
100
AcDbEntity
  8
1
 62
     2
100
AcDbTrace
 10
14.27405100341923
 20
71.32356591655488
 30
0.0
 11
14.27405100341923
 21
70.40199843344311
 31
0.0
 12
10.77405100341923
 22
70.862782174999
 32
0.0
 13
10.77405100341923
 23
70.862782174999
 33
0.0
  0
SOLID
  5
11B
330
116
100
AcDbEntity
  8
1
 62
     2
100
AcDbTrace
 10
49.27404459471922
 20
70.40199843344311
 30
0.0
 11
49.27404459471922
 21
71.32356591655488
 31
0.0
 12
52.77404459471922
 22
70.862782174999
 32
0.0
 13
52.77404459471922
 23
70.862782174999
 33
0.0
  0
MTEXT
  5
11D
330
116
100
AcDbEntity
  8
1
 62
     2
100
AcDbMText
 10
28.4645520150519
 20
72.862782174999
 30
0.0
 40
3.5
 41
0.0
 71
     7
 72
     1
  1
42
  7
CONVERTER_11
 11
0.9999999999970621
 21
2.424068405545307E-6
 31
0.0
 73
     1
 44
0.60024009603842
  0
ENDBLK
  5
11F
330
116
100
AcDbEntity
  8
0
100
AcDbBlockEnd
  0
BLOCK
  5
129
330
122
100
AcDbEntity
  8
0
100
AcDbBlockBegin
  2
*D2
 70
     1
 71
     0
 10
0.0
 20
0.0
 30
0.0
  3
*D2
  1

  0
LINE
  5
123
330
122
100
AcDbEntity
  8
1
  6
Continuous
 62
     2
100
AcDbLine
 10
-70.22595206238088
 20
55.6286472958996
 30
0.0
 11
-18.22595206238088
 21
55.6286472958996
 31
0.0
  0
LINE
  5
124
330
122
100
AcDbEntity
  8
1
  6
Continuous
 62
     2
100
AcDbLine
 10
-18.22595206238088
 20
39.7645147950187
 30
0.0
 11
-18.22595206238088
 21
57.6286472958996
 31
0.0
  0
LINE
  5
125
330
122
100
AcDbEntity
  8
1
  6
Continuous
 62
     2
100
AcDbLine
 10
-70.22595206238088
 20
38.96066721772527
 30
0.0
 11
-70.22595206238088
 21
57.6286472958996
 31
0.0
  0
SOLID
  5
126
330
122
100
AcDbEntity
  8
1
 62
     2
100
AcDbTrace
 10
-66.72595206238088
 20
56.08943103745548
 30
0.0
 11
-66.72595206238088
 21
55.16786355434371
 31
0.0
 12
-70.22595206238088
 22
55.6286472958996
 32
0.0
 13
-70.22595206238088
 23
55.6286472958996
 33
0.0
  0
SOLID
  5
127
330
122
100
AcDbEntity
  8
1
 62
     2
100
AcDbTrace
 10
-21.72595206238088
 20
55.16786355434371
 30
0.0
 11
-21.72595206238088
 21
56.08943103745548
 31
0.0
 12
-18.22595206238088
 22
55.6286472958996
 32
0.0
 13
-18.22595206238088
 23
55.6286472958996
 33
0.0
  0
MTEXT
  5
128
330
122
100
AcDbEntity
  8
1
 62
     2
100
AcDbMText
 10
-47.5537810316537
 20
57.6286472958996
 30
0.0
 40
3.5
 41
0.0
 71
     7
 72
     1
  1
52
  7
CONVERTER_11
 11
0.9999999999970621
 21
2.424068405545307E-6
 31
0.0
 73
     1
 44
0.60024009603842
  0
ENDBLK
  5
12A
330
122
100
AcDbEntity
  8
0
100
AcDbBlockEnd
  0
BLOCK
  5
134
330
12D
100
AcDbEntity
  8
0
100
AcDbBlockBegin
  2
*D3
 70
     1
 71
     0
 10
0.0
 20
0.0
 30
0.0
  3
*D3
  1

  0
LINE
  5
12E
330
12D
100
AcDbEntity
  8
1
  6
Continuous
 62
     2
100
AcDbLine
 10
-48.22595206238088
 20
47.402214461186
 30
0.0
 11
-18.22595206238088
 21
47.402214461186
 31
0.0
  0
LINE
  5
12F
330
12D
100
AcDbEntity
  8
1
  6
Continuous
 62
     2
100
AcDbLine
 10
-18.22595206238088
 20
39.7645147950187
 30
0.0
 11
-18.22595206238088
 21
49.402214461186
 31
0.0
  0
LINE
  5
130
330
12D
100
AcDbEntity
  8
1
  6
Continuous
 62
     2
100
AcDbLine
 10
-48.22595206238088
 20
39.7645147950187
 30
0.0
 11
-48.22595206238088
 21
49.402214461186
 31
0.0
  0
SOLID
  5
131
330
12D
100
AcDbEntity
  8
1
 62
     2
100
AcDbTrace
 10
-44.72595206238088
 20
47.86299820274188
 30
0.0
 11
-44.72595206238088
 21
46.94143071963011
 31
0.0
 12
-48.22595206238088
 22
47.402214461186
 32
0.0
 13
-48.22595206238088
 23
47.402214461186
 33
0.0
  0
SOLID
  5
132
330
12D
100
AcDbEntity
  8
1
 62
     2
100
AcDbTrace
 10
-21.72595206238088
 20
46.94143071963011
 30
0.0
 11
-21.72595206238088
 21
47.86299820274188
 31
0.0
 12
-18.22595206238088
 22
47.402214461186
 32
0.0
 13
-18.22595206238088
 23
47.402214461186
 33
0.0
  0
MTEXT
  5
133
330
12D
100
AcDbEntity
  8
1
 62
     2
100
AcDbMText
 10
-35.5188144771653
 20
49.402214461186
 30
0.0
 40
3.5
 41
0.0
 71
     7
 72
     1
  1
30
  7
CONVERTER_11
 11
0.9999999999970621
 21
2.424068405545307E-6
 31
0.0
 73
     1
 44
0.60024009603842
  0
ENDBLK
  5
135
330
12D
100
AcDbEntity
  8
0
100
AcDbBlockEnd
  0
BLOCK
  5
13F
330
138
100
AcDbEntity
  8
0
100
AcDbBlockBegin
  2
*D4
 70
     1
 71
     0
 10
0.0
 20
0.0
 30
0.0
  3
*D4
  1

  0
LINE
  5
139
330
138
100
AcDbEntity
  8
1
  6
Continuous
 62
     2
100
AcDbLine
 10
-80.73269328243967
 20
-26.23548520498141
 30
0.0
 11
-80.73269328243967
 21
39.76451479501868
 31
0.0
  0
LINE
  5
13A
330
138
100
AcDbEntity
  8
1
  6
Continuous
 62
     2
100
AcDbLine
 10
-67.22595206238083
 20
39.76451479501868
 30
0.0
 11
-82.73269328243967
 21
39.76451479501868
 31
0.0
  0
LINE
  5
13B
330
138
100
AcDbEntity
  8
1
  6
Continuous
 62
     2
100
AcDbLine
 10
-67.22595206238083
 20
-26.23548520498141
 30
0.0
 11
-82.73269328243967
 21
-26.23548520498141
 31
0.0
  0
SOLID
  5
13C
330
138
100
AcDbEntity
  8
1
 62
     2
100
AcDbTrace
 10
-80.27190954088378
 20
36.26451479501868
 30
0.0
 11
-81.19347702399556
 21
36.26451479501868
 31
0.0
 12
-80.73269328243967
 22
39.76451479501868
 32
0.0
 13
-80.73269328243967
 23
39.76451479501868
 33
0.0
  0
SOLID
  5
13D
330
138
100
AcDbEntity
  8
1
 62
     2
100
AcDbTrace
 10
-81.19347702399556
 20
-22.73548520498141
 30
0.0
 11
-80.27190954088378
 21
-22.73548520498141
 31
0.0
 12
-80.73269328243967
 22
-26.23548520498141
 32
0.0
 13
-80.73269328243967
 23
-26.23548520498141
 33
0.0
  0
MTEXT
  5
13E
330
138
100
AcDbEntity
  8
1
 62
     2
100
AcDbMText
 10
-82.73269328243967
 20
4.1631358697716
 30
0.0
 40
3.5
 41
0.0
 71
     7
 72
     1
  1
66
  7
CONVERTER_11
 11
0.0
 21
1.0
 31
0.0
 73
     1
 44
0.60024009603842
  0
ENDBLK
  5
140
330
138
100
AcDbEntity
  8
0
100
AcDbBlockEnd
  0
BLOCK
  5
14A
330
143
100
AcDbEntity
  8
0
100
AcDbBlockBegin
  2
*D5
 70
     1
 71
     0
 10
0.0
 20
0.0
 30
0.0
  3
*D5
  1

  0
LINE
  5
144
330
143
100
AcDbEntity
  8
1
  6
Continuous
 62
     2
100
AcDbLine
 10
-91.04834727567777
 20
-53.23548476878128
 30
0.0
 11
-91.04834727567777
 21
66.7645188933187
 31
0.0
  0
LINE
  5
145
330
143
100
AcDbEntity
  8
1
  6
Continuous
 62
     2
100
AcDbLine
 10
-14.1759523534808
 20
-53.23548476878128
 30
0.0
 11
-93.04834727567777
 21
-53.23548476878128
 31
0.0
  0
LINE
  5
146
330
143
100
AcDbEntity
  8
1
  6
Continuous
 62
     2
100
AcDbLine
 10
-14.1759523534808
 20
66.7645188933187
 30
0.0
 11
-93.04834727567777
 21
66.7645188933187
 31
0.0
  0
SOLID
  5
147
330
143
100
AcDbEntity
  8
1
 62
     2
100
AcDbTrace
 10
-90.58756353412188
 20
63.26451889331869
 30
0.0
 11
-91.50913101723366
 21
63.26451889331869
 31
0.0
 12
-91.04834727567777
 22
66.7645188933187
 32
0.0
 13
-91.04834727567777
 23
66.7645188933187
 33
0.0
  0
SOLID
  5
148
330
143
100
AcDbEntity
  8
1
 62
     2
100
AcDbTrace
 10
-91.50913101723366
 20
-49.73548476878128
 30
0.0
 11
-90.58756353412188
 21
-49.73548476878128
 31
0.0
 12
-91.04834727567777
 22
-53.23548476878128
 32
0.0
 13
-91.04834727567777
 23
-53.23548476878128
 33
0.0
  0
MTEXT
  5
149
330
143
100
AcDbEntity
  8
1
 62
     2
100
AcDbMText
 10
-93.04834727567777
 20
3.79574300021569
 30
0.0
 40
3.5
 41
0.0
 71
     7
 72
     1
  1
120
  7
CONVERTER_11
 11
0.0
 21
1.0
 31
0.0
 73
     1
 44
0.60024009603842
  0
ENDBLK
  5
14B
330
143
100
AcDbEntity
  8
0
100
AcDbBlockEnd
  0
BLOCK
  5
155
330
14E
100
AcDbEntity
  8
0
100
AcDbBlockBegin
  2
*D6
 70
     1
 71
     0
 10
0.0
 20
0.0
 30
0.0
  3
*D6
  1

  0
LINE
  5
14F
330
14E
100
AcDbEntity
  8
1
  6
Continuous
 62
     2
100
AcDbLine
 10
68.07092359565121
 20
-48.23548782048132
 30
0.0
 11
68.07092359565121
 21
61.7645091277187
 31
0.0
  0
LINE
  5
150
330
14E
100
AcDbEntity
  8
1
  6
Continuous
 62
     2
100
AcDbLine
 10
52.77404459471921
 20
-48.23548782048132
 30
0.0
 11
70.07092359565121
 21
-48.23548782048132
 31
0.0
  0
LINE
  5
151
330
14E
100
AcDbEntity
  8
1
  6
Continuous
 62
     2
100
AcDbLine
 10
52.77404459471921
 20
61.7645091277187
 30
0.0
 11
70.07092359565121
 21
61.7645091277187
 31
0.0
  0
SOLID
  5
152
330
14E
100
AcDbEntity
  8
1
 62
     2
100
AcDbTrace
 10
68.5317073372071
 20
58.2645091277187
 30
0.0
 11
67.61013985409532
 21
58.2645091277187
 31
0.0
 12
68.07092359565121
 22
61.7645091277187
 32
0.0
 13
68.07092359565121
 23
61.7645091277187
 33
0.0
  0
SOLID
  5
153
330
14E
100
AcDbEntity
  8
1
 62
     2
100
AcDbTrace
 10
67.61013985409532
 20
-44.73548782048132
 30
0.0
 11
68.5317073372071
 21
-44.73548782048132
 31
0.0
 12
68.07092359565121
 22
-48.23548782048132
 32
0.0
 13
68.07092359565121
 23
-48.23548782048132
 33
0.0
  0
MTEXT
  5
154
330
14E
100
AcDbEntity
  8
1
 62
     2
100
AcDbMText
 10
66.07092359565121
 20
2.1158570297117
 30
0.0
 40
3.5
 41
0.0
 71
     7
 72
     1
  1
110
  7
CONVERTER_11
 11
0.0
 21
1.0
 31
0.0
 73
     1
 44
0.60024009603842
  0
ENDBLK
  5
156
330
14E
100
AcDbEntity
  8
0
100
AcDbBlockEnd
  0
BLOCK
  5
160
330
159
100
AcDbEntity
  8
0
100
AcDbBlockBegin
  2
*D7
 70
     1
 71
     0
 10
0.0
 20
0.0
 30
0.0
  3
*D7
  1

  0
LINE
  5
15A
330
159
100
AcDbEntity
  8
1
  6
Continuous
 62
     2
100
AcDbLine
 10
-14.1759523534808
 20
110.023044177291
 30
0.0
 11
5.7240470361192
 21
110.023044177291
 31
0.0
  0
LINE
  5
15B
330
159
100
AcDbEntity
  8
1
  6
Continuous
 62
     2
100
AcDbLine
 10
-14.1759523534808
 20
66.7645188933187
 30
0.0
 11
-14.1759523534808
 21
112.023044177291
 31
0.0
  0
LINE
  5
15C
330
159
100
AcDbEntity
  8
1
  6
Continuous
 62
     2
100
AcDbLine
 10
5.7240470361192
 20
66.76451517777693
 30
0.0
 11
5.7240470361192
 21
112.023044177291
 31
0.0
  0
SOLID
  5
15D
330
159
100
AcDbEntity
  8
1
 62
     2
100
AcDbTrace
 10
-10.6759523534808
 20
110.4838279188469
 30
0.0
 11
-10.6759523534808
 21
109.5622604357351
 31
0.0
 12
-14.1759523534808
 22
110.023044177291
 32
0.0
 13
-14.1759523534808
 23
110.023044177291
 33
0.0
  0
SOLID
  5
15E
330
159
100
AcDbEntity
  8
1
 62
     2
100
AcDbTrace
 10
2.2240470361192
 20
109.5622604357351
 30
0.0
 11
2.2240470361192
 21
110.4838279188469
 31
0.0
 12
5.7240470361192
 22
110.023044177291
 32
0.0
 13
5.7240470361192
 23
110.023044177291
 33
0.0
  0
MTEXT
  5
15F
330
159
100
AcDbEntity
  8
1
 62
     2
100
AcDbMText
 10
-7.15943214321235
 20
112.0230372202147
 30
0.0
 40
3.5
 41
0.0
 71
     7
 72
     1
  1
\C2;ø\C2;20
  7
CONVERTER_11
 11
0.9999999999970621
 21
2.424068405545307E-6
 31
0.0
 73
     1
 44
0.60024009603842
  0
ENDBLK
  5
161
330
159
100
AcDbEntity
  8
0
100
AcDbBlockEnd
  0
BLOCK
  5
16B
330
164
100
AcDbEntity
  8
0
100
AcDbBlockBegin
  2
*D8
 70
     1
 71
     0
 10
0.0
 20
0.0
 30
0.0
  3
*D8
  1

  0
LINE
  5
165
330
164
100
AcDbEntity
  8
1
  6
Continuous
 62
     2
100
AcDbLine
 10
-103.2105155123358
 20
-91.23548327847543
 30
0.0
 11
-103.2105155123358
 21
104.7645151777769
 31
0.0
  0
LINE
  5
166
330
164
100
AcDbEntity
  8
1
  6
Continuous
 62
     2
100
AcDbLine
 10
-4.2259520623808
 20
-91.23548327847543
 30
0.0
 11
-105.2105155123358
 21
-91.23548327847543
 31
0.0
  0
LINE
  5
167
330
164
100
AcDbEntity
  8
1
  6
Continuous
 62
     2
100
AcDbLine
 10
-4.2259520623808
 20
104.7645151777769
 30
0.0
 11
-105.2105155123358
 21
104.7645151777769
 31
0.0
  0
SOLID
  5
168
330
164
100
AcDbEntity
  8
1
 62
     2
100
AcDbTrace
 10
-103.6712992538917
 20
-87.73548327847543
 30
0.0
 11
-102.7497317707799
 21
-87.73548327847543
 31
0.0
 12
-103.2105155123358
 22
-91.23548327847543
 32
0.0
 13
-103.2105155123358
 23
-91.23548327847543
 33
0.0
  0
SOLID
  5
169
330
164
100
AcDbEntity
  8
1
 62
     2
100
AcDbTrace
 10
-102.7497317707799
 20
101.2645151777769
 30
0.0
 11
-103.6712992538917
 21
101.2645151777769
 31
0.0
 12
-103.2105155123358
 22
104.7645151777769
 32
0.0
 13
-103.2105155123358
 23
104.7645151777769
 33
0.0
  0
MTEXT
  5
16A
330
164
100
AcDbEntity
  8
1
 62
     2
100
AcDbMText
 10
-105.2105155123358
 20
1.32486990132921
 30
0.0
 40
3.5
 41
0.0
 71
     7
 72
     1
  1
196
  7
CONVERTER_11
 11
0.0
 21
1.0
 31
0.0
 73
     1
 44
0.60024009603842
  0
ENDBLK
  5
16C
330
164
100
AcDbEntity
  8
0
100
AcDbBlockEnd
  0
ENDSEC
  0
SECTION
  2
ENTITIES
  0
POINT
  5
33
330
1F
100
AcDbEntity
  8
0
 62
     7
100
AcDbPoint
 10
-14.1770042483808
 20
-53.2354852049813
 30
0.0
  0
POINT
  5
34
330
1F
100
AcDbEntity
  8
0
 62
     7
100
AcDbPoint
 10
-14.1770042483808
 20
66.7645147950187
 30
0.0
  0
POINT
  5
35
330
1F
100
AcDbEntity
  8
0
 62
     7
100
AcDbPoint
 10
-14.1770042483808
 20
66.7645147950187
 30
0.0
  0
POINT
  5
36
330
1F
100
AcDbEntity
  8
0
 62
     7
100
AcDbPoint
 10
-14.1770042483808
 20
-53.2354852049813
 30
0.0
  0
LINE
  5
37
330
1F
100
AcDbEntity
  8
0
  6
Continuous
 62
     7
100
AcDbLine
 10
-27.72595206238088
 20
3.2645147950187
 30
0.0
 11
-31.72595206238088
 21
3.2645147950187
 31
0.0
  0
LINE
  5
38
330
1F
100
AcDbEntity
  8
0
  6
Continuous
 62
     7
100
AcDbLine
 10
-31.72595206238088
 20
10.2645147950187
 30
0.0
 11
-27.72595206238088
 21
10.2645147950187
 31
0.0
  0
LINE
  5
39
330
1F
100
AcDbEntity
  8
0
  6
Continuous
 62
     7
100
AcDbLine
 10
-14.22595206238077
 20
2.2645147950187
 30
0.0
 11
-9.07989248598088
 21
2.2645147950187
 31
0.0
  0
LINE
  5
3A
330
1F
100
AcDbEntity
  8
0
  6
Continuous
 62
     7
100
AcDbLine
 10
-14.22595206238077
 20
11.2645147950187
 30
0.0
 11
-9.07989248598088
 21
11.2645147950187
 31
0.0
  0
LINE
  5
3B
330
1F
100
AcDbEntity
  8
1
  6
Continuous
 62
     7
100
AcDbLine
 10
-36.22595206238088
 20
2.2645147950187
 30
0.0
 11
-36.22595206238088
 21
11.2645147950187
 31
0.0
  0
LINE
  5
3C
330
1F
100
AcDbEntity
  8
1
  6
Continuous
 62
     7
100
AcDbLine
 10
-36.22595206238088
 20
11.2645147950187
 30
0.0
 11
-36.22595206238088
 21
29.2645147950187
 31
0.0
  0
LINE
  5
3D
330
1F
100
AcDbEntity
  8
0
  6
Continuous
 62
     2
100
AcDbLine
 10
-14.85348574898088
 20
11.2645147950187
 30
0.0
 11
-14.85348574898088
 21
2.2645147950187
 31
0.0
  0
LINE
  5
3E
330
1F
100
AcDbEntity
  8
0
  6
Continuous
 62
     7
100
AcDbLine
 10
-9.07989248598088
 20
2.2645147950187
 30
0.0
 11
-9.07989248598088
 21
11.2645147950187
 31
0.0
  0
LINE
  5
3F
330
1F
100
AcDbEntity
  8
0
  6
Continuous
 62
     7
100
AcDbLine
 10
-25.72595206238088
 20
2.2645147950187
 30
0.0
 11
-14.22595206238077
 21
2.2645147950187
 31
0.0
  0
LINE
  5
40
330
1F
100
AcDbEntity
  8
0
  6
Continuous
 62
     7
100
AcDbLine
 10
-25.72595206238088
 20
11.2645147950187
 30
0.0
 11
-14.22595206238077
 21
11.2645147950187
 31
0.0
  0
LINE
  5
41
330
1F
100
AcDbEntity
  8
0
  6
Continuous
 62
     7
100
AcDbLine
 10
-26.72595206238088
 20
9.2645147950187
 30
0.0
 11
-26.72595206238088
 21
4.2645147950187
 31
0.0
  0
LINE
  5
42
330
1F
100
AcDbEntity
  8
0
  6
Continuous
 62
     7
100
AcDbLine
 10
-32.72595206238088
 20
4.2645147950187
 30
0.0
 11
-32.72595206238088
 21
9.2645147950187
 31
0.0
  0
LINE
  5
43
330
1F
100
AcDbEntity
  8
0
  6
Continuous
 62
     7
100
AcDbLine
 10
-35.22595206238088
 20
1.2645147950187
 30
0.0
 11
-26.72595206238088
 21
1.2645147950187
 31
0.0
  0
LINE
  5
44
330
1F
100
AcDbEntity
  8
0
  6
Continuous
 62
     7
100
AcDbLine
 10
-35.22595206238088
 20
12.2645147950187
 30
0.0
 11
-26.72595206238088
 21
12.2645147950187
 31
0.0
  0
LINE
  5
45
330
1F
100
AcDbEntity
  8
0
  6
Continuous
 62
     7
100
AcDbLine
 10
-70.22595206238088
 20
-6.1570053121813
 30
0.0
 11
-64.22595206238088
 21
-6.1570053121813
 31
0.0
  0
LINE
  5
46
330
1F
100
AcDbEntity
  8
0
  6
Continuous
 62
     7
100
AcDbLine
 10
-64.22595206238088
 20
19.68603490221869
 30
0.0
 11
-70.22595206238088
 21
19.68603490221869
 31
0.0
  0
LINE
  5
47
330
1F
100
AcDbEntity
  8
0
  6
Continuous
 62
     7
100
AcDbLine
 10
-70.22595206238088
 20
5.7645147950187
 30
0.0
 11
-64.22595206238088
 21
5.7645147950187
 31
0.0
  0
LINE
  5
48
330
1F
100
AcDbEntity
  8
0
  6
Continuous
 62
     7
100
AcDbLine
 10
-70.22595206238088
 20
7.7645147950187
 30
0.0
 11
-64.22595206238088
 21
7.7645147950187
 31
0.0
  0
LINE
  5
49
330
1F
100
AcDbEntity
  8
1
  6
Continuous
 62
     7
100
AcDbLine
 10
-70.22595206238088
 20
26.7645147950187
 30
0.0
 11
-70.22595206238088
 21
-13.23548520498141
 31
0.0
  0
LINE
  5
4A
330
1F
100
AcDbEntity
  8
0
  6
Continuous
 62
     7
100
AcDbLine
 10
37.77404459471923
 20
-40.23548520498127
 30
0.0
 11
47.77404459471923
 21
-40.23548520498127
 31
0.0
  0
LINE
  5
4B
330
1F
100
AcDbEntity
  8
0
  6
Continuous
 62
     7
100
AcDbLine
 10
37.77404459471923
 20
-48.03344417608128
 30
0.0
 11
47.77404459471923
 21
-48.03344417608128
 31
0.0
  0
LINE
  5
4C
330
1F
100
AcDbEntity
  8
0
  6
Continuous
 62
     7
100
AcDbLine
 10
47.77404459471923
 20
-40.23548520498127
 30
0.0
 11
47.77404459471923
 21
-48.03344417608128
 31
0.0
  0
LINE
  5
4D
330
1F
100
AcDbEntity
  8
0
  6
Continuous
 62
     7
100
AcDbLine
 10
37.77404459471923
 20
-40.23548520498127
 30
0.0
 11
37.77404459471923
 21
-48.03344417608128
 31
0.0
  0
LINE
  5
4E
330
1F
100
AcDbEntity
  8
0
  6
Continuous
 62
     7
100
AcDbLine
 10
47.77404459471923
 20
53.76451479501867
 30
0.0
 11
37.77404459471923
 21
53.76451479501867
 31
0.0
  0
LINE
  5
4F
330
1F
100
AcDbEntity
  8
0
  6
Continuous
 62
     7
100
AcDbLine
 10
47.77404459471923
 20
61.56247376611867
 30
0.0
 11
37.77404459471923
 21
61.56247376611867
 31
0.0
  0
LINE
  5
50
330
1F
100
AcDbEntity
  8
0
  6
Continuous
 62
     7
100
AcDbLine
 10
47.77404459471923
 20
61.56247376611867
 30
0.0
 11
47.77404459471923
 21
53.76451479501867
 31
0.0
  0
LINE
  5
51
330
1F
100
AcDbEntity
  8
0
  6
Continuous
 62
     7
100
AcDbLine
 10
37.77404459471923
 20
61.56247376611867
 30
0.0
 11
37.77404459471923
 21
53.76451479501867
 31
0.0
  0
LINE
  5
52
330
1F
100
AcDbEntity
  8
DEFAULT_1
  6
DOT_CENTER
 62
     2
100
AcDbLine
 10
34.77404793761923
 20
6.7645147950187
 30
0.0
 11
58.09045036081926
 21
6.7645147950187
 31
0.0
  0
LINE
  5
53
330
1F
100
AcDbEntity
  8
1
  6
DOT_CENTER
 62
     2
100
AcDbLine
 10
35.93958180662103
 20
-45.2354852049813
 30
0.0
 11
25.63456517701593
 21
-45.2354852049813
 31
0.0
  0
LINE
  5
54
330
1F
100
AcDbEntity
  8
1
  6
DOT_CENTER
 62
     2
100
AcDbLine
 10
35.93958180662103
 20
58.7645147950187
 30
0.0
 11
25.63456517701593
 21
58.7645147950187
 31
0.0
  0
LINE
  5
55
330
1F
100
AcDbEntity
  8
1
  6
DOT_CENTER
 62
     2
100
AcDbLine
 10
-72.67683307710578
 20
6.7645147950187
 30
0.0
 11
-4.22595206238077
 21
6.7645147950187
 31
0.0
  0
LINE
  5
56
330
1F
100
AcDbEntity
  8
1
  6
Continuous
 62
     7
100
AcDbLine
 10
-14.22595206238077
 20
29.2645147950187
 30
0.0
 11
-14.22595206238077
 21
11.2645147950187
 31
0.0
  0
LINE
  5
57
330
1F
100
AcDbEntity
  8
1
  6
Continuous
 62
     7
100
AcDbLine
 10
4.52404793761923
 20
-15.7354852049813
 30
0.0
 11
5.77404793761923
 21
-15.7354852049813
 31
0.0
  0
LINE
  5
58
330
1F
100
AcDbEntity
  8
1
  6
Continuous
 62
     7
100
AcDbLine
 10
-14.22595206238077
 20
2.2645147950187
 30
0.0
 11
-14.22595206238077
 21
-15.7354852049813
 31
0.0
  0
LINE
  5
59
330
1F
100
AcDbEntity
  8
1
  6
Continuous
 62
     7
100
AcDbLine
 10
-12.97595206238077
 20
29.2645147950187
 30
0.0
 11
-14.22595206238077
 21
29.2645147950187
 31
0.0
  0
LINE
  5
5A
330
1F
100
AcDbEntity
  8
1
  6
Continuous
 62
     7
100
AcDbLine
 10
5.77404793761923
 20
6.7645147950187
 30
0.0
 11
5.77404793761923
 21
29.2645147950187
 31
0.0
  0
LINE
  5
5B
330
1F
100
AcDbEntity
  8
1
  6
Continuous
 62
     7
100
AcDbLine
 10
5.77404793761923
 20
29.2645147950187
 30
0.0
 11
4.52404793761923
 21
29.2645147950187
 31
0.0
  0
LINE
  5
5C
330
1F
100
AcDbEntity
  8
1
  6
Continuous
 62
     7
100
AcDbLine
 10
-12.97595206238077
 20
-15.7354852049813
 30
0.0
 11
4.52404793761923
 21
-15.7354852049813
 31
0.0
  0
LINE
  5
5D
330
1F
100
AcDbEntity
  8
1
  6
Continuous
 62
     7
100
AcDbLine
 10
4.52404793761923
 20
29.2645147950187
 30
0.0
 11
-12.97595206238077
 21
29.2645147950187
 31
0.0
  0
LINE
  5
5E
330
1F
100
AcDbEntity
  8
1
  6
Continuous
 62
     7
100
AcDbLine
 10
-14.22595206238077
 20
-15.7354852049813
 30
0.0
 11
-12.97595206238077
 21
-15.7354852049813
 31
0.0
  0
LINE
  5
5F
330
1F
100
AcDbEntity
  8
1
  6
Continuous
 62
     7
100
AcDbLine
 10
5.77404793761923
 20
-15.7354852049813
 30
0.0
 11
5.77404793761923
 21
6.7645147950187
 31
0.0
  0
LINE
  5
60
330
1F
100
AcDbEntity
  8
1
  6
Continuous
 62
     7
100
AcDbLine
 10
-12.97595206238077
 20
-16.53548520498131
 30
0.0
 11
-12.97595206238077
 21
-15.7354852049813
 31
0.0
  0
LINE
  5
61
330
1F
100
AcDbEntity
  8
1
  6
Continuous
 62
     7
100
AcDbLine
 10
4.52404793761923
 20
-15.7354852049813
 30
0.0
 11
4.52404793761923
 21
-16.53548520498131
 31
0.0
  0
LINE
  5
62
330
1F
100
AcDbEntity
  8
1
  6
Continuous
 62
     7
100
AcDbLine
 10
-12.97595206238077
 20
29.2645147950187
 30
0.0
 11
-12.97595206238077
 21
30.06451479501883
 31
0.0
  0
LINE
  5
63
330
1F
100
AcDbEntity
  8
1
  6
Continuous
 62
     7
100
AcDbLine
 10
4.52404793761923
 20
30.06451479501883
 30
0.0
 11
4.52404793761923
 21
29.2645147950187
 31
0.0
  0
LINE
  5
64
330
1F
100
AcDbEntity
  8
1
  6
Continuous
 62
     7
100
AcDbLine
 10
-36.22595206238088
 20
-15.73548520498141
 30
0.0
 11
-36.22595206238088
 21
2.2645147950187
 31
0.0
  0
LINE
  5
65
330
1F
100
AcDbEntity
  8
1
  6
Continuous
 62
     7
100
AcDbLine
 10
-36.22595206238088
 20
-26.23548520498141
 30
0.0
 11
-36.22595206238088
 21
-15.73548520498141
 31
0.0
  0
LINE
  5
66
330
1F
100
AcDbEntity
  8
1
  6
DOT_CENTER
 62
     2
100
AcDbLine
 10
-28.22595206238088
 20
-0.7354852049813
 30
0.0
 11
-28.22595206238088
 21
-15.7354852049813
 31
0.0
  0
LINE
  5
67
330
1F
100
AcDbEntity
  8
1
  6
DOT_CENTER
 62
     2
100
AcDbLine
 10
-35.72595206238088
 20
-8.2354852049813
 30
0.0
 11
-20.72595206238088
 21
-8.2354852049813
 31
0.0
  0
LINE
  5
68
330
1F
100
AcDbEntity
  8
1
  6
Continuous
 62
     7
100
AcDbLine
 10
-29.40095206238087
 20
-6.20032550608789
 30
0.0
 11
-30.57595206238088
 21
-8.2354852049813
 31
0.0
  0
LINE
  5
69
330
1F
100
AcDbEntity
  8
1
  6
Continuous
 62
     7
100
AcDbLine
 10
-30.57595206238088
 20
-8.2354852049813
 30
0.0
 11
-29.40095206238087
 21
-10.27064490387479
 31
0.0
  0
LINE
  5
6A
330
1F
100
AcDbEntity
  8
1
  6
Continuous
 62
     7
100
AcDbLine
 10
-29.40095206238087
 20
-10.27064490387479
 30
0.0
 11
-27.05095206238079
 21
-10.27064490387479
 31
0.0
  0
LINE
  5
6B
330
1F
100
AcDbEntity
  8
1
  6
Continuous
 62
     7
100
AcDbLine
 10
-27.05095206238079
 20
-10.27064490387479
 30
0.0
 11
-25.87595206238078
 21
-8.2354852049813
 31
0.0
  0
LINE
  5
6C
330
1F
100
AcDbEntity
  8
1
  6
Continuous
 62
     7
100
AcDbLine
 10
-25.87595206238078
 20
-8.2354852049813
 30
0.0
 11
-27.05095206238079
 21
-6.20032550608789
 31
0.0
  0
LINE
  5
6D
330
1F
100
AcDbEntity
  8
1
  6
Continuous
 62
     7
100
AcDbLine
 10
-27.05095206238079
 20
-6.20032550608789
 30
0.0
 11
-29.40095206238087
 21
-6.20032550608789
 31
0.0
  0
LINE
  5
6E
330
1F
100
AcDbEntity
  8
1
  6
DOT_CENTER
 62
     2
100
AcDbLine
 10
-28.22595206238088
 20
29.2645147950187
 30
0.0
 11
-28.22595206238088
 21
14.2645147950187
 31
0.0
  0
LINE
  5
6F
330
1F
100
AcDbEntity
  8
1
  6
DOT_CENTER
 62
     2
100
AcDbLine
 10
-35.72595206238088
 20
21.7645147950187
 30
0.0
 11
-20.72595206238088
 21
21.7645147950187
 31
0.0
  0
LINE
  5
70
330
1F
100
AcDbEntity
  8
1
  6
Continuous
 62
     7
100
AcDbLine
 10
-29.40095206238087
 20
23.79967449391208
 30
0.0
 11
-30.57595206238076
 21
21.7645147950187
 31
0.0
  0
LINE
  5
71
330
1F
100
AcDbEntity
  8
1
  6
Continuous
 62
     7
100
AcDbLine
 10
-30.57595206238076
 20
21.7645147950187
 30
0.0
 11
-29.40095206238087
 21
19.72935509612538
 31
0.0
  0
LINE
  5
72
330
1F
100
AcDbEntity
  8
1
  6
Continuous
 62
     7
100
AcDbLine
 10
-29.40095206238087
 20
19.72935509612538
 30
0.0
 11
-27.05095206238079
 21
19.72935509612521
 31
0.0
  0
LINE
  5
73
330
1F
100
AcDbEntity
  8
1
  6
Continuous
 62
     7
100
AcDbLine
 10
-27.05095206238079
 20
19.72935509612521
 30
0.0
 11
-25.87595206238078
 21
21.76451479501859
 31
0.0
  0
LINE
  5
74
330
1F
100
AcDbEntity
  8
1
  6
Continuous
 62
     7
100
AcDbLine
 10
-25.87595206238078
 20
21.76451479501859
 30
0.0
 11
-27.05095206238079
 21
23.79967449391208
 31
0.0
  0
LINE
  5
75
330
1F
100
AcDbEntity
  8
1
  6
Continuous
 62
     7
100
AcDbLine
 10
-27.05095206238079
 20
23.79967449391208
 30
0.0
 11
-29.40095206238087
 21
23.79967449391208
 31
0.0
  0
LINE
  5
76
330
1F
100
AcDbEntity
  8
1
  6
Continuous
 62
     7
100
AcDbLine
 10
-18.22595206238088
 20
-26.23548520498141
 30
0.0
 11
-36.22595206238088
 21
-26.23548520498141
 31
0.0
  0
LINE
  5
77
330
1F
100
AcDbEntity
  8
1
  6
Continuous
 62
     7
100
AcDbLine
 10
-48.22595206238088
 20
39.7645147950187
 30
0.0
 11
-36.22595206238088
 21
39.7645147950187
 31
0.0
  0
LINE
  5
78
330
1F
100
AcDbEntity
  8
1
  6
Continuous
 62
     7
100
AcDbLine
 10
-36.22595206238088
 20
29.2645147950187
 30
0.0
 11
-36.22595206238088
 21
39.7645147950187
 31
0.0
  0
LINE
  5
79
330
1F
100
AcDbEntity
  8
1
  6
Continuous
 62
     7
100
AcDbLine
 10
-67.22595206238088
 20
39.7645147950187
 30
0.0
 11
-48.22595206238088
 21
39.7645147950187
 31
0.0
  0
LINE
  5
7A
330
1F
100
AcDbEntity
  8
1
  6
Continuous
 62
     7
100
AcDbLine
 10
-36.22595206238088
 20
-26.23548520498141
 30
0.0
 11
-48.22595206238088
 21
-26.23548520498141
 31
0.0
  0
LINE
  5
7B
330
1F
100
AcDbEntity
  8
1
  6
Continuous
 62
     7
100
AcDbLine
 10
-48.22595206238088
 20
-26.23548520498141
 30
0.0
 11
-48.22595206238088
 21
39.7645147950187
 31
0.0
  0
LINE
  5
7C
330
1F
100
AcDbEntity
  8
1
  6
Continuous
 62
     7
100
AcDbLine
 10
-36.22595206238088
 20
39.7645147950187
 30
0.0
 11
-18.22595206238088
 21
39.7645147950187
 31
0.0
  0
LINE
  5
7D
330
1F
100
AcDbEntity
  8
1
  6
Continuous
 62
     7
100
AcDbLine
 10
-18.22595206238088
 20
39.7645147950187
 30
0.0
 11
-18.22595206238088
 21
29.2645147950187
 31
0.0
  0
LINE
  5
7E
330
1F
100
AcDbEntity
  8
1
  6
Continuous
 62
     7
100
AcDbLine
 10
-67.22595206238088
 20
26.7645147950187
 30
0.0
 11
-67.22595206238088
 21
39.7645147950187
 31
0.0
  0
LINE
  5
7F
330
1F
100
AcDbEntity
  8
1
  6
Continuous
 62
     7
100
AcDbLine
 10
-70.22595206238088
 20
38.96066721772528
 30
0.0
 11
-67.22595206238088
 21
39.7645147950187
 31
0.0
  0
LINE
  5
80
330
1F
100
AcDbEntity
  8
1
  6
Continuous
 62
     7
100
AcDbLine
 10
-70.22595206238088
 20
-13.23548520498141
 30
0.0
 11
-67.22595206238088
 21
-13.23548520498141
 31
0.0
  0
LINE
  5
81
330
1F
100
AcDbEntity
  8
1
  6
Continuous
 62
     7
100
AcDbLine
 10
-70.22595206238088
 20
38.96066721772528
 30
0.0
 11
-70.22595206238088
 21
26.7645147950187
 31
0.0
  0
LINE
  5
82
330
1F
100
AcDbEntity
  8
1
  6
Continuous
 62
     7
100
AcDbLine
 10
-70.22595206238088
 20
26.7645147950187
 30
0.0
 11
-67.22595206238088
 21
26.7645147950187
 31
0.0
  0
LINE
  5
83
330
1F
100
AcDbEntity
  8
1
  6
Continuous
 62
     7
100
AcDbLine
 10
-67.22595206238088
 20
-13.23548520498141
 30
0.0
 11
-64.22595206238088
 21
-13.23548520498141
 31
0.0
  0
LINE
  5
84
330
1F
100
AcDbEntity
  8
1
  6
Continuous
 62
     7
100
AcDbLine
 10
-64.22595206238088
 20
-13.23548520498141
 30
0.0
 11
-64.22595206238088
 21
26.7645147950187
 31
0.0
  0
LINE
  5
85
330
1F
100
AcDbEntity
  8
1
  6
Continuous
 62
     7
100
AcDbLine
 10
-64.22595206238088
 20
26.7645147950187
 30
0.0
 11
-67.22595206238088
 21
26.7645147950187
 31
0.0
  0
LINE
  5
86
330
1F
100
AcDbEntity
  8
1
  6
Continuous
 62
     7
100
AcDbLine
 10
-70.22595206238088
 20
-25.43163762768799
 30
0.0
 11
-70.22595206238088
 21
-13.23548520498141
 31
0.0
  0
LINE
  5
87
330
1F
100
AcDbEntity
  8
1
  6
Continuous
 62
     7
100
AcDbLine
 10
-67.22595206238088
 20
-26.23548520498141
 30
0.0
 11
-67.22595206238088
 21
-13.23548520498141
 31
0.0
  0
LINE
  5
88
330
1F
100
AcDbEntity
  8
1
  6
Continuous
 62
     7
100
AcDbLine
 10
-70.22595206238088
 20
-25.43163762768799
 30
0.0
 11
-67.22595206238088
 21
-26.23548520498141
 31
0.0
  0
LINE
  5
89
330
1F
100
AcDbEntity
  8
1
  6
Continuous
 62
     7
100
AcDbLine
 10
-48.22595206238088
 20
-26.23548520498141
 30
0.0
 11
-67.22595206238088
 21
-26.23548520498141
 31
0.0
  0
LINE
  5
8A
330
1F
100
AcDbEntity
  8
1
  6
Continuous
 62
     7
100
AcDbLine
 10
-18.22595206238088
 20
-15.73548520498141
 30
0.0
 11
-18.22595206238088
 21
-26.23548520498141
 31
0.0
  0
LINE
  5
8B
330
1F
100
AcDbEntity
  8
1
  6
Continuous
 62
     7
100
AcDbLine
 10
-36.22595206238088
 20
29.2645147950187
 30
0.0
 11
-14.22595206238077
 21
29.2645147950187
 31
0.0
  0
LINE
  5
8C
330
1F
100
AcDbEntity
  8
1
  6
Continuous
 62
     7
100
AcDbLine
 10
-36.22595206238088
 20
-15.73548520498141
 30
0.0
 11
-14.22595206238077
 21
-15.7354852049813
 31
0.0
  0
LINE
  5
8D
330
1F
100
AcDbEntity
  8
1
  6
DOT_CENTER
 62
     2
100
AcDbLine
 10
-4.22595206238077
 20
6.7645147950187
 30
0.0
 11
5.77404793761923
 21
6.7645147950187
 31
0.0
  0
LINE
  5
8E
330
1F
100
AcDbEntity
  8
DEFAULT_1
  6
DOT_CENTER
 62
     2
100
AcDbLine
 10
-4.22595206238077
 20
6.7645147950187
 30
0.0
 11
-4.22595206238077
 21
-28.0091628484613
 31
0.0
  0
LINE
  5
8F
330
1F
100
AcDbEntity
  8
0
  6
Continuous
 62
     7
100
AcDbLine
 10
5.7240470361192
 20
-53.23548516424268
 30
0.0
 11
7.77404793761923
 21
-53.2354852049813
 31
0.0
  0
LINE
  5
90
330
1F
100
AcDbEntity
  8
0
  6
Continuous
 62
     7
100
AcDbLine
 10
5.7240470361192
 20
66.76451517777693
 30
0.0
 11
7.77404793761923
 21
66.7645147950187
 31
0.0
  0
LINE
  5
91
330
1F
100
AcDbEntity
  8
1
  6
DOT_CENTER
 62
     2
100
AcDbLine
 10
30.77404793761923
 20
23.7645147950187
 30
0.0
 11
30.77404793761923
 21
-52.03389349292169
 31
0.0
  0
LINE
  5
92
330
1F
100
AcDbEntity
  8
1
  6
DOT_CENTER
 62
     2
100
AcDbLine
 10
37.77404793761923
 20
-17.2354852049813
 30
0.0
 11
23.77404793761923
 21
-17.2354852049813
 31
0.0
  0
LINE
  5
93
330
1F
100
AcDbEntity
  8
1
  6
DOT_CENTER
 62
     2
100
AcDbLine
 10
30.77404793761923
 20
64.4667706991951
 30
0.0
 11
30.77404793761923
 21
23.7645147950187
 31
0.0
  0
LINE
  5
94
330
1F
100
AcDbEntity
  8
1
  6
DOT_CENTER
 62
     2
100
AcDbLine
 10
37.77404793761923
 20
30.7645147950187
 30
0.0
 11
23.77404793761923
 21
30.7645147950187
 31
0.0
  0
LINE
  5
95
330
1F
100
AcDbEntity
  8
0
  6
Continuous
 62
     7
100
AcDbLine
 10
28.47410629551922
 20
6.78089901631873
 30
0.0
 11
29.60988796461925
 21
8.74813057361874
 31
0.0
  0
LINE
  5
96
330
1F
100
AcDbEntity
  8
0
  6
Continuous
 62
     7
100
AcDbLine
 10
33.07398957981923
 20
6.74813057361874
 30
0.0
 11
31.93820791061927
 21
4.78089901631873
 31
0.0
  0
LINE
  5
97
330
1F
100
AcDbEntity
  8
0
  6
Continuous
 62
     7
100
AcDbLine
 10
29.60988796461925
 20
4.78089901631873
 30
0.0
 11
28.47410629551922
 21
6.74813057361874
 31
0.0
  0
LINE
  5
98
330
1F
100
AcDbEntity
  8
0
  6
Continuous
 62
     7
100
AcDbLine
 10
31.93820791061927
 20
8.74813057361874
 30
0.0
 11
33.07398957981923
 21
6.78089901631873
 31
0.0
  0
LINE
  5
99
330
1F
100
AcDbEntity
  8
0
  6
Continuous
 62
     7
100
AcDbLine
 10
29.6382662685192
 20
4.7645147950187
 30
0.0
 11
31.90982960681924
 21
4.7645147950187
 31
0.0
  0
LINE
  5
9A
330
1F
100
AcDbEntity
  8
0
  6
Continuous
 62
     7
100
AcDbLine
 10
31.90982960681924
 20
8.7645147950187
 30
0.0
 11
29.6382662685192
 21
8.7645147950187
 31
0.0
  0
LINE
  5
9B
330
1F
100
AcDbEntity
  8
0
  6
Continuous
 62
     7
100
AcDbLine
 10
-14.17588826658079
 20
-53.23548476878128
 30
0.0
 11
5.7240470361192
 21
-53.23548516424268
 31
0.0
  0
LINE
  5
9C
330
1F
100
AcDbEntity
  8
0
  6
Continuous
 62
     7
100
AcDbLine
 10
10.77405100341923
 20
-49.23548721018127
 30
0.0
 11
9.77404520511925
 21
-49.23548721018127
 31
0.0
  0
LINE
  5
9D
330
1F
100
AcDbEntity
  8
0
  6
Continuous
 62
     7
100
AcDbLine
 10
10.77405100341923
 20
-48.23548782048133
 30
0.0
 11
27.77404703611927
 21
-48.23548782048133
 31
0.0
  0
LINE
  5
9E
330
1F
100
AcDbEntity
  8
0
  6
Continuous
 62
     7
100
AcDbLine
 10
33.77404337401924
 20
-48.23548782048133
 30
0.0
 11
52.77404459471922
 21
-48.23548782048133
 31
0.0
  0
LINE
  5
9F
330
1F
100
AcDbEntity
  8
0
  6
Continuous
 62
     7
100
AcDbLine
 10
16.7740473413192
 20
-47.5535517853813
 30
0.0
 11
24.77404886721922
 21
-47.5535517853813
 31
0.0
  0
LINE
  5
A0
330
1F
100
AcDbEntity
  8
0
  6
Continuous
 62
     7
100
AcDbLine
 10
16.7740473413192
 20
-45.64578689278127
 30
0.0
 11
24.77404886721922
 21
-45.64578689278127
 31
0.0
  0
LINE
  5
A1
330
1F
100
AcDbEntity
  8
0
  6
Continuous
 62
     7
100
AcDbLine
 10
-14.1759523534808
 20
-53.23548476878128
 30
0.0
 11
-14.1759523534808
 21
-16.5354725616813
 31
0.0
  0
LINE
  5
A2
330
1F
100
AcDbEntity
  8
0
  6
Continuous
 62
     7
100
AcDbLine
 10
-14.1759523534808
 20
30.06450668631871
 30
0.0
 11
-14.1759523534808
 21
66.7645188933187
 31
0.0
  0
LINE
  5
A3
330
1F
100
AcDbEntity
  8
DEFAULT_1
  6
DOT_CENTER
 62
     2
100
AcDbLine
 10
-4.22595206238077
 20
34.86464015955173
 30
0.0
 11
-4.22595206238077
 21
6.7645147950187
 31
0.0
  0
LINE
  5
A4
330
1F
100
AcDbEntity
  8
DEFAULT_1
  6
DOT_CENTER
 62
     2
100
AcDbLine
 10
-4.22595206238077
 20
-28.0091628484613
 30
0.0
 11
-4.22595206238077
 21
-93.35689115234209
 31
0.0
  0
LINE
  5
A5
330
1F
100
AcDbEntity
  8
DEFAULT_1
  6
DOT_CENTER
 62
     2
100
AcDbLine
 10
-4.22595206238077
 20
34.86464015955173
 30
0.0
 11
-4.22595206238077
 21
106.826684605589
 31
0.0
  0
LINE
  5
A6
330
1F
100
AcDbEntity
  8
0
  6
Continuous
 62
     7
100
AcDbLine
 10
10.77405100341923
 20
-19.73548598948125
 30
0.0
 11
9.77404520511925
 21
-19.73548598948125
 31
0.0
  0
LINE
  5
A7
330
1F
100
AcDbEntity
  8
0
  6
Continuous
 62
     7
100
AcDbLine
 10
29.61935282231923
 20
-19.23547988598128
 30
0.0
 11
31.92875040531925
 21
-19.23547988598128
 31
0.0
  0
LINE
  5
A8
330
1F
100
AcDbEntity
  8
0
  6
Continuous
 62
     7
100
AcDbLine
 10
-14.17593953608076
 20
-16.5354725616813
 30
0.0
 11
6.27404793761923
 21
-16.5354844420813
 31
0.0
  0
LINE
  5
A9
330
1F
100
AcDbEntity
  8
0
  6
Continuous
 62
     7
100
AcDbLine
 10
31.92875040531925
 20
-15.23548232738128
 30
0.0
 11
29.61935282231923
 21
-15.23548232738128
 31
0.0
  0
LINE
  5
AA
330
1F
100
AcDbEntity
  8
0
  6
Continuous
 62
     7
100
AcDbLine
 10
5.7240470361192
 20
-53.23548516424268
 30
0.0
 11
5.7240470361192
 21
-16.5354725616813
 31
0.0
  0
LINE
  5
AB
330
1F
100
AcDbEntity
  8
0
  6
Continuous
 62
     7
100
AcDbLine
 10
5.7240470361192
 20
30.06450668631871
 30
0.0
 11
5.7240470361192
 21
66.76451517777693
 31
0.0
  0
LINE
  5
AC
330
1F
100
AcDbEntity
  8
0
  6
Continuous
 62
     7
100
AcDbLine
 10
7.77404642581922
 20
66.7645188933187
 30
0.0
 11
7.77404642581922
 21
53.7645140105187
 31
0.0
  0
LINE
  5
AD
330
1F
100
AcDbEntity
  8
0
  6
Continuous
 62
     7
100
AcDbLine
 10
7.77404642581922
 20
-53.23548476878128
 30
0.0
 11
7.77404642581922
 21
-40.23547988598128
 31
0.0
  0
LINE
  5
AE
330
1F
100
AcDbEntity
  8
0
  6
Continuous
 62
     7
100
AcDbLine
 10
8.27404612061923
 20
-14.53547378238133
 30
0.0
 11
8.27404612061923
 21
28.06450790701874
 31
0.0
  0
LINE
  5
AF
330
1F
100
AcDbEntity
  8
0
  6
Continuous
 62
     7
100
AcDbLine
 10
9.77404520511925
 20
-49.23548721018127
 30
0.0
 11
9.77404520511925
 21
-19.73548598948125
 31
0.0
  0
LINE
  5
B0
330
1F
100
AcDbEntity
  8
0
  6
Continuous
 62
     7
100
AcDbLine
 10
9.77404520511925
 20
33.26452011401872
 30
0.0
 11
9.77404520511925
 21
62.7645213348188
 31
0.0
  0
LINE
  5
B1
330
1F
100
AcDbEntity
  8
0
  6
Continuous
 62
     7
100
AcDbLine
 10
10.77405100341923
 20
-49.23548721018127
 30
0.0
 11
10.77405100341923
 21
62.7645213348188
 31
0.0
  0
LINE
  5
B2
330
1F
100
AcDbEntity
  8
0
  6
Continuous
 62
     7
100
AcDbLine
 10
29.61935282231923
 20
32.76451401051881
 30
0.0
 11
28.46464762211923
 21
30.76451523121873
 31
0.0
  0
LINE
  5
B3
330
1F
100
AcDbEntity
  8
0
  6
Continuous
 62
     7
100
AcDbLine
 10
28.46464762211923
 20
-17.23548110668125
 30
0.0
 11
29.61935282231923
 21
-19.23547988598128
 31
0.0
  0
LINE
  5
B4
330
1F
100
AcDbEntity
  8
0
  6
Continuous
 62
     7
100
AcDbLine
 10
16.7740473413192
 20
61.08257309261873
 30
0.0
 11
16.7740473413192
 21
59.17480820001876
 31
0.0
  0
LINE
  5
B5
330
1F
100
AcDbEntity
  8
0
  6
Continuous
 62
     7
100
AcDbLine
 10
16.7740473413192
 20
-45.64578689278127
 30
0.0
 11
16.7740473413192
 21
-47.5535517853813
 31
0.0
  0
LINE
  5
B6
330
1F
100
AcDbEntity
  8
0
  6
Continuous
 62
     7
100
AcDbLine
 10
31.92875040531925
 20
28.76451645191875
 30
0.0
 11
33.08344278811927
 21
30.76451523121873
 31
0.0
  0
LINE
  5
B7
330
1F
100
AcDbEntity
  8
0
  6
Continuous
 62
     7
100
AcDbLine
 10
29.61935282231923
 20
4.76450546561873
 30
0.0
 11
31.92875040531925
 21
4.76450546561873
 31
0.0
  0
LINE
  5
B8
330
1F
100
AcDbEntity
  8
DEFAULT_1
  6
DOT_CENTER
 62
     2
100
AcDbLine
 10
-4.22595206238077
 20
6.7645147950187
 30
0.0
 11
34.77404793761923
 21
6.7645147950187
 31
0.0
  0
LINE
  5
B9
330
1F
100
AcDbEntity
  8
0
  6
Continuous
 62
     7
100
AcDbLine
 10
33.08344278811927
 20
-17.23548110668125
 30
0.0
 11
31.92875040531925
 21
-15.23548232738128
 31
0.0
  0
LINE
  5
BA
330
1F
100
AcDbEntity
  8
0
  6
Continuous
 62
     7
100
AcDbLine
 10
31.92875040531925
 20
8.76450302421873
 30
0.0
 11
29.61935282231923
 21
8.76450302421873
 31
0.0
  0
LINE
  5
BB
330
1F
100
AcDbEntity
  8
0
  6
Continuous
 62
     7
100
AcDbLine
 10
24.77404886721922
 20
61.08257309261873
 30
0.0
 11
24.77404886721922
 21
59.17480820001876
 31
0.0
  0
LINE
  5
BC
330
1F
100
AcDbEntity
  8
0
  6
Continuous
 62
     7
100
AcDbLine
 10
24.77404886721922
 20
-45.64578689278127
 30
0.0
 11
24.77404886721922
 21
-47.5535517853813
 31
0.0
  0
LINE
  5
BD
330
1F
100
AcDbEntity
  8
0
  6
Continuous
 62
     7
100
AcDbLine
 10
27.77404703611927
 20
61.7645091277187
 30
0.0
 11
27.77404703611927
 21
58.76452377621874
 31
0.0
  0
LINE
  5
BE
330
1F
100
AcDbEntity
  8
0
  6
Continuous
 62
     7
100
AcDbLine
 10
27.77404703611927
 20
-45.23548965158127
 30
0.0
 11
27.77404703611927
 21
-48.23548782048133
 31
0.0
  0
LINE
  5
BF
330
1F
100
AcDbEntity
  8
0
  6
Continuous
 62
     7
100
AcDbLine
 10
29.61935282231923
 20
8.76450302421873
 30
0.0
 11
28.46464762211923
 21
6.7645042449187
 31
0.0
  0
LINE
  5
C0
330
1F
100
AcDbEntity
  8
0
  6
Continuous
 62
     7
100
AcDbLine
 10
28.46464762211923
 20
6.7645042449187
 30
0.0
 11
29.61935282231923
 21
4.76450546561873
 31
0.0
  0
LINE
  5
C1
330
1F
100
AcDbEntity
  8
0
  6
Continuous
 62
     7
100
AcDbLine
 10
31.92875040531925
 20
4.76450546561873
 30
0.0
 11
33.08344278811927
 21
6.7645042449187
 31
0.0
  0
LINE
  5
C2
330
1F
100
AcDbEntity
  8
0
  6
Continuous
 62
     7
100
AcDbLine
 10
33.08344278811927
 20
6.7645042449187
 30
0.0
 11
31.92875040531925
 21
8.76450302421873
 31
0.0
  0
LINE
  5
C3
330
1F
100
AcDbEntity
  8
0
  6
Continuous
 62
     7
100
AcDbLine
 10
33.77404337401924
 20
-48.23548782048133
 30
0.0
 11
33.77404337401924
 21
-45.23548965158127
 31
0.0
  0
LINE
  5
C4
330
1F
100
AcDbEntity
  8
0
  6
Continuous
 62
     7
100
AcDbLine
 10
33.77404337401924
 20
58.76452377621874
 30
0.0
 11
33.77404337401924
 21
61.7645091277187
 31
0.0
  0
LINE
  5
C5
330
1F
100
AcDbEntity
  8
0
  6
Continuous
 62
     7
100
AcDbLine
 10
29.61935282231923
 20
-15.23548232738128
 30
0.0
 11
28.46464762211923
 21
-17.23548110668125
 31
0.0
  0
LINE
  5
C6
330
1F
100
AcDbEntity
  8
0
  6
Continuous
 62
     7
100
AcDbLine
 10
29.61935282231923
 20
28.76451645191875
 30
0.0
 11
31.92875040531925
 21
28.76451645191875
 31
0.0
  0
LINE
  5
C7
330
1F
100
AcDbEntity
  8
0
  6
Continuous
 62
     7
100
AcDbLine
 10
-14.17593953608076
 20
30.06450668631871
 30
0.0
 11
6.27404793761923
 21
30.06451403201877
 31
0.0
  0
LINE
  5
C8
330
1F
100
AcDbEntity
  8
0
  6
Continuous
 62
     7
100
AcDbLine
 10
28.46464762211923
 20
30.76451523121873
 30
0.0
 11
29.61935282231923
 21
28.76451645191875
 31
0.0
  0
LINE
  5
C9
330
1F
100
AcDbEntity
  8
0
  6
Continuous
 62
     7
100
AcDbLine
 10
31.92875040531925
 20
-19.23547988598128
 30
0.0
 11
33.08344278811927
 21
-17.23548110668125
 31
0.0
  0
LINE
  5
CA
330
1F
100
AcDbEntity
  8
0
  6
Continuous
 62
     7
100
AcDbLine
 10
9.77404793761923
 20
-38.2354852049813
 30
0.0
 11
7.77404793761923
 21
-40.2354852049813
 31
0.0
  0
LINE
  5
CB
330
1F
100
AcDbEntity
  8
0
  6
Continuous
 62
     7
100
AcDbLine
 10
31.92875040531925
 20
32.76451401051881
 30
0.0
 11
29.61935282231923
 21
32.76451401051881
 31
0.0
  0
LINE
  5
CC
330
1F
100
AcDbEntity
  8
0
  6
Continuous
 62
     7
100
AcDbLine
 10
10.77405100341923
 20
33.26452011401872
 30
0.0
 11
9.77404520511925
 21
33.26452011401872
 31
0.0
  0
LINE
  5
CD
330
1F
100
AcDbEntity
  8
0
  6
Continuous
 62
     7
100
AcDbLine
 10
7.77404793761923
 20
53.7645147950187
 30
0.0
 11
9.77404793761923
 21
51.7645147950187
 31
0.0
  0
LINE
  5
CE
330
1F
100
AcDbEntity
  8
0
  6
Continuous
 62
     7
100
AcDbLine
 10
33.08344278811927
 20
30.76451523121873
 30
0.0
 11
31.92875040531925
 21
32.76451401051881
 31
0.0
  0
LINE
  5
CF
330
1F
100
AcDbEntity
  8
0
  6
Continuous
 62
     7
100
AcDbLine
 10
52.77404459471922
 20
61.76407333671872
 30
0.0
 11
52.77404459471922
 21
-48.23503921208133
 31
0.0
  0
LINE
  5
D0
330
1F
100
AcDbEntity
  8
0
  6
Continuous
 62
     7
100
AcDbLine
 10
16.7740473413192
 20
59.17480820001876
 30
0.0
 11
24.77404886721922
 21
59.17480820001876
 31
0.0
  0
LINE
  5
D1
330
1F
100
AcDbEntity
  8
0
  6
Continuous
 62
     7
100
AcDbLine
 10
16.7740473413192
 20
61.08257309261873
 30
0.0
 11
24.77404886721922
 21
61.08257309261873
 31
0.0
  0
LINE
  5
D2
330
1F
100
AcDbEntity
  8
0
  6
Continuous
 62
     7
100
AcDbLine
 10
10.77405100341923
 20
61.7645091277187
 30
0.0
 11
27.77404703611927
 21
61.7645091277187
 31
0.0
  0
LINE
  5
D3
330
1F
100
AcDbEntity
  8
0
  6
Continuous
 62
     7
100
AcDbLine
 10
33.77404337401924
 20
61.7645091277187
 30
0.0
 11
52.77404459471922
 21
61.7645091277187
 31
0.0
  0
LINE
  5
D4
330
1F
100
AcDbEntity
  8
0
  6
Continuous
 62
     7
100
AcDbLine
 10
10.77405100341923
 20
62.7645213348188
 30
0.0
 11
9.77404520511925
 21
62.7645213348188
 31
0.0
  0
LINE
  5
D5
330
1F
100
AcDbEntity
  8
0
  6
Continuous
 62
     7
100
AcDbLine
 10
-14.17588826658079
 20
66.7645188933187
 30
0.0
 11
5.7240470361192
 21
66.76451517777693
 31
0.0
  0
LINE
  5
D6
330
1F
100
AcDbEntity
  8
0
  6
Continuous
 62
     7
100
AcDbLine
 10
-9.22595206238077
 20
-53.23548327847541
 30
0.0
 11
0.77404793761923
 21
-53.23548327847541
 31
0.0
  0
LINE
  5
D7
330
1F
100
AcDbEntity
  8
1
  6
Continuous
 62
     7
100
AcDbLine
 10
-10.72595206238077
 20
75.65013690011543
 30
0.0
 11
2.27404793761923
 21
75.65013690011543
 31
0.0
  0
LINE
  5
D8
330
1F
100
AcDbEntity
  8
1
  6
Continuous
 62
     7
100
AcDbLine
 10
-8.57595206238076
 20
89.91157343569542
 30
0.0
 11
0.12404793761922
 21
89.91157343569542
 31
0.0
  0
LINE
  5
D9
330
1F
100
AcDbEntity
  8
1
  6
Continuous
 62
     7
100
AcDbLine
 10
-8.57595206238076
 20
92.91157343569542
 30
0.0
 11
-8.57595206238076
 21
89.91157343569542
 31
0.0
  0
LINE
  5
DA
330
1F
100
AcDbEntity
  8
1
  6
Continuous
 62
     7
100
AcDbLine
 10
0.12404793761922
 20
92.91157343569542
 30
0.0
 11
0.12404793761922
 21
89.91157343569542
 31
0.0
  0
LINE
  5
DB
330
1F
100
AcDbEntity
  8
1
  6
Continuous
 62
     7
100
AcDbLine
 10
2.02404793761923
 20
95.91157343569542
 30
0.0
 11
-0.22595206238077
 21
95.91157343569542
 31
0.0
  0
LINE
  5
DC
330
1F
100
AcDbEntity
  8
1
  6
Continuous
 62
     7
100
AcDbLine
 10
0.12404793761922
 20
92.91157343569542
 30
0.0
 11
-8.57595206238076
 21
92.91157343569542
 31
0.0
  0
LINE
  5
DD
330
1F
100
AcDbEntity
  8
1
  6
Continuous
 62
     7
100
AcDbLine
 10
-10.47595206238077
 20
92.91157343569542
 30
0.0
 11
-8.57595206238076
 21
92.91157343569542
 31
0.0
  0
LINE
  5
DE
330
1F
100
AcDbEntity
  8
1
  6
Continuous
 62
     7
100
AcDbLine
 10
0.12404793761922
 20
92.91157343569542
 30
0.0
 11
2.02404793761923
 21
92.91157343569542
 31
0.0
  0
LINE
  5
DF
330
1F
100
AcDbEntity
  8
1
  6
Continuous
 62
     7
100
AcDbLine
 10
-8.22595206238077
 20
95.91157343569542
 30
0.0
 11
-7.18640098409318
 21
102.250048062278
 31
0.0
  0
LINE
  5
E0
330
1F
100
AcDbEntity
  8
1
  6
Continuous
 62
     7
100
AcDbLine
 10
-8.22595206238077
 20
95.91157343569542
 30
0.0
 11
-10.47595206238077
 21
95.91157343569542
 31
0.0
  0
LINE
  5
E1
330
1F
100
AcDbEntity
  8
1
  6
Continuous
 62
     7
100
AcDbLine
 10
-0.22595206238077
 20
95.91157343569542
 30
0.0
 11
-1.26550314066839
 21
102.250048062278
 31
0.0
  0
LINE
  5
E2
330
1F
100
AcDbEntity
  8
1
  6
Continuous
 62
     7
100
AcDbLine
 10
-0.22595206238077
 20
95.91157343569542
 30
0.0
 11
-8.22595206238077
 21
95.91157343569542
 31
0.0
  0
LINE
  5
E3
330
1F
100
AcDbEntity
  8
1
  6
Continuous
 62
     7
100
AcDbLine
 10
-14.22595206238077
 20
68.76451517777693
 30
0.0
 11
5.77404793761923
 21
68.76451517777693
 31
0.0
  0
LINE
  5
E4
330
1F
100
AcDbEntity
  8
1
  6
Continuous
 62
     7
100
AcDbLine
 10
-14.22595206238077
 20
66.76451517777693
 30
0.0
 11
-14.22595206238077
 21
68.76451517777693
 31
0.0
  0
LINE
  5
E5
330
1F
100
AcDbEntity
  8
1
  6
Continuous
 62
     7
100
AcDbLine
 10
5.77404793761923
 20
68.76451517777693
 30
0.0
 11
5.77404793761923
 21
66.76451517777693
 31
0.0
  0
LINE
  5
E6
330
1F
100
AcDbEntity
  8
1
  6
Continuous
 62
     7
100
AcDbLine
 10
5.77404793761923
 20
-55.23548327847541
 30
0.0
 11
-14.22595206238077
 21
-55.23548327847541
 31
0.0
  0
LINE
  5
E7
330
1F
100
AcDbEntity
  8
1
  6
Continuous
 62
     7
100
AcDbLine
 10
2.27404793761923
 20
-62.12110500081391
 30
0.0
 11
-10.72595206238077
 21
-62.12110500081391
 31
0.0
  0
LINE
  5
E8
330
1F
100
AcDbEntity
  8
1
  6
Continuous
 62
     7
100
AcDbLine
 10
0.12404793761922
 20
-76.38254153639393
 30
0.0
 11
-8.57595206238076
 21
-76.38254153639393
 31
0.0
  0
LINE
  5
E9
330
1F
100
AcDbEntity
  8
1
  6
Continuous
 62
     7
100
AcDbLine
 10
-8.57595206238076
 20
-76.38254153639393
 30
0.0
 11
-8.57595206238076
 21
-79.38254153639393
 31
0.0
  0
LINE
  5
EA
330
1F
100
AcDbEntity
  8
1
  6
Continuous
 62
     7
100
AcDbLine
 10
0.12404793761922
 20
-76.38254153639393
 30
0.0
 11
0.12404793761922
 21
-79.38254153639393
 31
0.0
  0
LINE
  5
EB
330
1F
100
AcDbEntity
  8
1
  6
Continuous
 62
     7
100
AcDbLine
 10
-0.22595206238077
 20
-82.38254153639393
 30
0.0
 11
2.02404793761923
 21
-82.38254153639393
 31
0.0
  0
LINE
  5
EC
330
1F
100
AcDbEntity
  8
1
  6
Continuous
 62
     7
100
AcDbLine
 10
-8.57595206238076
 20
-79.38254153639393
 30
0.0
 11
0.12404793761922
 21
-79.38254153639393
 31
0.0
  0
LINE
  5
ED
330
1F
100
AcDbEntity
  8
1
  6
Continuous
 62
     7
100
AcDbLine
 10
-8.57595206238076
 20
-79.38254153639393
 30
0.0
 11
-10.47595206238077
 21
-79.38254153639393
 31
0.0
  0
LINE
  5
EE
330
1F
100
AcDbEntity
  8
1
  6
Continuous
 62
     7
100
AcDbLine
 10
2.02404793761923
 20
-79.38254153639393
 30
0.0
 11
0.12404793761922
 21
-79.38254153639393
 31
0.0
  0
LINE
  5
EF
330
1F
100
AcDbEntity
  8
1
  6
Continuous
 62
     7
100
AcDbLine
 10
-7.18640098409318
 20
-88.72101616297654
 30
0.0
 11
-8.22595206238077
 21
-82.38254153639393
 31
0.0
  0
LINE
  5
F0
330
1F
100
AcDbEntity
  8
1
  6
Continuous
 62
     7
100
AcDbLine
 10
-10.47595206238077
 20
-82.38254153639393
 30
0.0
 11
-8.22595206238077
 21
-82.38254153639393
 31
0.0
  0
LINE
  5
F1
330
1F
100
AcDbEntity
  8
1
  6
Continuous
 62
     7
100
AcDbLine
 10
-1.26550314066839
 20
-88.72101616297654
 30
0.0
 11
-0.22595206238077
 21
-82.38254153639393
 31
0.0
  0
LINE
  5
F2
330
1F
100
AcDbEntity
  8
1
  6
Continuous
 62
     7
100
AcDbLine
 10
-8.22595206238077
 20
-82.38254153639393
 30
0.0
 11
-0.22595206238077
 21
-82.38254153639393
 31
0.0
  0
LINE
  5
F3
330
1F
100
AcDbEntity
  8
1
  6
Continuous
 62
     7
100
AcDbLine
 10
-14.22595206238077
 20
-55.23548327847541
 30
0.0
 11
-14.22595206238077
 21
-53.23548327847554
 31
0.0
  0
LINE
  5
F4
330
1F
100
AcDbEntity
  8
1
  6
Continuous
 62
     7
100
AcDbLine
 10
5.77404793761923
 20
-53.23548327847554
 30
0.0
 11
5.77404793761923
 21
-55.23548327847541
 31
0.0
  0
ARC
  5
F5
330
1F
100
AcDbEntity
  8
1
  6
Continuous
 62
     7
100
AcDbCircle
 10
-35.22595206238088
 20
2.2645147950187
 30
0.0
 40
1.0
100
AcDbArc
 50
180.0
 51
-90.0
  0
ARC
  5
F6
330
1F
100
AcDbEntity
  8
1
  6
Continuous
 62
     7
100
AcDbCircle
 10
-35.22595206238088
 20
11.2645147950187
 30
0.0
 40
1.0
100
AcDbArc
 50
90.0
 51
180.0
  0
ARC
  5
F7
330
1F
100
AcDbEntity
  8
0
  6
Continuous
 62
     7
100
AcDbCircle
 10
-27.72595206238088
 20
4.2645147950187
 30
0.0
 40
1.0
100
AcDbArc
 50
-90.0
 51
0.0
  0
ARC
  5
F8
330
1F
100
AcDbEntity
  8
0
  6
Continuous
 62
     7
100
AcDbCircle
 10
-31.72595206238088
 20
4.2645147950187
 30
0.0
 40
0.9999999999999964
100
AcDbArc
 50
180.0
 51
-90.0
  0
ARC
  5
F9
330
1F
100
AcDbEntity
  8
0
  6
Continuous
 62
     7
100
AcDbCircle
 10
-31.72595206238088
 20
9.2645147950187
 30
0.0
 40
1.000000000000002
100
AcDbArc
 50
90.0
 51
180.0
  0
ARC
  5
FA
330
1F
100
AcDbEntity
  8
0
  6
Continuous
 62
     7
100
AcDbCircle
 10
-27.72595206238088
 20
9.2645147950187
 30
0.0
 40
1.0
100
AcDbArc
 50
0.0
 51
90.0
  0
ARC
  5
FB
330
1F
100
AcDbEntity
  8
0
  6
Continuous
 62
     7
100
AcDbCircle
 10
30.77404793761923
 20
-45.2354852049813
 30
0.0
 40
3.0
100
AcDbArc
 50
0.0
 51
180.0
  0
ARC
  5
FC
330
1F
100
AcDbEntity
  8
0
  6
Continuous
 62
     7
100
AcDbCircle
 10
30.77404793761923
 20
58.7645147950187
 30
0.0
 40
3.0
100
AcDbArc
 50
180.0
 51
0.0
  0
ARC
  5
FD
330
1F
100
AcDbEntity
  8
0
  6
Continuous
 62
     7
100
AcDbCircle
 10
6.27404793761923
 20
28.06451479501877
 30
0.0
 40
2.0
100
AcDbArc
 50
0.0
 51
90.0
  0
ARC
  5
FE
330
1F
100
AcDbEntity
  8
0
  6
Continuous
 62
     7
100
AcDbCircle
 10
6.27404793761923
 20
-14.53548520498131
 30
0.0
 40
2.0
100
AcDbArc
 50
-90.0
 51
0.0
  0
ARC
  5
FF
330
1F
100
AcDbEntity
  8
1
  6
Continuous
 62
     7
100
AcDbCircle
 10
-4.22595206238077
 20
101.7645151777769
 30
0.0
 40
2.999999999999996
100
AcDbArc
 50
9.31396192437133
 51
90.0
  0
ARC
  5
100
330
1F
100
AcDbEntity
  8
1
  6
Continuous
 62
     7
100
AcDbCircle
 10
-6.22595206238077
 20
82.26451517777691
 30
0.0
 40
7.99999999999997
100
AcDbArc
 50
107.0825970337169
 51
-124.2288663278126
  0
ARC
  5
101
330
1F
100
AcDbEntity
  8
1
  6
Continuous
 62
     7
100
AcDbCircle
 10
-2.22595206238077
 20
82.26451517777691
 30
0.0
 40
8.000000000000009
100
AcDbArc
 50
-55.77113367218747
 51
72.91740296628308
  0
ARC
  5
102
330
1F
100
AcDbEntity
  8
1
  6
Continuous
 62
     7
100
AcDbCircle
 10
2.02404793761923
 20
94.41157343569542
 30
0.0
 40
1.5
100
AcDbArc
 50
-90.0
 51
90.0
  0
ARC
  5
103
330
1F
100
AcDbEntity
  8
1
  6
Continuous
 62
     7
100
AcDbCircle
 10
-10.47595206238077
 20
94.41157343569542
 30
0.0
 40
1.5
100
AcDbArc
 50
90.0
 51
-90.0
  0
ARC
  5
104
330
1F
100
AcDbEntity
  8
1
  6
Continuous
 62
     7
100
AcDbCircle
 10
-4.22595206238077
 20
101.7645151777769
 30
0.0
 40
3.0
100
AcDbArc
 50
90.0
 51
170.6860380756287
  0
ARC
  5
105
330
1F
100
AcDbEntity
  8
1
  6
Continuous
 62
     7
100
AcDbCircle
 10
8.11738244068752
 20
74.2879908414084
 30
0.0
 40
5.999999999999953
100
AcDbArc
 50
166.8780545681493
 51
-112.9890842381893
  0
ARC
  5
106
330
1F
100
AcDbEntity
  8
1
  6
Continuous
 62
     7
100
AcDbCircle
 10
-16.56928656544918
 20
74.28799084140834
 30
0.0
 40
5.999999999999948
100
AcDbArc
 50
-67.0109157618094
 51
13.12194543185097
  0
ARC
  5
107
330
1F
100
AcDbEntity
  8
1
  6
Continuous
 62
     7
100
AcDbCircle
 10
-4.22595206238077
 20
-88.23548327847543
 30
0.0
 40
3.000000000000026
100
AcDbArc
 50
-170.6860380756285
 51
-90.0
  0
ARC
  5
108
330
1F
100
AcDbEntity
  8
1
  6
Continuous
 62
     7
100
AcDbCircle
 10
-6.22595206238077
 20
-68.73548327847543
 30
0.0
 40
8.000000000000032
100
AcDbArc
 50
124.2288663278124
 51
-107.0825970337169
  0
ARC
  5
109
330
1F
100
AcDbEntity
  8
1
  6
Continuous
 62
     7
100
AcDbCircle
 10
-2.22595206238077
 20
-68.73548327847543
 30
0.0
 40
7.99999999999997
100
AcDbArc
 50
-72.91740296628308
 51
55.77113367218758
  0
ARC
  5
10A
330
1F
100
AcDbEntity
  8
1
  6
Continuous
 62
     7
100
AcDbCircle
 10
-16.56928656544918
 20
-60.7589589421068
 30
0.0
 40
6.000000000000087
100
AcDbArc
 50
-13.12194543185124
 51
67.01091576180933
  0
ARC
  5
10B
330
1F
100
AcDbEntity
  8
1
  6
Continuous
 62
     7
100
AcDbCircle
 10
8.11738244068752
 20
-60.75895894210692
 30
0.0
 40
5.999999999999994
100
AcDbArc
 50
112.9890842381892
 51
-166.8780545681497
  0
ARC
  5
10C
330
1F
100
AcDbEntity
  8
1
  6
Continuous
 62
     7
100
AcDbCircle
 10
2.02404793761923
 20
-80.88254153639393
 30
0.0
 40
1.5
100
AcDbArc
 50
-90.0
 51
90.0
  0
ARC
  5
10D
330
1F
100
AcDbEntity
  8
1
  6
Continuous
 62
     7
100
AcDbCircle
 10
-10.47595206238077
 20
-80.88254153639393
 30
0.0
 40
1.5
100
AcDbArc
 50
90.0
 51
-90.0
  0
ARC
  5
10E
330
1F
100
AcDbEntity
  8
1
  6
Continuous
 62
     7
100
AcDbCircle
 10
-4.22595206238077
 20
-88.23548327847543
 30
0.0
 40
3.0
100
AcDbArc
 50
-90.0
 51
-9.3139619243716
  0
CIRCLE
  5
10F
330
1F
100
AcDbEntity
  8
1
  6
Continuous
 62
     7
100
AcDbCircle
 10
30.77404793761923
 20
6.7645147950187
 30
0.0
 40
4.0
  0
CIRCLE
  5
110
330
1F
100
AcDbEntity
  8
1
  6
Continuous
 62
     7
100
AcDbCircle
 10
-28.22595206238088
 20
-8.2354852049813
 30
0.0
 40
5.999999999999996
  0
CIRCLE
  5
111
330
1F
100
AcDbEntity
  8
1
  6
Continuous
 62
     7
100
AcDbCircle
 10
-28.22595206238088
 20
21.7645147950187
 30
0.0
 40
5.999999999999996
  0
CIRCLE
  5
112
330
1F
100
AcDbEntity
  8
0
  6
Continuous
 62
     7
100
AcDbCircle
 10
30.77404793761923
 20
-17.2354852049813
 30
0.0
 40
5.0
  0
CIRCLE
  5
113
330
1F
100
AcDbEntity
  8
0
  6
Continuous
 62
     7
100
AcDbCircle
 10
30.77404793761923
 20
30.7645147950187
 30
0.0
 40
5.0
  0
ARC
  5
114
330
1F
100
AcDbEntity
  8
1
  6
Continuous
 62
     7
100
AcDbCircle
 10
-26.72595206238088
 20
2.2645147950187
 30
0.0
 40
1.0
100
AcDbArc
 50
-90.0
 51
0.0
  0
ARC
  5
115
330
1F
100
AcDbEntity
  8
1
  6
Continuous
 62
     7
100
AcDbCircle
 10
-26.72595206238088
 20
11.2645147950187
 30
0.0
 40
1.0
100
AcDbArc
 50
0.0
 51
90.0
  0
DIMENSION
  5
121
330
1F
100
AcDbEntity
  8
1
100
AcDbDimension
  2
*D1
 10
10.77405100341923
 20
70.862782174999
 30
0.0
 11
31.0895520150519
 21
74.612782174999
 31
0.0
 70
    32
  1
<>
 71
     5
 42
-1.0
 53
0.00013888888889
  3
ME10_DIM_10
100
AcDbAlignedDimension
 13
52.77404459471922
 23
61.7645091277187
 33
0.0
 14
10.77405100341923
 24
62.7645213348188
 34
0.0
100
AcDbRotatedDimension
  0
DIMENSION
  5
12C
330
1F
100
AcDbEntity
  8
1
100
AcDbDimension
  2
*D2
 10
-70.22595206238088
 20
55.6286472958996
 30
0.0
 11
-44.9287810316537
 21
59.3786472958996
 31
0.0
 70
    32
  1
<>
 71
     5
 42
-1.0
 53
0.00013888888889
  3
ME10_DIM_11
100
AcDbAlignedDimension
 13
-18.22595206238088
 23
39.7645147950187
 33
0.0
 14
-70.22595206238088
 24
38.96066721772528
 34
0.0
100
AcDbRotatedDimension
  0
DIMENSION
  5
137
330
1F
100
AcDbEntity
  8
1
100
AcDbDimension
  2
*D3
 10
-48.22595206238088
 20
47.402214461186
 30
0.0
 11
-32.8938144771653
 21
51.152214461186
 31
0.0
 70
    32
  1
<>
 71
     5
 42
-1.0
 53
0.00013888888889
  3
ME10_DIM_12
100
AcDbAlignedDimension
 13
-18.22595206238088
 23
39.7645147950187
 33
0.0
 14
-48.22595206238088
 24
39.7645147950187
 34
0.0
100
AcDbRotatedDimension
  0
DIMENSION
  5
142
330
1F
100
AcDbEntity
  8
1
100
AcDbDimension
  2
*D4
 10
-80.73269328243967
 20
39.76451479501868
 30
0.0
 11
-84.48269328243967
 21
6.7881358697716
 31
0.0
 70
    32
  1
<>
 71
     5
 42
-1.0
 53
90.0
  3
ME10_DIM_13
100
AcDbAlignedDimension
 13
-67.22595206238088
 23
-26.23548520498141
 33
0.0
 14
-67.22595206238088
 24
39.7645147950187
 34
0.0
 50
90.0
100
AcDbRotatedDimension
  0
DIMENSION
  5
14D
330
1F
100
AcDbEntity
  8
1
100
AcDbDimension
  2
*D5
 10
-91.04834727567777
 20
66.7645188933187
 30
0.0
 11
-94.79834727567777
 21
7.47074300021569
 31
0.0
 70
    32
  1
<>
 71
     5
 42
-1.0
 53
90.0
  3
ME10_DIM_14
100
AcDbAlignedDimension
 13
-14.1759523534808
 23
-53.23548476878128
 33
0.0
 14
-14.1759523534808
 24
66.7645188933187
 34
0.0
 50
90.0
100
AcDbRotatedDimension
  0
DIMENSION
  5
158
330
1F
100
AcDbEntity
  8
1
100
AcDbDimension
  2
*D6
 10
68.07092359565121
 20
61.7645091277187
 30
0.0
 11
64.32092359565121
 21
5.2658570297117
 31
0.0
 70
    32
  1
<>
 71
     5
 42
-1.0
 53
90.0
  3
ME10_DIM_15
100
AcDbAlignedDimension
 13
52.77404459471922
 23
-48.23548782048133
 33
0.0
 14
52.77404459471922
 24
61.7645091277187
 34
0.0
 50
90.0
100
AcDbRotatedDimension
  0
DIMENSION
  5
163
330
1F
100
AcDbEntity
  8
1
100
AcDbDimension
  2
*D7
 10
-14.1759523534808
 20
110.023044177291
 30
0.0
 11
-3.76443214322078
 21
113.773044177291
 31
0.0
 70
    32
  1
ø20
 71
     5
 42
-1.0
 53
0.00013888888889
  3
ME10_DIM_16
100
AcDbAlignedDimension
 13
5.7240470361192
 23
66.76451517777693
 33
0.0
 14
-14.1759523534808
 24
66.7645188933187
 34
0.0
100
AcDbRotatedDimension
  0
DIMENSION
  5
16E
330
1F
100
AcDbEntity
  8
1
100
AcDbDimension
  2
*D8
 10
-103.2105155123358
 20
-91.23548327847543
 30
0.0
 11
-106.9605155123358
 21
4.99986990132921
 31
0.0
 70
    32
  1
<>
 71
     5
 42
-1.0
 53
90.0
  3
ME10_DIM_17
100
AcDbAlignedDimension
 13
-4.22595206238077
 23
104.7645151777769
 33
0.0
 14
-4.22595206238077
 24
-91.23548327847543
 34
0.0
 50
90.0
100
AcDbRotatedDimension
  0
ENDSEC
  0
SECTION
  2
OBJECTS
  0
DICTIONARY
  5
C
330
0
100
AcDbDictionary
281
     1
  3
ACAD_GROUP
350
D
  3
ACAD_LAYOUT
350
1A
  3
ACAD_MLINESTYLE
350
17
  3
ACAD_PLOTSETTINGS
350
19
  3
ACAD_PLOTSTYLENAME
350
E
  0
DICTIONARY
  5
D
102
{ACAD_REACTORS
330
C
102
}
330
C
100
AcDbDictionary
281
     1
  0
DICTIONARY
  5
1A
102
{ACAD_REACTORS
330
C
102
}
330
C
100
AcDbDictionary
281
     1
  3
Layout1
350
1E
  3
Layout2
350
26
  3
Model
350
22
  0
DICTIONARY
  5
17
102
{ACAD_REACTORS
330
C
102
}
330
C
100
AcDbDictionary
281
     1
  3
Standard
350
18
  0
DICTIONARY
  5
19
102
{ACAD_REACTORS
330
C
102
}
330
C
100
AcDbDictionary
281
     1
  0
ACDBDICTIONARYWDFLT
  5
E
102
{ACAD_REACTORS
330
C
102
}
330
C
100
AcDbDictionary
281
     1
  3
Normal
350
F
100
AcDbDictionaryWithDefault
340
F
  0
LAYOUT
  5
1E
102
{ACAD_REACTORS
330
1A
102
}
330
1A
100
AcDbPlotSettings
  1

  2

  4

  6

 40
0.0
 41
0.0
 42
0.0
 43
0.0
 44
0.0
 45
0.0
 46
0.0
 47
0.0
 48
0.0
 49
0.0
140
0.0
141
0.0
142
1.0
143
1.0
 70
   688
 72
     0
 73
     0
 74
     5
  7

 75
    16
 76
     0
 77
     2
 78
   300
147
1.0
148
0.0
149
0.0
100
AcDbLayout
  1
Layout1
 70
     1
 71
     1
 10
0.0
 20
0.0
 11
0.0
 21
0.0
 12
0.0
 22
0.0
 32
0.0
 14
0.0
 24
0.0
 34
0.0
 15
0.0
 25
0.0
 35
0.0
146
0.0
 13
0.0
 23
0.0
 33
0.0
 16
1.0
 26
0.0
 36
0.0
 17
0.0
 27
1.0
 37
0.0
 76
     0
330
1B
  0
LAYOUT
  5
26
102
{ACAD_REACTORS
330
1A
102
}
330
1A
100
AcDbPlotSettings
  1

  2

  4

  6

 40
0.0
 41
0.0
 42
0.0
 43
0.0
 44
0.0
 45
0.0
 46
0.0
 47
0.0
 48
0.0
 49
0.0
140
0.0
141
0.0
142
1.0
143
1.0
 70
   688
 72
     0
 73
     0
 74
     5
  7

 75
    16
 76
     0
 77
     2
 78
   300
147
1.0
148
0.0
149
0.0
100
AcDbLayout
  1
Layout2
 70
     1
 71
     2
 10
0.0
 20
0.0
 11
0.0
 21
0.0
 12
0.0
 22
0.0
 32
0.0
 14
0.0
 24
0.0
 34
0.0
 15
0.0
 25
0.0
 35
0.0
146
0.0
 13
0.0
 23
0.0
 33
0.0
 16
1.0
 26
0.0
 36
0.0
 17
0.0
 27
1.0
 37
0.0
 76
     0
330
23
  0
LAYOUT
  5
22
102
{ACAD_REACTORS
330
1A
102
}
330
1A
100
AcDbPlotSettings
  1

  2

  4

  6

 40
0.0
 41
0.0
 42
0.0
 43
0.0
 44
0.0
 45
0.0
 46
0.0
 47
0.0
 48
0.0
 49
0.0
140
0.0
141
0.0
142
1.0
143
1.0
 70
  1712
 72
     0
 73
     0
 74
     0
  7

 75
     0
 76
     0
 77
     2
 78
   300
147
1.0
148
0.0
149
0.0
100
AcDbLayout
  1
Model
 70
     1
 71
     0
 10
0.0
 20
0.0
 11
0.0
 21
0.0
 12
0.0
 22
0.0
 32
0.0
 14
-108.7105155123358
 24
-93.35689115234209
 34
0.0
 15
70.07092359565121
 25
115.523044177291
 35
0.0
146
0.0
 13
0.0
 23
0.0
 33
0.0
 16
1.0
 26
0.0
 36
0.0
 17
0.0
 27
1.0
 37
0.0
 76
     0
330
1F
  0
MLINESTYLE
  5
18
102
{ACAD_REACTORS
330
17
102
}
330
17
100
AcDbMlineStyle
  2
Standard
 70
     0
  3

 62
   256
 51
90.0
 52
90.0
 71
     2
 49
0.5
 62
   256
  6
BYLAYER
 49
-0.5
 62
   256
  6
BYLAYER
  0
ACDBPLACEHOLDER
  5
F
102
{ACAD_REACTORS
330
E
102
}
330
E
  0
ENDSEC
  0
EOF
