  0
SECTION
  2
HEADER
  9
$ACADVER
  1
AC1018
  9
$ACADMAINTVER
 70
     0
  9
$DWGCODEPAGE
  3
ANSI_1252
  9
$INSBASE
 10
0.0
 20
0.0
 30
0.0
  9
$EXTMIN
 10
33.46311293496677
 20
-291.0125393620118
 30
0.0
  9
$EXTMAX
 10
164.6297796016341
 20
-182.1180885869647
 30
0.0
  9
$LIMMIN
 10
0.0
 20
0.0
  9
$LIMMAX
 10
12.0
 20
9.0
  9
$ORTHOMODE
 70
     0
  9
$REGENMODE
 70
     1
  9
$FILLMODE
 70
     1
  9
$QTEXTMODE
 70
     0
  9
$MIRRTEXT
 70
     1
  9
$LTSCALE
 40
1.0
  9
$ATTMODE
 70
     1
  9
$TEXTSIZE
 40
0.2
  9
$TRACEWID
 40
0.05
  9
$TEXTSTYLE
  7
Standard
  9
$CLAYER
  8
0
  9
$CELTYPE
  6
ByLayer
  9
$CECOLOR
 62
   256
  9
$CELTSCALE
 40
1.0
  9
$DISPSILH
 70
     0
  9
$DIMSCALE
 40
1.0
  9
$DIMASZ
 40
0.18
  9
$DIMEXO
 40
0.0625
  9
$DIMDLI
 40
0.38
  9
$DIMRND
 40
0.0
  9
$DIMDLE
 40
0.0
  9
$DIMEXE
 40
0.18
  9
$DIMTP
 40
0.0
  9
$DIMTM
 40
0.0
  9
$DIMTXT
 40
0.18
  9
$DIMCEN
 40
0.09
  9
$DIMTSZ
 40
0.0
  9
$DIMTOL
 70
     0
  9
$DIMLIM
 70
     0
  9
$DIMTIH
 70
     1
  9
$DIMTOH
 70
     1
  9
$DIMSE1
 70
     0
  9
$DIMSE2
 70
     0
  9
$DIMTAD
 70
     0
  9
$DIMZIN
 70
     0
  9
$DIMBLK
  1

  9
$DIMASO
 70
     1
  9
$DIMSHO
 70
     1
  9
$DIMPOST
  1

  9
$DIMAPOST
  1

  9
$DIMALT
 70
     0
  9
$DIMALTD
 70
     2
  9
$DIMALTF
 40
25.4
  9
$DIMLFAC
 40
1.0
  9
$DIMTOFL
 70
     0
  9
$DIMTVP
 40
0.0
  9
$DIMTIX
 70
     0
  9
$DIMSOXD
 70
     0
  9
$DIMSAH
 70
     0
  9
$DIMBLK1
  1

  9
$DIMBLK2
  1

  9
$DIMSTYLE
  2
Standard
  9
$DIMCLRD
 70
     0
  9
$DIMCLRE
 70
     0
  9
$DIMCLRT
 70
     0
  9
$DIMTFAC
 40
1.0
  9
$DIMGAP
 40
0.09
  9
$DIMJUST
 70
     0
  9
$DIMSD1
 70
     0
  9
$DIMSD2
 70
     0
  9
$DIMTOLJ
 70
     1
  9
$DIMTZIN
 70
     0
  9
$DIMALTZ
 70
     0
  9
$DIMALTTZ
 70
     0
  9
$DIMUPT
 70
     0
  9
$DIMDEC
 70
     4
  9
$DIMTDEC
 70
     4
  9
$DIMALTU
 70
     2
  9
$DIMALTTD
 70
     2
  9
$DIMTXSTY
  7
Standard
  9
$DIMAUNIT
 70
     0
  9
$DIMADEC
 70
     0
  9
$DIMALTRND
 40
0.0
  9
$DIMAZIN
 70
     0
  9
$DIMDSEP
 70
    46
  9
$DIMATFIT
 70
     3
  9
$DIMFRAC
 70
     0
  9
$DIMLDRBLK
  1

  9
$DIMLUNIT
 70
     2
  9
$DIMLWD
 70
    -2
  9
$DIMLWE
 70
    -2
  9
$DIMTMOVE
 70
     0
  9
$LUNITS
 70
     2
  9
$LUPREC
 70
     4
  9
$SKETCHINC
 40
0.1
  9
$FILLETRAD
 40
0.5
  9
$AUNITS
 70
     0
  9
$AUPREC
 70
     0
  9
$MENU
  1
.
  9
$ELEVATION
 40
0.0
  9
$PELEVATION
 40
0.0
  9
$THICKNESS
 40
0.0
  9
$LIMCHECK
 70
     0
  9
$CHAMFERA
 40
0.5
  9
$CHAMFERB
 40
0.5
  9
$CHAMFERC
 40
1.0
  9
$CHAMFERD
 40
0.0
  9
$SKPOLY
 70
     0
  9
$TDCREATE
 40
2454532.484215706
  9
$TDUCREATE
 40
2454532.442549039
  9
$TDUPDATE
 40
2454532.484215718
  9
$TDUUPDATE
 40
2454532.442549051
  9
$TDINDWG
 40
0.0000000116
  9
$TDUSRTIMER
 40
0.0000000116
  9
$USRTIMER
 70
     1
  9
$ANGBASE
 50
0.0
  9
$ANGDIR
 70
     0
  9
$PDMODE
 70
     0
  9
$PDSIZE
 40
0.0
  9
$PLINEWID
 40
0.0
  9
$SPLFRAME
 70
     0
  9
$SPLINETYPE
 70
     6
  9
$SPLINESEGS
 70
     8
  9
$HANDSEED
  5
18F
  9
$SURFTAB1
 70
     6
  9
$SURFTAB2
 70
     6
  9
$SURFTYPE
 70
     6
  9
$SURFU
 70
     6
  9
$SURFV
 70
     6
  9
$UCSBASE
  2

  9
$UCSNAME
  2

  9
$UCSORG
 10
0.0
 20
0.0
 30
0.0
  9
$UCSXDIR
 10
1.0
 20
0.0
 30
0.0
  9
$UCSYDIR
 10
0.0
 20
1.0
 30
0.0
  9
$UCSORTHOREF
  2

  9
$UCSORTHOVIEW
 70
     0
  9
$UCSORGTOP
 10
0.0
 20
0.0
 30
0.0
  9
$UCSORGBOTTOM
 10
0.0
 20
0.0
 30
0.0
  9
$UCSORGLEFT
 10
0.0
 20
0.0
 30
0.0
  9
$UCSORGRIGHT
 10
0.0
 20
0.0
 30
0.0
  9
$UCSORGFRONT
 10
0.0
 20
0.0
 30
0.0
  9
$UCSORGBACK
 10
0.0
 20
0.0
 30
0.0
  9
$PUCSBASE
  2

  9
$PUCSNAME
  2

  9
$PUCSORG
 10
0.0
 20
0.0
 30
0.0
  9
$PUCSXDIR
 10
1.0
 20
0.0
 30
0.0
  9
$PUCSYDIR
 10
0.0
 20
1.0
 30
0.0
  9
$PUCSORTHOREF
  2

  9
$PUCSORTHOVIEW
 70
     0
  9
$PUCSORGTOP
 10
0.0
 20
0.0
 30
0.0
  9
$PUCSORGBOTTOM
 10
0.0
 20
0.0
 30
0.0
  9
$PUCSORGLEFT
 10
0.0
 20
0.0
 30
0.0
  9
$PUCSORGRIGHT
 10
0.0
 20
0.0
 30
0.0
  9
$PUCSORGFRONT
 10
0.0
 20
0.0
 30
0.0
  9
$PUCSORGBACK
 10
0.0
 20
0.0
 30
0.0
  9
$USERI1
 70
     0
  9
$USERI2
 70
     0
  9
$USERI3
 70
     0
  9
$USERI4
 70
     0
  9
$USERI5
 70
     0
  9
$USERR1
 40
14.5
  9
$USERR2
 40
0.0
  9
$USERR3
 40
0.0
  9
$USERR4
 40
0.0
  9
$USERR5
 40
0.0
  9
$WORLDVIEW
 70
     1
  9
$SHADEDGE
 70
     3
  9
$SHADEDIF
 70
    70
  9
$TILEMODE
 70
     1
  9
$MAXACTVP
 70
    64
  9
$PINSBASE
 10
0.0
 20
0.0
 30
0.0
  9
$PLIMCHECK
 70
     0
  9
$PEXTMIN
 10
1.00000000000000E+20
 20
1.00000000000000E+20
 30
1.00000000000000E+20
  9
$PEXTMAX
 10
-1.00000000000000E+20
 20
-1.00000000000000E+20
 30
-1.00000000000000E+20
  9
$PLIMMIN
 10
0.0
 20
0.0
  9
$PLIMMAX
 10
12.0
 20
9.0
  9
$UNITMODE
 70
     0
  9
$VISRETAIN
 70
     1
  9
$PLINEGEN
 70
     0
  9
$PSLTSCALE
 70
     1
  9
$TREEDEPTH
 70
  3020
  9
$CMLSTYLE
  2
Standard
  9
$CMLJUST
 70
     0
  9
$CMLSCALE
 40
1.0
  9
$PROXYGRAPHICS
 70
     1
  9
$MEASUREMENT
 70
     1
  9
$CELWEIGHT
370
    -1
  9
$ENDCAPS
280
     0
  9
$JOINSTYLE
280
     0
  9
$LWDISPLAY
290
     0
  9
$INSUNITS
 70
     1
  9
$HYPERLINKBASE
  1

  9
$STYLESHEET
  1

  9
$XEDIT
290
     1
  9
$CEPSNTYPE
380
     0
  9
$PSTYLEMODE
290
     1
  9
$FINGERPRINTGUID
  2
{8187862C-E422-4214-8396-868AAE3C4E72}
  9
$VERSIONGUID
  2
{FAEB1C32-E019-11D5-929B-00C0DF256EC4}
  9
$EXTNAMES
290
     1
  9
$PSVPSCALE
 40
0.0
  9
$OLESTARTUP
290
     0
  9
$SORTENTS
280
   127
  9
$INDEXCTL
280
     0
  9
$HIDETEXT
280
     1
  9
$XCLIPFRAME
290
     0
  9
$HALOGAP
280
     0
  9
$OBSCOLOR
 70
   257
  9
$OBSLTYPE
280
     0
  9
$INTERSECTIONDISPLAY
280
     0
  9
$INTERSECTIONCOLOR
 70
   257
  9
$DIMASSOC
280
     2
  9
$PROJECTNAME
  1

  0
ENDSEC
  0
SECTION
  2
CLASSES
  0
CLASS
  1
ACDBDICTIONARYWDFLT
  2
AcDbDictionaryWithDefault
  3
ObjectDBX Classes
 90
        0
 91
        3
280
     0
281
     0
  0
CLASS
  1

  2
exOdDbCircle
  3

 90
        0
 91
        3
280
     0
281
     1
  0
CLASS
  1

  2
exOdDbSpline
  3

 90
        0
 91
        3
280
     0
281
     1
  0
ENDSEC
  0
SECTION
  2
TABLES
  0
TABLE
  2
VPORT
  5
8
330
0
100
AcDbSymbolTable
 70
     1
  0
VPORT
  5
29
330
8
100
AcDbSymbolTableRecord
100
AcDbViewportTableRecord
  2
*Active
 70
     0
 10
0.0
 20
0.0
 11
1.0
 21
1.0
 12
99.04644626830044
 22
-236.5653139744882
 13
0.0
 23
0.0
 14
0.5
 24
0.5
 15
0.5
 25
0.5
 16
0.0
 26
0.0
 36
1.0
 17
0.0
 27
0.0
 37
0.0
 40
119.7838958525518
 41
1.60267857142857
 42
50.0
 43
0.0
 44
0.0
 50
0.0
 51
0.0
 71
     0
 72
   100
 73
     1
 74
     3
 75
     0
 76
     0
 77
     0
 78
     0
281
     0
 65
     1
110
0.0
120
0.0
130
0.0
111
1.0
121
0.0
131
0.0
112
0.0
122
1.0
132
0.0
 79
     0
146
0.0
  0
ENDTAB
  0
TABLE
  2
LTYPE
  5
5
330
0
100
AcDbSymbolTable
 70
     8
  0
LTYPE
  5
14
330
5
100
AcDbSymbolTableRecord
100
AcDbLinetypeTableRecord
  2
ByBlock
 70
     0
  3

 72
    65
 73
     0
 40
0.0
  0
LTYPE
  5
15
330
5
100
AcDbSymbolTableRecord
100
AcDbLinetypeTableRecord
  2
ByLayer
 70
     0
  3

 72
    65
 73
     0
 40
0.0
  0
LTYPE
  5
16
330
5
100
AcDbSymbolTableRecord
100
AcDbLinetypeTableRecord
  2
Continuous
 70
     0
  3
Solid line
 72
    65
 73
     0
 40
0.0
  0
LTYPE
  5
2A
330
5
100
AcDbSymbolTableRecord
100
AcDbLinetypeTableRecord
  2
DASHED
 70
     0
  3
Dashed
 72
    65
 73
     2
 40
15.0
 49
7.0
 74
     0
 49
-8.0
 74
     0
  0
LTYPE
  5
2B
330
5
100
AcDbSymbolTableRecord
100
AcDbLinetypeTableRecord
  2
DOTTED
 70
     0
  3
Dotted
 72
    65
 73
     2
 40
1.0
 49
0.0
 74
     0
 49
-1.0
 74
     0
  0
LTYPE
  5
2C
330
5
100
AcDbSymbolTableRecord
100
AcDbLinetypeTableRecord
  2
DOT_CENTER
 70
     0
  3
Dot_Center
 72
    65
 73
     4
 40
14.0
 49
12.0
 74
     0
 49
-1.0
 74
     0
 49
0.0
 74
     0
 49
-1.0
 74
     0
  0
LTYPE
  5
2D
330
5
100
AcDbSymbolTableRecord
100
AcDbLinetypeTableRecord
  2
LONG_DASHED
 70
     0
  3
Long_Dashed
 72
    65
 73
     2
 40
15.0
 49
10.0
 74
     0
 49
-5.0
 74
     0
  0
LTYPE
  5
2E
330
5
100
AcDbSymbolTableRecord
100
AcDbLinetypeTableRecord
  2
DASH_CENTER
 70
     0
  3
Dash_Center
 72
    65
 73
     4
 40
14.0
 49
11.0
 74
     0
 49
-1.0
 74
     0
 49
1.0
 74
     0
 49
-1.0
 74
     0
  0
LTYPE
  5
2F
330
5
100
AcDbSymbolTableRecord
100
AcDbLinetypeTableRecord
  2
PHANTOM
 70
     0
  3
Phantom
 72
    65
 73
     6
 40
13.0
 49
10.0
 74
     0
 49
-1.0
 74
     0
 49
0.0
 74
     0
 49
-1.0
 74
     0
 49
0.0
 74
     0
 49
-1.0
 74
     0
  0
LTYPE
  5
30
330
5
100
AcDbSymbolTableRecord
100
AcDbLinetypeTableRecord
  2
CENTER_DASH_DASH
 70
     0
  3
Center_Dash_Dash
 72
    65
 73
     6
 40
14.0
 49
9.0
 74
     0
 49
-1.0
 74
     0
 49
1.0
 74
     0
 49
-1.0
 74
     0
 49
1.0
 74
     0
 49
-1.0
 74
     0
  0
ENDTAB
  0
TABLE
  2
LAYER
  5
2
330
0
100
AcDbSymbolTable
 70
     2
  0
LAYER
  5
10
330
2
100
AcDbSymbolTableRecord
100
AcDbLayerTableRecord
  2
0
 70
     0
 62
     7
  6
Continuous
370
    -3
390
F
  0
LAYER
  5
31
330
2
100
AcDbSymbolTableRecord
100
AcDbLayerTableRecord
  2
1
 70
     0
 62
     7
  6
Continuous
370
    -3
390
F
  0
ENDTAB
  0
TABLE
  2
STYLE
  5
3
330
0
100
AcDbSymbolTable
 70
     2
  0
STYLE
  5
11
330
3
100
AcDbSymbolTableRecord
100
AcDbTextStyleTableRecord
  2
Standard
 70
     0
 40
0.0
 41
1.0
 50
0.0
 71
     0
 42
0.2
  3
txt
  4

  0
STYLE
  5
170
330
3
100
AcDbSymbolTableRecord
100
AcDbTextStyleTableRecord
  2
CONVERTER_11
 70
     0
 40
0.0
 41
0.9
 50
0.0
 71
     0
 42
0.2
  3
txt.shx
  4

  0
ENDTAB
  0
TABLE
  2
VIEW
  5
6
330
0
100
AcDbSymbolTable
 70
     0
  0
ENDTAB
  0
TABLE
  2
UCS
  5
7
330
0
100
AcDbSymbolTable
 70
     0
  0
ENDTAB
  0
TABLE
  2
APPID
  5
9
330
0
100
AcDbSymbolTable
 70
     1
  0
APPID
  5
12
330
9
100
AcDbSymbolTableRecord
100
AcDbRegAppTableRecord
  2
ACAD
 70
     0
  0
ENDTAB
  0
TABLE
  2
DIMSTYLE
  5
A
330
0
100
AcDbSymbolTable
 70
     4
100
AcDbDimStyleTable
  0
DIMSTYLE
105
27
330
A
100
AcDbSymbolTableRecord
100
AcDbDimStyleTableRecord
  2
Standard
 70
     0
340
11
  0
DIMSTYLE
105
174
102
{ACAD_REACTORS
330
175
102
}
330
A
100
AcDbSymbolTableRecord
100
AcDbDimStyleTableRecord
  2
ME10_DIM_10
 70
     0
 41
3.5
 42
0.0
 44
2.0
 73
     0
 74
     0
 77
     1
 78
     8
140
3.5
147
2.0
172
     1
173
     1
176
     2
177
     2
178
     2
271
     2
340
170
  0
DIMSTYLE
105
181
102
{ACAD_REACTORS
330
182
102
}
330
A
100
AcDbSymbolTableRecord
100
AcDbDimStyleTableRecord
  2
ME10_DIM_11
 70
     0
 41
3.5
 42
0.0
 44
2.0
 73
     0
 74
     0
 77
     1
 78
     8
140
3.5
147
2.0
172
     1
173
     1
176
     2
177
     2
178
     2
271
     2
340
170
  0
DIMSTYLE
105
18C
102
{ACAD_REACTORS
330
18D
102
}
330
A
100
AcDbSymbolTableRecord
100
AcDbDimStyleTableRecord
  2
ME10_DIM_12
 70
     0
 41
3.5
 42
0.0
 44
2.0
 73
     0
 74
     0
 77
     1
 78
     8
140
3.5
147
2.0
172
     1
173
     1
176
     2
177
     2
178
     2
271
     2
340
170
  0
ENDTAB
  0
TABLE
  2
BLOCK_RECORD
  5
1
330
0
100
AcDbSymbolTable
 70
     4
  0
BLOCK_RECORD
  5
1F
330
1
100
AcDbSymbolTableRecord
100
AcDbBlockTableRecord
  2
*Model_Space
340
22
  0
BLOCK_RECORD
  5
1B
330
1
100
AcDbSymbolTableRecord
100
AcDbBlockTableRecord
  2
*Paper_Space
340
1E
  0
BLOCK_RECORD
  5
23
330
1
100
AcDbSymbolTableRecord
100
AcDbBlockTableRecord
  2
*Paper_Space0
340
26
  0
BLOCK_RECORD
  5
16A
330
1
100
AcDbSymbolTableRecord
100
AcDbBlockTableRecord
  2
*D1
340
0
  0
BLOCK_RECORD
  5
176
330
1
100
AcDbSymbolTableRecord
100
AcDbBlockTableRecord
  2
*D2
340
0
  0
BLOCK_RECORD
  5
183
330
1
100
AcDbSymbolTableRecord
100
AcDbBlockTableRecord
  2
*D3
340
0
  0
ENDTAB
  0
ENDSEC
  0
SECTION
  2
BLOCKS
  0
BLOCK
  5
20
330
1F
100
AcDbEntity
  8
0
100
AcDbBlockBegin
  2
*Model_Space
 70
     0
 71
     0
 10
0.0
 20
0.0
 30
0.0
  3
*Model_Space
  1

  0
ENDBLK
  5
21
330
1F
100
AcDbEntity
  8
0
100
AcDbBlockEnd
  0
BLOCK
  5
1C
330
1B
100
AcDbEntity
 67
     1
  8
0
100
AcDbBlockBegin
  2
*Paper_Space
 70
     0
 71
     0
 10
0.0
 20
0.0
 30
0.0
  3
*Paper_Space
  1

  0
ENDBLK
  5
1D
330
1B
100
AcDbEntity
 67
     1
  8
0
100
AcDbBlockEnd
  0
BLOCK
  5
24
330
23
100
AcDbEntity
  8
0
100
AcDbBlockBegin
  2
*Paper_Space0
 70
     0
 71
     0
 10
0.0
 20
0.0
 30
0.0
  3
*Paper_Space0
  1

  0
ENDBLK
  5
25
330
23
100
AcDbEntity
  8
0
100
AcDbBlockEnd
  0
BLOCK
  5
172
330
16A
100
AcDbEntity
  8
0
100
AcDbBlockBegin
  2
*D1
 70
     1
 71
     0
 10
0.0
 20
0.0
 30
0.0
  3
*D1
  1

  0
LINE
  5
16B
330
16A
100
AcDbEntity
  8
1
  6
Continuous
 62
     2
100
AcDbLine
 10
73.963112934967
 20
-289.0125393620118
 30
0.0
 11
88.963112934967
 21
-289.0125393620118
 31
0.0
  0
LINE
  5
16C
330
16A
100
AcDbEntity
  8
1
  6
Continuous
 62
     2
100
AcDbLine
 10
88.963112934967
 20
-255.9656881505753
 30
0.0
 11
88.963112934967
 21
-291.0125393620118
 31
0.0
  0
LINE
  5
16D
330
16A
100
AcDbEntity
  8
1
  6
Continuous
 62
     2
100
AcDbLine
 10
73.963112934967
 20
-277.9656881505755
 30
0.0
 11
73.963112934967
 21
-291.0125393620118
 31
0.0
  0
SOLID
  5
16E
330
16A
100
AcDbEntity
  8
1
 62
     2
100
AcDbTrace
 10
77.463112934967
 20
-288.5517556204559
 30
0.0
 11
77.463112934967
 21
-289.4733231035677
 31
0.0
 12
73.963112934967
 22
-289.0125393620118
 32
0.0
 13
73.963112934967
 23
-289.0125393620118
 33
0.0
  0
SOLID
  5
16F
330
16A
100
AcDbEntity
  8
1
 62
     2
100
AcDbTrace
 10
85.463112934967
 20
-289.4733231035677
 30
0.0
 11
85.463112934967
 21
-288.5517556204559
 31
0.0
 12
88.963112934967
 22
-289.0125393620118
 32
0.0
 13
88.963112934967
 23
-289.0125393620118
 33
0.0
  0
MTEXT
  5
171
330
16A
100
AcDbEntity
  8
1
 62
     2
100
AcDbMText
 10
79.4730426672474
 20
-287.0125393620118
 30
0.0
 40
3.5
 41
0.0
 71
     7
 72
     1
  1
15
  7
CONVERTER_11
 11
0.9999999999970621
 21
2.424068405545307E-6
 31
0.0
 73
     1
 44
0.60024009603842
  0
ENDBLK
  5
173
330
16A
100
AcDbEntity
  8
0
100
AcDbBlockEnd
  0
BLOCK
  5
17F
330
176
100
AcDbEntity
  8
0
100
AcDbBlockBegin
  2
*D2
 70
     1
 71
     0
 10
0.0
 20
0.0
 30
0.0
  3
*D2
  1

  0
LINE
  5
177
330
176
100
AcDbEntity
  8
1
  6
Continuous
 62
     2
100
AcDbLine
 10
88.963112934967
 20
-187.6180885869647
 30
0.0
 11
96.48114968856409
 21
-187.6180885869647
 31
0.0
  0
LINE
  5
178
330
176
100
AcDbEntity
  8
1
  6
Continuous
 62
     2
100
AcDbLine
 10
84.96311293496699
 20
-187.6180885869647
 30
0.0
 11
88.963112934967
 21
-187.6180885869647
 31
0.0
  0
LINE
  5
179
330
176
100
AcDbEntity
  8
1
  6
Continuous
 62
     2
100
AcDbLine
 10
77.96311293496699
 20
-187.6180885869647
 30
0.0
 11
84.96311293496699
 21
-187.6180885869647
 31
0.0
  0
LINE
  5
17A
330
176
100
AcDbEntity
  8
1
  6
Continuous
 62
     2
100
AcDbLine
 10
88.963112934967
 20
-233.9656881505753
 30
0.0
 11
88.963112934967
 21
-185.6180885869647
 31
0.0
  0
LINE
  5
17B
330
176
100
AcDbEntity
  8
1
  6
Continuous
 62
     2
100
AcDbLine
 10
84.96311293496699
 20
-226.9656881505753
 30
0.0
 11
84.96311293496699
 21
-185.6180885869647
 31
0.0
  0
SOLID
  5
17C
330
176
100
AcDbEntity
  8
1
 62
     2
100
AcDbTrace
 10
92.463112934967
 20
-187.1573048454088
 30
0.0
 11
92.463112934967
 21
-188.0788723285206
 31
0.0
 12
88.963112934967
 22
-187.6180885869647
 32
0.0
 13
88.963112934967
 23
-187.6180885869647
 33
0.0
  0
SOLID
  5
17D
330
176
100
AcDbEntity
  8
1
 62
     2
100
AcDbTrace
 10
81.46311293496699
 20
-188.0788723285206
 30
0.0
 11
81.46311293496699
 21
-187.1573048454088
 31
0.0
 12
84.96311293496699
 22
-187.6180885869647
 32
0.0
 13
84.96311293496699
 23
-187.6180885869647
 33
0.0
  0
MTEXT
  5
17E
330
176
100
AcDbEntity
  8
1
 62
     2
100
AcDbMText
 10
94.3811496885641
 20
-185.6180885869647
 30
0.0
 40
3.5
 41
0.0
 71
     7
 72
     1
  1
4
  7
CONVERTER_11
 11
0.9999999999970621
 21
2.424068405545307E-6
 31
0.0
 73
     1
 44
0.60024009603842
  0
ENDBLK
  5
180
330
176
100
AcDbEntity
  8
0
100
AcDbBlockEnd
  0
BLOCK
  5
18A
330
183
100
AcDbEntity
  8
0
100
AcDbBlockBegin
  2
*D3
 70
     1
 71
     0
 10
0.0
 20
0.0
 30
0.0
  3
*D3
  1

  0
LINE
  5
184
330
183
100
AcDbEntity
  8
1
  6
Continuous
 62
     2
100
AcDbLine
 10
69.463112934967
 20
-187.6180885869647
 30
0.0
 11
84.963112934967
 21
-187.6180885869647
 31
0.0
  0
LINE
  5
185
330
183
100
AcDbEntity
  8
1
  6
Continuous
 62
     2
100
AcDbLine
 10
84.963112934967
 20
-226.9656881505753
 30
0.0
 11
84.963112934967
 21
-185.6180885869647
 31
0.0
  0
LINE
  5
186
330
183
100
AcDbEntity
  8
1
  6
Continuous
 62
     2
100
AcDbLine
 10
69.463112934967
 20
-212.9656881505753
 30
0.0
 11
69.463112934967
 21
-185.6180885869647
 31
0.0
  0
SOLID
  5
187
330
183
100
AcDbEntity
  8
1
 62
     2
100
AcDbTrace
 10
81.463112934967
 20
-188.0788723285206
 30
0.0
 11
81.463112934967
 21
-187.1573048454088
 31
0.0
 12
84.963112934967
 22
-187.6180885869647
 32
0.0
 13
84.963112934967
 23
-187.6180885869647
 33
0.0
  0
SOLID
  5
188
330
183
100
AcDbEntity
  8
1
 62
     2
100
AcDbTrace
 10
72.963112934967
 20
-187.1573048454088
 30
0.0
 11
72.963112934967
 21
-188.0788723285206
 31
0.0
 12
69.463112934967
 22
-187.6180885869647
 32
0.0
 13
69.463112934967
 23
-187.6180885869647
 33
0.0
  0
MTEXT
  5
189
330
183
100
AcDbEntity
  8
1
 62
     2
100
AcDbMText
 10
72.969362934967
 20
-185.6180885869647
 30
0.0
 40
3.5
 41
0.0
 71
     7
 72
     1
  1
15.5
  7
CONVERTER_11
 11
0.9999999999970621
 21
2.424068405545307E-6
 31
0.0
 73
     1
 44
0.60024009603842
  0
ENDBLK
  5
18B
330
183
100
AcDbEntity
  8
0
100
AcDbBlockEnd
  0
ENDSEC
  0
SECTION
  2
ENTITIES
  0
LINE
  5
32
330
1F
100
AcDbEntity
  8
1
  6
Continuous
 62
     7
100
AcDbLine
 10
40.46311293496677
 20
-242.4656881505792
 30
0.0
 11
33.46311293496677
 21
-242.4656881505792
 31
0.0
  0
LINE
  5
33
330
1F
100
AcDbEntity
  8
1
  6
Continuous
 62
     7
100
AcDbLine
 10
40.46311293496677
 20
-232.4656881505792
 30
0.0
 11
40.46311293496677
 21
-242.4656881505792
 31
0.0
  0
LINE
  5
34
330
1F
100
AcDbEntity
  8
1
  6
Continuous
 62
     7
100
AcDbLine
 10
33.46311293496677
 20
-232.4656881505792
 30
0.0
 11
33.46311293496677
 21
-221.4656881505755
 31
0.0
  0
LINE
  5
35
330
1F
100
AcDbEntity
  8
1
  6
Continuous
 62
     7
100
AcDbLine
 10
33.46311293496677
 20
-232.4656881505792
 30
0.0
 11
40.46311293496677
 21
-232.4656881505792
 31
0.0
  0
LINE
  5
36
330
1F
100
AcDbEntity
  8
1
  6
Continuous
 62
     7
100
AcDbLine
 10
40.463112934967
 20
-221.4656881505755
 30
0.0
 11
33.46311293496677
 21
-221.4656881505755
 31
0.0
  0
LINE
  5
37
330
1F
100
AcDbEntity
  8
1
  6
Continuous
 62
     7
100
AcDbLine
 10
40.463112934967
 20
-211.4656881505755
 30
0.0
 11
40.463112934967
 21
-221.4656881505755
 31
0.0
  0
LINE
  5
38
330
1F
100
AcDbEntity
  8
1
  6
Continuous
 62
     7
100
AcDbLine
 10
33.46311293496677
 20
-211.4656881505755
 30
0.0
 11
33.46311293496677
 21
-200.9656881505753
 31
0.0
  0
LINE
  5
39
330
1F
100
AcDbEntity
  8
1
  6
Continuous
 62
     7
100
AcDbLine
 10
33.46311293496677
 20
-211.4656881505755
 30
0.0
 11
40.463112934967
 21
-211.4656881505755
 31
0.0
  0
LINE
  5
3A
330
1F
100
AcDbEntity
  8
1
  6
Continuous
 62
     7
100
AcDbLine
 10
33.46311293496677
 20
-252.965688150576
 30
0.0
 11
33.46311293496677
 21
-242.4656881505792
 31
0.0
  0
LINE
  5
3B
330
1F
100
AcDbEntity
  8
1
  6
Continuous
 62
     7
100
AcDbLine
 10
69.463112934967
 20
-237.9656881505753
 30
0.0
 11
69.463112934967
 21
-239.9656881505753
 31
0.0
  0
LINE
  5
3C
330
1F
100
AcDbEntity
  8
1
  6
Continuous
 62
     7
100
AcDbLine
 10
84.963112934967
 20
-237.9656881505753
 30
0.0
 11
84.963112934967
 21
-252.9656881505753
 31
0.0
  0
LINE
  5
3D
330
1F
100
AcDbEntity
  8
1
  6
Continuous
 62
     7
100
AcDbLine
 10
69.463112934967
 20
-237.9656881505753
 30
0.0
 11
69.463112934967
 21
-234.9656881505753
 31
0.0
  0
LINE
  5
3E
330
1F
100
AcDbEntity
  8
1
  6
Continuous
 62
     7
100
AcDbLine
 10
84.963112934967
 20
-237.9656881505753
 30
0.0
 11
69.463112934967
 21
-237.9656881505753
 31
0.0
  0
LINE
  5
3F
330
1F
100
AcDbEntity
  8
1
  6
Continuous
 62
     7
100
AcDbLine
 10
69.463112934967
 20
-231.9656881505753
 30
0.0
 11
69.463112934967
 21
-237.9656881505753
 31
0.0
  0
LINE
  5
40
330
1F
100
AcDbEntity
  8
1
  6
Continuous
 62
     7
100
AcDbLine
 10
69.463112934967
 20
-231.9656881505753
 30
0.0
 11
69.463112934967
 21
-212.9656881505753
 31
0.0
  0
LINE
  5
41
330
1F
100
AcDbEntity
  8
1
  6
Continuous
 62
     7
100
AcDbLine
 10
84.963112934967
 20
-231.9656881505753
 30
0.0
 11
84.963112934967
 21
-237.9656881505753
 31
0.0
  0
LINE
  5
42
330
1F
100
AcDbEntity
  8
1
  6
Continuous
 62
     7
100
AcDbLine
 10
69.463112934967
 20
-231.9656881505753
 30
0.0
 11
84.963112934967
 21
-231.9656881505753
 31
0.0
  0
LINE
  5
43
330
1F
100
AcDbEntity
  8
1
  6
Continuous
 62
     7
100
AcDbLine
 10
58.963112934967
 20
-218.4656881505753
 30
0.0
 11
59.463112934967
 21
-218.4656881505753
 31
0.0
  0
LINE
  5
44
330
1F
100
AcDbEntity
  8
1
  6
Continuous
 62
     7
100
AcDbLine
 10
58.963112934967
 20
-220.9656881505753
 30
0.0
 11
58.963112934967
 21
-218.4656881505753
 31
0.0
  0
LINE
  5
45
330
1F
100
AcDbEntity
  8
1
  6
Continuous
 62
     7
100
AcDbLine
 10
52.463112934967
 20
-213.7656881505753
 30
0.0
 11
55.463112934967
 21
-213.7656881505753
 31
0.0
  0
LINE
  5
46
330
1F
100
AcDbEntity
  8
1
  6
Continuous
 62
     7
100
AcDbLine
 10
52.463112934967
 20
-212.9656881505753
 30
0.0
 11
52.463112934967
 21
-213.7656881505753
 31
0.0
  0
LINE
  5
47
330
1F
100
AcDbEntity
  8
1
  6
Continuous
 62
     7
100
AcDbLine
 10
55.463112934967
 20
-218.4656881505753
 30
0.0
 11
55.463112934967
 21
-213.7656881505753
 31
0.0
  0
LINE
  5
48
330
1F
100
AcDbEntity
  8
1
  6
Continuous
 62
     7
100
AcDbLine
 10
55.963112934967
 20
-218.4656881505753
 30
0.0
 11
55.463112934967
 21
-218.4656881505753
 31
0.0
  0
LINE
  5
49
330
1F
100
AcDbEntity
  8
1
  6
Continuous
 62
     7
100
AcDbLine
 10
51.463112934967
 20
-213.7656881505753
 30
0.0
 11
52.463112934967
 21
-213.7656881505753
 31
0.0
  0
LINE
  5
4A
330
1F
100
AcDbEntity
  8
1
  6
Continuous
 62
     7
100
AcDbLine
 10
55.463112934967
 20
-221.5656881505755
 30
0.0
 11
55.463112934967
 21
-218.4656881505753
 31
0.0
  0
LINE
  5
4B
330
1F
100
AcDbEntity
  8
1
  6
Continuous
 62
     7
100
AcDbLine
 10
51.463112934967
 20
-237.9656881505753
 30
0.0
 11
51.463112934967
 21
-249.7656881505753
 31
0.0
  0
LINE
  5
4C
330
1F
100
AcDbEntity
  8
1
  6
Continuous
 62
     7
100
AcDbLine
 10
55.463112934967
 20
-237.9656881505753
 30
0.0
 11
55.463112934967
 21
-241.9656881505753
 31
0.0
  0
LINE
  5
4D
330
1F
100
AcDbEntity
  8
1
  6
Continuous
 62
     7
100
AcDbLine
 10
55.463112934967
 20
-237.9656881505753
 30
0.0
 11
55.463112934967
 21
-231.9656881505753
 31
0.0
  0
LINE
  5
4E
330
1F
100
AcDbEntity
  8
1
  6
Continuous
 62
     7
100
AcDbLine
 10
55.463112934967
 20
-237.9656881505753
 30
0.0
 11
51.463112934967
 21
-237.9656881505753
 31
0.0
  0
LINE
  5
4F
330
1F
100
AcDbEntity
  8
1
  6
Continuous
 62
     7
100
AcDbLine
 10
55.463112934967
 20
-231.9656881505753
 30
0.0
 11
55.463112934967
 21
-223.9656881505753
 31
0.0
  0
LINE
  5
50
330
1F
100
AcDbEntity
  8
1
  6
Continuous
 62
     7
100
AcDbLine
 10
51.463112934967
 20
-231.9656881505753
 30
0.0
 11
51.463112934967
 21
-237.9656881505753
 31
0.0
  0
LINE
  5
51
330
1F
100
AcDbEntity
  8
1
  6
Continuous
 62
     7
100
AcDbLine
 10
55.463112934967
 20
-231.9656881505753
 30
0.0
 11
55.463112934967
 21
-237.9656881505753
 31
0.0
  0
LINE
  5
52
330
1F
100
AcDbEntity
  8
1
  6
Continuous
 62
     7
100
AcDbLine
 10
55.463112934967
 20
-231.9656881505753
 30
0.0
 11
51.463112934967
 21
-231.9656881505753
 31
0.0
  0
LINE
  5
53
330
1F
100
AcDbEntity
  8
1
  6
Continuous
 62
     7
100
AcDbLine
 10
52.463112934967
 20
-212.9656881505753
 30
0.0
 11
49.463112934967
 21
-212.9656881505753
 31
0.0
  0
LINE
  5
54
330
1F
100
AcDbEntity
  8
1
  6
Continuous
 62
     7
100
AcDbLine
 10
52.463112934967
 20
-212.9656881505753
 30
0.0
 11
55.963112934967
 21
-212.9656881505753
 31
0.0
  0
LINE
  5
55
330
1F
100
AcDbEntity
  8
1
  6
Continuous
 62
     7
100
AcDbLine
 10
55.963112934967
 20
-212.9656881505753
 30
0.0
 11
69.463112934967
 21
-212.9656881505753
 31
0.0
  0
LINE
  5
56
330
1F
100
AcDbEntity
  8
1
  6
Continuous
 62
     7
100
AcDbLine
 10
55.963112934967
 20
-218.4656881505753
 30
0.0
 11
58.963112934967
 21
-218.4656881505753
 31
0.0
  0
LINE
  5
57
330
1F
100
AcDbEntity
  8
1
  6
Continuous
 62
     7
100
AcDbLine
 10
55.963112934967
 20
-212.9656881505753
 30
0.0
 11
52.463112934967
 21
-212.9656881505753
 31
0.0
  0
LINE
  5
58
330
1F
100
AcDbEntity
  8
1
  6
Continuous
 62
     7
100
AcDbLine
 10
55.963112934967
 20
-218.4656881505753
 30
0.0
 11
55.963112934967
 21
-212.9656881505753
 31
0.0
  0
LINE
  5
59
330
1F
100
AcDbEntity
  8
1
  6
Continuous
 62
     7
100
AcDbLine
 10
59.463112934967
 20
-218.4656881505753
 30
0.0
 11
59.463112934967
 21
-219.9656881505753
 31
0.0
  0
LINE
  5
5A
330
1F
100
AcDbEntity
  8
1
  6
Continuous
 62
     7
100
AcDbLine
 10
59.463112934967
 20
-219.9656881505753
 30
0.0
 11
62.463112934967
 21
-219.9656881505753
 31
0.0
  0
LINE
  5
5B
330
1F
100
AcDbEntity
  8
1
  6
Continuous
 62
     7
100
AcDbLine
 10
55.463112934967
 20
-249.7656881505753
 30
0.0
 11
55.463112934967
 21
-237.9656881505753
 31
0.0
  0
LINE
  5
5C
330
1F
100
AcDbEntity
  8
1
  6
Continuous
 62
     7
100
AcDbLine
 10
51.463112934967
 20
-249.7656881505753
 30
0.0
 11
55.463112934967
 21
-249.7656881505753
 31
0.0
  0
LINE
  5
5D
330
1F
100
AcDbEntity
  8
1
  6
Continuous
 62
     7
100
AcDbLine
 10
51.463112934967
 20
-213.7656881505753
 30
0.0
 11
51.463112934967
 21
-231.9656881505753
 31
0.0
  0
LINE
  5
5E
330
1F
100
AcDbEntity
  8
1
  6
Continuous
 62
     7
100
AcDbLine
 10
58.963112934967
 20
-229.9656881505753
 30
0.0
 11
58.963112934967
 21
-239.9656881505753
 31
0.0
  0
LINE
  5
5F
330
1F
100
AcDbEntity
  8
1
  6
DOT_CENTER
 62
     2
100
AcDbLine
 10
45.463112934967
 20
-234.9656881505753
 30
0.0
 11
86.463112934967
 21
-234.9656881505753
 31
0.0
  0
LINE
  5
60
330
1F
100
AcDbEntity
  8
1
  6
DASHED
 62
     2
100
AcDbLine
 10
60.963112934967
 20
-233.7656881505753
 30
0.0
 11
60.963112934967
 21
-236.1656881505754
 31
0.0
  0
LINE
  5
61
330
1F
100
AcDbEntity
  8
1
  6
DASHED
 62
     2
100
AcDbLine
 10
60.963112934967
 20
-236.1656881505754
 30
0.0
 11
60.963112934967
 21
-237.2656881505753
 31
0.0
  0
LINE
  5
62
330
1F
100
AcDbEntity
  8
1
  6
DASHED
 62
     2
100
AcDbLine
 10
60.963112934967
 20
-232.6656881505754
 30
0.0
 11
60.963112934967
 21
-233.7656881505753
 31
0.0
  0
LINE
  5
63
330
1F
100
AcDbEntity
  8
1
  6
DASHED
 62
     2
100
AcDbLine
 10
60.963112934967
 20
-237.2656881505753
 30
0.0
 11
65.963112934967
 21
-237.2656881505753
 31
0.0
  0
LINE
  5
64
330
1F
100
AcDbEntity
  8
1
  6
DASHED
 62
     2
100
AcDbLine
 10
59.963112934967
 20
-234.9656881505753
 30
0.0
 11
60.963112934967
 21
-237.2656881505753
 31
0.0
  0
LINE
  5
65
330
1F
100
AcDbEntity
  8
1
  6
DASHED
 62
     2
100
AcDbLine
 10
60.963112934967
 20
-232.6656881505754
 30
0.0
 11
59.963112934967
 21
-234.9656881505753
 31
0.0
  0
LINE
  5
66
330
1F
100
AcDbEntity
  8
1
  6
Continuous
 62
     7
100
AcDbLine
 10
65.963112934967
 20
-236.1656881505754
 30
0.0
 11
65.963112934967
 21
-237.2656881505753
 31
0.0
  0
LINE
  5
67
330
1F
100
AcDbEntity
  8
1
  6
DASHED
 62
     2
100
AcDbLine
 10
65.963112934967
 20
-236.1656881505754
 30
0.0
 11
60.963112934967
 21
-236.1656881505754
 31
0.0
  0
LINE
  5
68
330
1F
100
AcDbEntity
  8
1
  6
Continuous
 62
     7
100
AcDbLine
 10
65.963112934967
 20
-233.7656881505753
 30
0.0
 11
65.963112934967
 21
-236.1656881505754
 31
0.0
  0
LINE
  5
69
330
1F
100
AcDbEntity
  8
1
  6
DASHED
 62
     2
100
AcDbLine
 10
65.963112934967
 20
-233.7656881505753
 30
0.0
 11
60.963112934967
 21
-233.7656881505753
 31
0.0
  0
LINE
  5
6A
330
1F
100
AcDbEntity
  8
1
  6
Continuous
 62
     7
100
AcDbLine
 10
65.963112934967
 20
-237.2656881505753
 30
0.0
 11
65.963112934967
 21
-239.9656881505753
 31
0.0
  0
LINE
  5
6B
330
1F
100
AcDbEntity
  8
1
  6
Continuous
 62
     7
100
AcDbLine
 10
65.963112934967
 20
-232.6656881505754
 30
0.0
 11
65.963112934967
 21
-233.7656881505753
 31
0.0
  0
LINE
  5
6C
330
1F
100
AcDbEntity
  8
1
  6
DASHED
 62
     2
100
AcDbLine
 10
65.963112934967
 20
-232.6656881505754
 30
0.0
 11
60.963112934967
 21
-232.6656881505754
 31
0.0
  0
LINE
  5
6D
330
1F
100
AcDbEntity
  8
1
  6
Continuous
 62
     7
100
AcDbLine
 10
65.963112934967
 20
-229.9656881505753
 30
0.0
 11
65.963112934967
 21
-232.6656881505754
 31
0.0
  0
LINE
  5
6E
330
1F
100
AcDbEntity
  8
1
  6
Continuous
 62
     7
100
AcDbLine
 10
55.463112934967
 20
-225.6156881505754
 30
0.0
 11
58.963112934967
 21
-225.6156881505754
 31
0.0
  0
LINE
  5
6F
330
1F
100
AcDbEntity
  8
1
  6
Continuous
 62
     7
100
AcDbLine
 10
55.463112934967
 20
-241.6156881505754
 30
0.0
 11
58.963112934967
 21
-241.6156881505754
 31
0.0
  0
LINE
  5
70
330
1F
100
AcDbEntity
  8
1
  6
Continuous
 62
     7
100
AcDbLine
 10
58.963112934967
 20
-254.9656881505753
 30
0.0
 11
58.963112934967
 21
-258.7760329781616
 31
0.0
  0
LINE
  5
71
330
1F
100
AcDbEntity
  8
1
  6
Continuous
 62
     7
100
AcDbLine
 10
55.463112934967
 20
-254.9656881505753
 30
0.0
 11
55.463112934967
 21
-258.9656881505753
 31
0.0
  0
LINE
  5
72
330
1F
100
AcDbEntity
  8
1
  6
Continuous
 62
     7
100
AcDbLine
 10
52.49138278255936
 20
-262.3448625913628
 30
0.0
 11
55.463112934967
 21
-258.9656881505753
 31
0.0
  0
LINE
  5
73
330
1F
100
AcDbEntity
  8
1
  6
Continuous
 62
     7
100
AcDbLine
 10
55.463112934967
 20
-241.9656881505753
 30
0.0
 11
55.463112934967
 21
-254.9656881505753
 31
0.0
  0
LINE
  5
74
330
1F
100
AcDbEntity
  8
1
  6
Continuous
 62
     7
100
AcDbLine
 10
55.463112934967
 20
-241.9656881505753
 30
0.0
 11
58.963112934967
 21
-241.9656881505753
 31
0.0
  0
LINE
  5
75
330
1F
100
AcDbEntity
  8
1
  6
Continuous
 62
     7
100
AcDbLine
 10
58.963112934967
 20
-225.2656881505753
 30
0.0
 11
58.963112934967
 21
-221.5656881505755
 31
0.0
  0
LINE
  5
76
330
1F
100
AcDbEntity
  8
1
  6
Continuous
 62
     7
100
AcDbLine
 10
55.463112934967
 20
-225.2656881505753
 30
0.0
 11
55.463112934967
 21
-231.9656881505753
 31
0.0
  0
LINE
  5
77
330
1F
100
AcDbEntity
  8
1
  6
Continuous
 62
     7
100
AcDbLine
 10
55.463112934967
 20
-225.2656881505753
 30
0.0
 11
58.963112934967
 21
-225.2656881505753
 31
0.0
  0
LINE
  5
78
330
1F
100
AcDbEntity
  8
1
  6
Continuous
 62
     7
100
AcDbLine
 10
58.963112934967
 20
-254.9656881505753
 30
0.0
 11
58.963112934967
 21
-241.9656881505753
 31
0.0
  0
LINE
  5
79
330
1F
100
AcDbEntity
  8
1
  6
Continuous
 62
     7
100
AcDbLine
 10
55.463112934967
 20
-254.9656881505753
 30
0.0
 11
58.963112934967
 21
-254.9656881505753
 31
0.0
  0
LINE
  5
7A
330
1F
100
AcDbEntity
  8
1
  6
Continuous
 62
     7
100
AcDbLine
 10
55.463112934967
 20
-221.5656881505755
 30
0.0
 11
55.463112934967
 21
-225.2656881505753
 31
0.0
  0
LINE
  5
7B
330
1F
100
AcDbEntity
  8
1
  6
Continuous
 62
     7
100
AcDbLine
 10
58.963112934967
 20
-221.5656881505755
 30
0.0
 11
55.463112934967
 21
-221.5656881505755
 31
0.0
  0
LINE
  5
7C
330
1F
100
AcDbEntity
  8
1
  6
Continuous
 62
     7
100
AcDbLine
 10
58.963112934967
 20
-239.9656881505753
 30
0.0
 11
58.963112934967
 21
-249.9656881505753
 31
0.0
  0
LINE
  5
7D
330
1F
100
AcDbEntity
  8
1
  6
Continuous
 62
     7
100
AcDbLine
 10
62.463112934967
 20
-220.9656881505753
 30
0.0
 11
62.463112934967
 21
-229.9656881505753
 31
0.0
  0
LINE
  5
7E
330
1F
100
AcDbEntity
  8
1
  6
Continuous
 62
     7
100
AcDbLine
 10
62.463112934967
 20
-249.9656881505753
 30
0.0
 11
62.463112934967
 21
-239.9656881505753
 31
0.0
  0
LINE
  5
7F
330
1F
100
AcDbEntity
  8
1
  6
Continuous
 62
     7
100
AcDbLine
 10
58.963112934967
 20
-249.9656881505753
 30
0.0
 11
62.463112934967
 21
-249.9656881505753
 31
0.0
  0
LINE
  5
80
330
1F
100
AcDbEntity
  8
1
  6
Continuous
 62
     7
100
AcDbLine
 10
58.963112934967
 20
-239.9656881505753
 30
0.0
 11
62.463112934967
 21
-239.9656881505753
 31
0.0
  0
LINE
  5
81
330
1F
100
AcDbEntity
  8
1
  6
Continuous
 62
     7
100
AcDbLine
 10
58.963112934967
 20
-229.9656881505753
 30
0.0
 11
62.463112934967
 21
-229.9656881505753
 31
0.0
  0
LINE
  5
82
330
1F
100
AcDbEntity
  8
1
  6
Continuous
 62
     7
100
AcDbLine
 10
58.963112934967
 20
-220.9656881505753
 30
0.0
 11
58.963112934967
 21
-229.9656881505753
 31
0.0
  0
LINE
  5
83
330
1F
100
AcDbEntity
  8
1
  6
Continuous
 62
     7
100
AcDbLine
 10
58.963112934967
 20
-220.9656881505753
 30
0.0
 11
62.463112934967
 21
-220.9656881505753
 31
0.0
  0
LINE
  5
84
330
1F
100
AcDbEntity
  8
1
  6
Continuous
 62
     7
100
AcDbLine
 10
55.463112934967
 20
-255.9656881505753
 30
0.0
 11
53.963112934967
 21
-255.9656881505753
 31
0.0
  0
LINE
  5
85
330
1F
100
AcDbEntity
  8
1
  6
Continuous
 62
     7
100
AcDbLine
 10
55.463112934967
 20
-249.9656881505753
 30
0.0
 11
53.963112934967
 21
-249.9656881505753
 31
0.0
  0
LINE
  5
86
330
1F
100
AcDbEntity
  8
1
  6
Continuous
 62
     7
100
AcDbLine
 10
49.463112934967
 20
-254.9656881505753
 30
0.0
 11
49.463112934967
 21
-249.9656881505753
 31
0.0
  0
LINE
  5
87
330
1F
100
AcDbEntity
  8
1
  6
Continuous
 62
     7
100
AcDbLine
 10
49.463112934967
 20
-212.9656881505753
 30
0.0
 11
52.463112934967
 21
-212.9656881505753
 31
0.0
  0
LINE
  5
88
330
1F
100
AcDbEntity
  8
1
  6
Continuous
 62
     7
100
AcDbLine
 10
69.463112934967
 20
-212.9656881505753
 30
0.0
 11
69.463112934967
 21
-229.9656881505753
 31
0.0
  0
LINE
  5
89
330
1F
100
AcDbEntity
  8
1
  6
Continuous
 62
     7
100
AcDbLine
 10
70.463112934967
 20
-254.9656881505753
 30
0.0
 11
70.463112934967
 21
-255.9656881505753
 31
0.0
  0
LINE
  5
8A
330
1F
100
AcDbEntity
  8
1
  6
Continuous
 62
     7
100
AcDbLine
 10
70.463112934967
 20
-255.9656881505753
 30
0.0
 11
58.963112934967
 21
-255.9656881505753
 31
0.0
  0
LINE
  5
8B
330
1F
100
AcDbEntity
  8
1
  6
Continuous
 62
     7
100
AcDbLine
 10
48.463112934967
 20
-255.9656881505753
 30
0.0
 11
48.463112934967
 21
-254.9656881505753
 31
0.0
  0
LINE
  5
8C
330
1F
100
AcDbEntity
  8
1
  6
Continuous
 62
     7
100
AcDbLine
 10
48.463112934967
 20
-254.9656881505753
 30
0.0
 11
49.463112934967
 21
-254.9656881505753
 31
0.0
  0
LINE
  5
8D
330
1F
100
AcDbEntity
  8
1
  6
Continuous
 62
     7
100
AcDbLine
 10
49.463112934967
 20
-249.9656881505753
 30
0.0
 11
49.463112934967
 21
-212.9656881505753
 31
0.0
  0
LINE
  5
8E
330
1F
100
AcDbEntity
  8
1
  6
Continuous
 62
     7
100
AcDbLine
 10
62.463112934967
 20
-219.9656881505753
 30
0.0
 11
62.463112934967
 21
-229.9656881505753
 31
0.0
  0
LINE
  5
8F
330
1F
100
AcDbEntity
  8
1
  6
Continuous
 62
     7
100
AcDbLine
 10
62.463112934967
 20
-249.9656881505753
 30
0.0
 11
58.963112934967
 21
-249.9656881505753
 31
0.0
  0
LINE
  5
90
330
1F
100
AcDbEntity
  8
1
  6
Continuous
 62
     7
100
AcDbLine
 10
62.463112934967
 20
-229.9656881505753
 30
0.0
 11
69.463112934967
 21
-229.9656881505753
 31
0.0
  0
LINE
  5
91
330
1F
100
AcDbEntity
  8
1
  6
Continuous
 62
     7
100
AcDbLine
 10
69.463112934967
 20
-229.9656881505753
 30
0.0
 11
69.463112934967
 21
-231.9656881505753
 31
0.0
  0
LINE
  5
92
330
1F
100
AcDbEntity
  8
1
  6
Continuous
 62
     7
100
AcDbLine
 10
62.463112934967
 20
-239.9656881505753
 30
0.0
 11
69.463112934967
 21
-239.9656881505753
 31
0.0
  0
LINE
  5
93
330
1F
100
AcDbEntity
  8
1
  6
Continuous
 62
     7
100
AcDbLine
 10
69.463112934967
 20
-239.9656881505753
 30
0.0
 11
69.463112934967
 21
-254.9656881505753
 31
0.0
  0
LINE
  5
94
330
1F
100
AcDbEntity
  8
1
  6
Continuous
 62
     7
100
AcDbLine
 10
62.463112934967
 20
-239.9656881505753
 30
0.0
 11
62.463112934967
 21
-249.9656881505753
 31
0.0
  0
LINE
  5
95
330
1F
100
AcDbEntity
  8
1
  6
Continuous
 62
     7
100
AcDbLine
 10
53.963112934967
 20
-249.9656881505753
 30
0.0
 11
53.963112934967
 21
-255.9656881505753
 31
0.0
  0
LINE
  5
96
330
1F
100
AcDbEntity
  8
1
  6
Continuous
 62
     7
100
AcDbLine
 10
53.963112934967
 20
-255.9656881505753
 30
0.0
 11
48.463112934967
 21
-255.9656881505753
 31
0.0
  0
LINE
  5
97
330
1F
100
AcDbEntity
  8
1
  6
Continuous
 62
     7
100
AcDbLine
 10
53.963112934967
 20
-249.9656881505753
 30
0.0
 11
49.463112934967
 21
-249.9656881505753
 31
0.0
  0
LINE
  5
98
330
1F
100
AcDbEntity
  8
1
  6
Continuous
 62
     7
100
AcDbLine
 10
58.963112934967
 20
-249.9656881505753
 30
0.0
 11
58.963112934967
 21
-255.9656881505753
 31
0.0
  0
LINE
  5
99
330
1F
100
AcDbEntity
  8
1
  6
Continuous
 62
     7
100
AcDbLine
 10
69.463112934967
 20
-254.9656881505753
 30
0.0
 11
70.463112934967
 21
-254.9656881505753
 31
0.0
  0
LINE
  5
9A
330
1F
100
AcDbEntity
  8
1
  6
Continuous
 62
     7
100
AcDbLine
 10
69.463112934967
 20
-234.9656881505753
 30
0.0
 11
69.463112934967
 21
-231.9656881505753
 31
0.0
  0
LINE
  5
9B
330
1F
100
AcDbEntity
  8
1
  6
Continuous
 62
     7
100
AcDbLine
 10
49.463112934967
 20
-254.9656881505753
 30
0.0
 11
48.463112934967
 21
-254.9656881505753
 31
0.0
  0
LINE
  5
9C
330
1F
100
AcDbEntity
  8
1
  6
Continuous
 62
     7
100
AcDbLine
 10
49.463112934967
 20
-212.9656881505753
 30
0.0
 11
49.463112934967
 21
-254.9656881505753
 31
0.0
  0
LINE
  5
9D
330
1F
100
AcDbEntity
  8
1
  6
Continuous
 62
     7
100
AcDbLine
 10
69.463112934967
 20
-212.9656881505753
 30
0.0
 11
55.963112934967
 21
-212.9656881505753
 31
0.0
  0
LINE
  5
9E
330
1F
100
AcDbEntity
  8
1
  6
Continuous
 62
     7
100
AcDbLine
 10
69.463112934967
 20
-254.9656881505753
 30
0.0
 11
69.463112934967
 21
-237.9656881505753
 31
0.0
  0
LINE
  5
9F
330
1F
100
AcDbEntity
  8
1
  6
Continuous
 62
     7
100
AcDbLine
 10
70.463112934967
 20
-254.9656881505753
 30
0.0
 11
69.463112934967
 21
-254.9656881505753
 31
0.0
  0
LINE
  5
A0
330
1F
100
AcDbEntity
  8
1
  6
Continuous
 62
     7
100
AcDbLine
 10
103.963112934967
 20
-225.2156881505755
 30
0.0
 11
103.963112934967
 21
-226.9656881505753
 31
0.0
  0
LINE
  5
A1
330
1F
100
AcDbEntity
  8
1
  6
Continuous
 62
     7
100
AcDbLine
 10
93.37008214697906
 20
-228.4656881505753
 30
0.0
 11
99.60297855504706
 21
-228.4656881505753
 31
0.0
  0
LINE
  5
A2
330
1F
100
AcDbEntity
  8
1
  6
Continuous
 62
     7
100
AcDbLine
 10
100.002978555047
 20
-228.0656881505755
 30
0.0
 11
100.002978555047
 21
-227.3656881505755
 31
0.0
  0
LINE
  5
A3
330
1F
100
AcDbEntity
  8
1
  6
Continuous
 62
     7
100
AcDbLine
 10
99.60297855504706
 20
-226.9656881505755
 30
0.0
 11
99.2631129349673
 21
-226.9656881505755
 31
0.0
  0
LINE
  5
A4
330
1F
100
AcDbEntity
  8
1
  6
Continuous
 62
     7
100
AcDbLine
 10
106.6604617766769
 20
-229.9674258667109
 30
0.0
 11
105.963112934967
 21
-228.7156881505753
 31
0.0
  0
LINE
  5
A5
330
1F
100
AcDbEntity
  8
1
  6
Continuous
 62
     7
100
AcDbLine
 10
107.7425686780026
 20
-230.1692157686164
 30
0.0
 11
106.6832241454944
 21
-227.9656881505755
 31
0.0
  0
LINE
  5
A6
330
1F
100
AcDbEntity
  8
1
  6
Continuous
 62
     7
100
AcDbLine
 10
108.7537765063146
 20
-227.9656881505755
 30
0.0
 11
107.7185003259042
 21
-227.9656881505755
 31
0.0
  0
LINE
  5
A7
330
1F
100
AcDbEntity
  8
1
  6
Continuous
 62
     7
100
AcDbLine
 10
108.7223645751159
 20
-229.9621605325344
 30
0.0
 11
107.7185003259042
 21
-227.9656881505755
 31
0.0
  0
LINE
  5
A8
330
1F
100
AcDbEntity
  8
1
  6
Continuous
 62
     7
100
AcDbLine
 10
109.8131210388227
 20
-230.1692157686164
 30
0.0
 11
108.7537765063146
 21
-227.9656881505755
 31
0.0
  0
LINE
  5
A9
330
1F
100
AcDbEntity
  8
1
  6
Continuous
 62
     7
100
AcDbLine
 10
110.8243288671347
 20
-227.9656881505755
 30
0.0
 11
109.7890526867246
 21
-227.9656881505755
 31
0.0
  0
LINE
  5
AA
330
1F
100
AcDbEntity
  8
1
  6
Continuous
 62
     7
100
AcDbLine
 10
110.7929169359362
 20
-229.9621605325344
 30
0.0
 11
109.7890526867246
 21
-227.9656881505755
 31
0.0
  0
LINE
  5
AB
330
1F
100
AcDbEntity
  8
1
  6
Continuous
 62
     7
100
AcDbLine
 10
111.963112934967
 20
-230.4656881505753
 30
0.0
 11
110.8243288671347
 21
-227.9656881505755
 31
0.0
  0
LINE
  5
AC
330
1F
100
AcDbEntity
  8
1
  6
Continuous
 62
     7
100
AcDbLine
 10
110.4065466054204
 20
-230.4656881505753
 30
0.0
 11
110.1994913693384
 21
-230.4656881505753
 31
0.0
  0
LINE
  5
AD
330
1F
100
AcDbEntity
  8
1
  6
Continuous
 62
     7
100
AcDbLine
 10
108.3359942446
 20
-230.4656881505753
 30
0.0
 11
108.1289390085181
 21
-230.4656881505753
 31
0.0
  0
LINE
  5
AE
330
1F
100
AcDbEntity
  8
1
  6
Continuous
 62
     7
100
AcDbLine
 10
106.2727189191415
 20
-230.4656881505753
 30
0.0
 11
104.3631129349671
 21
-230.4656881505753
 31
0.0
  0
LINE
  5
AF
330
1F
100
AcDbEntity
  8
1
  6
Continuous
 62
     7
100
AcDbLine
 10
103.963112934967
 20
-230.0656881505755
 30
0.0
 11
103.963112934967
 21
-227.7156881505753
 31
0.0
  0
LINE
  5
B0
330
1F
100
AcDbEntity
  8
1
  6
Continuous
 62
     7
100
AcDbLine
 10
103.963112934967
 20
-225.2156881505755
 30
0.0
 11
103.3631129349671
 21
-225.2156881505755
 31
0.0
  0
LINE
  5
B1
330
1F
100
AcDbEntity
  8
1
  6
Continuous
 62
     7
100
AcDbLine
 10
102.963112934967
 20
-225.6156881505755
 30
0.0
 11
102.963112934967
 21
-230.0656881505755
 31
0.0
  0
LINE
  5
B2
330
1F
100
AcDbEntity
  8
1
  6
Continuous
 62
     7
100
AcDbLine
 10
102.563112934967
 20
-230.4656881505753
 30
0.0
 11
93.37008214697909
 21
-230.4656881505753
 31
0.0
  0
LINE
  5
B3
330
1F
100
AcDbEntity
  8
1
  6
Continuous
 62
     7
100
AcDbLine
 10
97.963112934967
 20
-226.9656881505755
 30
0.0
 11
93.37008214697909
 21
-226.9656881505755
 31
0.0
  0
LINE
  5
B4
330
1F
100
AcDbEntity
  8
1
  6
Continuous
 62
     7
100
AcDbLine
 10
93.37008214697909
 20
-231.9656881505755
 30
0.0
 11
111.463112934967
 21
-231.9656881505753
 31
0.0
  0
LINE
  5
B5
330
1F
100
AcDbEntity
  8
1
  6
Continuous
 62
     7
100
AcDbLine
 10
103.963112934967
 20
-226.9656881505753
 30
0.0
 11
103.963112934967
 21
-227.7156881505753
 31
0.0
  0
LINE
  5
B6
330
1F
100
AcDbEntity
  8
1
  6
Continuous
 62
     7
100
AcDbLine
 10
106.6832241454944
 20
-227.9656881505755
 30
0.0
 11
105.963112934967
 21
-227.9656881505753
 31
0.0
  0
LINE
  5
B7
330
1F
100
AcDbEntity
  8
1
  6
Continuous
 62
     7
100
AcDbLine
 10
105.963112934967
 20
-227.9656881505753
 30
0.0
 11
105.963112934967
 21
-228.7156881505753
 31
0.0
  0
LINE
  5
B8
330
1F
100
AcDbEntity
  8
1
  6
Continuous
 62
     7
100
AcDbLine
 10
111.963112934967
 20
-230.4656881505753
 30
0.0
 11
111.963112934967
 21
-231.4656881505753
 31
0.0
  0
LINE
  5
B9
330
1F
100
AcDbEntity
  8
1
  6
Continuous
 62
     7
100
AcDbLine
 10
103.963112934967
 20
-225.2156881505755
 30
0.0
 11
103.963112934967
 21
-226.9656881505753
 31
0.0
  0
LINE
  5
BA
330
1F
100
AcDbEntity
  8
1
  6
Continuous
 62
     7
100
AcDbLine
 10
99.2631129349673
 20
-226.9656881505755
 30
0.0
 11
97.963112934967
 21
-226.9656881505755
 31
0.0
  0
LINE
  5
BB
330
1F
100
AcDbEntity
  8
1
  6
Continuous
 62
     7
100
AcDbLine
 10
97.963112934967
 20
-226.9656881505755
 30
0.0
 11
93.37008214697909
 21
-226.9656881505755
 31
0.0
  0
LINE
  5
BC
330
1F
100
AcDbEntity
  8
1
  6
Continuous
 62
     7
100
AcDbLine
 10
84.963112934967
 20
-226.9656881505753
 30
0.0
 11
84.963112934967
 21
-231.9656881505753
 31
0.0
  0
LINE
  5
BD
330
1F
100
AcDbEntity
  8
1
  6
Continuous
 62
     7
100
AcDbLine
 10
98.963112934967
 20
-226.9656881505753
 30
0.0
 11
84.963112934967
 21
-226.9656881505753
 31
0.0
  0
LINE
  5
BE
330
1F
100
AcDbEntity
  8
1
  6
Continuous
 62
     7
100
AcDbLine
 10
98.963112934967
 20
-219.9656881505753
 30
0.0
 11
98.963112934967
 21
-226.9656881505753
 31
0.0
  0
LINE
  5
BF
330
1F
100
AcDbEntity
  8
1
  6
Continuous
 62
     7
100
AcDbLine
 10
111.963112934967
 20
-219.9656881505753
 30
0.0
 11
98.963112934967
 21
-219.9656881505753
 31
0.0
  0
LINE
  5
C0
330
1F
100
AcDbEntity
  8
1
  6
Continuous
 62
     7
100
AcDbLine
 10
113.963112934967
 20
-200.9656881505753
 30
0.0
 11
113.963112934967
 21
-217.9656881505753
 31
0.0
  0
LINE
  5
C1
330
1F
100
AcDbEntity
  8
1
  6
Continuous
 62
     7
100
AcDbLine
 10
35.46311293496677
 20
-198.9656881505753
 30
0.0
 11
111.963112934967
 21
-198.9656881505753
 31
0.0
  0
LINE
  5
C2
330
1F
100
AcDbEntity
  8
1
  6
Continuous
 62
     7
100
AcDbLine
 10
48.463112934967
 20
-254.9656881505753
 30
0.0
 11
35.46311293496677
 21
-254.965688150576
 31
0.0
  0
LINE
  5
C3
330
1F
100
AcDbEntity
  8
1
  6
DOT_CENTER
 62
     2
100
AcDbLine
 10
164.6297796016341
 20
-279.9656881505755
 30
0.0
 11
164.6297796016341
 21
-283.8369427614055
 31
0.0
  0
LINE
  5
C4
330
1F
100
AcDbEntity
  8
1
  6
DOT_CENTER
 62
     2
100
AcDbLine
 10
164.6297796016341
 20
-220.9656881505753
 30
0.0
 11
164.6297796016341
 21
-218.2952948191153
 31
0.0
  0
LINE
  5
C5
102
{ACAD_REACTORS
330
18E
330
18E
102
}
330
1F
100
AcDbEntity
  8
1
  6
Continuous
 62
     7
100
AcDbLine
 10
88.963112934967
 20
-237.9656881505753
 30
0.0
 11
88.963112934967
 21
-255.9656881505753
 31
0.0
  0
LINE
  5
C6
102
{ACAD_REACTORS
330
18E
330
18E
102
}
330
1F
100
AcDbEntity
  8
1
  6
Continuous
 62
     7
100
AcDbLine
 10
88.963112934967
 20
-237.9656881505753
 30
0.0
 11
91.963112934967
 21
-237.9656881505753
 31
0.0
  0
LINE
  5
C7
330
1F
100
AcDbEntity
  8
1
  6
Continuous
 62
     7
100
AcDbLine
 10
88.963112934967
 20
-233.9656881505753
 30
0.0
 11
88.963112934967
 21
-237.9656881505753
 31
0.0
  0
LINE
  5
C8
330
1F
100
AcDbEntity
  8
1
  6
Continuous
 62
     7
100
AcDbLine
 10
111.963112934967
 20
-231.9656881505753
 30
0.0
 11
90.963112934967
 21
-231.9656881505753
 31
0.0
  0
LINE
  5
C9
330
1F
100
AcDbEntity
  8
1
  6
Continuous
 62
     7
100
AcDbLine
 10
111.963112934967
 20
-227.9656881505753
 30
0.0
 11
111.963112934967
 21
-231.9656881505753
 31
0.0
  0
LINE
  5
CA
330
1F
100
AcDbEntity
  8
1
  6
Continuous
 62
     7
100
AcDbLine
 10
103.963112934967
 20
-227.9656881505753
 30
0.0
 11
111.963112934967
 21
-227.9656881505753
 31
0.0
  0
LINE
  5
CB
330
1F
100
AcDbEntity
  8
1
  6
Continuous
 62
     7
100
AcDbLine
 10
103.963112934967
 20
-222.9656881505753
 30
0.0
 11
103.963112934967
 21
-227.9656881505753
 31
0.0
  0
LINE
  5
CC
330
1F
100
AcDbEntity
  8
1
  6
Continuous
 62
     7
100
AcDbLine
 10
164.6297796016341
 20
-220.9656881505753
 30
0.0
 11
105.963112934967
 21
-220.9656881505753
 31
0.0
  0
LINE
  5
CD
330
1F
100
AcDbEntity
  8
1
  6
DOT_CENTER
 62
     2
100
AcDbLine
 10
164.6297796016341
 20
-279.9656881505755
 30
0.0
 11
164.6297796016341
 21
-220.9656881505753
 31
0.0
  0
LINE
  5
CE
330
1F
100
AcDbEntity
  8
1
  6
Continuous
 62
     7
100
AcDbLine
 10
75.963112934967
 20
-279.9656881505755
 30
0.0
 11
164.6297796016341
 21
-279.9656881505755
 31
0.0
  0
LINE
  5
CF
330
1F
100
AcDbEntity
  8
1
  6
Continuous
 62
     7
100
AcDbLine
 10
73.963112934967
 20
-269.9656881505753
 30
0.0
 11
73.963112934967
 21
-277.9656881505755
 31
0.0
  0
LINE
  5
D0
330
1F
100
AcDbEntity
  8
1
  6
DOT_CENTER
 62
     2
100
AcDbLine
 10
59.963112934967
 20
-281.0541283654824
 30
0.0
 11
59.963112934967
 21
-257.1146306105037
 31
0.0
  0
LINE
  5
D1
330
1F
100
AcDbEntity
  8
1
  6
Continuous
 62
     7
100
AcDbLine
 10
64.32201187850768
 20
-259.9656881505753
 30
0.0
 11
73.963112934967
 21
-259.9656881505753
 31
0.0
  0
LINE
  5
D2
330
1F
100
AcDbEntity
  8
1
  6
DASHED
 62
     2
100
AcDbLine
 10
93.963112934967
 20
-263.4656881505753
 30
0.0
 11
98.963112934967
 21
-263.4656881505753
 31
0.0
  0
LINE
  5
D3
330
1F
100
AcDbEntity
  8
1
  6
DASHED
 62
     2
100
AcDbLine
 10
73.963112934967
 20
-264.9656881505753
 30
0.0
 11
92.463112934967
 21
-264.9656881505753
 31
0.0
  0
LINE
  5
D4
330
1F
100
AcDbEntity
  8
1
  6
Continuous
 62
     7
100
AcDbLine
 10
73.963112934967
 20
-264.9656881505753
 30
0.0
 11
73.963112934967
 21
-263.4656881505753
 31
0.0
  0
LINE
  5
D5
330
1F
100
AcDbEntity
  8
1
  6
DOT_CENTER
 62
     2
100
AcDbLine
 10
47.03155761397107
 20
-268.9656881505753
 30
0.0
 11
72.72732347018297
 21
-268.9656881505753
 31
0.0
  0
LINE
  5
D6
330
1F
100
AcDbEntity
  8
1
  6
DOT_CENTER
 62
     2
100
AcDbLine
 10
119.963112934967
 20
-259.9656881505753
 30
0.0
 11
130.853058943646
 21
-259.9656881505753
 31
0.0
  0
LINE
  5
D7
330
1F
100
AcDbEntity
  8
1
  6
DOT_CENTER
 62
     2
100
AcDbLine
 10
99.25672371051309
 20
-256.9656881505753
 30
0.0
 11
121.275324709181
 21
-256.9656881505753
 31
0.0
  0
LINE
  5
D8
330
1F
100
AcDbEntity
  8
1
  6
DASHED
 62
     2
100
AcDbLine
 10
119.963112934967
 20
-259.4656881505753
 30
0.0
 11
119.963112934967
 21
-254.4656881505753
 31
0.0
  0
LINE
  5
D9
330
1F
100
AcDbEntity
  8
1
  6
Continuous
 62
     7
100
AcDbLine
 10
103.963112934967
 20
-259.4656881505753
 30
0.0
 11
103.963112934967
 21
-259.9656881505753
 31
0.0
  0
LINE
  5
DA
330
1F
100
AcDbEntity
  8
1
  6
DASHED
 62
     2
100
AcDbLine
 10
103.963112934967
 20
-259.4656881505753
 30
0.0
 11
119.963112934967
 21
-259.4656881505753
 31
0.0
  0
LINE
  5
DB
330
1F
100
AcDbEntity
  8
1
  6
DASHED
 62
     2
100
AcDbLine
 10
119.963112934967
 20
-254.4656881505753
 30
0.0
 11
119.963112934967
 21
-253.9656881505753
 31
0.0
  0
LINE
  5
DC
330
1F
100
AcDbEntity
  8
1
  6
Continuous
 62
     7
100
AcDbLine
 10
103.963112934967
 20
-254.4656881505753
 30
0.0
 11
103.963112934967
 21
-259.4656881505753
 31
0.0
  0
LINE
  5
DD
330
1F
100
AcDbEntity
  8
1
  6
DASHED
 62
     2
100
AcDbLine
 10
103.963112934967
 20
-254.4656881505753
 30
0.0
 11
119.963112934967
 21
-254.4656881505753
 31
0.0
  0
LINE
  5
DE
330
1F
100
AcDbEntity
  8
1
  6
DASHED
 62
     2
100
AcDbLine
 10
119.963112934967
 20
-259.9656881505753
 30
0.0
 11
119.963112934967
 21
-259.4656881505753
 31
0.0
  0
LINE
  5
DF
330
1F
100
AcDbEntity
  8
1
  6
DASHED
 62
     2
100
AcDbLine
 10
119.963112934967
 20
-253.9656881505753
 30
0.0
 11
119.963112934967
 21
-249.9656881505753
 31
0.0
  0
LINE
  5
E0
330
1F
100
AcDbEntity
  8
1
  6
Continuous
 62
     7
100
AcDbLine
 10
103.963112934967
 20
-253.9656881505753
 30
0.0
 11
103.963112934967
 21
-254.4656881505753
 31
0.0
  0
LINE
  5
E1
330
1F
100
AcDbEntity
  8
1
  6
DASHED
 62
     2
100
AcDbLine
 10
103.963112934967
 20
-253.9656881505753
 30
0.0
 11
119.963112934967
 21
-253.9656881505753
 31
0.0
  0
LINE
  5
E2
330
1F
100
AcDbEntity
  8
1
  6
Continuous
 62
     7
100
AcDbLine
 10
103.963112934967
 20
-251.9656881505753
 30
0.0
 11
103.963112934967
 21
-253.9656881505753
 31
0.0
  0
LINE
  5
E3
330
1F
100
AcDbEntity
  8
1
  6
DASHED
 62
     2
100
AcDbLine
 10
99.963112934967
 20
-251.9656881505753
 30
0.0
 11
103.963112934967
 21
-251.9656881505753
 31
0.0
  0
LINE
  5
E4
330
1F
100
AcDbEntity
  8
1
  6
DASHED
 62
     2
100
AcDbLine
 10
99.963112934967
 20
-261.9656881505753
 30
0.0
 11
99.963112934967
 21
-259.9656881505753
 31
0.0
  0
LINE
  5
E5
330
1F
100
AcDbEntity
  8
1
  6
DASHED
 62
     2
100
AcDbLine
 10
103.963112934967
 20
-261.9656881505753
 30
0.0
 11
103.963112934967
 21
-263.4656881505753
 31
0.0
  0
LINE
  5
E6
330
1F
100
AcDbEntity
  8
1
  6
DASHED
 62
     2
100
AcDbLine
 10
103.963112934967
 20
-261.9656881505753
 30
0.0
 11
99.963112934967
 21
-261.9656881505753
 31
0.0
  0
LINE
  5
E7
330
1F
100
AcDbEntity
  8
1
  6
DASHED
 62
     2
100
AcDbLine
 10
103.963112934967
 20
-259.9656881505753
 30
0.0
 11
109.963112934967
 21
-259.9656881505753
 31
0.0
  0
LINE
  5
E8
330
1F
100
AcDbEntity
  8
1
  6
DASHED
 62
     2
100
AcDbLine
 10
103.963112934967
 20
-259.9656881505753
 30
0.0
 11
103.963112934967
 21
-261.9656881505753
 31
0.0
  0
LINE
  5
E9
330
1F
100
AcDbEntity
  8
1
  6
DASHED
 62
     2
100
AcDbLine
 10
98.963112934967
 20
-263.4656881505753
 30
0.0
 11
103.963112934967
 21
-263.4656881505753
 31
0.0
  0
LINE
  5
EA
330
1F
100
AcDbEntity
  8
1
  6
Continuous
 62
     7
100
AcDbLine
 10
98.963112934967
 20
-259.9656881505753
 30
0.0
 11
99.963112934967
 21
-259.9656881505753
 31
0.0
  0
LINE
  5
EB
330
1F
100
AcDbEntity
  8
1
  6
DASHED
 62
     2
100
AcDbLine
 10
98.963112934967
 20
-259.9656881505753
 30
0.0
 11
98.963112934967
 21
-263.4656881505753
 31
0.0
  0
LINE
  5
EC
330
1F
100
AcDbEntity
  8
1
  6
DASHED
 62
     2
100
AcDbLine
 10
113.963112934967
 20
-263.4656881505753
 30
0.0
 11
109.963112934967
 21
-263.4656881505753
 31
0.0
  0
LINE
  5
ED
330
1F
100
AcDbEntity
  8
1
  6
Continuous
 62
     7
100
AcDbLine
 10
86.463112934967
 20
-269.9656881505753
 30
0.0
 11
81.463112934967
 21
-269.9656881505753
 31
0.0
  0
LINE
  5
EE
330
1F
100
AcDbEntity
  8
1
  6
DASHED
 62
     2
100
AcDbLine
 10
86.463112934967
 20
-262.9656881505753
 30
0.0
 11
86.963112934967
 21
-262.9656881505753
 31
0.0
  0
LINE
  5
EF
330
1F
100
AcDbEntity
  8
1
  6
DASHED
 62
     2
100
AcDbLine
 10
86.463112934967
 20
-262.9656881505753
 30
0.0
 11
86.463112934967
 21
-269.9656881505753
 31
0.0
  0
LINE
  5
F0
330
1F
100
AcDbEntity
  8
1
  6
Continuous
 62
     7
100
AcDbLine
 10
81.463112934967
 20
-269.9656881505753
 30
0.0
 11
80.963112934967
 21
-269.9656881505753
 31
0.0
  0
LINE
  5
F1
330
1F
100
AcDbEntity
  8
1
  6
DASHED
 62
     2
100
AcDbLine
 10
81.463112934967
 20
-262.9656881505753
 30
0.0
 11
86.463112934967
 21
-262.9656881505753
 31
0.0
  0
LINE
  5
F2
330
1F
100
AcDbEntity
  8
1
  6
DASHED
 62
     2
100
AcDbLine
 10
81.463112934967
 20
-262.9656881505753
 30
0.0
 11
81.463112934967
 21
-269.9656881505753
 31
0.0
  0
LINE
  5
F3
330
1F
100
AcDbEntity
  8
1
  6
Continuous
 62
     7
100
AcDbLine
 10
86.963112934967
 20
-269.9656881505753
 30
0.0
 11
86.463112934967
 21
-269.9656881505753
 31
0.0
  0
LINE
  5
F4
330
1F
100
AcDbEntity
  8
1
  6
DASHED
 62
     2
100
AcDbLine
 10
86.963112934967
 20
-262.9656881505753
 30
0.0
 11
86.963112934967
 21
-269.9656881505753
 31
0.0
  0
LINE
  5
F5
330
1F
100
AcDbEntity
  8
1
  6
Continuous
 62
     7
100
AcDbLine
 10
80.963112934967
 20
-269.9656881505753
 30
0.0
 11
75.963112934967
 21
-269.9656881505755
 31
0.0
  0
LINE
  5
F6
330
1F
100
AcDbEntity
  8
1
  6
DASHED
 62
     2
100
AcDbLine
 10
80.963112934967
 20
-262.9656881505753
 30
0.0
 11
80.963112934967
 21
-269.9656881505753
 31
0.0
  0
LINE
  5
F7
330
1F
100
AcDbEntity
  8
1
  6
DASHED
 62
     2
100
AcDbLine
 10
86.963112934967
 20
-262.9656881505753
 30
0.0
 11
89.963112934967
 21
-259.9656881505753
 31
0.0
  0
LINE
  5
F8
330
1F
100
AcDbEntity
  8
1
  6
DASHED
 62
     2
100
AcDbLine
 10
80.963112934967
 20
-262.9656881505753
 30
0.0
 11
81.463112934967
 21
-262.9656881505753
 31
0.0
  0
LINE
  5
F9
330
1F
100
AcDbEntity
  8
1
  6
DASHED
 62
     2
100
AcDbLine
 10
77.963112934967
 20
-259.9656881505753
 30
0.0
 11
80.963112934967
 21
-262.9656881505753
 31
0.0
  0
LINE
  5
FA
330
1F
100
AcDbEntity
  8
1
  6
DASHED
 62
     2
100
AcDbLine
 10
91.963112934967
 20
-266.4656881505753
 30
0.0
 11
91.963112934967
 21
-269.9656881505753
 31
0.0
  0
LINE
  5
FB
330
1F
100
AcDbEntity
  8
1
  6
DASHED
 62
     2
100
AcDbLine
 10
75.963112934967
 20
-266.4656881505753
 30
0.0
 11
75.963112934967
 21
-269.9656881505755
 31
0.0
  0
LINE
  5
FC
330
1F
100
AcDbEntity
  8
1
  6
DASHED
 62
     2
100
AcDbLine
 10
75.963112934967
 20
-266.4656881505753
 30
0.0
 11
91.963112934967
 21
-266.4656881505753
 31
0.0
  0
LINE
  5
FD
330
1F
100
AcDbEntity
  8
1
  6
DASHED
 62
     2
100
AcDbLine
 10
78.963112934967
 20
-263.9656881505753
 30
0.0
 11
78.963112934967
 21
-268.4656881505753
 31
0.0
  0
LINE
  5
FE
330
1F
100
AcDbEntity
  8
1
  6
DASHED
 62
     2
100
AcDbLine
 10
88.963112934967
 20
-263.9656881505753
 30
0.0
 11
78.963112934967
 21
-263.9656881505753
 31
0.0
  0
LINE
  5
FF
330
1F
100
AcDbEntity
  8
1
  6
DASHED
 62
     2
100
AcDbLine
 10
88.963112934967
 20
-268.4656881505753
 30
0.0
 11
88.963112934967
 21
-263.9656881505753
 31
0.0
  0
LINE
  5
100
330
1F
100
AcDbEntity
  8
1
  6
DASHED
 62
     2
100
AcDbLine
 10
78.963112934967
 20
-268.4656881505753
 30
0.0
 11
88.963112934967
 21
-268.4656881505753
 31
0.0
  0
LINE
  5
101
330
1F
100
AcDbEntity
  8
1
  6
Continuous
 62
     7
100
AcDbLine
 10
91.963112934967
 20
-269.9656881505753
 30
0.0
 11
86.963112934967
 21
-269.9656881505753
 31
0.0
  0
LINE
  5
102
330
1F
100
AcDbEntity
  8
1
  6
DASHED
 62
     2
100
AcDbLine
 10
91.963112934967
 20
-263.4656881505753
 30
0.0
 11
93.963112934967
 21
-263.4656881505753
 31
0.0
  0
LINE
  5
103
330
1F
100
AcDbEntity
  8
1
  6
DASHED
 62
     2
100
AcDbLine
 10
91.963112934967
 20
-263.4656881505753
 30
0.0
 11
91.963112934967
 21
-266.4656881505753
 31
0.0
  0
LINE
  5
104
330
1F
100
AcDbEntity
  8
1
  6
Continuous
 62
     7
100
AcDbLine
 10
75.963112934967
 20
-269.9656881505755
 30
0.0
 11
73.963112934967
 21
-269.9656881505753
 31
0.0
  0
LINE
  5
105
330
1F
100
AcDbEntity
  8
1
  6
DASHED
 62
     2
100
AcDbLine
 10
75.963112934967
 20
-263.4656881505753
 30
0.0
 11
91.963112934967
 21
-263.4656881505753
 31
0.0
  0
LINE
  5
106
330
1F
100
AcDbEntity
  8
1
  6
DASHED
 62
     2
100
AcDbLine
 10
75.963112934967
 20
-263.4656881505753
 30
0.0
 11
75.963112934967
 21
-266.4656881505753
 31
0.0
  0
LINE
  5
107
330
1F
100
AcDbEntity
  8
1
  6
Continuous
 62
     7
100
AcDbLine
 10
113.963112934967
 20
-249.9656881505753
 30
0.0
 11
119.963112934967
 21
-249.9656881505753
 31
0.0
  0
LINE
  5
108
330
1F
100
AcDbEntity
  8
1
  6
DASHED
 62
     2
100
AcDbLine
 10
113.963112934967
 20
-249.9656881505753
 30
0.0
 11
113.963112934967
 21
-251.4656881505753
 31
0.0
  0
LINE
  5
109
330
1F
100
AcDbEntity
  8
1
  6
Continuous
 62
     7
100
AcDbLine
 10
73.963112934967
 20
-265.4656881505753
 30
0.0
 11
73.963112934967
 21
-264.9656881505753
 31
0.0
  0
LINE
  5
10A
330
1F
100
AcDbEntity
  8
1
  6
DASHED
 62
     2
100
AcDbLine
 10
73.963112934967
 20
-265.4656881505753
 30
0.0
 11
113.963112934967
 21
-265.4656881505753
 31
0.0
  0
LINE
  5
10B
330
1F
100
AcDbEntity
  8
1
  6
Continuous
 62
     7
100
AcDbLine
 10
73.963112934967
 20
-263.4656881505753
 30
0.0
 11
73.963112934967
 21
-259.9656881505753
 31
0.0
  0
LINE
  5
10C
330
1F
100
AcDbEntity
  8
1
  6
DASHED
 62
     2
100
AcDbLine
 10
73.963112934967
 20
-263.4656881505753
 30
0.0
 11
75.963112934967
 21
-263.4656881505753
 31
0.0
  0
LINE
  5
10D
330
1F
100
AcDbEntity
  8
1
  6
Continuous
 62
     7
100
AcDbLine
 10
119.963112934967
 20
-249.9656881505753
 30
0.0
 11
122.963112934967
 21
-249.9656881505753
 31
0.0
  0
LINE
  5
10E
330
1F
100
AcDbEntity
  8
1
  6
Continuous
 62
     7
100
AcDbLine
 10
122.963112934967
 20
-269.9656881505753
 30
0.0
 11
125.963112934967
 21
-269.161840573282
 31
0.0
  0
LINE
  5
10F
330
1F
100
AcDbEntity
  8
1
  6
Continuous
 62
     7
100
AcDbLine
 10
122.963112934967
 20
-249.9656881505753
 30
0.0
 11
125.963112934967
 21
-250.7695357278689
 31
0.0
  0
LINE
  5
110
330
1F
100
AcDbEntity
  8
1
  6
Continuous
 62
     7
100
AcDbLine
 10
125.963112934967
 20
-250.7695357278689
 30
0.0
 11
125.963112934967
 21
-269.161840573282
 31
0.0
  0
LINE
  5
111
330
1F
100
AcDbEntity
  8
1
  6
Continuous
 62
     7
100
AcDbLine
 10
103.963112934967
 20
-249.9656881505753
 30
0.0
 11
103.963112934967
 21
-251.9656881505753
 31
0.0
  0
LINE
  5
112
330
1F
100
AcDbEntity
  8
1
  6
Continuous
 62
     7
100
AcDbLine
 10
122.963112934967
 20
-269.9656881505753
 30
0.0
 11
119.963112934967
 21
-269.9656881505753
 31
0.0
  0
LINE
  5
113
330
1F
100
AcDbEntity
  8
1
  6
Continuous
 62
     7
100
AcDbLine
 10
122.963112934967
 20
-249.9656881505753
 30
0.0
 11
122.963112934967
 21
-269.9656881505753
 31
0.0
  0
LINE
  5
114
330
1F
100
AcDbEntity
  8
1
  6
Continuous
 62
     7
100
AcDbLine
 10
103.963112934967
 20
-249.9656881505753
 30
0.0
 11
113.963112934967
 21
-249.9656881505753
 31
0.0
  0
LINE
  5
115
330
1F
100
AcDbEntity
  8
1
  6
Continuous
 62
     7
100
AcDbLine
 10
103.963112934967
 20
-237.9656881505753
 30
0.0
 11
103.963112934967
 21
-240.9656881505753
 31
0.0
  0
LINE
  5
116
330
1F
100
AcDbEntity
  8
1
  6
Continuous
 62
     7
100
AcDbLine
 10
73.963112934967
 20
-269.9656881505753
 30
0.0
 11
73.963112934967
 21
-265.4656881505753
 31
0.0
  0
LINE
  5
117
330
1F
100
AcDbEntity
  8
1
  6
DASHED
 62
     2
100
AcDbLine
 10
100.963112934967
 20
-259.9656881505753
 30
0.0
 11
103.963112934967
 21
-259.9656881505753
 31
0.0
  0
LINE
  5
118
330
1F
100
AcDbEntity
  8
1
  6
Continuous
 62
     7
100
AcDbLine
 10
100.963112934967
 20
-259.9656881505753
 30
0.0
 11
100.963112934967
 21
-258.9656881505753
 31
0.0
  0
LINE
  5
119
330
1F
100
AcDbEntity
  8
1
  6
Continuous
 62
     7
100
AcDbLine
 10
100.963112934967
 20
-255.9656881505753
 30
0.0
 11
99.963112934967
 21
-255.9656881505753
 31
0.0
  0
LINE
  5
11A
330
1F
100
AcDbEntity
  8
1
  6
Continuous
 62
     7
100
AcDbLine
 10
94.463112934967
 20
-255.9656881505753
 30
0.0
 11
94.463112934967
 21
-253.4656881505753
 31
0.0
  0
LINE
  5
11B
330
1F
100
AcDbEntity
  8
1
  6
Continuous
 62
     7
100
AcDbLine
 10
94.463112934967
 20
-253.4656881505753
 30
0.0
 11
91.963112934967
 21
-253.4656881505753
 31
0.0
  0
LINE
  5
11C
102
{ACAD_REACTORS
330
18E
330
18E
102
}
330
1F
100
AcDbEntity
  8
1
  6
Continuous
 62
     7
100
AcDbLine
 10
91.963112934967
 20
-237.9656881505753
 30
0.0
 11
91.963112934967
 21
-238.9656881505753
 31
0.0
  0
LINE
  5
11D
330
1F
100
AcDbEntity
  8
1
  6
Continuous
 62
     7
100
AcDbLine
 10
91.963112934967
 20
-237.9656881505753
 30
0.0
 11
103.963112934967
 21
-237.9656881505753
 31
0.0
  0
LINE
  5
11E
330
1F
100
AcDbEntity
  8
1
  6
DASHED
 62
     2
100
AcDbLine
 10
109.963112934967
 20
-259.9656881505753
 30
0.0
 11
109.963112934967
 21
-263.4656881505753
 31
0.0
  0
LINE
  5
11F
330
1F
100
AcDbEntity
  8
1
  6
DASHED
 62
     2
100
AcDbLine
 10
109.963112934967
 20
-259.9656881505753
 30
0.0
 11
119.963112934967
 21
-259.9656881505753
 31
0.0
  0
LINE
  5
120
330
1F
100
AcDbEntity
  8
1
  6
DASHED
 62
     2
100
AcDbLine
 10
109.963112934967
 20
-263.4656881505753
 30
0.0
 11
103.963112934967
 21
-263.4656881505753
 31
0.0
  0
LINE
  5
121
330
1F
100
AcDbEntity
  8
1
  6
DASHED
 62
     2
100
AcDbLine
 10
91.963112934967
 20
-251.4656881505753
 30
0.0
 11
113.963112934967
 21
-251.4656881505753
 31
0.0
  0
LINE
  5
122
102
{ACAD_REACTORS
330
18E
330
18E
102
}
330
1F
100
AcDbEntity
  8
1
  6
Continuous
 62
     7
100
AcDbLine
 10
91.963112934967
 20
-251.4656881505753
 30
0.0
 11
91.963112934967
 21
-253.4656881505753
 31
0.0
  0
LINE
  5
123
330
1F
100
AcDbEntity
  8
1
  6
DASHED
 62
     2
100
AcDbLine
 10
113.963112934967
 20
-251.4656881505753
 30
0.0
 11
113.963112934967
 21
-258.9656881505753
 31
0.0
  0
LINE
  5
124
330
1F
100
AcDbEntity
  8
1
  6
DASHED
 62
     2
100
AcDbLine
 10
99.963112934967
 20
-255.9656881505753
 30
0.0
 11
99.963112934967
 21
-251.9656881505753
 31
0.0
  0
LINE
  5
125
330
1F
100
AcDbEntity
  8
1
  6
Continuous
 62
     7
100
AcDbLine
 10
99.963112934967
 20
-259.9656881505753
 30
0.0
 11
99.963112934967
 21
-255.9656881505753
 31
0.0
  0
LINE
  5
126
330
1F
100
AcDbEntity
  8
1
  6
DASHED
 62
     2
100
AcDbLine
 10
119.963112934967
 20
-269.9656881505753
 30
0.0
 11
119.963112934967
 21
-259.9656881505753
 31
0.0
  0
LINE
  5
127
330
1F
100
AcDbEntity
  8
1
  6
Continuous
 62
     7
100
AcDbLine
 10
119.963112934967
 20
-269.9656881505753
 30
0.0
 11
91.963112934967
 21
-269.9656881505753
 31
0.0
  0
LINE
  5
128
330
1F
100
AcDbEntity
  8
1
  6
DASHED
 62
     2
100
AcDbLine
 10
91.963112934967
 20
-238.9656881505753
 30
0.0
 11
93.963112934967
 21
-240.9656881505753
 31
0.0
  0
LINE
  5
129
102
{ACAD_REACTORS
330
18E
330
18E
102
}
330
1F
100
AcDbEntity
  8
1
  6
Continuous
 62
     7
100
AcDbLine
 10
91.963112934967
 20
-238.9656881505753
 30
0.0
 11
91.963112934967
 21
-248.9656881505753
 31
0.0
  0
LINE
  5
12A
330
1F
100
AcDbEntity
  8
1
  6
DASHED
 62
     2
100
AcDbLine
 10
93.963112934967
 20
-240.9656881505753
 30
0.0
 11
93.963112934967
 21
-246.9656881505753
 31
0.0
  0
LINE
  5
12B
330
1F
100
AcDbEntity
  8
1
  6
DASHED
 62
     2
100
AcDbLine
 10
93.963112934967
 20
-246.9656881505753
 30
0.0
 11
91.963112934967
 21
-248.9656881505753
 31
0.0
  0
LINE
  5
12C
102
{ACAD_REACTORS
330
18E
330
18E
102
}
330
1F
100
AcDbEntity
  8
1
  6
Continuous
 62
     7
100
AcDbLine
 10
91.963112934967
 20
-248.9656881505753
 30
0.0
 11
91.963112934967
 21
-251.4656881505753
 31
0.0
  0
LINE
  5
12D
330
1F
100
AcDbEntity
  8
1
  6
DASHED
 62
     2
100
AcDbLine
 10
93.963112934967
 20
-240.9656881505753
 30
0.0
 11
103.963112934967
 21
-240.9656881505753
 31
0.0
  0
LINE
  5
12E
330
1F
100
AcDbEntity
  8
1
  6
Continuous
 62
     7
100
AcDbLine
 10
103.963112934967
 20
-240.9656881505753
 30
0.0
 11
103.963112934967
 21
-246.9656881505753
 31
0.0
  0
LINE
  5
12F
330
1F
100
AcDbEntity
  8
1
  6
DASHED
 62
     2
100
AcDbLine
 10
93.963112934967
 20
-246.9656881505753
 30
0.0
 11
103.963112934967
 21
-246.9656881505753
 31
0.0
  0
LINE
  5
130
330
1F
100
AcDbEntity
  8
1
  6
Continuous
 62
     7
100
AcDbLine
 10
103.963112934967
 20
-246.9656881505753
 30
0.0
 11
103.963112934967
 21
-249.9656881505753
 31
0.0
  0
LINE
  5
131
330
1F
100
AcDbEntity
  8
1
  6
DOT_CENTER
 62
     2
100
AcDbLine
 10
90.30441962517301
 20
-243.9656881505753
 30
0.0
 11
111.8742131441161
 21
-243.9656881505753
 31
0.0
  0
LINE
  5
132
330
1F
100
AcDbEntity
  8
1
  6
DASHED
 62
     2
100
AcDbLine
 10
100.963112934967
 20
-258.9656881505753
 30
0.0
 11
113.963112934967
 21
-258.9656881505753
 31
0.0
  0
LINE
  5
133
330
1F
100
AcDbEntity
  8
1
  6
Continuous
 62
     7
100
AcDbLine
 10
100.963112934967
 20
-258.9656881505753
 30
0.0
 11
100.963112934967
 21
-255.9656881505753
 31
0.0
  0
LINE
  5
134
330
1F
100
AcDbEntity
  8
1
  6
DASHED
 62
     2
100
AcDbLine
 10
113.963112934967
 20
-258.9656881505753
 30
0.0
 11
113.963112934967
 21
-265.4656881505753
 31
0.0
  0
LINE
  5
135
330
1F
100
AcDbEntity
  8
1
  6
Continuous
 62
     7
100
AcDbLine
 10
68.314759479212
 20
-263.4656881505753
 30
0.0
 11
73.963112934967
 21
-263.4656881505753
 31
0.0
  0
LINE
  5
136
330
1F
100
AcDbEntity
  8
1
  6
Continuous
 62
     7
100
AcDbLine
 10
73.963112934967
 20
-264.9656881505753
 30
0.0
 11
69.14343131048071
 21
-264.9656881505753
 31
0.0
  0
LINE
  5
137
330
1F
100
AcDbEntity
  8
1
  6
Continuous
 62
     7
100
AcDbLine
 10
99.963112934967
 20
-255.9656881505753
 30
0.0
 11
94.463112934967
 21
-255.9656881505753
 31
0.0
  0
LINE
  5
138
330
1F
100
AcDbEntity
  8
1
  6
Continuous
 62
     7
100
AcDbLine
 10
99.963112934967
 20
-259.9656881505753
 30
0.0
 11
100.963112934967
 21
-259.9656881505753
 31
0.0
  0
LINE
  5
139
330
1F
100
AcDbEntity
  8
1
  6
DOT_CENTER
 62
     2
100
AcDbLine
 10
83.963112934967
 20
-258.4921660511054
 30
0.0
 11
83.963112934967
 21
-270.6206974855243
 31
0.0
  0
LINE
  5
13A
330
1F
100
AcDbEntity
  8
1
  6
Continuous
 62
     2
100
AcDbLine
 10
94.463112934967
 20
-255.9656881505753
 30
0.0
 11
94.463112934967
 21
-253.4656881505753
 31
0.0
  0
LINE
  5
13B
330
1F
100
AcDbEntity
  8
1
  6
Continuous
 62
     2
100
AcDbLine
 10
94.463112934967
 20
-253.4656881505753
 30
0.0
 11
91.963112934967
 21
-253.4656881505753
 31
0.0
  0
LINE
  5
13C
102
{ACAD_REACTORS
330
18E
330
18E
102
}
330
1F
100
AcDbEntity
  8
1
  6
Continuous
 62
     7
100
AcDbLine
 10
88.963112934967
 20
-255.9656881505753
 30
0.0
 11
91.963112934967
 21
-255.9656881505753
 31
0.0
  0
LINE
  5
13D
330
1F
100
AcDbEntity
  8
1
  6
Continuous
 62
     7
100
AcDbLine
 10
73.963112934967
 20
-259.9656881505753
 30
0.0
 11
77.963112934967
 21
-259.9656881505753
 31
0.0
  0
LINE
  5
13E
330
1F
100
AcDbEntity
  8
1
  6
Continuous
 62
     7
100
AcDbLine
 10
89.963112934967
 20
-259.9656881505753
 30
0.0
 11
98.963112934967
 21
-259.9656881505753
 31
0.0
  0
LINE
  5
13F
330
1F
100
AcDbEntity
  8
1
  6
Continuous
 62
     7
100
AcDbLine
 10
77.963112934967
 20
-259.9656881505753
 30
0.0
 11
89.963112934967
 21
-259.9656881505753
 31
0.0
  0
LINE
  5
140
102
{ACAD_REACTORS
330
18E
330
18E
102
}
330
1F
100
AcDbEntity
  8
1
  6
Continuous
 62
     7
100
AcDbLine
 10
91.963112934967
 20
-253.4656881505753
 30
0.0
 11
91.963112934967
 21
-255.9656881505753
 31
0.0
  0
LINE
  5
141
330
1F
100
AcDbEntity
  8
1
  6
Continuous
 62
     7
100
AcDbLine
 10
82.963112934967
 20
-254.9656881505753
 30
0.0
 11
70.463112934967
 21
-254.9656881505753
 31
0.0
  0
LINE
  5
142
330
1F
100
AcDbEntity
  8
1
  6
Continuous
 62
     7
100
AcDbLine
 10
94.463112934967
 20
-253.4656881505753
 30
0.0
 11
94.463112934967
 21
-258.4656881505753
 31
0.0
  0
LINE
  5
143
330
1F
100
AcDbEntity
  8
1
  6
Continuous
 62
     2
100
AcDbLine
 10
94.463112934967
 20
-253.4656881505753
 30
0.0
 11
91.963112934967
 21
-253.4656881505753
 31
0.0
  0
LINE
  5
144
330
1F
100
AcDbEntity
  8
1
  6
Continuous
 62
     7
100
AcDbLine
 10
91.963112934967
 20
-253.4656881505753
 30
0.0
 11
91.963112934967
 21
-256.4656881505753
 31
0.0
  0
LINE
  5
145
330
1F
100
AcDbEntity
  8
1
  6
Continuous
 62
     7
100
AcDbLine
 10
91.963112934967
 20
-256.4656881505753
 30
0.0
 11
80.82134787290198
 21
-256.4656881505753
 31
0.0
  0
LINE
  5
146
330
1F
100
AcDbEntity
  8
1
  6
Continuous
 62
     2
100
AcDbLine
 10
75.09188980447999
 20
-254.9656881505753
 30
0.0
 11
79.473240092097
 21
-254.9656881505753
 31
0.0
  0
LINE
  5
147
330
1F
100
AcDbEntity
  8
1
  6
Continuous
 62
     7
100
AcDbLine
 10
91.963112934967
 20
-257.4656881505753
 30
0.0
 11
80.48432092770105
 21
-257.4656881505753
 31
0.0
  0
LINE
  5
148
330
1F
100
AcDbEntity
  8
1
  6
Continuous
 62
     7
100
AcDbLine
 10
91.963112934967
 20
-257.4656881505753
 30
0.0
 11
91.963112934967
 21
-258.9656881505753
 31
0.0
  0
LINE
  5
149
330
1F
100
AcDbEntity
  8
1
  6
Continuous
 62
     7
100
AcDbLine
 10
91.963112934967
 20
-258.9656881505753
 30
0.0
 11
76.1872273763841
 21
-258.9656881505753
 31
0.0
  0
LINE
  5
14A
330
1F
100
AcDbEntity
  8
1
  6
Continuous
 62
     2
100
AcDbLine
 10
98.03766663858704
 20
-259.9656881505753
 30
0.0
 11
75.63955859043205
 21
-259.9656881505753
 31
0.0
  0
ARC
  5
14B
330
1F
100
AcDbEntity
  8
1
  6
Continuous
 62
     7
100
AcDbCircle
 10
59.963112934967
 20
-268.9656881505753
 30
0.0
 40
10.0
100
AcDbArc
 50
64.15806723683284
 51
95.78084717463722
  0
ARC
  5
14C
330
1F
100
AcDbEntity
  8
1
  6
Continuous
 62
     7
100
AcDbCircle
 10
59.963112934967
 20
-268.9656881505753
 30
0.0
 40
9.999999999999972
100
AcDbArc
 50
33.36701296923186
 51
64.15806723683284
  0
ARC
  5
14D
330
1F
100
AcDbEntity
  8
1
  6
Continuous
 62
     7
100
AcDbCircle
 10
93.37008214697909
 20
-229.4656881505753
 30
0.0
 40
1.0
100
AcDbArc
 50
90.00000000000163
 51
-90.0
  0
ARC
  5
14E
330
1F
100
AcDbEntity
  8
1
  6
Continuous
 62
     7
100
AcDbCircle
 10
93.37008214697909
 20
-229.4656881505753
 30
0.0
 40
2.499999999999801
100
AcDbArc
 50
90.0
 51
-90.0
  0
ARC
  5
14F
330
1F
100
AcDbEntity
  8
1
  6
Continuous
 62
     7
100
AcDbCircle
 10
59.963112934967
 20
-268.9656881505753
 30
0.0
 40
9.999999999999993
100
AcDbArc
 50
95.78084717463722
 51
33.36701296923186
  0
CIRCLE
  5
150
330
1F
100
AcDbEntity
  8
1
  6
Continuous
 62
     7
100
AcDbCircle
 10
59.963112934967
 20
-268.9656881505753
 30
0.0
 40
8.0
  0
SPLINE
  5
151
330
1F
100
AcDbEntity
  8
1
  6
Continuous
 62
     7
100
AcDbSpline
210
0.0
220
0.0
230
1.0
 70
     8
 71
     3
 72
    11
 73
     7
 74
     5
 42
0.0000000001
 43
0.0000000001
 44
0.00000001
 40
0.0
 40
0.0
 40
0.0
 40
0.0
 40
0.5910899247692586
 40
1.157604842455897
 40
1.609591797176362
 40
2.077157862448296
 40
2.077157862448296
 40
2.077157862448296
 40
2.077157862448296
 10
79.473240092097
 20
-254.9656881505753
 30
0.0
 10
79.64446094853494
 20
-255.0628264487428
 30
0.0
 10
79.97978402584737
 20
-255.2530644474541
 30
0.0
 10
80.39929869095403
 20
-255.6025639053428
 30
0.0
 10
80.64945550579915
 20
-256.0367858845834
 30
0.0
 10
80.76340689394037
 20
-256.3211150226972
 30
0.0
 10
80.82134787290198
 20
-256.4656881505753
 30
0.0
 11
79.473240092097
 21
-254.9656881505753
 31
0.0
 11
79.97813918296245
 21
-255.2730384510583
 31
0.0
 11
80.4000641914011
 21
-255.6510840028315
 31
0.0
 11
80.63696571205506
 21
-256.0360124075373
 31
0.0
 11
80.82134787290198
 21
-256.4656881505753
 31
0.0
  0
SPLINE
  5
152
330
1F
100
AcDbEntity
  8
1
  6
Continuous
 62
     7
100
AcDbSpline
210
0.0
220
0.0
230
1.0
 70
     8
 71
     3
 72
    29
 73
    25
 74
    23
 42
0.0000000001
 43
0.0000000001
 44
0.00000001
 40
0.0
 40
0.0
 40
0.0
 40
0.0
 40
0.8895106004827725
 40
1.614720294011664
 40
2.084459729670583
 40
2.530572635717585
 40
3.17744031376884
 40
3.946876071014858
 40
4.486929965291165
 40
4.935200976377257
 40
5.190029714504887
 40
5.438248718820008
 40
6.016987659840774
 40
6.788861584319457
 40
7.5844131807696
 40
8.247133744392977
 40
8.707331222480681
 40
9.154687630118719
 40
9.677694262883339
 40
10.1125809347484
 40
10.6257126361634
 40
11.21277240015637
 40
11.70017573250099
 40
12.21005469173251
 40
12.21005469173251
 40
12.21005469173251
 40
12.21005469173251
 10
76.1872273763841
 20
-258.9656881505753
 30
0.0
 10
76.48147701323806
 20
-258.9164336976851
 30
0.0
 10
77.01562563369946
 20
-258.8270225488925
 30
0.0
 10
77.67892857231429
 20
-258.6973701759727
 30
0.0
 10
78.18874210246896
 20
-258.2957437997877
 30
0.0
 10
77.94076754714689
 20
-257.7386894134281
 30
0.0
 10
77.49802563256793
 20
-257.3252176024685
 30
0.0
 10
76.94535371137894
 20
-256.971399081006
 30
0.0
 10
76.37385767368647
 20
-256.7590524310188
 30
0.0
 10
76.03832536424056
 20
-256.6399763060992
 30
0.0
 10
75.6248709095671
 20
-256.4845456336437
 30
0.0
 10
76.00796038654019
 20
-256.1588191843404
 30
0.0
 10
76.48924507829543
 20
-256.11247656843
 30
0.0
 10
77.2146770338348
 20
-255.9716189428345
 30
0.0
 10
77.95515072862398
 20
-255.9817386545213
 30
0.0
 10
78.59512838716039
 20
-256.0429703678074
 30
0.0
 10
79.05794611735686
 20
-256.437259299762
 30
0.0
 10
78.90313443754798
 20
-256.9509809333409
 30
0.0
 10
78.73707816393537
 20
-257.3561179548369
 30
0.0
 10
78.67663933540499
 20
-257.9112179289409
 30
0.0
 10
79.20763275873483
 20
-258.1832173021198
 30
0.0
 10
79.75048088023254
 20
-258.2030125344842
 30
0.0
 10
80.21112215712853
 20
-257.8888753805869
 30
0.0
 10
80.39189664016833
 20
-257.608854161699
 30
0.0
 10
80.48432092770105
 20
-257.4656881505753
 30
0.0
 11
76.1872273763841
 21
-258.9656881505753
 31
0.0
 11
77.06380896713942
 21
-258.8145795038337
 31
0.0
 11
77.75689850651769
 21
-258.6011410115398
 31
0.0
 11
78.08300394314193
 21
-258.2630428281414
 31
0.0
 11
77.95823093119027
 21
-257.834734037162
 31
0.0
 11
77.51393426771614
 21
-257.3645869668392
 31
0.0
 11
76.8612812667871
 21
-256.9570634154865
 31
0.0
 11
76.3603131125965
 21
-256.7553479792654
 31
0.0
 11
75.93904078242035
 21
-256.6021274740838
 31
0.0
 11
75.723815326732
 21
-256.4656881505753
 31
0.0
 11
75.88695795444693
 21
-256.2786128792927
 31
0.0
 11
76.44028034868975
 21
-256.108986555029
 31
0.0
 11
77.2043991136282
 21
-255.9998450489047
 31
0.0
 11
77.99993085343004
 21
-255.9942242320406
 31
0.0
 11
78.64749217226301
 21
-256.1351599755573
 31
0.0
 11
78.96769967429492
 21
-256.4656881505753
 31
0.0
 11
78.90926881671979
 21
-256.9092122089282
 31
0.0
 11
78.74867677900653
 21
-257.4069532413325
 31
0.0
 11
78.75705783354402
 21
-257.8417591466405
 31
0.0
 11
79.18110917555006
 21
-258.1306961680482
 31
0.0
 11
79.76813866914796
 21
-258.1366577236914
 31
0.0
 11
80.1785085330948
 21
-257.8736775283442
 31
0.0
 11
80.48432092770105
 21
-257.4656881505753
 31
0.0
  0
SPLINE
  5
153
330
1F
100
AcDbEntity
  8
1
  6
Continuous
 62
     7
100
AcDbSpline
210
0.0
220
0.0
230
1.0
 70
     8
 71
     3
 72
    27
 73
    23
 74
    21
 42
0.0000000001
 43
0.0000000001
 44
0.00000001
 40
0.0
 40
0.0
 40
0.0
 40
0.0
 40
0.7277950974381188
 40
1.337859413161334
 40
1.833896610316321
 40
2.118542941909133
 40
2.401621501324789
 40
2.945988552284775
 40
3.638553609528694
 40
4.451143321879456
 40
4.947746839607094
 40
5.291759069736036
 40
5.537295258651429
 40
5.962835195523259
 40
6.52838849958167
 40
7.124332020494799
 40
7.898367861786479
 40
8.496448681030781
 40
8.907320562793238
 40
9.326538941889075
 40
9.954843025728506
 40
10.67592761448757
 40
10.67592761448757
 40
10.67592761448757
 40
10.67592761448757
 10
75.63955859043205
 20
-259.9656881505753
 30
0.0
 10
75.39851268259282
 20
-259.9767417103446
 30
0.0
 10
74.9554133295718
 20
-259.9970607658568
 30
0.0
 10
74.32767263880257
 20
-259.9619700658401
 30
0.0
 10
73.94416907593157
 20
-259.6074517203214
 30
0.0
 10
73.91151357288507
 20
-259.2462651586308
 30
0.0
 10
73.94558337383323
 20
-258.8668390105446
 30
0.0
 10
74.39292148679372
 20
-258.5005167115813
 30
0.0
 10
75.08131169225139
 20
-258.486488844934
 30
0.0
 10
75.76434031543386
 20
-258.4282240849097
 30
0.0
 10
76.25645991317415
 20
-258.2830843788447
 30
0.0
 10
76.67192466428553
 20
-258.1141028061603
 30
0.0
 10
76.54905691182464
 20
-257.7216373860945
 30
0.0
 10
76.1613042828927
 20
-257.544458938043
 30
0.0
 10
75.69099899638093
 20
-257.3147611946781
 30
0.0
 10
75.07950057478789
 20
-257.0952041773041
 30
0.0
 10
74.44445811589004
 20
-256.9491717822066
 30
0.0
 10
73.93219610327068
 20
-256.5500323135058
 30
0.0
 10
73.8630913530382
 20
-256.0593751251176
 30
0.0
 10
73.93469475702872
 20
-255.5611746281489
 30
0.0
 10
74.42932447052273
 20
-255.1518552915531
 30
0.0
 10
74.86113789848854
 20
-255.0305246586326
 30
0.0
 10
75.09188980447999
 20
-254.9656881505753
 30
0.0
 11
75.63955859043205
 21
-259.9656881505753
 31
0.0
 11
74.91202670234581
 21
-259.985259958684
 31
0.0
 11
74.31103231645798
 21
-259.8804543412289
 31
0.0
 11
73.963112934967
 21
-259.5268938726463
 31
0.0
 11
73.92021878632838
 21
-259.2454980196175
 31
0.0
 11
73.963112934967
 21
-258.9656881505753
 31
0.0
 11
74.35926814694562
 21
-258.592329697888
 31
0.0
 11
75.04269838047985
 21
-258.4802160305382
 31
0.0
 11
75.85020043118294
 21
-258.3894279325925
 31
0.0
 11
76.32677100060707
 21
-258.2498014803056
 31
0.0
 11
76.60851105788589
 21
-258.0524009873913
 31
0.0
 11
76.55354973041928
 21
-257.813095173525
 31
0.0
 11
76.20835156688943
 21
-257.5642529227546
 31
0.0
 11
75.69460992754388
 21
-257.3277786794765
 31
0.0
 11
75.13401817263008
 21
-257.1255768880873
 31
0.0
 11
74.40312575567461
 21
-256.8707676291482
 31
0.0
 11
73.963112934967
 21
-256.4656881505753
 31
0.0
 11
73.88332062680993
 21
-256.0626386613287
 31
0.0
 11
73.963112934967
 21
-255.6510840028315
 31
0.0
 11
74.41517638530615
 21
-255.2147301800721
 31
0.0
 11
75.09188980447999
 21
-254.9656881505753
 31
0.0
  0
SPLINE
  5
154
330
1F
100
AcDbEntity
  8
1
  6
Continuous
 62
     7
100
AcDbSpline
210
0.0
220
0.0
230
1.0
 70
     8
 71
     3
 72
    61
 73
    57
 74
    55
 42
0.0000000001
 43
0.0000000001
 44
0.00000001
 40
0.0
 40
0.0
 40
0.0
 40
0.0
 40
0.4523272583993235
 40
0.797022338327281
 40
1.067335986807384
 40
1.381268984499132
 40
1.613874858607702
 40
1.837364212502666
 40
2.138516670291351
 40
2.437502139836893
 40
2.702069140818842
 40
2.979704937559219
 40
3.193666497745037
 40
3.378477882971152
 40
3.702250052658975
 40
4.089669941167013
 40
4.302695501379403
 40
4.513436625066551
 40
4.771510873617889
 40
5.026865053158295
 40
5.381441195631675
 40
5.746752542984451
 40
6.025356887778758
 40
6.281991139706109
 40
6.461351423426081
 40
6.65023545326684
 40
6.960357599564553
 40
7.272282431640637
 40
7.686341032476342
 40
8.087418036733238
 40
8.326180026748215
 40
8.569482785933326
 40
8.892778104219135
 40
9.22127900800603
 40
9.504413000686737
 40
9.762965804682498
 40
9.943059522667138
 40
10.12859915817807
 40
10.35874153749075
 40
10.59425534349451
 40
10.85350788973185
 40
11.11451759953121
 40
11.48289872913738
 40
11.85065051576325
 40
12.17513771548343
 40
12.49939223769316
 40
12.83330869109069
 40
13.16622410835793
 40
13.44086053293272
 40
13.71870966874415
 40
13.98434969250696
 40
14.24110727230102
 40
14.47281964095758
 40
14.71125715187268
 40
14.8908409155819
 40
15.06845624592264
 40
15.06845624592264
 40
15.06845624592264
 40
15.06845624592264
 10
94.463112934967
 20
-258.4656881505753
 30
0.0
 10
94.6060556604977
 20
-258.504712838277
 30
0.0
 10
94.8579276032865
 20
-258.5734762109611
 30
0.0
 10
95.26060928274092
 20
-258.5259464226991
 30
0.0
 10
95.38712812854908
 20
-258.2107611092943
 30
0.0
 10
95.42695053602418
 20
-257.9474726996449
 30
0.0
 10
95.46033178046736
 20
-257.6916694988053
 30
0.0
 10
95.47867812810304
 20
-257.4400204203873
 30
0.0
 10
95.47565235709281
 20
-257.1650893738235
 30
0.0
 10
95.43200356101775
 20
-256.8777119026479
 30
0.0
 10
95.32922283826969
 20
-256.6166299793604
 30
0.0
 10
95.25852033161004
 20
-256.3720843117549
 30
0.0
 10
95.24544363081137
 20
-256.1487203236199
 30
0.0
 10
95.32628645812187
 20
-255.8938152504492
 30
0.0
 10
95.69011349104201
 20
-255.8825662260293
 30
0.0
 10
95.9700069564274
 20
-256.0243900301829
 30
0.0
 10
96.12043893631014
 20
-256.2594598357135
 30
0.0
 10
96.17431538590031
 20
-256.4811647474849
 30
0.0
 10
96.2292045238026
 20
-256.7159761907895
 30
0.0
 10
96.27895131809474
 20
-257.0013670334123
 30
0.0
 10
96.30248393061176
 20
-257.3262238973185
 30
0.0
 10
96.28030030988049
 20
-257.6604941580158
 30
0.0
 10
96.22267824219006
 20
-257.9529074531145
 30
0.0
 10
96.23862926580566
 20
-258.2030316652229
 30
0.0
 10
96.37404268515843
 20
-258.3710373678622
 30
0.0
 10
96.56500977347608
 20
-258.4959624908806
 30
0.0
 10
96.83900188239669
 20
-258.5551560308311
 30
0.0
 10
97.18546036351269
 20
-258.4766731716682
 30
0.0
 10
97.48945545873005
 20
-258.2338613002637
 30
0.0
 10
97.64842692210394
 20
-257.8989005536423
 30
0.0
 10
97.6267915239556
 20
-257.6000087947497
 30
0.0
 10
97.55604813337837
 20
-257.3411183143954
 30
0.0
 10
97.47275740710919
 20
-257.0547601333157
 30
0.0
 10
97.34612134484556
 20
-256.7666325901437
 30
0.0
 10
97.18145161989983
 20
-256.531057532128
 30
0.0
 10
97.10282660301297
 20
-256.2858787733111
 30
0.0
 10
97.18765535916572
 20
-256.0853117378503
 30
0.0
 10
97.33301561510525
 20
-255.9407160277099
 30
0.0
 10
97.5575845229675
 20
-255.8939102329126
 30
0.0
 10
97.79809536215893
 20
-255.9537180480976
 30
0.0
 10
98.00371015222679
 20
-256.1099733439085
 30
0.0
 10
98.17501828714349
 20
-256.3545013902762
 30
0.0
 10
98.31052909057162
 20
-256.6599076554231
 30
0.0
 10
98.41022863714987
 20
-256.9993377935126
 30
0.0
 10
98.50089096724022
 20
-257.3257912890395
 30
0.0
 10
98.57308935866169
 20
-257.6455740543458
 30
0.0
 10
98.61905531211235
 20
-257.9730998787529
 30
0.0
 10
98.63766249545435
 20
-258.2867839933273
 30
0.0
 10
98.63349156757135
 20
-258.5818600650277
 30
0.0
 10
98.63093264389352
 20
-258.8548934111766
 30
0.0
 10
98.64789450089705
 20
-259.1204553748207
 30
0.0
 10
98.62047082000946
 20
-259.3755698021279
 30
0.0
 10
98.4951507739826
 20
-259.5891298372635
 30
0.0
 10
98.34278058358382
 20
-259.7443864808134
 30
0.0
 10
98.18548965232438
 20
-259.8660245056154
 30
0.0
 10
98.08675961779537
 20
-259.9325892093067
 30
0.0
 10
98.03766663858704
 20
-259.9656881505753
 30
0.0
 11
94.463112934967
 21
-258.4656881505753
 31
0.0
 11
94.9076671861875
 21
-258.5491834583048
 31
0.0
 11
95.24209689735818
 21
-258.4656881505753
 31
0.0
 11
95.37025081749024
 21
-258.2276838621488
 31
0.0
 11
95.42994150447595
 21
-257.9194778451295
 31
0.0
 11
95.4584584710866
 21
-257.6886266478505
 31
0.0
 11
95.47414023556195
 21
-257.4656881505753
 31
0.0
 11
95.46857129709255
 21
-257.1645871878461
 31
0.0
 11
95.418891821704
 21
-256.8697579818225
 31
0.0
 11
95.33452256883888
 21
-256.6190040642468
 31
0.0
 11
95.26419626290118
 21
-256.3504228915544
 31
0.0
 11
95.25994413206061
 21
-256.1365035875623
 31
0.0
 11
95.33049435953109
 21
-255.9656881505753
 31
0.0
 11
95.64905577200432
 21
-255.9078345046451
 31
0.0
 11
95.99347532582993
 21
-256.0852305050344
 31
0.0
 11
96.10946523946859
 21
-256.2639096287112
 31
0.0
 11
96.170270250177
 21
-256.4656881505753
 31
0.0
 11
96.22701289658599
 21
-256.7174471421602
 31
0.0
 11
96.26971739512209
 21
-256.9692051267675
 31
0.0
 11
96.29413062290268
 21
-257.3229398227201
 31
0.0
 11
96.26971739512209
 21
-257.6874345069255
 31
0.0
 11
96.23378874037601
 21
-257.9637124696848
 31
0.0
 11
96.26971739512209
 21
-258.2178192799643
 31
0.0
 11
96.37764041411054
 21
-258.3610768568967
 31
0.0
 11
96.53490978164206
 21
-258.4656881505753
 31
0.0
 11
96.83785348490102
 21
-258.5320271155962
 31
0.0
 11
97.14264233408295
 21
-258.4656881505753
 31
0.0
 11
97.46795280130536
 21
-258.2095287766661
 31
0.0
 11
97.6288283760361
 21
-257.8421300657283
 31
0.0
 11
97.61941210484119
 21
-257.6035538269435
 31
0.0
 11
97.56253027940608
 21
-257.3669937065465
 31
0.0
 11
97.46644303163134
 21
-257.0583076141475
 31
0.0
 11
97.33048694120095
 21
-256.7592611541054
 31
0.0
 11
97.18868409367681
 21
-256.514196243836
 31
0.0
 11
97.131592651311
 21
-256.2620254293814
 31
0.0
 11
97.19650271703384
 21
-256.094036052856
 31
0.0
 11
97.33048694120095
 21
-255.9656881505753
 31
0.0
 11
97.55424491504084
 21
-255.9118561535961
 31
0.0
 11
97.78352393483902
 21
-255.9656881505753
 31
0.0
 11
97.99298966223557
 21
-256.1184493752914
 31
0.0
 11
98.1481634663042
 21
-256.3283235260114
 31
0.0
 11
98.30289081589945
 21
-256.6626349136983
 31
0.0
 11
98.41335585282405
 21
-257.0134038578535
 31
0.0
 11
98.4983605446069
 21
-257.3265590033599
 31
0.0
 11
98.5680514116271
 21
-257.6432357758385
 31
0.0
 11
98.61465141604643
 21
-257.9738845886864
 31
0.0
 11
98.634349508257
 21
-258.3062167421375
 31
0.0
 11
98.63372281128846
 21
-258.5808524516768
 31
0.0
 11
98.634349508257
 21
-258.8587008807205
 31
0.0
 11
98.64030746928626
 21
-259.1242740814112
 31
0.0
 11
98.60120045994205
 21
-259.3780359709885
 31
0.0
 11
98.48921728867998
 21
-259.5808915628328
 31
0.0
 11
98.32495839065001
 21
-259.7537251852255
 31
0.0
 11
98.18385673521354
 21
-259.8648136680716
 31
0.0
 11
98.03766663858704
 21
-259.9656881505753
 31
0.0
  0
ARC
  5
155
330
1F
100
AcDbEntity
  8
1
  6
Continuous
 62
     7
100
AcDbCircle
 10
35.46311293496677
 20
-252.965688150576
 30
0.0
 40
2.0
100
AcDbArc
 50
180.0
 51
-90.0
  0
ARC
  5
156
330
1F
100
AcDbEntity
  8
1
  6
Continuous
 62
     7
100
AcDbCircle
 10
35.46311293496677
 20
-200.9656881505753
 30
0.0
 40
2.0
100
AcDbArc
 50
90.0
 51
180.0
  0
ARC
  5
157
330
1F
100
AcDbEntity
  8
1
  6
Continuous
 62
     7
100
AcDbCircle
 10
54.963112934967
 20
-258.7760329781616
 30
0.0
 40
3.999999999999964
100
AcDbArc
 50
-3.44714309051453
 51
0.0
  0
ARC
  5
158
330
1F
100
AcDbEntity
  8
1
  6
Continuous
 62
     7
100
AcDbCircle
 10
103.3631129349671
 20
-225.6156881505755
 30
0.0
 40
0.4000000000000057
100
AcDbArc
 50
90.0
 51
180.0
  0
ARC
  5
159
330
1F
100
AcDbEntity
  8
1
  6
Continuous
 62
     7
100
AcDbCircle
 10
99.60297855504706
 20
-228.0656881505755
 30
0.0
 40
0.3999999999997783
100
AcDbArc
 50
-90.0
 51
0.0
  0
ARC
  5
15A
330
1F
100
AcDbEntity
  8
1
  6
Continuous
 62
     7
100
AcDbCircle
 10
99.60297855504706
 20
-227.3656881505755
 30
0.0
 40
0.3999999999999346
100
AcDbArc
 50
0.0
 51
90.0
  0
ARC
  5
15B
330
1F
100
AcDbEntity
  8
1
  6
Continuous
 62
     7
100
AcDbCircle
 10
102.563112934967
 20
-230.0656881505755
 30
0.0
 40
0.3999999999997783
100
AcDbArc
 50
-90.0
 51
0.0
  0
ARC
  5
15C
330
1F
100
AcDbEntity
  8
1
  6
Continuous
 62
     7
100
AcDbCircle
 10
104.3631129349671
 20
-230.0656881505755
 30
0.0
 40
0.4000000000001052
100
AcDbArc
 50
180.0
 51
-90.0
  0
ARC
  5
15D
330
1F
100
AcDbEntity
  8
1
  6
Continuous
 62
     7
100
AcDbCircle
 10
106.2727189191415
 20
-230.0656881505755
 30
0.0
 40
0.3999999999997783
100
AcDbArc
 50
-90.0
 51
14.22058743219487
  0
ARC
  5
15E
330
1F
100
AcDbEntity
  8
1
  6
Continuous
 62
     7
100
AcDbCircle
 10
108.1289390085181
 20
-230.0656881505755
 30
0.0
 40
0.3999999999998493
100
AcDbArc
 50
-165.0000000000124
 51
-90.0
  0
ARC
  5
15F
330
1F
100
AcDbEntity
  8
1
  6
Continuous
 62
     7
100
AcDbCircle
 10
108.3359942446
 20
-230.0656881505755
 30
0.0
 40
0.3999999999997783
100
AcDbArc
 50
-90.0
 51
15.00000000000431
  0
ARC
  5
160
330
1F
100
AcDbEntity
  8
1
  6
Continuous
 62
     7
100
AcDbCircle
 10
110.1994913693384
 20
-230.0656881505755
 30
0.0
 40
0.4000000000000415
100
AcDbArc
 50
-165.0000000000198
 51
-90.0
  0
ARC
  5
161
330
1F
100
AcDbEntity
  8
1
  6
Continuous
 62
     7
100
AcDbCircle
 10
110.4065466054204
 20
-230.0656881505755
 30
0.0
 40
0.3999999999997783
100
AcDbArc
 50
-90.0
 51
15.000000000008
  0
ARC
  5
162
330
1F
100
AcDbEntity
  8
1
  6
Continuous
 62
     7
100
AcDbCircle
 10
111.463112934967
 20
-231.4656881505753
 30
0.0
 40
0.5
100
AcDbArc
 50
-90.0
 51
0.0
  0
ARC
  5
163
330
1F
100
AcDbEntity
  8
1
  6
Continuous
 62
     7
100
AcDbCircle
 10
82.963112934967
 20
-252.9656881505753
 30
0.0
 40
2.0
100
AcDbArc
 50
-90.0
 51
0.0
  0
ARC
  5
164
330
1F
100
AcDbEntity
  8
1
  6
Continuous
 62
     7
100
AcDbCircle
 10
111.963112934967
 20
-217.9656881505753
 30
0.0
 40
2.0
100
AcDbArc
 50
-90.0
 51
0.0
  0
ARC
  5
165
330
1F
100
AcDbEntity
  8
1
  6
Continuous
 62
     7
100
AcDbCircle
 10
111.963112934967
 20
-200.9656881505753
 30
0.0
 40
2.0
100
AcDbArc
 50
0.0
 51
90.0
  0
ARC
  5
166
330
1F
100
AcDbEntity
  8
1
  6
Continuous
 62
     7
100
AcDbCircle
 10
105.963112934967
 20
-222.9656881505753
 30
0.0
 40
2.0
100
AcDbArc
 50
90.0
 51
180.0
  0
ARC
  5
167
330
1F
100
AcDbEntity
  8
1
  6
Continuous
 62
     7
100
AcDbCircle
 10
90.963112934967
 20
-233.9656881505753
 30
0.0
 40
2.0
100
AcDbArc
 50
90.0
 51
180.0
  0
ARC
  5
168
330
1F
100
AcDbEntity
  8
1
  6
Continuous
 62
     7
100
AcDbCircle
 10
75.963112934967
 20
-277.9656881505755
 30
0.0
 40
2.0
100
AcDbArc
 50
180.0
 51
-90.0
  0
ARC
  5
169
330
1F
100
AcDbEntity
  8
1
  6
DASHED
 62
     2
100
AcDbCircle
 10
92.463112934967
 20
-263.4656881505753
 30
0.0
 40
1.5
100
AcDbArc
 50
-90.0
 51
0.0
  0
DIMENSION
  5
175
330
1F
100
AcDbEntity
  8
1
100
AcDbDimension
  2
*D1
 10
73.963112934967
 20
-289.0125393620118
 30
0.0
 11
81.57304266724739
 21
-285.2625393620118
 31
0.0
 70
    32
  1
<>
 71
     5
 42
-1.0
 53
0.00013888888889
  3
ME10_DIM_10
100
AcDbAlignedDimension
 13
88.963112934967
 23
-255.9656881505753
 33
0.0
 14
73.963112934967
 24
-277.9656881505755
 34
0.0
100
AcDbRotatedDimension
  0
DIMENSION
  5
182
330
1F
100
AcDbEntity
  8
1
100
AcDbDimension
  2
*D2
 10
88.963112934967
 20
-187.6180885869647
 30
0.0
 11
95.43114968856409
 21
-183.8680885869647
 31
0.0
 70
    32
  1
<>
 71
     5
 42
-1.0
 53
0.00013888888889
  3
ME10_DIM_11
100
AcDbAlignedDimension
 13
84.963112934967
 23
-226.9656881505753
 33
0.0
 14
88.963112934967
 24
-233.9656881505753
 34
0.0
100
AcDbRotatedDimension
  0
DIMENSION
  5
18D
330
1F
100
AcDbEntity
  8
1
100
AcDbDimension
  2
*D3
 10
84.963112934967
 20
-187.6180885869647
 30
0.0
 11
77.213112934967
 21
-183.8680885869647
 31
0.0
 70
    32
  1
<>
 71
     5
 42
-1.0
 53
0.00013888888889
  3
ME10_DIM_12
100
AcDbAlignedDimension
 13
69.463112934967
 23
-212.9656881505753
 33
0.0
 14
84.963112934967
 24
-226.9656881505753
 34
0.0
100
AcDbRotatedDimension
  0
HATCH
  5
18E
330
1F
100
AcDbEntity
  8
1
  6
Continuous
 62
     3
100
AcDbHatch
 10
0.0
 20
0.0
 30
0.0
210
0.0
220
0.0
230
1.0
  2
SOLID
 70
     1
 71
     1
 91
        1
 92
        1
 93
        8
 72
     1
 10
91.963112934967
 20
-237.9656881505753
 11
91.963112934967
 21
-238.9656881505753
 72
     1
 10
91.963112934967
 20
-238.9656881505753
 11
91.963112934967
 21
-248.9656881505753
 72
     1
 10
91.963112934967
 20
-248.9656881505753
 11
91.963112934967
 21
-251.4656881505753
 72
     1
 10
91.963112934967
 20
-251.4656881505753
 11
91.963112934967
 21
-253.4656881505753
 72
     1
 10
91.963112934967
 20
-253.4656881505753
 11
91.963112934967
 21
-255.9656881505753
 72
     1
 10
91.963112934967
 20
-255.9656881505753
 11
88.963112934967
 21
-255.9656881505753
 72
     1
 10
88.963112934967
 20
-255.9656881505753
 11
88.963112934967
 21
-237.9656881505753
 72
     1
 10
88.963112934967
 20
-237.9656881505753
 11
91.963112934967
 21
-237.9656881505753
 97
        8
330
11C
330
129
330
12C
330
122
330
140
330
13C
330
C5
330
C6
 75
     0
 76
     1
 98
        1
 10
0.0
 20
0.0
  0
ENDSEC
  0
SECTION
  2
OBJECTS
  0
DICTIONARY
  5
C
330
0
100
AcDbDictionary
281
     1
  3
ACAD_GROUP
350
D
  3
ACAD_LAYOUT
350
1A
  3
ACAD_MLINESTYLE
350
17
  3
ACAD_PLOTSETTINGS
350
19
  3
ACAD_PLOTSTYLENAME
350
E
  0
DICTIONARY
  5
D
102
{ACAD_REACTORS
330
C
102
}
330
C
100
AcDbDictionary
281
     1
  0
DICTIONARY
  5
1A
102
{ACAD_REACTORS
330
C
102
}
330
C
100
AcDbDictionary
281
     1
  3
Layout1
350
1E
  3
Layout2
350
26
  3
Model
350
22
  0
DICTIONARY
  5
17
102
{ACAD_REACTORS
330
C
102
}
330
C
100
AcDbDictionary
281
     1
  3
Standard
350
18
  0
DICTIONARY
  5
19
102
{ACAD_REACTORS
330
C
102
}
330
C
100
AcDbDictionary
281
     1
  0
ACDBDICTIONARYWDFLT
  5
E
102
{ACAD_REACTORS
330
C
102
}
330
C
100
AcDbDictionary
281
     1
  3
Normal
350
F
100
AcDbDictionaryWithDefault
340
F
  0
LAYOUT
  5
1E
102
{ACAD_REACTORS
330
1A
102
}
330
1A
100
AcDbPlotSettings
  1

  2

  4

  6

 40
0.0
 41
0.0
 42
0.0
 43
0.0
 44
0.0
 45
0.0
 46
0.0
 47
0.0
 48
0.0
 49
0.0
140
0.0
141
0.0
142
1.0
143
1.0
 70
   688
 72
     0
 73
     0
 74
     5
  7

 75
    16
 76
     0
 77
     2
 78
   300
147
1.0
148
0.0
149
0.0
100
AcDbLayout
  1
Layout1
 70
     1
 71
     1
 10
0.0
 20
0.0
 11
0.0
 21
0.0
 12
0.0
 22
0.0
 32
0.0
 14
0.0
 24
0.0
 34
0.0
 15
0.0
 25
0.0
 35
0.0
146
0.0
 13
0.0
 23
0.0
 33
0.0
 16
1.0
 26
0.0
 36
0.0
 17
0.0
 27
1.0
 37
0.0
 76
     0
330
1B
  0
LAYOUT
  5
26
102
{ACAD_REACTORS
330
1A
102
}
330
1A
100
AcDbPlotSettings
  1

  2

  4

  6

 40
0.0
 41
0.0
 42
0.0
 43
0.0
 44
0.0
 45
0.0
 46
0.0
 47
0.0
 48
0.0
 49
0.0
140
0.0
141
0.0
142
1.0
143
1.0
 70
   688
 72
     0
 73
     0
 74
     5
  7

 75
    16
 76
     0
 77
     2
 78
   300
147
1.0
148
0.0
149
0.0
100
AcDbLayout
  1
Layout2
 70
     1
 71
     2
 10
0.0
 20
0.0
 11
0.0
 21
0.0
 12
0.0
 22
0.0
 32
0.0
 14
0.0
 24
0.0
 34
0.0
 15
0.0
 25
0.0
 35
0.0
146
0.0
 13
0.0
 23
0.0
 33
0.0
 16
1.0
 26
0.0
 36
0.0
 17
0.0
 27
1.0
 37
0.0
 76
     0
330
23
  0
LAYOUT
  5
22
102
{ACAD_REACTORS
330
1A
102
}
330
1A
100
AcDbPlotSettings
  1

  2

  4

  6

 40
0.0
 41
0.0
 42
0.0
 43
0.0
 44
0.0
 45
0.0
 46
0.0
 47
0.0
 48
0.0
 49
0.0
140
0.0
141
0.0
142
1.0
143
1.0
 70
  1712
 72
     0
 73
     0
 74
     0
  7

 75
     0
 76
     0
 77
     2
 78
   300
147
1.0
148
0.0
149
0.0
100
AcDbLayout
  1
Model
 70
     1
 71
     0
 10
0.0
 20
0.0
 11
0.0
 21
0.0
 12
0.0
 22
0.0
 32
0.0
 14
33.46311293496677
 24
-291.0125393620118
 34
0.0
 15
164.6297796016341
 25
-182.1180885869647
 35
0.0
146
0.0
 13
0.0
 23
0.0
 33
0.0
 16
1.0
 26
0.0
 36
0.0
 17
0.0
 27
1.0
 37
0.0
 76
     0
330
1F
  0
MLINESTYLE
  5
18
102
{ACAD_REACTORS
330
17
102
}
330
17
100
AcDbMlineStyle
  2
Standard
 70
     0
  3

 62
   256
 51
90.0
 52
90.0
 71
     2
 49
0.5
 62
   256
  6
BYLAYER
 49
-0.5
 62
   256
  6
BYLAYER
  0
ACDBPLACEHOLDER
  5
F
102
{ACAD_REACTORS
330
E
102
}
330
E
  0
ENDSEC
  0
EOF
