  0
SECTION
  2
HEADER
  9
$ACADVER
  1
AC1018
  9
$ACADMAINTVER
 70
     0
  9
$DWGCODEPAGE
  3
ANSI_1252
  9
$INSBASE
 10
0.0
 20
0.0
 30
0.0
  9
$EXTMIN
 10
-51.49345348867082
 20
-40.88578635213443
 30
0.0
  9
$EXTMAX
 10
68.50654651132919
 20
78.14283197208982
 30
0.0
  9
$LIMMIN
 10
0.0
 20
0.0
  9
$LIMMAX
 10
12.0
 20
9.0
  9
$ORTHOMODE
 70
     0
  9
$REGENMODE
 70
     1
  9
$FILLMODE
 70
     1
  9
$QTEXTMODE
 70
     0
  9
$MIRRTEXT
 70
     1
  9
$LTSCALE
 40
1.0
  9
$ATTMODE
 70
     1
  9
$TEXTSIZE
 40
0.2
  9
$TRACEWID
 40
0.05
  9
$TEXTSTYLE
  7
Standard
  9
$CLAYER
  8
0
  9
$CELTYPE
  6
ByLayer
  9
$CECOLOR
 62
   256
  9
$CELTSCALE
 40
1.0
  9
$DISPSILH
 70
     0
  9
$DIMSCALE
 40
1.0
  9
$DIMASZ
 40
0.18
  9
$DIMEXO
 40
0.0625
  9
$DIMDLI
 40
0.38
  9
$DIMRND
 40
0.0
  9
$DIMDLE
 40
0.0
  9
$DIMEXE
 40
0.18
  9
$DIMTP
 40
0.0
  9
$DIMTM
 40
0.0
  9
$DIMTXT
 40
0.18
  9
$DIMCEN
 40
0.09
  9
$DIMTSZ
 40
0.0
  9
$DIMTOL
 70
     0
  9
$DIMLIM
 70
     0
  9
$DIMTIH
 70
     1
  9
$DIMTOH
 70
     1
  9
$DIMSE1
 70
     0
  9
$DIMSE2
 70
     0
  9
$DIMTAD
 70
     0
  9
$DIMZIN
 70
     0
  9
$DIMBLK
  1

  9
$DIMASO
 70
     1
  9
$DIMSHO
 70
     1
  9
$DIMPOST
  1

  9
$DIMAPOST
  1

  9
$DIMALT
 70
     0
  9
$DIMALTD
 70
     2
  9
$DIMALTF
 40
25.4
  9
$DIMLFAC
 40
1.0
  9
$DIMTOFL
 70
     0
  9
$DIMTVP
 40
0.0
  9
$DIMTIX
 70
     0
  9
$DIMSOXD
 70
     0
  9
$DIMSAH
 70
     0
  9
$DIMBLK1
  1

  9
$DIMBLK2
  1

  9
$DIMSTYLE
  2
Standard
  9
$DIMCLRD
 70
     0
  9
$DIMCLRE
 70
     0
  9
$DIMCLRT
 70
     0
  9
$DIMTFAC
 40
1.0
  9
$DIMGAP
 40
0.09
  9
$DIMJUST
 70
     0
  9
$DIMSD1
 70
     0
  9
$DIMSD2
 70
     0
  9
$DIMTOLJ
 70
     1
  9
$DIMTZIN
 70
     0
  9
$DIMALTZ
 70
     0
  9
$DIMALTTZ
 70
     0
  9
$DIMUPT
 70
     0
  9
$DIMDEC
 70
     4
  9
$DIMTDEC
 70
     4
  9
$DIMALTU
 70
     2
  9
$DIMALTTD
 70
     2
  9
$DIMTXSTY
  7
Standard
  9
$DIMAUNIT
 70
     0
  9
$DIMADEC
 70
     0
  9
$DIMALTRND
 40
0.0
  9
$DIMAZIN
 70
     0
  9
$DIMDSEP
 70
    46
  9
$DIMATFIT
 70
     3
  9
$DIMFRAC
 70
     0
  9
$DIMLDRBLK
  1

  9
$DIMLUNIT
 70
     2
  9
$DIMLWD
 70
    -2
  9
$DIMLWE
 70
    -2
  9
$DIMTMOVE
 70
     0
  9
$LUNITS
 70
     2
  9
$LUPREC
 70
     4
  9
$SKETCHINC
 40
0.1
  9
$FILLETRAD
 40
0.5
  9
$AUNITS
 70
     0
  9
$AUPREC
 70
     0
  9
$MENU
  1
.
  9
$ELEVATION
 40
0.0
  9
$PELEVATION
 40
0.0
  9
$THICKNESS
 40
0.0
  9
$LIMCHECK
 70
     0
  9
$CHAMFERA
 40
0.5
  9
$CHAMFERB
 40
0.5
  9
$CHAMFERC
 40
1.0
  9
$CHAMFERD
 40
0.0
  9
$SKPOLY
 70
     0
  9
$TDCREATE
 40
2454489.429432593
  9
$TDUCREATE
 40
2454489.387765926
  9
$TDUPDATE
 40
2454489.429432604
  9
$TDUUPDATE
 40
2454489.387765937
  9
$TDINDWG
 40
0.0000000116
  9
$TDUSRTIMER
 40
0.0000000116
  9
$USRTIMER
 70
     1
  9
$ANGBASE
 50
0.0
  9
$ANGDIR
 70
     0
  9
$PDMODE
 70
     0
  9
$PDSIZE
 40
0.0
  9
$PLINEWID
 40
0.0
  9
$SPLFRAME
 70
     0
  9
$SPLINETYPE
 70
     6
  9
$SPLINESEGS
 70
     8
  9
$HANDSEED
  5
165
  9
$SURFTAB1
 70
     6
  9
$SURFTAB2
 70
     6
  9
$SURFTYPE
 70
     6
  9
$SURFU
 70
     6
  9
$SURFV
 70
     6
  9
$UCSBASE
  2

  9
$UCSNAME
  2

  9
$UCSORG
 10
0.0
 20
0.0
 30
0.0
  9
$UCSXDIR
 10
1.0
 20
0.0
 30
0.0
  9
$UCSYDIR
 10
0.0
 20
1.0
 30
0.0
  9
$UCSORTHOREF
  2

  9
$UCSORTHOVIEW
 70
     0
  9
$UCSORGTOP
 10
0.0
 20
0.0
 30
0.0
  9
$UCSORGBOTTOM
 10
0.0
 20
0.0
 30
0.0
  9
$UCSORGLEFT
 10
0.0
 20
0.0
 30
0.0
  9
$UCSORGRIGHT
 10
0.0
 20
0.0
 30
0.0
  9
$UCSORGFRONT
 10
0.0
 20
0.0
 30
0.0
  9
$UCSORGBACK
 10
0.0
 20
0.0
 30
0.0
  9
$PUCSBASE
  2

  9
$PUCSNAME
  2

  9
$PUCSORG
 10
0.0
 20
0.0
 30
0.0
  9
$PUCSXDIR
 10
1.0
 20
0.0
 30
0.0
  9
$PUCSYDIR
 10
0.0
 20
1.0
 30
0.0
  9
$PUCSORTHOREF
  2

  9
$PUCSORTHOVIEW
 70
     0
  9
$PUCSORGTOP
 10
0.0
 20
0.0
 30
0.0
  9
$PUCSORGBOTTOM
 10
0.0
 20
0.0
 30
0.0
  9
$PUCSORGLEFT
 10
0.0
 20
0.0
 30
0.0
  9
$PUCSORGRIGHT
 10
0.0
 20
0.0
 30
0.0
  9
$PUCSORGFRONT
 10
0.0
 20
0.0
 30
0.0
  9
$PUCSORGBACK
 10
0.0
 20
0.0
 30
0.0
  9
$USERI1
 70
     0
  9
$USERI2
 70
     0
  9
$USERI3
 70
     0
  9
$USERI4
 70
     0
  9
$USERI5
 70
     0
  9
$USERR1
 40
14.5
  9
$USERR2
 40
0.0
  9
$USERR3
 40
0.0
  9
$USERR4
 40
0.0
  9
$USERR5
 40
0.0
  9
$WORLDVIEW
 70
     1
  9
$SHADEDGE
 70
     3
  9
$SHADEDIF
 70
    70
  9
$TILEMODE
 70
     1
  9
$MAXACTVP
 70
    64
  9
$PINSBASE
 10
0.0
 20
0.0
 30
0.0
  9
$PLIMCHECK
 70
     0
  9
$PEXTMIN
 10
1.00000000000000E+20
 20
1.00000000000000E+20
 30
1.00000000000000E+20
  9
$PEXTMAX
 10
-1.00000000000000E+20
 20
-1.00000000000000E+20
 30
-1.00000000000000E+20
  9
$PLIMMIN
 10
0.0
 20
0.0
  9
$PLIMMAX
 10
12.0
 20
9.0
  9
$UNITMODE
 70
     0
  9
$VISRETAIN
 70
     1
  9
$PLINEGEN
 70
     0
  9
$PSLTSCALE
 70
     1
  9
$TREEDEPTH
 70
  3020
  9
$CMLSTYLE
  2
Standard
  9
$CMLJUST
 70
     0
  9
$CMLSCALE
 40
1.0
  9
$PROXYGRAPHICS
 70
     1
  9
$MEASUREMENT
 70
     1
  9
$CELWEIGHT
370
    -1
  9
$ENDCAPS
280
     0
  9
$JOINSTYLE
280
     0
  9
$LWDISPLAY
290
     0
  9
$INSUNITS
 70
     1
  9
$HYPERLINKBASE
  1

  9
$STYLESHEET
  1

  9
$XEDIT
290
     1
  9
$CEPSNTYPE
380
     0
  9
$PSTYLEMODE
290
     1
  9
$FINGERPRINTGUID
  2
{2B4F6117-DDFB-4E25-8BA3-41145DB3B70C}
  9
$VERSIONGUID
  2
{FAEB1C32-E019-11D5-929B-00C0DF256EC4}
  9
$EXTNAMES
290
     1
  9
$PSVPSCALE
 40
0.0
  9
$OLESTARTUP
290
     0
  9
$SORTENTS
280
   127
  9
$INDEXCTL
280
     0
  9
$HIDETEXT
280
     1
  9
$XCLIPFRAME
290
     0
  9
$HALOGAP
280
     0
  9
$OBSCOLOR
 70
   257
  9
$OBSLTYPE
280
     0
  9
$INTERSECTIONDISPLAY
280
     0
  9
$INTERSECTIONCOLOR
 70
   257
  9
$DIMASSOC
280
     2
  9
$PROJECTNAME
  1

  0
ENDSEC
  0
SECTION
  2
CLASSES
  0
CLASS
  1
ACDBDICTIONARYWDFLT
  2
AcDbDictionaryWithDefault
  3
ObjectDBX Classes
 90
        0
 91
        3
280
     0
281
     0
  0
CLASS
  1

  2
exOdDbCircle
  3

 90
        0
 91
        3
280
     0
281
     1
  0
CLASS
  1

  2
exOdDbSpline
  3

 90
        0
 91
        3
280
     0
281
     1
  0
ENDSEC
  0
SECTION
  2
TABLES
  0
TABLE
  2
VPORT
  5
8
330
0
100
AcDbSymbolTable
 70
     1
  0
VPORT
  5
29
330
8
100
AcDbSymbolTableRecord
100
AcDbViewportTableRecord
  2
*Active
 70
     0
 10
0.0
 20
0.0
 11
1.0
 21
1.0
 12
8.50654651132918
 22
18.6285228099777
 13
0.0
 23
0.0
 14
0.5
 24
0.5
 15
0.5
 25
0.5
 16
0.0
 26
0.0
 36
1.0
 17
0.0
 27
0.0
 37
0.0
 40
130.9314801566467
 41
1.60267857142857
 42
50.0
 43
0.0
 44
0.0
 50
0.0
 51
0.0
 71
     0
 72
   100
 73
     1
 74
     3
 75
     0
 76
     0
 77
     0
 78
     0
281
     0
 65
     1
110
0.0
120
0.0
130
0.0
111
1.0
121
0.0
131
0.0
112
0.0
122
1.0
132
0.0
 79
     0
146
0.0
  0
ENDTAB
  0
TABLE
  2
LTYPE
  5
5
330
0
100
AcDbSymbolTable
 70
     8
  0
LTYPE
  5
14
330
5
100
AcDbSymbolTableRecord
100
AcDbLinetypeTableRecord
  2
ByBlock
 70
     0
  3

 72
    65
 73
     0
 40
0.0
  0
LTYPE
  5
15
330
5
100
AcDbSymbolTableRecord
100
AcDbLinetypeTableRecord
  2
ByLayer
 70
     0
  3

 72
    65
 73
     0
 40
0.0
  0
LTYPE
  5
16
330
5
100
AcDbSymbolTableRecord
100
AcDbLinetypeTableRecord
  2
Continuous
 70
     0
  3
Solid line
 72
    65
 73
     0
 40
0.0
  0
LTYPE
  5
2A
330
5
100
AcDbSymbolTableRecord
100
AcDbLinetypeTableRecord
  2
DASHED
 70
     0
  3
Dashed
 72
    65
 73
     2
 40
15.0
 49
7.0
 74
     0
 49
-8.0
 74
     0
  0
LTYPE
  5
2B
330
5
100
AcDbSymbolTableRecord
100
AcDbLinetypeTableRecord
  2
DOTTED
 70
     0
  3
Dotted
 72
    65
 73
     2
 40
1.0
 49
0.0
 74
     0
 49
-1.0
 74
     0
  0
LTYPE
  5
2C
330
5
100
AcDbSymbolTableRecord
100
AcDbLinetypeTableRecord
  2
DOT_CENTER
 70
     0
  3
Dot_Center
 72
    65
 73
     4
 40
14.0
 49
12.0
 74
     0
 49
-1.0
 74
     0
 49
0.0
 74
     0
 49
-1.0
 74
     0
  0
LTYPE
  5
2D
330
5
100
AcDbSymbolTableRecord
100
AcDbLinetypeTableRecord
  2
LONG_DASHED
 70
     0
  3
Long_Dashed
 72
    65
 73
     2
 40
15.0
 49
10.0
 74
     0
 49
-5.0
 74
     0
  0
LTYPE
  5
2E
330
5
100
AcDbSymbolTableRecord
100
AcDbLinetypeTableRecord
  2
DASH_CENTER
 70
     0
  3
Dash_Center
 72
    65
 73
     4
 40
14.0
 49
11.0
 74
     0
 49
-1.0
 74
     0
 49
1.0
 74
     0
 49
-1.0
 74
     0
  0
LTYPE
  5
2F
330
5
100
AcDbSymbolTableRecord
100
AcDbLinetypeTableRecord
  2
PHANTOM
 70
     0
  3
Phantom
 72
    65
 73
     6
 40
13.0
 49
10.0
 74
     0
 49
-1.0
 74
     0
 49
0.0
 74
     0
 49
-1.0
 74
     0
 49
0.0
 74
     0
 49
-1.0
 74
     0
  0
LTYPE
  5
30
330
5
100
AcDbSymbolTableRecord
100
AcDbLinetypeTableRecord
  2
CENTER_DASH_DASH
 70
     0
  3
Center_Dash_Dash
 72
    65
 73
     6
 40
14.0
 49
9.0
 74
     0
 49
-1.0
 74
     0
 49
1.0
 74
     0
 49
-1.0
 74
     0
 49
1.0
 74
     0
 49
-1.0
 74
     0
  0
ENDTAB
  0
TABLE
  2
LAYER
  5
2
330
0
100
AcDbSymbolTable
 70
     2
  0
LAYER
  5
10
330
2
100
AcDbSymbolTableRecord
100
AcDbLayerTableRecord
  2
0
 70
     0
 62
     7
  6
Continuous
370
    -3
390
F
  0
LAYER
  5
31
330
2
100
AcDbSymbolTableRecord
100
AcDbLayerTableRecord
  2
1
 70
     0
 62
     7
  6
Continuous
370
    -3
390
F
  0
ENDTAB
  0
TABLE
  2
STYLE
  5
3
330
0
100
AcDbSymbolTable
 70
     2
  0
STYLE
  5
11
330
3
100
AcDbSymbolTableRecord
100
AcDbTextStyleTableRecord
  2
Standard
 70
     0
 40
0.0
 41
1.0
 50
0.0
 71
     0
 42
0.2
  3
txt
  4

  0
STYLE
  5
147
330
3
100
AcDbSymbolTableRecord
100
AcDbTextStyleTableRecord
  2
CONVERTER_11
 70
     0
 40
0.0
 41
0.9
 50
0.0
 71
     0
 42
0.2
  3
txt.shx
  4

  0
ENDTAB
  0
TABLE
  2
VIEW
  5
6
330
0
100
AcDbSymbolTable
 70
     0
  0
ENDTAB
  0
TABLE
  2
UCS
  5
7
330
0
100
AcDbSymbolTable
 70
     0
  0
ENDTAB
  0
TABLE
  2
APPID
  5
9
330
0
100
AcDbSymbolTable
 70
     1
  0
APPID
  5
12
330
9
100
AcDbSymbolTableRecord
100
AcDbRegAppTableRecord
  2
ACAD
 70
     0
  0
ENDTAB
  0
TABLE
  2
DIMSTYLE
  5
A
330
0
100
AcDbSymbolTable
 70
     4
100
AcDbDimStyleTable
  0
DIMSTYLE
105
27
330
A
100
AcDbSymbolTableRecord
100
AcDbDimStyleTableRecord
  2
Standard
 70
     0
340
11
  0
DIMSTYLE
105
14B
102
{ACAD_REACTORS
330
14C
102
}
330
A
100
AcDbSymbolTableRecord
100
AcDbDimStyleTableRecord
  2
ME10_DIM_10
 70
     0
 41
3.5
 42
0.0
 44
2.0
 73
     0
 74
     0
 77
     1
 78
     8
140
3.5
147
2.0
172
     1
173
     1
176
     2
177
     2
178
     2
271
     2
340
147
  0
DIMSTYLE
105
158
102
{ACAD_REACTORS
330
159
102
}
330
A
100
AcDbSymbolTableRecord
100
AcDbDimStyleTableRecord
  2
ME10_DIM_11
 70
     0
 41
3.5
 42
0.0
 44
2.0
 73
     0
 74
     0
 77
     1
 78
     8
140
3.5
147
2.0
172
     1
173
     1
176
     2
177
     2
178
     2
271
     2
340
147
  0
DIMSTYLE
105
163
102
{ACAD_REACTORS
330
164
102
}
330
A
100
AcDbSymbolTableRecord
100
AcDbDimStyleTableRecord
  2
ME10_DIM_12
 70
     0
 41
3.5
 42
0.0
 44
2.0
 73
     0
 74
     0
 77
     1
 78
     8
140
3.5
147
2.0
172
     1
173
     1
176
     2
177
     2
178
     2
271
     2
340
147
  0
ENDTAB
  0
TABLE
  2
BLOCK_RECORD
  5
1
330
0
100
AcDbSymbolTable
 70
     4
  0
BLOCK_RECORD
  5
1F
330
1
100
AcDbSymbolTableRecord
100
AcDbBlockTableRecord
  2
*Model_Space
340
22
  0
BLOCK_RECORD
  5
1B
330
1
100
AcDbSymbolTableRecord
100
AcDbBlockTableRecord
  2
*Paper_Space
340
1E
  0
BLOCK_RECORD
  5
23
330
1
100
AcDbSymbolTableRecord
100
AcDbBlockTableRecord
  2
*Paper_Space0
340
26
  0
BLOCK_RECORD
  5
141
330
1
100
AcDbSymbolTableRecord
100
AcDbBlockTableRecord
  2
*D1
340
0
  0
BLOCK_RECORD
  5
14D
330
1
100
AcDbSymbolTableRecord
100
AcDbBlockTableRecord
  2
*D2
340
0
  0
BLOCK_RECORD
  5
15A
330
1
100
AcDbSymbolTableRecord
100
AcDbBlockTableRecord
  2
*D3
340
0
  0
ENDTAB
  0
ENDSEC
  0
SECTION
  2
BLOCKS
  0
BLOCK
  5
20
330
1F
100
AcDbEntity
  8
0
100
AcDbBlockBegin
  2
*Model_Space
 70
     0
 71
     0
 10
0.0
 20
0.0
 30
0.0
  3
*Model_Space
  1

  0
ENDBLK
  5
21
330
1F
100
AcDbEntity
  8
0
100
AcDbBlockEnd
  0
BLOCK
  5
1C
330
1B
100
AcDbEntity
 67
     1
  8
0
100
AcDbBlockBegin
  2
*Paper_Space
 70
     0
 71
     0
 10
0.0
 20
0.0
 30
0.0
  3
*Paper_Space
  1

  0
ENDBLK
  5
1D
330
1B
100
AcDbEntity
 67
     1
  8
0
100
AcDbBlockEnd
  0
BLOCK
  5
24
330
23
100
AcDbEntity
  8
0
100
AcDbBlockBegin
  2
*Paper_Space0
 70
     0
 71
     0
 10
0.0
 20
0.0
 30
0.0
  3
*Paper_Space0
  1

  0
ENDBLK
  5
25
330
23
100
AcDbEntity
  8
0
100
AcDbBlockEnd
  0
BLOCK
  5
149
330
141
100
AcDbEntity
  8
0
100
AcDbBlockBegin
  2
*D1
 70
     1
 71
     0
 10
0.0
 20
0.0
 30
0.0
  3
*D1
  1

  0
LINE
  5
142
330
141
100
AcDbEntity
  8
1
  6
Continuous
 62
     2
100
AcDbLine
 10
-8.49345348867082
 20
-38.88578635213443
 30
0.0
 11
9.50654651132918
 21
-38.88578635213443
 31
0.0
  0
LINE
  5
143
330
141
100
AcDbEntity
  8
1
  6
Continuous
 62
     2
100
AcDbLine
 10
-8.49345348867082
 20
-19.67400528865184
 30
0.0
 11
-8.49345348867082
 21
-40.88578635213443
 31
0.0
  0
LINE
  5
144
330
141
100
AcDbEntity
  8
1
  6
Continuous
 62
     2
100
AcDbLine
 10
9.50654651132918
 20
-1.17400528865184
 30
0.0
 11
9.50654651132918
 21
-40.88578635213443
 31
0.0
  0
SOLID
  5
145
330
141
100
AcDbEntity
  8
1
 62
     2
100
AcDbTrace
 10
-4.99345348867082
 20
-38.42500261057855
 30
0.0
 11
-4.99345348867082
 21
-39.34657009369032
 31
0.0
 12
-8.49345348867082
 22
-38.88578635213443
 32
0.0
 13
-8.49345348867082
 23
-38.88578635213443
 33
0.0
  0
SOLID
  5
146
330
141
100
AcDbEntity
  8
1
 62
     2
100
AcDbTrace
 10
6.00654651132918
 20
-39.34657009369032
 30
0.0
 11
6.00654651132918
 21
-38.42500261057855
 31
0.0
 12
9.50654651132918
 22
-38.88578635213443
 32
0.0
 13
9.50654651132918
 23
-38.88578635213443
 33
0.0
  0
MTEXT
  5
148
330
141
100
AcDbEntity
  8
1
 62
     2
100
AcDbMText
 10
-1.41700599027273
 20
-36.88578635213443
 30
0.0
 40
3.5
 41
0.0
 71
     7
 72
     1
  1
18
  7
CONVERTER_11
 11
0.9999999999970621
 21
2.424068405545307E-6
 31
0.0
 73
     1
 44
0.60024009603842
  0
ENDBLK
  5
14A
330
141
100
AcDbEntity
  8
0
100
AcDbBlockEnd
  0
BLOCK
  5
156
330
14D
100
AcDbEntity
  8
0
100
AcDbBlockBegin
  2
*D2
 70
     1
 71
     0
 10
0.0
 20
0.0
 30
0.0
  3
*D2
  1

  0
LINE
  5
14E
330
14D
100
AcDbEntity
  8
1
  6
Continuous
 62
     2
100
AcDbLine
 10
9.50654651132919
 20
72.64283197208982
 30
0.0
 11
16.50654651132919
 21
72.64283197208982
 31
0.0
  0
LINE
  5
14F
330
14D
100
AcDbEntity
  8
1
  6
Continuous
 62
     2
100
AcDbLine
 10
5.50654651132918
 20
72.64283197208982
 30
0.0
 11
9.50654651132919
 21
72.64283197208982
 31
0.0
  0
LINE
  5
150
330
14D
100
AcDbEntity
  8
1
  6
Continuous
 62
     2
100
AcDbLine
 10
-1.49345348867082
 20
72.64283197208982
 30
0.0
 11
5.50654651132918
 21
72.64283197208982
 31
0.0
  0
LINE
  5
151
330
14D
100
AcDbEntity
  8
1
  6
Continuous
 62
     2
100
AcDbLine
 10
9.50654651132919
 20
33.32599471134817
 30
0.0
 11
9.50654651132919
 21
74.64283197208982
 31
0.0
  0
LINE
  5
152
330
14D
100
AcDbEntity
  8
1
  6
Continuous
 62
     2
100
AcDbLine
 10
5.50654651132918
 20
36.32599471134817
 30
0.0
 11
5.50654651132918
 21
74.64283197208982
 31
0.0
  0
SOLID
  5
153
330
14D
100
AcDbEntity
  8
1
 62
     2
100
AcDbTrace
 10
13.00654651132919
 20
73.10361571364571
 30
0.0
 11
13.00654651132919
 21
72.18204823053394
 31
0.0
 12
9.50654651132919
 22
72.64283197208982
 32
0.0
 13
9.50654651132919
 23
72.64283197208982
 33
0.0
  0
SOLID
  5
154
330
14D
100
AcDbEntity
  8
1
 62
     2
100
AcDbTrace
 10
2.00654651132918
 20
72.18204823053394
 30
0.0
 11
2.00654651132918
 21
73.10361571364571
 31
0.0
 12
5.50654651132918
 22
72.64283197208982
 32
0.0
 13
5.50654651132918
 23
72.64283197208982
 33
0.0
  0
MTEXT
  5
155
330
14D
100
AcDbEntity
  8
1
 62
     2
100
AcDbMText
 10
14.25170436979833
 20
74.64283197208982
 30
0.0
 40
3.5
 41
0.0
 71
     7
 72
     1
  1
4
  7
CONVERTER_11
 11
0.9999999999970621
 21
2.424068405545307E-6
 31
0.0
 73
     1
 44
0.60024009603842
  0
ENDBLK
  5
157
330
14D
100
AcDbEntity
  8
0
100
AcDbBlockEnd
  0
BLOCK
  5
161
330
15A
100
AcDbEntity
  8
0
100
AcDbBlockBegin
  2
*D3
 70
     1
 71
     0
 10
0.0
 20
0.0
 30
0.0
  3
*D3
  1

  0
LINE
  5
15B
330
15A
100
AcDbEntity
  8
1
  6
Continuous
 62
     2
100
AcDbLine
 10
-12.99345348867082
 20
72.64283197208982
 30
0.0
 11
5.50654651132918
 21
72.64283197208982
 31
0.0
  0
LINE
  5
15C
330
15A
100
AcDbEntity
  8
1
  6
Continuous
 62
     2
100
AcDbLine
 10
5.50654651132918
 20
36.32599471134817
 30
0.0
 11
5.50654651132918
 21
74.64283197208982
 31
0.0
  0
LINE
  5
15D
330
15A
100
AcDbEntity
  8
1
  6
Continuous
 62
     2
100
AcDbLine
 10
-12.99345348867082
 20
37.32599471134817
 30
0.0
 11
-12.99345348867082
 21
74.64283197208982
 31
0.0
  0
SOLID
  5
15E
330
15A
100
AcDbEntity
  8
1
 62
     2
100
AcDbTrace
 10
2.00654651132918
 20
72.18204823053394
 30
0.0
 11
2.00654651132918
 21
73.10361571364571
 31
0.0
 12
5.50654651132918
 22
72.64283197208982
 32
0.0
 13
5.50654651132918
 23
72.64283197208982
 33
0.0
  0
SOLID
  5
15F
330
15A
100
AcDbEntity
  8
1
 62
     2
100
AcDbTrace
 10
-9.49345348867082
 20
73.10361571364571
 30
0.0
 11
-9.49345348867082
 21
72.18204823053394
 31
0.0
 12
-12.99345348867082
 22
72.64283197208982
 32
0.0
 13
-12.99345348867082
 23
72.64283197208982
 33
0.0
  0
MTEXT
  5
160
330
15A
100
AcDbEntity
  8
1
 62
     2
100
AcDbMText
 10
-7.98720348867082
 20
74.64283197208982
 30
0.0
 40
3.5
 41
0.0
 71
     7
 72
     1
  1
18.5
  7
CONVERTER_11
 11
0.9999999999970621
 21
2.424068405545307E-6
 31
0.0
 73
     1
 44
0.60024009603842
  0
ENDBLK
  5
162
330
15A
100
AcDbEntity
  8
0
100
AcDbBlockEnd
  0
ENDSEC
  0
SECTION
  2
ENTITIES
  0
LINE
  5
32
330
1F
100
AcDbEntity
  8
1
  6
Continuous
 62
     7
100
AcDbLine
 10
-12.99345348867082
 20
12.32599471134816
 30
0.0
 11
-12.99345348867082
 21
10.32599471134816
 31
0.0
  0
LINE
  5
33
330
1F
100
AcDbEntity
  8
1
  6
Continuous
 62
     7
100
AcDbLine
 10
5.50654651132919
 20
12.32599471134816
 30
0.0
 11
5.50654651132919
 21
-4.67400528865184
 31
0.0
  0
LINE
  5
34
330
1F
100
AcDbEntity
  8
1
  6
Continuous
 62
     7
100
AcDbLine
 10
-12.99345348867082
 20
12.32599471134816
 30
0.0
 11
-12.99345348867082
 21
15.32599471134816
 31
0.0
  0
LINE
  5
35
330
1F
100
AcDbEntity
  8
1
  6
Continuous
 62
     7
100
AcDbLine
 10
5.50654651132919
 20
12.32599471134816
 30
0.0
 11
-12.99345348867082
 21
12.32599471134816
 31
0.0
  0
LINE
  5
36
330
1F
100
AcDbEntity
  8
1
  6
Continuous
 62
     7
100
AcDbLine
 10
-12.99345348867082
 20
18.32599471134816
 30
0.0
 11
-12.99345348867082
 21
12.32599471134816
 31
0.0
  0
LINE
  5
37
330
1F
100
AcDbEntity
  8
1
  6
Continuous
 62
     7
100
AcDbLine
 10
-12.99345348867082
 20
18.32599471134816
 30
0.0
 11
-12.99345348867082
 21
37.32599471134816
 31
0.0
  0
LINE
  5
38
330
1F
100
AcDbEntity
  8
1
  6
Continuous
 62
     7
100
AcDbLine
 10
5.50654651132918
 20
18.32599471134816
 30
0.0
 11
5.50654651132919
 21
12.32599471134816
 31
0.0
  0
LINE
  5
39
330
1F
100
AcDbEntity
  8
1
  6
Continuous
 62
     7
100
AcDbLine
 10
-12.99345348867082
 20
18.32599471134816
 30
0.0
 11
5.50654651132918
 21
18.32599471134816
 31
0.0
  0
LINE
  5
3A
330
1F
100
AcDbEntity
  8
1
  6
Continuous
 62
     7
100
AcDbLine
 10
-23.49345348867082
 20
31.82599471134816
 30
0.0
 11
-22.99345348867082
 21
31.82599471134816
 31
0.0
  0
LINE
  5
3B
330
1F
100
AcDbEntity
  8
1
  6
Continuous
 62
     7
100
AcDbLine
 10
-23.49345348867082
 20
29.32599471134816
 30
0.0
 11
-23.49345348867082
 21
31.82599471134816
 31
0.0
  0
LINE
  5
3C
330
1F
100
AcDbEntity
  8
1
  6
Continuous
 62
     7
100
AcDbLine
 10
-29.99345348867082
 20
36.52599471134821
 30
0.0
 11
-26.99345348867079
 21
36.52599471134816
 31
0.0
  0
LINE
  5
3D
330
1F
100
AcDbEntity
  8
1
  6
Continuous
 62
     7
100
AcDbLine
 10
-29.99345348867082
 20
37.32599471134816
 30
0.0
 11
-29.99345348867082
 21
36.52599471134821
 31
0.0
  0
LINE
  5
3E
330
1F
100
AcDbEntity
  8
1
  6
Continuous
 62
     7
100
AcDbLine
 10
-26.99345348867082
 20
31.82599471134816
 30
0.0
 11
-26.99345348867079
 21
36.52599471134816
 31
0.0
  0
LINE
  5
3F
330
1F
100
AcDbEntity
  8
1
  6
Continuous
 62
     7
100
AcDbLine
 10
-26.49345348867082
 20
31.82599471134816
 30
0.0
 11
-26.99345348867082
 21
31.82599471134816
 31
0.0
  0
LINE
  5
40
330
1F
100
AcDbEntity
  8
1
  6
Continuous
 62
     7
100
AcDbLine
 10
-30.99345348867082
 20
36.52599471134821
 30
0.0
 11
-29.99345348867082
 21
36.52599471134821
 31
0.0
  0
LINE
  5
41
330
1F
100
AcDbEntity
  8
1
  6
Continuous
 62
     7
100
AcDbLine
 10
-26.99345348867082
 20
28.72599471134803
 30
0.0
 11
-26.99345348867082
 21
31.82599471134816
 31
0.0
  0
LINE
  5
42
330
1F
100
AcDbEntity
  8
1
  6
Continuous
 62
     7
100
AcDbLine
 10
-30.99345348867082
 20
12.32599471134816
 30
0.0
 11
-30.99345348867082
 21
0.52599471134826
 31
0.0
  0
LINE
  5
43
330
1F
100
AcDbEntity
  8
1
  6
Continuous
 62
     7
100
AcDbLine
 10
-26.99345348867082
 20
12.32599471134816
 30
0.0
 11
-26.99345348867082
 21
8.32599471134816
 31
0.0
  0
LINE
  5
44
330
1F
100
AcDbEntity
  8
1
  6
Continuous
 62
     7
100
AcDbLine
 10
-26.99345348867082
 20
12.32599471134816
 30
0.0
 11
-26.99345348867082
 21
18.32599471134816
 31
0.0
  0
LINE
  5
45
330
1F
100
AcDbEntity
  8
1
  6
Continuous
 62
     7
100
AcDbLine
 10
-26.99345348867082
 20
12.32599471134816
 30
0.0
 11
-30.99345348867082
 21
12.32599471134816
 31
0.0
  0
LINE
  5
46
330
1F
100
AcDbEntity
  8
1
  6
Continuous
 62
     7
100
AcDbLine
 10
-26.99345348867082
 20
18.32599471134816
 30
0.0
 11
-26.99345348867082
 21
26.32599471134816
 31
0.0
  0
LINE
  5
47
330
1F
100
AcDbEntity
  8
1
  6
Continuous
 62
     7
100
AcDbLine
 10
-30.99345348867082
 20
18.32599471134816
 30
0.0
 11
-30.99345348867082
 21
12.32599471134816
 31
0.0
  0
LINE
  5
48
330
1F
100
AcDbEntity
  8
1
  6
Continuous
 62
     7
100
AcDbLine
 10
-26.99345348867082
 20
18.32599471134816
 30
0.0
 11
-26.99345348867082
 21
12.32599471134816
 31
0.0
  0
LINE
  5
49
330
1F
100
AcDbEntity
  8
1
  6
Continuous
 62
     7
100
AcDbLine
 10
-26.99345348867082
 20
18.32599471134816
 30
0.0
 11
-30.99345348867082
 21
18.32599471134816
 31
0.0
  0
LINE
  5
4A
330
1F
100
AcDbEntity
  8
1
  6
Continuous
 62
     7
100
AcDbLine
 10
-29.99345348867082
 20
37.32599471134816
 30
0.0
 11
-32.99345348867082
 21
37.32599471134816
 31
0.0
  0
LINE
  5
4B
330
1F
100
AcDbEntity
  8
1
  6
Continuous
 62
     7
100
AcDbLine
 10
-29.99345348867082
 20
37.32599471134816
 30
0.0
 11
-26.49345348867082
 21
37.32599471134816
 31
0.0
  0
LINE
  5
4C
330
1F
100
AcDbEntity
  8
1
  6
Continuous
 62
     7
100
AcDbLine
 10
-26.49345348867082
 20
37.32599471134816
 30
0.0
 11
-12.99345348867082
 21
37.32599471134816
 31
0.0
  0
LINE
  5
4D
330
1F
100
AcDbEntity
  8
1
  6
Continuous
 62
     7
100
AcDbLine
 10
-26.49345348867082
 20
31.82599471134816
 30
0.0
 11
-23.49345348867082
 21
31.82599471134816
 31
0.0
  0
LINE
  5
4E
330
1F
100
AcDbEntity
  8
1
  6
Continuous
 62
     7
100
AcDbLine
 10
-26.49345348867082
 20
37.32599471134816
 30
0.0
 11
-29.99345348867082
 21
37.32599471134816
 31
0.0
  0
LINE
  5
4F
330
1F
100
AcDbEntity
  8
1
  6
Continuous
 62
     7
100
AcDbLine
 10
-26.49345348867082
 20
31.82599471134816
 30
0.0
 11
-26.49345348867082
 21
37.32599471134816
 31
0.0
  0
LINE
  5
50
330
1F
100
AcDbEntity
  8
1
  6
Continuous
 62
     7
100
AcDbLine
 10
-22.99345348867082
 20
31.82599471134816
 30
0.0
 11
-22.99345348867082
 21
30.32599471134816
 31
0.0
  0
LINE
  5
51
330
1F
100
AcDbEntity
  8
1
  6
Continuous
 62
     7
100
AcDbLine
 10
-22.99345348867082
 20
30.32599471134816
 30
0.0
 11
-19.99345348867082
 21
30.32599471134816
 31
0.0
  0
LINE
  5
52
330
1F
100
AcDbEntity
  8
1
  6
Continuous
 62
     7
100
AcDbLine
 10
-26.99345348867082
 20
0.52599471134826
 30
0.0
 11
-26.99345348867082
 21
12.32599471134816
 31
0.0
  0
LINE
  5
53
330
1F
100
AcDbEntity
  8
1
  6
Continuous
 62
     7
100
AcDbLine
 10
-30.99345348867082
 20
0.52599471134826
 30
0.0
 11
-26.99345348867082
 21
0.52599471134826
 31
0.0
  0
LINE
  5
54
330
1F
100
AcDbEntity
  8
1
  6
Continuous
 62
     7
100
AcDbLine
 10
-30.99345348867082
 20
36.52599471134821
 30
0.0
 11
-30.99345348867082
 21
18.32599471134816
 31
0.0
  0
LINE
  5
55
330
1F
100
AcDbEntity
  8
1
  6
Continuous
 62
     7
100
AcDbLine
 10
-23.49345348867082
 20
20.32599471134816
 30
0.0
 11
-23.49345348867082
 21
10.32599471134816
 31
0.0
  0
LINE
  5
56
330
1F
100
AcDbEntity
  8
1
  6
DOT_CENTER
 62
     2
100
AcDbLine
 10
-36.99345348867082
 20
15.32599471134816
 30
0.0
 11
7.0065465113292
 21
15.32599471134816
 31
0.0
  0
LINE
  5
57
330
1F
100
AcDbEntity
  8
1
  6
DASHED
 62
     2
100
AcDbLine
 10
-21.49345348867082
 20
16.52599471134827
 30
0.0
 11
-21.49345348867082
 21
14.12599471134818
 31
0.0
  0
LINE
  5
58
330
1F
100
AcDbEntity
  8
1
  6
DASHED
 62
     2
100
AcDbLine
 10
-21.49345348867082
 20
14.12599471134818
 30
0.0
 11
-21.49345348867082
 21
13.02599471134827
 31
0.0
  0
LINE
  5
59
330
1F
100
AcDbEntity
  8
1
  6
DASHED
 62
     2
100
AcDbLine
 10
-21.49345348867082
 20
17.62599471134818
 30
0.0
 11
-21.49345348867082
 21
16.52599471134827
 31
0.0
  0
LINE
  5
5A
330
1F
100
AcDbEntity
  8
1
  6
DASHED
 62
     2
100
AcDbLine
 10
-21.49345348867082
 20
13.02599471134827
 30
0.0
 11
-16.49345348867082
 21
13.02599471134827
 31
0.0
  0
LINE
  5
5B
330
1F
100
AcDbEntity
  8
1
  6
DASHED
 62
     2
100
AcDbLine
 10
-22.49345348867082
 20
15.32599471134816
 30
0.0
 11
-21.49345348867082
 21
13.02599471134827
 31
0.0
  0
LINE
  5
5C
330
1F
100
AcDbEntity
  8
1
  6
DASHED
 62
     2
100
AcDbLine
 10
-21.49345348867082
 20
17.62599471134818
 30
0.0
 11
-22.49345348867082
 21
15.32599471134816
 31
0.0
  0
LINE
  5
5D
330
1F
100
AcDbEntity
  8
1
  6
Continuous
 62
     7
100
AcDbLine
 10
-16.49345348867082
 20
14.12599471134818
 30
0.0
 11
-16.49345348867082
 21
13.02599471134827
 31
0.0
  0
LINE
  5
5E
330
1F
100
AcDbEntity
  8
1
  6
DASHED
 62
     2
100
AcDbLine
 10
-16.49345348867082
 20
14.12599471134818
 30
0.0
 11
-21.49345348867082
 21
14.12599471134818
 31
0.0
  0
LINE
  5
5F
330
1F
100
AcDbEntity
  8
1
  6
Continuous
 62
     7
100
AcDbLine
 10
-16.49345348867082
 20
16.52599471134827
 30
0.0
 11
-16.49345348867082
 21
14.12599471134818
 31
0.0
  0
LINE
  5
60
330
1F
100
AcDbEntity
  8
1
  6
DASHED
 62
     2
100
AcDbLine
 10
-16.49345348867082
 20
16.52599471134827
 30
0.0
 11
-21.49345348867082
 21
16.52599471134827
 31
0.0
  0
LINE
  5
61
330
1F
100
AcDbEntity
  8
1
  6
Continuous
 62
     7
100
AcDbLine
 10
-16.49345348867082
 20
13.02599471134827
 30
0.0
 11
-16.49345348867082
 21
10.32599471134816
 31
0.0
  0
LINE
  5
62
330
1F
100
AcDbEntity
  8
1
  6
Continuous
 62
     7
100
AcDbLine
 10
-16.49345348867082
 20
17.62599471134818
 30
0.0
 11
-16.49345348867082
 21
16.52599471134827
 31
0.0
  0
LINE
  5
63
330
1F
100
AcDbEntity
  8
1
  6
DASHED
 62
     2
100
AcDbLine
 10
-16.49345348867082
 20
17.62599471134818
 30
0.0
 11
-21.49345348867082
 21
17.62599471134818
 31
0.0
  0
LINE
  5
64
330
1F
100
AcDbEntity
  8
1
  6
Continuous
 62
     7
100
AcDbLine
 10
-16.49345348867082
 20
20.32599471134816
 30
0.0
 11
-16.49345348867082
 21
17.62599471134818
 31
0.0
  0
LINE
  5
65
330
1F
100
AcDbEntity
  8
1
  6
Continuous
 62
     7
100
AcDbLine
 10
-26.99345348867082
 20
24.67599471134807
 30
0.0
 11
-23.49345348867082
 21
24.67599471134807
 31
0.0
  0
LINE
  5
66
330
1F
100
AcDbEntity
  8
1
  6
Continuous
 62
     7
100
AcDbLine
 10
-26.99345348867082
 20
8.67599471134807
 30
0.0
 11
-23.49345348867082
 21
8.67599471134807
 31
0.0
  0
LINE
  5
67
330
1F
100
AcDbEntity
  8
1
  6
Continuous
 62
     7
100
AcDbLine
 10
-23.49345348867082
 20
-4.67400528865184
 30
0.0
 11
-23.49345348867082
 21
-8.48435011623806
 31
0.0
  0
LINE
  5
68
330
1F
100
AcDbEntity
  8
1
  6
Continuous
 62
     7
100
AcDbLine
 10
-26.99345348867082
 20
-4.67400528865184
 30
0.0
 11
-26.99345348867082
 21
-8.67400528865184
 31
0.0
  0
LINE
  5
69
330
1F
100
AcDbEntity
  8
1
  6
Continuous
 62
     7
100
AcDbLine
 10
-29.96518364107852
 20
-12.05317972943927
 30
0.0
 11
-26.99345348867082
 21
-8.67400528865184
 31
0.0
  0
LINE
  5
6A
330
1F
100
AcDbEntity
  8
1
  6
Continuous
 62
     7
100
AcDbLine
 10
-26.99345348867082
 20
8.32599471134816
 30
0.0
 11
-26.99345348867082
 21
-4.67400528865184
 31
0.0
  0
LINE
  5
6B
330
1F
100
AcDbEntity
  8
1
  6
Continuous
 62
     7
100
AcDbLine
 10
-26.99345348867082
 20
8.32599471134816
 30
0.0
 11
-23.49345348867082
 21
8.32599471134816
 31
0.0
  0
LINE
  5
6C
330
1F
100
AcDbEntity
  8
1
  6
Continuous
 62
     7
100
AcDbLine
 10
-23.49345348867082
 20
25.02599471134827
 30
0.0
 11
-23.49345348867082
 21
28.72599471134803
 31
0.0
  0
LINE
  5
6D
330
1F
100
AcDbEntity
  8
1
  6
Continuous
 62
     7
100
AcDbLine
 10
-26.99345348867082
 20
25.02599471134827
 30
0.0
 11
-26.99345348867082
 21
18.32599471134816
 31
0.0
  0
LINE
  5
6E
330
1F
100
AcDbEntity
  8
1
  6
Continuous
 62
     7
100
AcDbLine
 10
-26.99345348867082
 20
25.02599471134827
 30
0.0
 11
-23.49345348867082
 21
25.02599471134827
 31
0.0
  0
LINE
  5
6F
330
1F
100
AcDbEntity
  8
1
  6
Continuous
 62
     7
100
AcDbLine
 10
-23.49345348867082
 20
-4.67400528865184
 30
0.0
 11
-23.49345348867082
 21
8.32599471134816
 31
0.0
  0
LINE
  5
70
330
1F
100
AcDbEntity
  8
1
  6
Continuous
 62
     7
100
AcDbLine
 10
-26.99345348867082
 20
-4.67400528865184
 30
0.0
 11
-23.49345348867082
 21
-4.67400528865184
 31
0.0
  0
LINE
  5
71
330
1F
100
AcDbEntity
  8
1
  6
Continuous
 62
     7
100
AcDbLine
 10
-26.99345348867082
 20
28.72599471134803
 30
0.0
 11
-26.99345348867082
 21
25.02599471134827
 31
0.0
  0
LINE
  5
72
330
1F
100
AcDbEntity
  8
1
  6
Continuous
 62
     7
100
AcDbLine
 10
-23.49345348867082
 20
28.72599471134803
 30
0.0
 11
-26.99345348867082
 21
28.72599471134803
 31
0.0
  0
LINE
  5
73
330
1F
100
AcDbEntity
  8
1
  6
Continuous
 62
     7
100
AcDbLine
 10
-23.49345348867082
 20
10.32599471134816
 30
0.0
 11
-23.49345348867082
 21
0.32599471134816
 31
0.0
  0
LINE
  5
74
330
1F
100
AcDbEntity
  8
1
  6
Continuous
 62
     7
100
AcDbLine
 10
-19.99345348867082
 20
29.32599471134816
 30
0.0
 11
-19.99345348867082
 21
20.32599471134816
 31
0.0
  0
LINE
  5
75
330
1F
100
AcDbEntity
  8
1
  6
Continuous
 62
     7
100
AcDbLine
 10
-19.99345348867082
 20
0.32599471134816
 30
0.0
 11
-19.99345348867082
 21
10.32599471134816
 31
0.0
  0
LINE
  5
76
330
1F
100
AcDbEntity
  8
1
  6
Continuous
 62
     7
100
AcDbLine
 10
-23.49345348867082
 20
0.32599471134816
 30
0.0
 11
-19.99345348867082
 21
0.32599471134816
 31
0.0
  0
LINE
  5
77
330
1F
100
AcDbEntity
  8
1
  6
Continuous
 62
     7
100
AcDbLine
 10
-23.49345348867082
 20
10.32599471134816
 30
0.0
 11
-19.99345348867082
 21
10.32599471134816
 31
0.0
  0
LINE
  5
78
330
1F
100
AcDbEntity
  8
1
  6
Continuous
 62
     7
100
AcDbLine
 10
-23.49345348867082
 20
20.32599471134816
 30
0.0
 11
-19.99345348867082
 21
20.32599471134816
 31
0.0
  0
LINE
  5
79
330
1F
100
AcDbEntity
  8
1
  6
Continuous
 62
     7
100
AcDbLine
 10
-23.49345348867082
 20
29.32599471134816
 30
0.0
 11
-23.49345348867082
 21
20.32599471134816
 31
0.0
  0
LINE
  5
7A
330
1F
100
AcDbEntity
  8
1
  6
Continuous
 62
     7
100
AcDbLine
 10
-23.49345348867082
 20
29.32599471134816
 30
0.0
 11
-19.99345348867082
 21
29.32599471134816
 31
0.0
  0
LINE
  5
7B
330
1F
100
AcDbEntity
  8
1
  6
Continuous
 62
     7
100
AcDbLine
 10
-26.99345348867082
 20
-5.67400528865184
 30
0.0
 11
-28.49345348867082
 21
-5.67400528865184
 31
0.0
  0
LINE
  5
7C
330
1F
100
AcDbEntity
  8
1
  6
Continuous
 62
     7
100
AcDbLine
 10
-26.99345348867082
 20
0.32599471134816
 30
0.0
 11
-28.49345348867082
 21
0.32599471134816
 31
0.0
  0
LINE
  5
7D
330
1F
100
AcDbEntity
  8
1
  6
Continuous
 62
     7
100
AcDbLine
 10
-32.99345348867082
 20
-4.67400528865184
 30
0.0
 11
-32.99345348867082
 21
0.32599471134816
 31
0.0
  0
LINE
  5
7E
330
1F
100
AcDbEntity
  8
1
  6
Continuous
 62
     7
100
AcDbLine
 10
-32.99345348867082
 20
37.32599471134816
 30
0.0
 11
-29.99345348867082
 21
37.32599471134816
 31
0.0
  0
LINE
  5
7F
330
1F
100
AcDbEntity
  8
1
  6
Continuous
 62
     7
100
AcDbLine
 10
-12.99345348867082
 20
37.32599471134816
 30
0.0
 11
-12.99345348867082
 21
20.32599471134816
 31
0.0
  0
LINE
  5
80
330
1F
100
AcDbEntity
  8
1
  6
Continuous
 62
     7
100
AcDbLine
 10
-11.99345348867082
 20
-4.67400528865184
 30
0.0
 11
-11.99345348867082
 21
-5.67400528865184
 31
0.0
  0
LINE
  5
81
330
1F
100
AcDbEntity
  8
1
  6
Continuous
 62
     7
100
AcDbLine
 10
-11.99345348867082
 20
-5.67400528865184
 30
0.0
 11
-23.49345348867082
 21
-5.67400528865184
 31
0.0
  0
LINE
  5
82
330
1F
100
AcDbEntity
  8
1
  6
Continuous
 62
     7
100
AcDbLine
 10
-33.99345348867082
 20
-5.67400528865184
 30
0.0
 11
-33.99345348867082
 21
-4.67400528865184
 31
0.0
  0
LINE
  5
83
330
1F
100
AcDbEntity
  8
1
  6
Continuous
 62
     7
100
AcDbLine
 10
-33.99345348867082
 20
-4.67400528865184
 30
0.0
 11
-32.99345348867082
 21
-4.67400528865184
 31
0.0
  0
LINE
  5
84
330
1F
100
AcDbEntity
  8
1
  6
Continuous
 62
     7
100
AcDbLine
 10
-32.99345348867082
 20
0.32599471134816
 30
0.0
 11
-32.99345348867082
 21
37.32599471134816
 31
0.0
  0
LINE
  5
85
330
1F
100
AcDbEntity
  8
1
  6
Continuous
 62
     7
100
AcDbLine
 10
-19.99345348867082
 20
30.32599471134816
 30
0.0
 11
-19.99345348867082
 21
20.32599471134816
 31
0.0
  0
LINE
  5
86
330
1F
100
AcDbEntity
  8
1
  6
Continuous
 62
     7
100
AcDbLine
 10
-19.99345348867082
 20
0.32599471134816
 30
0.0
 11
-23.49345348867082
 21
0.32599471134816
 31
0.0
  0
LINE
  5
87
330
1F
100
AcDbEntity
  8
1
  6
Continuous
 62
     7
100
AcDbLine
 10
-19.99345348867082
 20
20.32599471134816
 30
0.0
 11
-12.99345348867082
 21
20.32599471134816
 31
0.0
  0
LINE
  5
88
330
1F
100
AcDbEntity
  8
1
  6
Continuous
 62
     7
100
AcDbLine
 10
-12.99345348867082
 20
20.32599471134816
 30
0.0
 11
-12.99345348867082
 21
18.32599471134816
 31
0.0
  0
LINE
  5
89
330
1F
100
AcDbEntity
  8
1
  6
Continuous
 62
     7
100
AcDbLine
 10
-19.99345348867082
 20
10.32599471134816
 30
0.0
 11
-12.99345348867082
 21
10.32599471134816
 31
0.0
  0
LINE
  5
8A
330
1F
100
AcDbEntity
  8
1
  6
Continuous
 62
     7
100
AcDbLine
 10
-12.99345348867082
 20
10.32599471134816
 30
0.0
 11
-12.99345348867082
 21
-4.67400528865184
 31
0.0
  0
LINE
  5
8B
330
1F
100
AcDbEntity
  8
1
  6
Continuous
 62
     7
100
AcDbLine
 10
-19.99345348867082
 20
10.32599471134816
 30
0.0
 11
-19.99345348867082
 21
0.32599471134816
 31
0.0
  0
LINE
  5
8C
330
1F
100
AcDbEntity
  8
1
  6
Continuous
 62
     7
100
AcDbLine
 10
-28.49345348867082
 20
0.32599471134816
 30
0.0
 11
-28.49345348867082
 21
-5.67400528865184
 31
0.0
  0
LINE
  5
8D
330
1F
100
AcDbEntity
  8
1
  6
Continuous
 62
     7
100
AcDbLine
 10
-28.49345348867082
 20
-5.67400528865184
 30
0.0
 11
-33.99345348867082
 21
-5.67400528865184
 31
0.0
  0
LINE
  5
8E
330
1F
100
AcDbEntity
  8
1
  6
Continuous
 62
     7
100
AcDbLine
 10
-28.49345348867082
 20
0.32599471134816
 30
0.0
 11
-32.99345348867082
 21
0.32599471134816
 31
0.0
  0
LINE
  5
8F
330
1F
100
AcDbEntity
  8
1
  6
Continuous
 62
     7
100
AcDbLine
 10
-23.49345348867082
 20
0.32599471134816
 30
0.0
 11
-23.49345348867082
 21
-5.67400528865184
 31
0.0
  0
LINE
  5
90
330
1F
100
AcDbEntity
  8
1
  6
Continuous
 62
     7
100
AcDbLine
 10
-12.99345348867082
 20
-4.67400528865184
 30
0.0
 11
-11.99345348867082
 21
-4.67400528865184
 31
0.0
  0
LINE
  5
91
330
1F
100
AcDbEntity
  8
1
  6
Continuous
 62
     7
100
AcDbLine
 10
-12.99345348867082
 20
15.32599471134816
 30
0.0
 11
-12.99345348867082
 21
18.32599471134816
 31
0.0
  0
LINE
  5
92
330
1F
100
AcDbEntity
  8
1
  6
Continuous
 62
     7
100
AcDbLine
 10
-32.99345348867082
 20
-4.67400528865184
 30
0.0
 11
-33.99345348867082
 21
-4.67400528865184
 31
0.0
  0
LINE
  5
93
330
1F
100
AcDbEntity
  8
1
  6
Continuous
 62
     7
100
AcDbLine
 10
-32.99345348867082
 20
37.32599471134816
 30
0.0
 11
-32.99345348867082
 21
-4.67400528865184
 31
0.0
  0
LINE
  5
94
330
1F
100
AcDbEntity
  8
1
  6
Continuous
 62
     7
100
AcDbLine
 10
-12.99345348867082
 20
37.32599471134816
 30
0.0
 11
-26.49345348867082
 21
37.32599471134816
 31
0.0
  0
LINE
  5
95
330
1F
100
AcDbEntity
  8
1
  6
Continuous
 62
     7
100
AcDbLine
 10
-12.99345348867082
 20
-4.67400528865184
 30
0.0
 11
-12.99345348867082
 21
12.32599471134816
 31
0.0
  0
LINE
  5
96
330
1F
100
AcDbEntity
  8
1
  6
Continuous
 62
     7
100
AcDbLine
 10
-11.99345348867082
 20
-4.67400528865184
 30
0.0
 11
-12.99345348867082
 21
-4.67400528865184
 31
0.0
  0
LINE
  5
97
330
1F
100
AcDbEntity
  8
1
  6
Continuous
 62
     7
100
AcDbLine
 10
5.50654651132918
 20
36.32599471134817
 30
0.0
 11
5.50654651132917
 21
27.32599471134822
 31
0.0
  0
LINE
  5
98
330
1F
100
AcDbEntity
  8
1
  6
Continuous
 62
     7
100
AcDbLine
 10
17.50654651132918
 20
36.32599471134817
 30
0.0
 11
5.50654651132918
 21
36.32599471134817
 31
0.0
  0
LINE
  5
99
330
1F
100
AcDbEntity
  8
1
  6
Continuous
 62
     7
100
AcDbLine
 10
19.50654651132918
 20
59.32599471134817
 30
0.0
 11
19.50654651132918
 21
38.32599471134817
 31
0.0
  0
LINE
  5
9A
330
1F
100
AcDbEntity
  8
1
  6
Continuous
 62
     7
100
AcDbLine
 10
-49.49345348867082
 20
61.32599471134816
 30
0.0
 11
17.50654651132918
 21
61.32599471134816
 31
0.0
  0
LINE
  5
9B
330
1F
100
AcDbEntity
  8
1
  6
Continuous
 62
     7
100
AcDbLine
 10
-51.49345348867082
 20
-2.67400528865184
 30
0.0
 11
-51.49345348867082
 21
9.32599471134811
 31
0.0
  0
LINE
  5
9C
330
1F
100
AcDbEntity
  8
1
  6
Continuous
 62
     7
100
AcDbLine
 10
-33.99345348867082
 20
-4.67400528865184
 30
0.0
 11
-49.49345348867082
 21
-4.67400528865184
 31
0.0
  0
LINE
  5
9D
330
1F
100
AcDbEntity
  8
1
  6
DOT_CENTER
 62
     2
100
AcDbLine
 10
68.50654651132919
 20
-27.67400528865195
 30
0.0
 11
68.50654651132919
 21
-31.54525989948197
 31
0.0
  0
LINE
  5
9E
330
1F
100
AcDbEntity
  8
1
  6
Continuous
 62
     7
100
AcDbLine
 10
9.50654651132919
 20
33.32599471134817
 30
0.0
 11
9.50654651132919
 21
12.32599471134816
 31
0.0
  0
LINE
  5
9F
330
1F
100
AcDbEntity
  8
1
  6
Continuous
 62
     7
100
AcDbLine
 10
68.50654651132919
 20
35.32599471134817
 30
0.0
 11
11.5065465113292
 21
35.32599471134817
 31
0.0
  0
LINE
  5
A0
330
1F
100
AcDbEntity
  8
1
  6
DOT_CENTER
 62
     2
100
AcDbLine
 10
68.50654651132919
 20
-27.67400528865195
 30
0.0
 11
68.50654651132919
 21
35.32599471134817
 31
0.0
  0
LINE
  5
A1
330
1F
100
AcDbEntity
  8
1
  6
Continuous
 62
     7
100
AcDbLine
 10
-6.49345348867081
 20
-27.67400528865195
 30
0.0
 11
68.50654651132919
 21
-27.67400528865195
 31
0.0
  0
LINE
  5
A2
330
1F
100
AcDbEntity
  8
1
  6
Continuous
 62
     7
100
AcDbLine
 10
-8.49345348867082
 20
-19.67400528865184
 30
0.0
 11
-8.49345348867082
 21
-25.67400528865195
 31
0.0
  0
LINE
  5
A3
330
1F
100
AcDbEntity
  8
1
  6
DOT_CENTER
 62
     2
100
AcDbLine
 10
-22.49345348867082
 20
-30.76244550355895
 30
0.0
 11
-22.49345348867082
 21
-6.82294774858016
 31
0.0
  0
LINE
  5
A4
330
1F
100
AcDbEntity
  8
1
  6
Continuous
 62
     7
100
AcDbLine
 10
-18.13455454513008
 20
-9.67400528865184
 30
0.0
 11
-8.49345348867082
 21
-9.67400528865184
 31
0.0
  0
LINE
  5
A5
330
1F
100
AcDbEntity
  8
1
  6
DASHED
 62
     2
100
AcDbLine
 10
11.50654651132919
 20
-13.17400528865184
 30
0.0
 11
16.50654651132919
 21
-13.17400528865184
 31
0.0
  0
LINE
  5
A6
330
1F
100
AcDbEntity
  8
1
  6
DASHED
 62
     2
100
AcDbLine
 10
-8.49345348867082
 20
-14.67400528865184
 30
0.0
 11
10.00654651132919
 21
-14.67400528865184
 31
0.0
  0
LINE
  5
A7
330
1F
100
AcDbEntity
  8
1
  6
Continuous
 62
     7
100
AcDbLine
 10
-8.49345348867082
 20
-14.67400528865184
 30
0.0
 11
-8.49345348867082
 21
-13.17400528865184
 31
0.0
  0
LINE
  5
A8
330
1F
100
AcDbEntity
  8
1
  6
DOT_CENTER
 62
     2
100
AcDbLine
 10
-35.42500880966669
 20
-18.67400528865184
 30
0.0
 11
-9.7292429534548
 21
-18.67400528865184
 31
0.0
  0
LINE
  5
A9
330
1F
100
AcDbEntity
  8
1
  6
DOT_CENTER
 62
     2
100
AcDbLine
 10
37.50654651132919
 20
-9.67400528865184
 30
0.0
 11
48.39649252000821
 21
-9.67400528865184
 31
0.0
  0
LINE
  5
AA
330
1F
100
AcDbEntity
  8
1
  6
DOT_CENTER
 62
     2
100
AcDbLine
 10
16.80015728687533
 20
-6.67400528865184
 30
0.0
 11
38.81875828554318
 21
-6.67400528865184
 31
0.0
  0
LINE
  5
AB
330
1F
100
AcDbEntity
  8
1
  6
DASHED
 62
     2
100
AcDbLine
 10
37.50654651132919
 20
-9.17400528865184
 30
0.0
 11
37.50654651132919
 21
-4.17400528865184
 31
0.0
  0
LINE
  5
AC
330
1F
100
AcDbEntity
  8
1
  6
Continuous
 62
     7
100
AcDbLine
 10
21.50654651132919
 20
-9.17400528865184
 30
0.0
 11
21.50654651132919
 21
-9.67400528865184
 31
0.0
  0
LINE
  5
AD
330
1F
100
AcDbEntity
  8
1
  6
DASHED
 62
     2
100
AcDbLine
 10
21.50654651132919
 20
-9.17400528865184
 30
0.0
 11
37.50654651132919
 21
-9.17400528865184
 31
0.0
  0
LINE
  5
AE
330
1F
100
AcDbEntity
  8
1
  6
DASHED
 62
     2
100
AcDbLine
 10
37.50654651132919
 20
-4.17400528865184
 30
0.0
 11
37.50654651132919
 21
-3.67400528865184
 31
0.0
  0
LINE
  5
AF
330
1F
100
AcDbEntity
  8
1
  6
Continuous
 62
     7
100
AcDbLine
 10
21.50654651132919
 20
-4.17400528865184
 30
0.0
 11
21.50654651132919
 21
-9.17400528865184
 31
0.0
  0
LINE
  5
B0
330
1F
100
AcDbEntity
  8
1
  6
DASHED
 62
     2
100
AcDbLine
 10
21.50654651132919
 20
-4.17400528865184
 30
0.0
 11
37.50654651132919
 21
-4.17400528865184
 31
0.0
  0
LINE
  5
B1
330
1F
100
AcDbEntity
  8
1
  6
DASHED
 62
     2
100
AcDbLine
 10
37.50654651132919
 20
-9.67400528865184
 30
0.0
 11
37.50654651132919
 21
-9.17400528865184
 31
0.0
  0
LINE
  5
B2
330
1F
100
AcDbEntity
  8
1
  6
DASHED
 62
     2
100
AcDbLine
 10
37.50654651132919
 20
-3.67400528865184
 30
0.0
 11
37.50654651132919
 21
0.32599471134816
 31
0.0
  0
LINE
  5
B3
330
1F
100
AcDbEntity
  8
1
  6
Continuous
 62
     7
100
AcDbLine
 10
21.50654651132919
 20
-3.67400528865184
 30
0.0
 11
21.50654651132919
 21
-4.17400528865184
 31
0.0
  0
LINE
  5
B4
330
1F
100
AcDbEntity
  8
1
  6
DASHED
 62
     2
100
AcDbLine
 10
21.50654651132919
 20
-3.67400528865184
 30
0.0
 11
37.50654651132919
 21
-3.67400528865184
 31
0.0
  0
LINE
  5
B5
330
1F
100
AcDbEntity
  8
1
  6
Continuous
 62
     7
100
AcDbLine
 10
21.50654651132919
 20
-1.67400528865184
 30
0.0
 11
21.50654651132919
 21
-3.67400528865184
 31
0.0
  0
LINE
  5
B6
330
1F
100
AcDbEntity
  8
1
  6
DASHED
 62
     2
100
AcDbLine
 10
17.50654651132919
 20
-1.67400528865184
 30
0.0
 11
21.50654651132919
 21
-1.67400528865184
 31
0.0
  0
LINE
  5
B7
330
1F
100
AcDbEntity
  8
1
  6
DASHED
 62
     2
100
AcDbLine
 10
17.50654651132919
 20
-11.67400528865184
 30
0.0
 11
17.50654651132919
 21
-9.67400528865184
 31
0.0
  0
LINE
  5
B8
330
1F
100
AcDbEntity
  8
1
  6
DASHED
 62
     2
100
AcDbLine
 10
21.50654651132919
 20
-11.67400528865184
 30
0.0
 11
21.50654651132919
 21
-13.17400528865184
 31
0.0
  0
LINE
  5
B9
330
1F
100
AcDbEntity
  8
1
  6
DASHED
 62
     2
100
AcDbLine
 10
21.50654651132919
 20
-11.67400528865184
 30
0.0
 11
17.50654651132919
 21
-11.67400528865184
 31
0.0
  0
LINE
  5
BA
330
1F
100
AcDbEntity
  8
1
  6
DASHED
 62
     2
100
AcDbLine
 10
21.50654651132919
 20
-9.67400528865184
 30
0.0
 11
27.50654651132919
 21
-9.67400528865184
 31
0.0
  0
LINE
  5
BB
330
1F
100
AcDbEntity
  8
1
  6
DASHED
 62
     2
100
AcDbLine
 10
21.50654651132919
 20
-9.67400528865184
 30
0.0
 11
21.50654651132919
 21
-11.67400528865184
 31
0.0
  0
LINE
  5
BC
330
1F
100
AcDbEntity
  8
1
  6
DASHED
 62
     2
100
AcDbLine
 10
16.50654651132919
 20
-13.17400528865184
 30
0.0
 11
21.50654651132919
 21
-13.17400528865184
 31
0.0
  0
LINE
  5
BD
330
1F
100
AcDbEntity
  8
1
  6
Continuous
 62
     7
100
AcDbLine
 10
16.50654651132919
 20
-9.67400528865184
 30
0.0
 11
17.50654651132919
 21
-9.67400528865184
 31
0.0
  0
LINE
  5
BE
330
1F
100
AcDbEntity
  8
1
  6
DASHED
 62
     2
100
AcDbLine
 10
16.50654651132919
 20
-9.67400528865184
 30
0.0
 11
16.50654651132919
 21
-13.17400528865184
 31
0.0
  0
LINE
  5
BF
330
1F
100
AcDbEntity
  8
1
  6
DASHED
 62
     2
100
AcDbLine
 10
31.50654651132919
 20
-13.17400528865184
 30
0.0
 11
27.50654651132919
 21
-13.17400528865184
 31
0.0
  0
LINE
  5
C0
330
1F
100
AcDbEntity
  8
1
  6
Continuous
 62
     7
100
AcDbLine
 10
4.00654651132919
 20
-19.67400528865184
 30
0.0
 11
-0.99345348867081
 21
-19.67400528865184
 31
0.0
  0
LINE
  5
C1
330
1F
100
AcDbEntity
  8
1
  6
DASHED
 62
     2
100
AcDbLine
 10
4.00654651132919
 20
-12.67400528865184
 30
0.0
 11
4.50654651132919
 21
-12.67400528865184
 31
0.0
  0
LINE
  5
C2
330
1F
100
AcDbEntity
  8
1
  6
DASHED
 62
     2
100
AcDbLine
 10
4.00654651132919
 20
-12.67400528865184
 30
0.0
 11
4.00654651132919
 21
-19.67400528865184
 31
0.0
  0
LINE
  5
C3
330
1F
100
AcDbEntity
  8
1
  6
Continuous
 62
     7
100
AcDbLine
 10
-0.99345348867081
 20
-19.67400528865184
 30
0.0
 11
-1.49345348867081
 21
-19.67400528865184
 31
0.0
  0
LINE
  5
C4
330
1F
100
AcDbEntity
  8
1
  6
DASHED
 62
     2
100
AcDbLine
 10
-0.99345348867081
 20
-12.67400528865184
 30
0.0
 11
4.00654651132919
 21
-12.67400528865184
 31
0.0
  0
LINE
  5
C5
330
1F
100
AcDbEntity
  8
1
  6
DASHED
 62
     2
100
AcDbLine
 10
-0.99345348867081
 20
-12.67400528865184
 30
0.0
 11
-0.99345348867081
 21
-19.67400528865184
 31
0.0
  0
LINE
  5
C6
330
1F
100
AcDbEntity
  8
1
  6
Continuous
 62
     7
100
AcDbLine
 10
4.50654651132919
 20
-19.67400528865184
 30
0.0
 11
4.00654651132919
 21
-19.67400528865184
 31
0.0
  0
LINE
  5
C7
330
1F
100
AcDbEntity
  8
1
  6
DASHED
 62
     2
100
AcDbLine
 10
4.50654651132919
 20
-12.67400528865184
 30
0.0
 11
4.50654651132919
 21
-19.67400528865184
 31
0.0
  0
LINE
  5
C8
330
1F
100
AcDbEntity
  8
1
  6
Continuous
 62
     7
100
AcDbLine
 10
-1.49345348867081
 20
-19.67400528865184
 30
0.0
 11
-6.49345348867081
 21
-19.67400528865184
 31
0.0
  0
LINE
  5
C9
330
1F
100
AcDbEntity
  8
1
  6
DASHED
 62
     2
100
AcDbLine
 10
-1.49345348867081
 20
-12.67400528865184
 30
0.0
 11
-1.49345348867081
 21
-19.67400528865184
 31
0.0
  0
LINE
  5
CA
330
1F
100
AcDbEntity
  8
1
  6
DASHED
 62
     2
100
AcDbLine
 10
4.50654651132919
 20
-12.67400528865184
 30
0.0
 11
7.50654651132919
 21
-9.67400528865184
 31
0.0
  0
LINE
  5
CB
330
1F
100
AcDbEntity
  8
1
  6
DASHED
 62
     2
100
AcDbLine
 10
-1.49345348867081
 20
-12.67400528865184
 30
0.0
 11
-0.99345348867081
 21
-12.67400528865184
 31
0.0
  0
LINE
  5
CC
330
1F
100
AcDbEntity
  8
1
  6
DASHED
 62
     2
100
AcDbLine
 10
-4.49345348867081
 20
-9.67400528865184
 30
0.0
 11
-1.49345348867081
 21
-12.67400528865184
 31
0.0
  0
LINE
  5
CD
330
1F
100
AcDbEntity
  8
1
  6
DASHED
 62
     2
100
AcDbLine
 10
9.50654651132919
 20
-16.17400528865184
 30
0.0
 11
9.50654651132919
 21
-19.67400528865184
 31
0.0
  0
LINE
  5
CE
330
1F
100
AcDbEntity
  8
1
  6
DASHED
 62
     2
100
AcDbLine
 10
-6.49345348867081
 20
-16.17400528865184
 30
0.0
 11
-6.49345348867081
 21
-19.67400528865184
 31
0.0
  0
LINE
  5
CF
330
1F
100
AcDbEntity
  8
1
  6
DASHED
 62
     2
100
AcDbLine
 10
-6.49345348867081
 20
-16.17400528865184
 30
0.0
 11
9.50654651132919
 21
-16.17400528865184
 31
0.0
  0
LINE
  5
D0
330
1F
100
AcDbEntity
  8
1
  6
DASHED
 62
     2
100
AcDbLine
 10
-3.49345348867081
 20
-13.67400528865184
 30
0.0
 11
-3.49345348867081
 21
-18.17400528865184
 31
0.0
  0
LINE
  5
D1
330
1F
100
AcDbEntity
  8
1
  6
DASHED
 62
     2
100
AcDbLine
 10
6.50654651132919
 20
-13.67400528865184
 30
0.0
 11
-3.49345348867081
 21
-13.67400528865184
 31
0.0
  0
LINE
  5
D2
330
1F
100
AcDbEntity
  8
1
  6
DASHED
 62
     2
100
AcDbLine
 10
6.50654651132919
 20
-18.17400528865184
 30
0.0
 11
6.50654651132919
 21
-13.67400528865184
 31
0.0
  0
LINE
  5
D3
330
1F
100
AcDbEntity
  8
1
  6
DASHED
 62
     2
100
AcDbLine
 10
-3.49345348867081
 20
-18.17400528865184
 30
0.0
 11
6.50654651132919
 21
-18.17400528865184
 31
0.0
  0
LINE
  5
D4
330
1F
100
AcDbEntity
  8
1
  6
Continuous
 62
     7
100
AcDbLine
 10
9.50654651132919
 20
-19.67400528865184
 30
0.0
 11
4.50654651132919
 21
-19.67400528865184
 31
0.0
  0
LINE
  5
D5
330
1F
100
AcDbEntity
  8
1
  6
DASHED
 62
     2
100
AcDbLine
 10
9.50654651132919
 20
-13.17400528865184
 30
0.0
 11
11.50654651132919
 21
-13.17400528865184
 31
0.0
  0
LINE
  5
D6
330
1F
100
AcDbEntity
  8
1
  6
DASHED
 62
     2
100
AcDbLine
 10
9.50654651132919
 20
-13.17400528865184
 30
0.0
 11
9.50654651132919
 21
-16.17400528865184
 31
0.0
  0
LINE
  5
D7
330
1F
100
AcDbEntity
  8
1
  6
Continuous
 62
     7
100
AcDbLine
 10
-6.49345348867081
 20
-19.67400528865184
 30
0.0
 11
-8.49345348867082
 21
-19.67400528865184
 31
0.0
  0
LINE
  5
D8
330
1F
100
AcDbEntity
  8
1
  6
DASHED
 62
     2
100
AcDbLine
 10
-6.49345348867081
 20
-13.17400528865184
 30
0.0
 11
9.50654651132919
 21
-13.17400528865184
 31
0.0
  0
LINE
  5
D9
330
1F
100
AcDbEntity
  8
1
  6
DASHED
 62
     2
100
AcDbLine
 10
-6.49345348867081
 20
-13.17400528865184
 30
0.0
 11
-6.49345348867081
 21
-16.17400528865184
 31
0.0
  0
LINE
  5
DA
330
1F
100
AcDbEntity
  8
1
  6
Continuous
 62
     7
100
AcDbLine
 10
31.50654651132919
 20
0.32599471134816
 30
0.0
 11
37.50654651132919
 21
0.32599471134816
 31
0.0
  0
LINE
  5
DB
330
1F
100
AcDbEntity
  8
1
  6
DASHED
 62
     2
100
AcDbLine
 10
31.50654651132919
 20
0.32599471134816
 30
0.0
 11
31.50654651132919
 21
-1.17400528865184
 31
0.0
  0
LINE
  5
DC
330
1F
100
AcDbEntity
  8
1
  6
Continuous
 62
     7
100
AcDbLine
 10
-8.49345348867082
 20
-15.17400528865184
 30
0.0
 11
-8.49345348867082
 21
-14.67400528865184
 31
0.0
  0
LINE
  5
DD
330
1F
100
AcDbEntity
  8
1
  6
DASHED
 62
     2
100
AcDbLine
 10
-8.49345348867082
 20
-15.17400528865184
 30
0.0
 11
31.50654651132919
 21
-15.17400528865184
 31
0.0
  0
LINE
  5
DE
330
1F
100
AcDbEntity
  8
1
  6
Continuous
 62
     7
100
AcDbLine
 10
-8.49345348867082
 20
-13.17400528865184
 30
0.0
 11
-8.49345348867082
 21
-9.67400528865184
 31
0.0
  0
LINE
  5
DF
330
1F
100
AcDbEntity
  8
1
  6
DASHED
 62
     2
100
AcDbLine
 10
-8.49345348867082
 20
-13.17400528865184
 30
0.0
 11
-6.49345348867081
 21
-13.17400528865184
 31
0.0
  0
LINE
  5
E0
330
1F
100
AcDbEntity
  8
1
  6
Continuous
 62
     7
100
AcDbLine
 10
37.50654651132919
 20
0.32599471134816
 30
0.0
 11
40.50654651132919
 21
0.32599471134816
 31
0.0
  0
LINE
  5
E1
330
1F
100
AcDbEntity
  8
1
  6
Continuous
 62
     7
100
AcDbLine
 10
40.50654651132919
 20
-19.67400528865184
 30
0.0
 11
43.50654651132919
 21
-18.87015771135853
 31
0.0
  0
LINE
  5
E2
330
1F
100
AcDbEntity
  8
1
  6
Continuous
 62
     7
100
AcDbLine
 10
40.50654651132919
 20
0.32599471134816
 30
0.0
 11
43.50654651132919
 21
-0.47785286594538
 31
0.0
  0
LINE
  5
E3
330
1F
100
AcDbEntity
  8
1
  6
Continuous
 62
     7
100
AcDbLine
 10
43.50654651132919
 20
-0.47785286594538
 30
0.0
 11
43.50654651132919
 21
-18.87015771135853
 31
0.0
  0
LINE
  5
E4
330
1F
100
AcDbEntity
  8
1
  6
Continuous
 62
     7
100
AcDbLine
 10
21.50654651132919
 20
0.32599471134816
 30
0.0
 11
21.50654651132919
 21
-1.67400528865184
 31
0.0
  0
LINE
  5
E5
330
1F
100
AcDbEntity
  8
1
  6
Continuous
 62
     7
100
AcDbLine
 10
40.50654651132919
 20
-19.67400528865184
 30
0.0
 11
37.50654651132919
 21
-19.67400528865184
 31
0.0
  0
LINE
  5
E6
330
1F
100
AcDbEntity
  8
1
  6
Continuous
 62
     7
100
AcDbLine
 10
40.50654651132919
 20
0.32599471134816
 30
0.0
 11
40.50654651132919
 21
-19.67400528865184
 31
0.0
  0
LINE
  5
E7
330
1F
100
AcDbEntity
  8
1
  6
Continuous
 62
     7
100
AcDbLine
 10
21.50654651132919
 20
0.32599471134816
 30
0.0
 11
31.50654651132919
 21
0.32599471134816
 31
0.0
  0
LINE
  5
E8
330
1F
100
AcDbEntity
  8
1
  6
Continuous
 62
     7
100
AcDbLine
 10
21.50654651132919
 20
12.32599471134816
 30
0.0
 11
21.50654651132919
 21
9.32599471134816
 31
0.0
  0
LINE
  5
E9
330
1F
100
AcDbEntity
  8
1
  6
Continuous
 62
     7
100
AcDbLine
 10
-8.49345348867082
 20
-19.67400528865184
 30
0.0
 11
-8.49345348867082
 21
-15.17400528865184
 31
0.0
  0
LINE
  5
EA
330
1F
100
AcDbEntity
  8
1
  6
DASHED
 62
     2
100
AcDbLine
 10
18.50654651132919
 20
-9.67400528865184
 30
0.0
 11
21.50654651132919
 21
-9.67400528865184
 31
0.0
  0
LINE
  5
EB
330
1F
100
AcDbEntity
  8
1
  6
Continuous
 62
     7
100
AcDbLine
 10
18.50654651132919
 20
-9.67400528865184
 30
0.0
 11
18.50654651132919
 21
-8.67400528865184
 31
0.0
  0
LINE
  5
EC
330
1F
100
AcDbEntity
  8
1
  6
Continuous
 62
     7
100
AcDbLine
 10
18.50654651132919
 20
-5.67400528865184
 30
0.0
 11
17.50654651132919
 21
-5.67400528865184
 31
0.0
  0
LINE
  5
ED
330
1F
100
AcDbEntity
  8
1
  6
Continuous
 62
     7
100
AcDbLine
 10
12.00654651132919
 20
-5.67400528865184
 30
0.0
 11
12.00654651132919
 21
-3.17400528865184
 31
0.0
  0
LINE
  5
EE
330
1F
100
AcDbEntity
  8
1
  6
Continuous
 62
     7
100
AcDbLine
 10
12.00654651132919
 20
-3.17400528865184
 30
0.0
 11
9.50654651132919
 21
-3.17400528865184
 31
0.0
  0
LINE
  5
EF
330
1F
100
AcDbEntity
  8
1
  6
Continuous
 62
     7
100
AcDbLine
 10
9.50654651132919
 20
12.32599471134816
 30
0.0
 11
9.50654651132919
 21
11.32599471134816
 31
0.0
  0
LINE
  5
F0
330
1F
100
AcDbEntity
  8
1
  6
Continuous
 62
     7
100
AcDbLine
 10
9.50654651132919
 20
12.32599471134816
 30
0.0
 11
21.50654651132919
 21
12.32599471134816
 31
0.0
  0
LINE
  5
F1
330
1F
100
AcDbEntity
  8
1
  6
DASHED
 62
     2
100
AcDbLine
 10
27.50654651132919
 20
-9.67400528865184
 30
0.0
 11
27.50654651132919
 21
-13.17400528865184
 31
0.0
  0
LINE
  5
F2
330
1F
100
AcDbEntity
  8
1
  6
DASHED
 62
     2
100
AcDbLine
 10
27.50654651132919
 20
-9.67400528865184
 30
0.0
 11
37.50654651132919
 21
-9.67400528865184
 31
0.0
  0
LINE
  5
F3
330
1F
100
AcDbEntity
  8
1
  6
DASHED
 62
     2
100
AcDbLine
 10
27.50654651132919
 20
-13.17400528865184
 30
0.0
 11
21.50654651132919
 21
-13.17400528865184
 31
0.0
  0
LINE
  5
F4
330
1F
100
AcDbEntity
  8
1
  6
DASHED
 62
     2
100
AcDbLine
 10
9.50654651132919
 20
-1.17400528865184
 30
0.0
 11
31.50654651132919
 21
-1.17400528865184
 31
0.0
  0
LINE
  5
F5
330
1F
100
AcDbEntity
  8
1
  6
Continuous
 62
     7
100
AcDbLine
 10
9.50654651132919
 20
-1.17400528865184
 30
0.0
 11
9.50654651132919
 21
-3.17400528865184
 31
0.0
  0
LINE
  5
F6
330
1F
100
AcDbEntity
  8
1
  6
DASHED
 62
     2
100
AcDbLine
 10
31.50654651132919
 20
-1.17400528865184
 30
0.0
 11
31.50654651132919
 21
-8.67400528865184
 31
0.0
  0
LINE
  5
F7
330
1F
100
AcDbEntity
  8
1
  6
DASHED
 62
     2
100
AcDbLine
 10
17.50654651132919
 20
-5.67400528865184
 30
0.0
 11
17.50654651132919
 21
-1.67400528865184
 31
0.0
  0
LINE
  5
F8
330
1F
100
AcDbEntity
  8
1
  6
Continuous
 62
     7
100
AcDbLine
 10
17.50654651132919
 20
-9.67400528865184
 30
0.0
 11
17.50654651132919
 21
-5.67400528865184
 31
0.0
  0
LINE
  5
F9
330
1F
100
AcDbEntity
  8
1
  6
DASHED
 62
     2
100
AcDbLine
 10
37.50654651132919
 20
-19.67400528865184
 30
0.0
 11
37.50654651132919
 21
-9.67400528865184
 31
0.0
  0
LINE
  5
FA
330
1F
100
AcDbEntity
  8
1
  6
Continuous
 62
     7
100
AcDbLine
 10
37.50654651132919
 20
-19.67400528865184
 30
0.0
 11
9.50654651132919
 21
-19.67400528865184
 31
0.0
  0
LINE
  5
FB
330
1F
100
AcDbEntity
  8
1
  6
DASHED
 62
     2
100
AcDbLine
 10
9.50654651132919
 20
11.32599471134816
 30
0.0
 11
11.50654651132919
 21
9.32599471134816
 31
0.0
  0
LINE
  5
FC
330
1F
100
AcDbEntity
  8
1
  6
Continuous
 62
     7
100
AcDbLine
 10
9.50654651132919
 20
11.32599471134816
 30
0.0
 11
9.50654651132919
 21
1.32599471134816
 31
0.0
  0
LINE
  5
FD
330
1F
100
AcDbEntity
  8
1
  6
DASHED
 62
     2
100
AcDbLine
 10
11.50654651132919
 20
9.32599471134816
 30
0.0
 11
11.50654651132919
 21
3.32599471134816
 31
0.0
  0
LINE
  5
FE
330
1F
100
AcDbEntity
  8
1
  6
DASHED
 62
     2
100
AcDbLine
 10
11.50654651132919
 20
3.32599471134816
 30
0.0
 11
9.50654651132919
 21
1.32599471134816
 31
0.0
  0
LINE
  5
FF
330
1F
100
AcDbEntity
  8
1
  6
Continuous
 62
     7
100
AcDbLine
 10
9.50654651132919
 20
1.32599471134816
 30
0.0
 11
9.50654651132919
 21
-1.17400528865184
 31
0.0
  0
LINE
  5
100
330
1F
100
AcDbEntity
  8
1
  6
DASHED
 62
     2
100
AcDbLine
 10
11.50654651132919
 20
9.32599471134816
 30
0.0
 11
21.50654651132919
 21
9.32599471134816
 31
0.0
  0
LINE
  5
101
330
1F
100
AcDbEntity
  8
1
  6
Continuous
 62
     7
100
AcDbLine
 10
21.50654651132919
 20
9.32599471134816
 30
0.0
 11
21.50654651132919
 21
3.32599471134816
 31
0.0
  0
LINE
  5
102
330
1F
100
AcDbEntity
  8
1
  6
DASHED
 62
     2
100
AcDbLine
 10
11.50654651132919
 20
3.32599471134816
 30
0.0
 11
21.50654651132919
 21
3.32599471134816
 31
0.0
  0
LINE
  5
103
330
1F
100
AcDbEntity
  8
1
  6
Continuous
 62
     7
100
AcDbLine
 10
21.50654651132919
 20
3.32599471134816
 30
0.0
 11
21.50654651132919
 21
0.32599471134816
 31
0.0
  0
LINE
  5
104
330
1F
100
AcDbEntity
  8
1
  6
DOT_CENTER
 62
     2
100
AcDbLine
 10
7.84785320153519
 20
6.32599471134816
 30
0.0
 11
29.41764672047833
 21
6.32599471134816
 31
0.0
  0
LINE
  5
105
330
1F
100
AcDbEntity
  8
1
  6
DASHED
 62
     2
100
AcDbLine
 10
18.50654651132919
 20
-8.67400528865184
 30
0.0
 11
31.50654651132919
 21
-8.67400528865184
 31
0.0
  0
LINE
  5
106
330
1F
100
AcDbEntity
  8
1
  6
Continuous
 62
     7
100
AcDbLine
 10
18.50654651132919
 20
-8.67400528865184
 30
0.0
 11
18.50654651132919
 21
-5.67400528865184
 31
0.0
  0
LINE
  5
107
330
1F
100
AcDbEntity
  8
1
  6
DASHED
 62
     2
100
AcDbLine
 10
31.50654651132919
 20
-8.67400528865184
 30
0.0
 11
31.50654651132919
 21
-15.17400528865184
 31
0.0
  0
LINE
  5
108
330
1F
100
AcDbEntity
  8
1
  6
Continuous
 62
     7
100
AcDbLine
 10
-14.14180694442582
 20
-13.17400528865184
 30
0.0
 11
-8.49345348867082
 21
-13.17400528865184
 31
0.0
  0
LINE
  5
109
330
1F
100
AcDbEntity
  8
1
  6
Continuous
 62
     7
100
AcDbLine
 10
-8.49345348867082
 20
-14.67400528865184
 30
0.0
 11
-13.31313511315711
 21
-14.67400528865184
 31
0.0
  0
LINE
  5
10A
330
1F
100
AcDbEntity
  8
1
  6
Continuous
 62
     7
100
AcDbLine
 10
17.50654651132919
 20
-5.67400528865184
 30
0.0
 11
12.00654651132919
 21
-5.67400528865184
 31
0.0
  0
LINE
  5
10B
330
1F
100
AcDbEntity
  8
1
  6
Continuous
 62
     7
100
AcDbLine
 10
17.50654651132919
 20
-9.67400528865184
 30
0.0
 11
18.50654651132919
 21
-9.67400528865184
 31
0.0
  0
LINE
  5
10C
330
1F
100
AcDbEntity
  8
1
  6
DOT_CENTER
 62
     2
100
AcDbLine
 10
1.50654651132919
 20
-8.20048318918182
 30
0.0
 11
1.50654651132919
 21
-20.32901462360084
 31
0.0
  0
LINE
  5
10D
330
1F
100
AcDbEntity
  8
1
  6
Continuous
 62
     2
100
AcDbLine
 10
12.00654651132919
 20
-5.67400528865184
 30
0.0
 11
12.00654651132919
 21
-3.17400528865184
 31
0.0
  0
LINE
  5
10E
330
1F
100
AcDbEntity
  8
1
  6
Continuous
 62
     2
100
AcDbLine
 10
12.00654651132919
 20
-3.17400528865184
 30
0.0
 11
9.50654651132919
 21
-3.17400528865184
 31
0.0
  0
LINE
  5
10F
330
1F
100
AcDbEntity
  8
1
  6
Continuous
 62
     7
100
AcDbLine
 10
-8.49345348867082
 20
-9.67400528865184
 30
0.0
 11
-4.49345348867081
 21
-9.67400528865184
 31
0.0
  0
LINE
  5
110
330
1F
100
AcDbEntity
  8
1
  6
Continuous
 62
     7
100
AcDbLine
 10
7.50654651132919
 20
-9.67400528865184
 30
0.0
 11
16.50654651132919
 21
-9.67400528865184
 31
0.0
  0
LINE
  5
111
330
1F
100
AcDbEntity
  8
1
  6
Continuous
 62
     7
100
AcDbLine
 10
-4.49345348867081
 20
-9.67400528865184
 30
0.0
 11
7.50654651132919
 21
-9.67400528865184
 31
0.0
  0
LINE
  5
112
330
1F
100
AcDbEntity
  8
1
  6
Continuous
 62
     7
100
AcDbLine
 10
9.50654651132919
 20
-3.17400528865184
 30
0.0
 11
9.50654651132919
 21
-5.67400528865184
 31
0.0
  0
LINE
  5
113
330
1F
100
AcDbEntity
  8
1
  6
Continuous
 62
     7
100
AcDbLine
 10
5.50654651132919
 20
-4.67400528865184
 30
0.0
 11
-11.99345348867082
 21
-4.67400528865184
 31
0.0
  0
LINE
  5
114
330
1F
100
AcDbEntity
  8
1
  6
Continuous
 62
     7
100
AcDbLine
 10
12.00654651132919
 20
-3.17400528865184
 30
0.0
 11
12.00654651132919
 21
-8.17400528865184
 31
0.0
  0
LINE
  5
115
330
1F
100
AcDbEntity
  8
1
  6
Continuous
 62
     2
100
AcDbLine
 10
12.00654651132919
 20
-3.17400528865184
 30
0.0
 11
9.50654651132919
 21
-3.17400528865184
 31
0.0
  0
LINE
  5
116
330
1F
100
AcDbEntity
  8
1
  6
Continuous
 62
     2
100
AcDbLine
 10
9.50654651132919
 20
-3.17400528865184
 30
0.0
 11
9.50654651132919
 21
-6.17400528865184
 31
0.0
  0
LINE
  5
117
330
1F
100
AcDbEntity
  8
1
  6
Continuous
 62
     7
100
AcDbLine
 10
9.50654651132919
 20
-6.17400528865184
 30
0.0
 11
-1.63521855073579
 21
-6.17400528865184
 31
0.0
  0
LINE
  5
118
330
1F
100
AcDbEntity
  8
1
  6
Continuous
 62
     7
100
AcDbLine
 10
9.50654651132919
 20
-7.17400528865184
 30
0.0
 11
-1.97224549593683
 21
-7.17400528865184
 31
0.0
  0
LINE
  5
119
330
1F
100
AcDbEntity
  8
1
  6
Continuous
 62
     7
100
AcDbLine
 10
9.50654651132919
 20
-7.17400528865184
 30
0.0
 11
9.50654651132919
 21
-8.67400528865184
 31
0.0
  0
LINE
  5
11A
330
1F
100
AcDbEntity
  8
1
  6
Continuous
 62
     7
100
AcDbLine
 10
9.50654651132919
 20
-8.67400528865184
 30
0.0
 11
-6.26933904725372
 21
-8.67400528865184
 31
0.0
  0
LINE
  5
11B
330
1F
100
AcDbEntity
  8
1
  6
Continuous
 62
     2
100
AcDbLine
 10
15.58110021494922
 20
-9.67400528865184
 30
0.0
 11
-6.81700783320584
 21
-9.67400528865184
 31
0.0
  0
LINE
  5
11C
330
1F
100
AcDbEntity
  8
1
  6
Continuous
 62
     7
100
AcDbLine
 10
-44.49345348867082
 20
46.32599471134816
 30
0.0
 11
-50.49345348867082
 21
46.32599471134817
 31
0.0
  0
LINE
  5
11D
330
1F
100
AcDbEntity
  8
1
  6
Continuous
 62
     7
100
AcDbLine
 10
-51.49345348867082
 20
21.32599471134816
 30
0.0
 11
-51.49345348867082
 21
35.32599471134793
 31
0.0
  0
LINE
  5
11E
330
1F
100
AcDbEntity
  8
1
  6
Continuous
 62
     7
100
AcDbLine
 10
-44.49345348867061
 20
20.32599471134816
 30
0.0
 11
-50.49345348867082
 21
20.32599471134816
 31
0.0
  0
LINE
  5
11F
330
1F
100
AcDbEntity
  8
1
  6
Continuous
 62
     7
100
AcDbLine
 10
-50.49345348867082
 20
10.32599471134811
 30
0.0
 11
-44.49345348867061
 21
10.32599471134811
 31
0.0
  0
LINE
  5
120
330
1F
100
AcDbEntity
  8
1
  6
Continuous
 62
     7
100
AcDbLine
 10
-43.49345348867061
 20
11.32599471134811
 30
0.0
 11
-43.49345348867061
 21
19.32599471134816
 31
0.0
  0
LINE
  5
121
330
1F
100
AcDbEntity
  8
1
  6
Continuous
 62
     7
100
AcDbLine
 10
-43.49345348867061
 20
37.32599471134795
 30
0.0
 11
-43.49345348867061
 21
45.32599471134816
 31
0.0
  0
LINE
  5
122
330
1F
100
AcDbEntity
  8
1
  6
Continuous
 62
     7
100
AcDbLine
 10
-50.49345348867082
 20
36.32599471134795
 30
0.0
 11
-44.49345348867082
 21
36.32599471134816
 31
0.0
  0
LINE
  5
123
330
1F
100
AcDbEntity
  8
1
  6
Continuous
 62
     7
100
AcDbLine
 10
-51.49345348867082
 20
47.32599471134817
 30
0.0
 11
-51.49345348867082
 21
59.32599471134817
 31
0.0
  0
LINE
  5
124
330
1F
100
AcDbEntity
  8
1
  6
DOT_CENTER
 62
     2
100
AcDbLine
 10
68.50654651132919
 20
35.32599471134817
 30
0.0
 11
68.50654651132919
 21
38.32599471134805
 31
0.0
  0
LINE
  5
125
330
1F
100
AcDbEntity
  8
1
  6
Continuous
 62
     7
100
AcDbLine
 10
5.50654651132917
 20
27.32599471134822
 30
0.0
 11
1.50654651132917
 21
27.32599471134822
 31
0.0
  0
LINE
  5
126
330
1F
100
AcDbEntity
  8
1
  6
Continuous
 62
     7
100
AcDbLine
 10
1.50654651132917
 20
27.32599471134822
 30
0.0
 11
1.50654651132917
 21
19.32599471134822
 31
0.0
  0
LINE
  5
127
330
1F
100
AcDbEntity
  8
1
  6
Continuous
 62
     7
100
AcDbLine
 10
1.50654651132917
 20
19.32599471134822
 30
0.0
 11
5.50654651132917
 21
19.32599471134822
 31
0.0
  0
LINE
  5
128
330
1F
100
AcDbEntity
  8
1
  6
Continuous
 62
     7
100
AcDbLine
 10
5.50654651132917
 20
19.32599471134822
 30
0.0
 11
5.50654651132918
 21
18.32599471134816
 31
0.0
  0
ARC
  5
129
330
1F
100
AcDbEntity
  8
1
  6
Continuous
 62
     7
100
AcDbCircle
 10
-22.49345348867082
 20
-18.67400528865184
 30
0.0
 40
10.00000000000003
100
AcDbArc
 50
64.15806723683254
 51
95.78084717463742
  0
ARC
  5
12A
330
1F
100
AcDbEntity
  8
1
  6
Continuous
 62
     7
100
AcDbCircle
 10
-22.49345348867082
 20
-18.67400528865184
 30
0.0
 40
9.999999999999973
100
AcDbArc
 50
33.36701296923186
 51
64.15806723683254
  0
ARC
  5
12B
330
1F
100
AcDbEntity
  8
1
  6
Continuous
 62
     7
100
AcDbCircle
 10
-22.49345348867082
 20
-18.67400528865184
 30
0.0
 40
10.00000000000012
100
AcDbArc
 50
95.78084717463742
 51
33.36701296923186
  0
CIRCLE
  5
12C
330
1F
100
AcDbEntity
  8
1
  6
Continuous
 62
     7
100
AcDbCircle
 10
-22.49345348867082
 20
-18.67400528865184
 30
0.0
 40
8.000000000000002
  0
SPLINE
  5
12D
330
1F
100
AcDbEntity
  8
1
  6
Continuous
 62
     7
100
AcDbSpline
210
0.0
220
0.0
230
1.0
 70
     8
 71
     3
 72
    11
 73
     7
 74
     5
 42
0.0000000001
 43
0.0000000001
 44
0.00000001
 40
0.0
 40
0.0
 40
0.0
 40
0.0
 40
0.5910899247692377
 40
1.157604842455855
 40
1.609591797176347
 40
2.077157862448322
 40
2.077157862448322
 40
2.077157862448322
 40
2.077157862448322
 10
-2.98332633154082
 20
-4.674005288651838
 30
0.0
 10
-2.812105475102886
 20
-4.77114358681926
 30
0.0
 10
-2.476782397790458
 20
-4.961381585530587
 30
0.0
 10
-2.057267732683754
 20
-5.310881043419288
 30
0.0
 10
-1.807110917838642
 20
-5.745103022659857
 30
0.0
 10
-1.693159529697408
 20
-6.029432160773726
 30
0.0
 10
-1.63521855073579
 20
-6.174005288651836
 30
0.0
 11
-2.98332633154082
 21
-4.674005288651838
 31
0.0
 11
-2.478427240675367
 21
-4.981355589134759
 31
0.0
 11
-2.05650223223671
 21
-5.359401140907973
 31
0.0
 11
-1.819600711582725
 21
-5.744329545613749
 31
0.0
 11
-1.63521855073579
 21
-6.174005288651836
 31
0.0
  0
SPLINE
  5
12E
330
1F
100
AcDbEntity
  8
1
  6
Continuous
 62
     7
100
AcDbSpline
210
0.0
220
0.0
230
1.0
 70
     8
 71
     3
 72
    29
 73
    25
 74
    23
 42
0.0000000001
 43
0.0000000001
 44
0.00000001
 40
0.0
 40
0.0
 40
0.0
 40
0.0
 40
0.889510600482732
 40
1.614720294011632
 40
2.084459729670607
 40
2.530572635717657
 40
3.17744031376898
 40
3.946876071015002
 40
4.486929965291304
 40
4.935200976377374
 40
5.190029714504972
 40
5.43824871882006
 40
6.016987659840821
 40
6.788861584319519
 40
7.584413180769666
 40
8.247133744393057
 40
8.707331222480732
 40
9.154687630118717
 40
9.677694262883291
 40
10.11258093474834
 40
10.62571263616329
 40
11.21277240015625
 40
11.70017573250086
 40
12.21005469173228
 40
12.21005469173228
 40
12.21005469173228
 40
12.21005469173228
 10
-6.269339047253721
 20
-8.674005288651841
 30
0.0
 10
-5.975089410399772
 20
-8.6247508357616
 30
0.0
 10
-5.44094078993839
 20
-8.53533968696905
 30
0.0
 10
-4.77763785132352
 20
-8.405687314049242
 30
0.0
 10
-4.26782432116887
 20
-8.00406093786416
 30
0.0
 10
-4.515798876490916
 20
-7.447006551504559
 30
0.0
 10
-4.958540791069787
 20
-7.033534740544824
 30
0.0
 10
-5.511212712258926
 20
-6.679716219082391
 30
0.0
 10
-6.082708749951313
 20
-6.467369569095194
 30
0.0
 10
-6.418241059397227
 20
-6.348293444175754
 30
0.0
 10
-6.831695514070733
 20
-6.192862771720208
 30
0.0
 10
-6.448606037097587
 20
-5.867136322416921
 30
0.0
 10
-5.967321345342391
 20
-5.820793706506582
 30
0.0
 10
-5.241889389803054
 20
-5.679936080910949
 30
0.0
 10
-4.501415695013788
 20
-5.690055792597914
 30
0.0
 10
-3.861438036477429
 20
-5.751287505883921
 30
0.0
 10
-3.398620306280953
 20
-6.145576437838567
 30
0.0
 10
-3.55343198608982
 20
-6.659298071417377
 30
0.0
 10
-3.719488259702456
 20
-7.064435092913307
 30
0.0
 10
-3.779927088232825
 20
-7.619535067017233
 30
0.0
 10
-3.24893366490303
 20
-7.891534440196081
 30
0.0
 10
-2.706085543405297
 20
-7.911329672560742
 30
0.0
 10
-2.245444266509431
 20
-7.597192518663122
 30
0.0
 10
-2.06466978346959
 20
-7.317171299775455
 30
0.0
 10
-1.97224549593683
 20
-7.17400528865184
 30
0.0
 11
-6.269339047253721
 21
-8.674005288651841
 31
0.0
 11
-5.392757456498434
 21
-8.522896641910231
 31
0.0
 11
-4.699667917120155
 21
-8.30945814961635
 31
0.0
 11
-4.37356248049589
 21
-7.971359966217932
 31
0.0
 11
-4.498335492447533
 21
-7.543051175238504
 31
0.0
 11
-4.94263215592165
 21
-7.072904104915529
 31
0.0
 11
-5.59528515685072
 21
-6.665380553562922
 31
0.0
 11
-6.096253311041312
 21
-6.46366511734182
 31
0.0
 11
-6.517525641217459
 21
-6.310444612160277
 31
0.0
 11
-6.732751096905821
 21
-6.174005288651836
 31
0.0
 11
-6.569608469190891
 21
-5.98693001736928
 31
0.0
 11
-6.01628607494807
 21
-5.817303693105552
 31
0.0
 11
-5.252167310009611
 21
-5.708162186981297
 31
0.0
 11
-4.456635570207761
 21
-5.702541370117161
 31
0.0
 11
-3.809074251374772
 21
-5.843477113633791
 31
0.0
 11
-3.48886674934289
 21
-6.174005288651836
 31
0.0
 11
-3.54729760691802
 21
-6.617529347004703
 31
0.0
 11
-3.707889644631283
 21
-7.115270379408944
 31
0.0
 11
-3.699508590093791
 21
-7.55007628471693
 31
0.0
 11
-3.275457248087795
 21
-7.839013306124571
 31
0.0
 11
-2.68842775448992
 21
-7.844974861767831
 31
0.0
 11
-2.278057890543098
 21
-7.58199466642055
 31
0.0
 11
-1.97224549593683
 21
-7.17400528865184
 31
0.0
  0
SPLINE
  5
12F
330
1F
100
AcDbEntity
  8
1
  6
Continuous
 62
     7
100
AcDbSpline
210
0.0
220
0.0
230
1.0
 70
     8
 71
     3
 72
    27
 73
    23
 74
    21
 42
0.0000000001
 43
0.0000000001
 44
0.00000001
 40
0.0
 40
0.0
 40
0.0
 40
0.0
 40
0.7277950974380928
 40
1.337859413161274
 40
1.833896610316227
 40
2.118542941909026
 40
2.401621501324695
 40
2.945988552284713
 40
3.638553609528621
 40
4.451143321879403
 40
4.947746839607016
 40
5.291759069735928
 40
5.537295258651259
 40
5.962835195523061
 40
6.528388499581488
 40
7.12433202049461
 40
7.898367861786331
 40
8.496448681030634
 40
8.90732056279309
 40
9.326538941888986
 40
9.954843025728403
 40
10.67592761448745
 40
10.67592761448745
 40
10.67592761448745
 40
10.67592761448745
 10
-6.817007833205841
 20
-9.674005288651841
 30
0.0
 10
-7.058053741045048
 20
-9.685058848421153
 30
0.0
 10
-7.501153094066067
 20
-9.705377903933307
 30
0.0
 10
-8.12889378483526
 20
-9.670287203916544
 30
0.0
 10
-8.51239734770623
 20
-9.315768858397968
 30
0.0
 10
-8.545052850752743
 20
-8.9545822967073
 30
0.0
 10
-8.51098304980459
 20
-8.57515614862108
 30
0.0
 10
-8.06364493684412
 20
-8.208833849657804
 30
0.0
 10
-7.375254731386462
 20
-8.194805983010324
 30
0.0
 10
-6.69222610820397
 20
-8.136541222986105
 30
0.0
 10
-6.200106510463687
 20
-7.991401516921182
 30
0.0
 10
-5.784641759352305
 20
-7.8224199442368
 30
0.0
 10
-5.907509511813182
 20
-7.429954524171039
 30
0.0
 10
-6.295262140745095
 20
-7.25277607611959
 30
0.0
 10
-6.765567427256827
 20
-7.023078332754709
 30
0.0
 10
-7.377065848849894
 20
-6.803521315380568
 30
0.0
 10
-8.012108307747729
 20
-6.657488920283011
 30
0.0
 10
-8.524370320367119
 20
-6.258349451582347
 30
0.0
 10
-8.593475070599634
 20
-5.767692263194124
 30
0.0
 10
-8.521871666609107
 20
-5.269491766225435
 30
0.0
 10
-8.027241953115105
 20
-4.86017242962957
 30
0.0
 10
-7.595428525149275
 20
-4.738841796709112
 30
0.0
 10
-7.364676619157821
 20
-4.674005288651838
 30
0.0
 11
-6.817007833205841
 21
-9.674005288651841
 31
0.0
 11
-7.544539721292049
 21
-9.69357709676045
 31
0.0
 11
-8.145534107179845
 21
-9.588771479305354
 31
0.0
 11
-8.493453488670818
 21
-9.23521101072285
 31
0.0
 11
-8.536347637309442
 21
-8.95381515769405
 31
0.0
 11
-8.493453488670818
 21
-8.674005288651841
 31
0.0
 11
-8.097298276692197
 21
-8.300646835964507
 31
0.0
 11
-7.413868043157992
 21
-8.188533168614626
 31
0.0
 11
-6.606365992454881
 21
-8.097745070668932
 31
0.0
 11
-6.129795423030767
 21
-7.95811861838207
 31
0.0
 11
-5.848055365751931
 21
-7.760718125467829
 31
0.0
 11
-5.903016693218527
 21
-7.521412311601607
 31
0.0
 11
-6.248214856748345
 21
-7.272570060831169
 31
0.0
 11
-6.761956496093893
 21
-7.036095817553063
 31
0.0
 11
-7.32254825100768
 21
-6.833894026163843
 31
0.0
 11
-8.053440667963182
 21
-6.579084767224679
 31
0.0
 11
-8.493453488670818
 21
-6.174005288651836
 31
0.0
 11
-8.573245796827901
 21
-5.770955799405183
 31
0.0
 11
-8.493453488670818
 21
-5.359401140907973
 31
0.0
 11
-8.04139003833167
 21
-4.92304731814856
 31
0.0
 11
-7.364676619157821
 21
-4.674005288651838
 31
0.0
  0
SPLINE
  5
130
330
1F
100
AcDbEntity
  8
1
  6
Continuous
 62
     7
100
AcDbSpline
210
0.0
220
0.0
230
1.0
 70
     8
 71
     3
 72
    61
 73
    57
 74
    55
 42
0.0000000001
 43
0.0000000001
 44
0.00000001
 40
0.0
 40
0.0
 40
0.0
 40
0.0
 40
0.4523272583993729
 40
0.7970223383273127
 40
1.067335986807463
 40
1.381268984499177
 40
1.613874858607728
 40
1.837364212502653
 40
2.138516670291433
 40
2.437502139837052
 40
2.70206914081886
 40
2.979704937559143
 40
3.193666497744995
 40
3.378477882971088
 40
3.702250052658937
 40
4.089669941166933
 40
4.302695501379335
 40
4.513436625066572
 40
4.771510873617846
 40
5.026865053158219
 40
5.381441195631618
 40
5.74675254298444
 40
6.025356887778766
 40
6.281991139706152
 40
6.461351423426125
 40
6.650235453266809
 40
6.960357599564521
 40
7.272282431640607
 40
7.686341032476329
 40
8.087418036733226
 40
8.326180026748206
 40
8.569482785933369
 40
8.89277810421923
 40
9.22127900800612
 40
9.50441300068682
 40
9.762965804682628
 40
9.943059522667273
 40
10.12859915817805
 40
10.35874153749076
 40
10.59425534349456
 40
10.85350788973191
 40
11.11451759953128
 40
11.48289872913735
 40
11.85065051576315
 40
12.1751377154833
 40
12.49939223769301
 40
12.83330869109061
 40
13.16622410835789
 40
13.44086053293274
 40
13.71870966874412
 40
13.98434969250681
 40
14.24110727230088
 40
14.4728196409575
 40
14.7112571518726
 40
14.89084091558187
 40
15.0684562459226
 40
15.0684562459226
 40
15.0684562459226
 40
15.0684562459226
 10
12.00654651132919
 20
-8.174005288651841
 30
0.0
 10
12.14948923685991
 20
-8.213029976353534
 30
0.0
 10
12.40136117964871
 20
-8.28179334903764
 30
0.0
 10
12.80404285910317
 20
-8.234263560775526
 30
0.0
 10
12.9305617049112
 20
-7.919078247370766
 30
0.0
 10
12.97038411238631
 20
-7.655789837721358
 30
0.0
 10
13.00376535682948
 20
-7.399986636881765
 30
0.0
 10
13.02211170446519
 20
-7.148337558463814
 30
0.0
 10
13.01908593345501
 20
-6.873406511899861
 30
0.0
 10
12.97543713737999
 20
-6.586029040724378
 30
0.0
 10
12.87265641463193
 20
-6.324947117436784
 30
0.0
 10
12.80195390797232
 20
-6.080401449831433
 30
0.0
 10
12.78887720717358
 20
-5.85703746169637
 30
0.0
 10
12.86972003448404
 20
-5.602132388525741
 30
0.0
 10
13.23354706740418
 20
-5.590883364105816
 30
0.0
 10
13.51344053278963
 20
-5.732707168259348
 30
0.0
 10
13.66387251267234
 20
-5.967776973789962
 30
0.0
 10
13.71774896226246
 20
-6.189481885561301
 30
0.0
 10
13.77263810016479
 20
-6.42429332886597
 30
0.0
 10
13.82238489445698
 20
-6.709684171488753
 30
0.0
 10
13.84591750697401
 20
-7.034541035394862
 30
0.0
 10
13.8237338862427
 20
-7.368811296092327
 30
0.0
 10
13.76611181855233
 20
-7.661224591191045
 30
0.0
 10
13.78206284216786
 20
-7.911348803299397
 30
0.0
 10
13.91747626152063
 20
-8.079354505938737
 30
0.0
 10
14.10844334983824
 20
-8.20427962895713
 30
0.0
 10
14.3824354587588
 20
-8.263473168907595
 30
0.0
 10
14.72889393987485
 20
-8.184990309744684
 30
0.0
 10
15.03288903509217
 20
-7.942178438340223
 30
0.0
 10
15.19186049846608
 20
-7.607217691718812
 30
0.0
 10
15.17022510031784
 20
-7.308325932826226
 30
0.0
 10
15.09948170974063
 20
-7.049435452471942
 30
0.0
 10
15.01619098347137
 20
-6.763077271392075
 30
0.0
 10
14.88955492120765
 20
-6.474949728220141
 30
0.0
 10
14.72488519626191
 20
-6.239374670204452
 30
0.0
 10
14.64626017937518
 20
-5.994195911387582
 30
0.0
 10
14.73108893552788
 20
-5.793628875926769
 30
0.0
 10
14.87644919146745
 20
-5.649033165786528
 30
0.0
 10
15.10101809932964
 20
-5.602227370989008
 30
0.0
 10
15.34152893852109
 20
-5.662035186174134
 30
0.0
 10
15.54714372858902
 20
-5.818290481985087
 30
0.0
 10
15.71845186350563
 20
-6.062818528352773
 30
0.0
 10
15.85396266693376
 20
-6.368224793499564
 30
0.0
 10
15.95366221351201
 20
-6.707654931589062
 30
0.0
 10
16.04432454360239
 20
-7.034108427115755
 30
0.0
 10
16.11652293502388
 20
-7.353891192422205
 30
0.0
 10
16.16248888847452
 20
-7.681417016829274
 30
0.0
 10
16.18109607181651
 20
-7.995101131403802
 30
0.0
 10
16.17692514393359
 20
-8.290177203104271
 30
0.0
 10
16.17436622025571
 20
-8.56321054925301
 30
0.0
 10
16.19132807725923
 20
-8.828772512897128
 30
0.0
 10
16.16390439637155
 20
-9.083886940204273
 30
0.0
 10
16.03858435034482
 20
-9.29744697534
 30
0.0
 10
15.88621415994595
 20
-9.452703618889808
 30
0.0
 10
15.72892322868661
 20
-9.574341643692016
 30
0.0
 10
15.63019319415755
 20
-9.640906347383257
 30
0.0
 10
15.58110021494922
 20
-9.674005288651841
 30
0.0
 11
12.00654651132919
 21
-8.174005288651841
 31
0.0
 11
12.45110076254974
 21
-8.257500596381261
 31
0.0
 11
12.78553047372041
 21
-8.174005288651841
 31
0.0
 11
12.91368439385242
 21
-7.936001000225247
 31
0.0
 11
12.97337508083807
 21
-7.627794983205971
 31
0.0
 11
13.00189204744872
 21
-7.396943785927009
 31
0.0
 11
13.01757381192408
 21
-7.17400528865184
 31
0.0
 11
13.01200487345474
 21
-6.872904325922479
 31
0.0
 11
12.96232539806618
 21
-6.578075119898836
 31
0.0
 11
12.87795614520113
 21
-6.327321202323255
 31
0.0
 11
12.80762983926342
 21
-6.058740029630963
 31
0.0
 11
12.80337770842284
 21
-5.844820725638829
 31
0.0
 11
12.87392793589327
 21
-5.674005288651836
 31
0.0
 11
13.19248934836651
 21
-5.616151642721529
 31
0.0
 11
13.53690890219212
 21
-5.793547643110823
 31
0.0
 11
13.65289881583078
 21
-5.972226766787611
 31
0.0
 11
13.71370382653917
 21
-6.174005288651836
 31
0.0
 11
13.77044647294819
 21
-6.425764280236656
 31
0.0
 11
13.81315097148432
 21
-6.677522264843926
 31
0.0
 11
13.83756419926494
 21
-7.031256960796483
 31
0.0
 11
13.81315097148432
 21
-7.395751645001981
 31
0.0
 11
13.77722231673824
 21
-7.672029607761252
 31
0.0
 11
13.81315097148432
 21
-7.926136418040839
 31
0.0
 11
13.92107399047275
 21
-8.0693939949732
 31
0.0
 11
14.07834335800419
 21
-8.174005288651841
 31
0.0
 11
14.38128706126315
 21
-8.240344253672767
 31
0.0
 11
14.68607591044508
 21
-8.174005288651841
 31
0.0
 11
15.0113863776675
 21
-7.917845914742609
 31
0.0
 11
15.17226195239828
 21
-7.55044720380485
 31
0.0
 11
15.16284568120342
 21
-7.311870965020058
 31
0.0
 11
15.10596385576831
 21
-7.075310844622972
 31
0.0
 11
15.00987660799352
 21
-6.766624752223878
 31
0.0
 11
14.87392051756306
 21
-6.46757829218185
 31
0.0
 11
14.73211767003893
 21
-6.222513381912422
 31
0.0
 11
14.67502622767318
 21
-5.97034256745783
 31
0.0
 11
14.73993629339603
 21
-5.802353190932441
 31
0.0
 11
14.87392051756306
 21
-5.674005288651836
 31
0.0
 11
15.09767849140299
 21
-5.620173291672683
 31
0.0
 11
15.32695751120121
 21
-5.674005288651836
 31
0.0
 11
15.53642323859777
 21
-5.826766513367999
 31
0.0
 11
15.69159704266638
 21
-6.036640664087964
 31
0.0
 11
15.84632439226158
 21
-6.37095205177478
 31
0.0
 11
15.95678942918618
 21
-6.721720995929923
 31
0.0
 11
16.04179412096906
 21
-7.034876141436308
 31
0.0
 11
16.11148498798928
 21
-7.351552913914839
 31
0.0
 11
16.1580849924086
 21
-7.68220172676277
 31
0.0
 11
16.17778308461919
 21
-8.014533880213971
 31
0.0
 11
16.17715638765068
 21
-8.289169589753296
 31
0.0
 11
16.17778308461919
 21
-8.567018018796972
 31
0.0
 11
16.18374104564841
 21
-8.832591219487515
 31
0.0
 11
16.14463403630418
 21
-9.086353109064842
 31
0.0
 11
16.03265086504214
 21
-9.289208700909285
 31
0.0
 11
15.86839196701219
 21
-9.462042323301969
 31
0.0
 11
15.72729031157571
 21
-9.573130806148175
 31
0.0
 11
15.58110021494922
 21
-9.674005288651841
 31
0.0
  0
ARC
  5
131
330
1F
100
AcDbEntity
  8
1
  6
Continuous
 62
     7
100
AcDbCircle
 10
-27.49345348867082
 20
-8.48435011623794
 30
0.0
 40
3.999999999999921
100
AcDbArc
 50
-3.44714309051538
 51
-0.00000000000173
  0
ARC
  5
132
330
1F
100
AcDbEntity
  8
1
  6
Continuous
 62
     7
100
AcDbCircle
 10
17.50654651132918
 20
38.32599471134805
 30
0.0
 40
1.999999999999879
100
AcDbArc
 50
-90.0
 51
0.00000000000346
  0
ARC
  5
133
330
1F
100
AcDbEntity
  8
1
  6
Continuous
 62
     7
100
AcDbCircle
 10
17.50654651132918
 20
59.32599471134817
 30
0.0
 40
2.0
100
AcDbArc
 50
0.0
 51
90.0
  0
ARC
  5
134
330
1F
100
AcDbEntity
  8
1
  6
Continuous
 62
     7
100
AcDbCircle
 10
11.50654651132919
 20
33.32599471134817
 30
0.0
 40
2.0
100
AcDbArc
 50
89.99999999999974
 51
180.0
  0
ARC
  5
135
330
1F
100
AcDbEntity
  8
1
  6
Continuous
 62
     7
100
AcDbCircle
 10
-6.49345348867081
 20
-25.67400528865195
 30
0.0
 40
2.000000000000007
100
AcDbArc
 50
180.0
 51
-90.0
  0
ARC
  5
136
330
1F
100
AcDbEntity
  8
1
  6
DASHED
 62
     2
100
AcDbCircle
 10
10.00654651132919
 20
-13.17400528865184
 30
0.0
 40
1.5
100
AcDbArc
 50
-90.0
 51
0.0
  0
ARC
  5
137
330
1F
100
AcDbEntity
  8
1
  6
Continuous
 62
     7
100
AcDbCircle
 10
-50.49345348867082
 20
47.32599471134816
 30
0.0
 40
1.0
100
AcDbArc
 50
179.9999999999992
 51
-90.0
  0
ARC
  5
138
330
1F
100
AcDbEntity
  8
1
  6
Continuous
 62
     7
100
AcDbCircle
 10
-44.49345348867082
 20
45.32599471134817
 30
0.0
 40
1.000000000000213
100
AcDbArc
 50
-0.00000000000081
 51
90.0
  0
ARC
  5
139
330
1F
100
AcDbEntity
  8
1
  6
Continuous
 62
     7
100
AcDbCircle
 10
-44.49345348867082
 20
37.32599471134795
 30
0.0
 40
0.9999999999997939
100
AcDbArc
 50
-90.0
 51
0.0
  0
ARC
  5
13A
330
1F
100
AcDbEntity
  8
1
  6
Continuous
 62
     7
100
AcDbCircle
 10
-50.49345348867082
 20
35.32599471134816
 30
0.0
 40
0.9999999999997939
100
AcDbArc
 50
90.0
 51
-179.999999999987
  0
ARC
  5
13B
330
1F
100
AcDbEntity
  8
1
  6
Continuous
 62
     7
100
AcDbCircle
 10
-50.49345348867082
 20
21.32599471134816
 30
0.0
 40
1.0
100
AcDbArc
 50
180.0
 51
-90.0
  0
ARC
  5
13C
330
1F
100
AcDbEntity
  8
1
  6
Continuous
 62
     7
100
AcDbCircle
 10
-44.49345348867082
 20
19.32599471134816
 30
0.0
 40
1.000000000000213
100
AcDbArc
 50
0.0
 51
89.99999999998779
  0
ARC
  5
13D
330
1F
100
AcDbEntity
  8
1
  6
Continuous
 62
     7
100
AcDbCircle
 10
-44.49345348867082
 20
11.32599471134811
 30
0.0
 40
1.0
100
AcDbArc
 50
-89.99999999998779
 51
0.0
  0
ARC
  5
13E
330
1F
100
AcDbEntity
  8
1
  6
Continuous
 62
     7
100
AcDbCircle
 10
-50.49345348867082
 20
9.32599471134811
 30
0.0
 40
1.000000000000002
100
AcDbArc
 50
90.0
 51
180.0
  0
ARC
  5
13F
330
1F
100
AcDbEntity
  8
1
  6
Continuous
 62
     7
100
AcDbCircle
 10
-49.49345348867082
 20
59.32599471134817
 30
0.0
 40
1.999999999999986
100
AcDbArc
 50
90.0
 51
180.0
  0
ARC
  5
140
330
1F
100
AcDbEntity
  8
1
  6
Continuous
 62
     7
100
AcDbCircle
 10
-49.49345348867082
 20
-2.67400528865184
 30
0.0
 40
2.0
100
AcDbArc
 50
180.0
 51
-90.0
  0
DIMENSION
  5
14C
330
1F
100
AcDbEntity
  8
1
100
AcDbDimension
  2
*D1
 10
-8.49345348867082
 20
-38.88578635213443
 30
0.0
 11
0.68299400972727
 21
-35.13578635213443
 31
0.0
 70
    32
  1
<>
 71
     5
 42
-1.0
 53
0.00013888888889
  3
ME10_DIM_10
100
AcDbAlignedDimension
 13
9.50654651132919
 23
-1.17400528865184
 33
0.0
 14
-8.49345348867082
 24
-19.67400528865184
 34
0.0
100
AcDbRotatedDimension
  0
DIMENSION
  5
159
330
1F
100
AcDbEntity
  8
1
100
AcDbDimension
  2
*D2
 10
9.50654651132919
 20
72.64283197208982
 30
0.0
 11
15.30170436979833
 21
76.39283197208982
 31
0.0
 70
    32
  1
<>
 71
     5
 42
-1.0
 53
0.00013888888889
  3
ME10_DIM_11
100
AcDbAlignedDimension
 13
5.50654651132918
 23
36.32599471134817
 33
0.0
 14
9.50654651132919
 24
33.32599471134817
 34
0.0
100
AcDbRotatedDimension
  0
DIMENSION
  5
164
330
1F
100
AcDbEntity
  8
1
100
AcDbDimension
  2
*D3
 10
5.50654651132918
 20
72.64283197208982
 30
0.0
 11
-3.74345348867082
 21
76.39283197208982
 31
0.0
 70
    32
  1
<>
 71
     5
 42
-1.0
 53
0.00013888888889
  3
ME10_DIM_12
100
AcDbAlignedDimension
 13
-12.99345348867082
 23
37.32599471134816
 33
0.0
 14
5.50654651132918
 24
36.32599471134817
 34
0.0
100
AcDbRotatedDimension
  0
ENDSEC
  0
SECTION
  2
OBJECTS
  0
DICTIONARY
  5
C
330
0
100
AcDbDictionary
281
     1
  3
ACAD_GROUP
350
D
  3
ACAD_LAYOUT
350
1A
  3
ACAD_MLINESTYLE
350
17
  3
ACAD_PLOTSETTINGS
350
19
  3
ACAD_PLOTSTYLENAME
350
E
  0
DICTIONARY
  5
D
102
{ACAD_REACTORS
330
C
102
}
330
C
100
AcDbDictionary
281
     1
  0
DICTIONARY
  5
1A
102
{ACAD_REACTORS
330
C
102
}
330
C
100
AcDbDictionary
281
     1
  3
Layout1
350
1E
  3
Layout2
350
26
  3
Model
350
22
  0
DICTIONARY
  5
17
102
{ACAD_REACTORS
330
C
102
}
330
C
100
AcDbDictionary
281
     1
  3
Standard
350
18
  0
DICTIONARY
  5
19
102
{ACAD_REACTORS
330
C
102
}
330
C
100
AcDbDictionary
281
     1
  0
ACDBDICTIONARYWDFLT
  5
E
102
{ACAD_REACTORS
330
C
102
}
330
C
100
AcDbDictionary
281
     1
  3
Normal
350
F
100
AcDbDictionaryWithDefault
340
F
  0
LAYOUT
  5
1E
102
{ACAD_REACTORS
330
1A
102
}
330
1A
100
AcDbPlotSettings
  1

  2

  4

  6

 40
0.0
 41
0.0
 42
0.0
 43
0.0
 44
0.0
 45
0.0
 46
0.0
 47
0.0
 48
0.0
 49
0.0
140
0.0
141
0.0
142
1.0
143
1.0
 70
   688
 72
     0
 73
     0
 74
     5
  7

 75
    16
 76
     0
 77
     2
 78
   300
147
1.0
148
0.0
149
0.0
100
AcDbLayout
  1
Layout1
 70
     1
 71
     1
 10
0.0
 20
0.0
 11
0.0
 21
0.0
 12
0.0
 22
0.0
 32
0.0
 14
0.0
 24
0.0
 34
0.0
 15
0.0
 25
0.0
 35
0.0
146
0.0
 13
0.0
 23
0.0
 33
0.0
 16
1.0
 26
0.0
 36
0.0
 17
0.0
 27
1.0
 37
0.0
 76
     0
330
1B
  0
LAYOUT
  5
26
102
{ACAD_REACTORS
330
1A
102
}
330
1A
100
AcDbPlotSettings
  1

  2

  4

  6

 40
0.0
 41
0.0
 42
0.0
 43
0.0
 44
0.0
 45
0.0
 46
0.0
 47
0.0
 48
0.0
 49
0.0
140
0.0
141
0.0
142
1.0
143
1.0
 70
   688
 72
     0
 73
     0
 74
     5
  7

 75
    16
 76
     0
 77
     2
 78
   300
147
1.0
148
0.0
149
0.0
100
AcDbLayout
  1
Layout2
 70
     1
 71
     2
 10
0.0
 20
0.0
 11
0.0
 21
0.0
 12
0.0
 22
0.0
 32
0.0
 14
0.0
 24
0.0
 34
0.0
 15
0.0
 25
0.0
 35
0.0
146
0.0
 13
0.0
 23
0.0
 33
0.0
 16
1.0
 26
0.0
 36
0.0
 17
0.0
 27
1.0
 37
0.0
 76
     0
330
23
  0
LAYOUT
  5
22
102
{ACAD_REACTORS
330
1A
102
}
330
1A
100
AcDbPlotSettings
  1

  2

  4

  6

 40
0.0
 41
0.0
 42
0.0
 43
0.0
 44
0.0
 45
0.0
 46
0.0
 47
0.0
 48
0.0
 49
0.0
140
0.0
141
0.0
142
1.0
143
1.0
 70
  1712
 72
     0
 73
     0
 74
     0
  7

 75
     0
 76
     0
 77
     2
 78
   300
147
1.0
148
0.0
149
0.0
100
AcDbLayout
  1
Model
 70
     1
 71
     0
 10
0.0
 20
0.0
 11
0.0
 21
0.0
 12
0.0
 22
0.0
 32
0.0
 14
-51.49345348867082
 24
-40.88578635213443
 34
0.0
 15
68.50654651132919
 25
78.14283197208982
 35
0.0
146
0.0
 13
0.0
 23
0.0
 33
0.0
 16
1.0
 26
0.0
 36
0.0
 17
0.0
 27
1.0
 37
0.0
 76
     0
330
1F
  0
MLINESTYLE
  5
18
102
{ACAD_REACTORS
330
17
102
}
330
17
100
AcDbMlineStyle
  2
Standard
 70
     0
  3

 62
   256
 51
90.0
 52
90.0
 71
     2
 49
0.5
 62
   256
  6
BYLAYER
 49
-0.5
 62
   256
  6
BYLAYER
  0
ACDBPLACEHOLDER
  5
F
102
{ACAD_REACTORS
330
E
102
}
330
E
  0
ENDSEC
  0
EOF
