  0
SECTION
  2
HEADER
  9
$ACADVER
  1
AC1018
  9
$ACADMAINTVER
 70
     0
  9
$DWGCODEPAGE
  3
ANSI_1252
  9
$INSBASE
 10
0.0
 20
0.0
 30
0.0
  9
$EXTMIN
 10
14.9462440089748
 20
120.7839803310072
 30
0.0
  9
$EXTMAX
 10
161.212447821401
 20
225.4803602574422
 30
0.0
  9
$LIMMIN
 10
0.0
 20
0.0
  9
$LIMMAX
 10
12.0
 20
9.0
  9
$ORTHOMODE
 70
     0
  9
$REGENMODE
 70
     1
  9
$FILLMODE
 70
     1
  9
$QTEXTMODE
 70
     0
  9
$MIRRTEXT
 70
     1
  9
$LTSCALE
 40
1.0
  9
$ATTMODE
 70
     1
  9
$TEXTSIZE
 40
0.2
  9
$TRACEWID
 40
0.05
  9
$TEXTSTYLE
  7
Standard
  9
$CLAYER
  8
0
  9
$CELTYPE
  6
ByLayer
  9
$CECOLOR
 62
   256
  9
$CELTSCALE
 40
1.0
  9
$DISPSILH
 70
     0
  9
$DIMSCALE
 40
1.0
  9
$DIMASZ
 40
0.18
  9
$DIMEXO
 40
0.0625
  9
$DIMDLI
 40
0.38
  9
$DIMRND
 40
0.0
  9
$DIMDLE
 40
0.0
  9
$DIMEXE
 40
0.18
  9
$DIMTP
 40
0.0
  9
$DIMTM
 40
0.0
  9
$DIMTXT
 40
0.18
  9
$DIMCEN
 40
0.09
  9
$DIMTSZ
 40
0.0
  9
$DIMTOL
 70
     0
  9
$DIMLIM
 70
     0
  9
$DIMTIH
 70
     1
  9
$DIMTOH
 70
     1
  9
$DIMSE1
 70
     0
  9
$DIMSE2
 70
     0
  9
$DIMTAD
 70
     0
  9
$DIMZIN
 70
     0
  9
$DIMBLK
  1

  9
$DIMASO
 70
     1
  9
$DIMSHO
 70
     1
  9
$DIMPOST
  1

  9
$DIMAPOST
  1

  9
$DIMALT
 70
     0
  9
$DIMALTD
 70
     2
  9
$DIMALTF
 40
25.4
  9
$DIMLFAC
 40
1.0
  9
$DIMTOFL
 70
     0
  9
$DIMTVP
 40
0.0
  9
$DIMTIX
 70
     0
  9
$DIMSOXD
 70
     0
  9
$DIMSAH
 70
     0
  9
$DIMBLK1
  1

  9
$DIMBLK2
  1

  9
$DIMSTYLE
  2
Standard
  9
$DIMCLRD
 70
     0
  9
$DIMCLRE
 70
     0
  9
$DIMCLRT
 70
     0
  9
$DIMTFAC
 40
1.0
  9
$DIMGAP
 40
0.09
  9
$DIMJUST
 70
     0
  9
$DIMSD1
 70
     0
  9
$DIMSD2
 70
     0
  9
$DIMTOLJ
 70
     1
  9
$DIMTZIN
 70
     0
  9
$DIMALTZ
 70
     0
  9
$DIMALTTZ
 70
     0
  9
$DIMUPT
 70
     0
  9
$DIMDEC
 70
     4
  9
$DIMTDEC
 70
     4
  9
$DIMALTU
 70
     2
  9
$DIMALTTD
 70
     2
  9
$DIMTXSTY
  7
Standard
  9
$DIMAUNIT
 70
     0
  9
$DIMADEC
 70
     0
  9
$DIMALTRND
 40
0.0
  9
$DIMAZIN
 70
     0
  9
$DIMDSEP
 70
    46
  9
$DIMATFIT
 70
     3
  9
$DIMFRAC
 70
     0
  9
$DIMLDRBLK
  1

  9
$DIMLUNIT
 70
     2
  9
$DIMLWD
 70
    -2
  9
$DIMLWE
 70
    -2
  9
$DIMTMOVE
 70
     0
  9
$LUNITS
 70
     2
  9
$LUPREC
 70
     4
  9
$SKETCHINC
 40
0.1
  9
$FILLETRAD
 40
0.5
  9
$AUNITS
 70
     0
  9
$AUPREC
 70
     0
  9
$MENU
  1
.
  9
$ELEVATION
 40
0.0
  9
$PELEVATION
 40
0.0
  9
$THICKNESS
 40
0.0
  9
$LIMCHECK
 70
     0
  9
$CHAMFERA
 40
0.5
  9
$CHAMFERB
 40
0.5
  9
$CHAMFERC
 40
1.0
  9
$CHAMFERD
 40
0.0
  9
$SKPOLY
 70
     0
  9
$TDCREATE
 40
2454532.482932789
  9
$TDUCREATE
 40
2454532.441266123
  9
$TDUPDATE
 40
2454532.482932801
  9
$TDUUPDATE
 40
2454532.441266134
  9
$TDINDWG
 40
0.0000000116
  9
$TDUSRTIMER
 40
0.0000000116
  9
$USRTIMER
 70
     1
  9
$ANGBASE
 50
0.0
  9
$ANGDIR
 70
     0
  9
$PDMODE
 70
     0
  9
$PDSIZE
 40
0.0
  9
$PLINEWID
 40
0.0
  9
$SPLFRAME
 70
     0
  9
$SPLINETYPE
 70
     6
  9
$SPLINESEGS
 70
     8
  9
$HANDSEED
  5
A9
  9
$SURFTAB1
 70
     6
  9
$SURFTAB2
 70
     6
  9
$SURFTYPE
 70
     6
  9
$SURFU
 70
     6
  9
$SURFV
 70
     6
  9
$UCSBASE
  2

  9
$UCSNAME
  2

  9
$UCSORG
 10
0.0
 20
0.0
 30
0.0
  9
$UCSXDIR
 10
1.0
 20
0.0
 30
0.0
  9
$UCSYDIR
 10
0.0
 20
1.0
 30
0.0
  9
$UCSORTHOREF
  2

  9
$UCSORTHOVIEW
 70
     0
  9
$UCSORGTOP
 10
0.0
 20
0.0
 30
0.0
  9
$UCSORGBOTTOM
 10
0.0
 20
0.0
 30
0.0
  9
$UCSORGLEFT
 10
0.0
 20
0.0
 30
0.0
  9
$UCSORGRIGHT
 10
0.0
 20
0.0
 30
0.0
  9
$UCSORGFRONT
 10
0.0
 20
0.0
 30
0.0
  9
$UCSORGBACK
 10
0.0
 20
0.0
 30
0.0
  9
$PUCSBASE
  2

  9
$PUCSNAME
  2

  9
$PUCSORG
 10
0.0
 20
0.0
 30
0.0
  9
$PUCSXDIR
 10
1.0
 20
0.0
 30
0.0
  9
$PUCSYDIR
 10
0.0
 20
1.0
 30
0.0
  9
$PUCSORTHOREF
  2

  9
$PUCSORTHOVIEW
 70
     0
  9
$PUCSORGTOP
 10
0.0
 20
0.0
 30
0.0
  9
$PUCSORGBOTTOM
 10
0.0
 20
0.0
 30
0.0
  9
$PUCSORGLEFT
 10
0.0
 20
0.0
 30
0.0
  9
$PUCSORGRIGHT
 10
0.0
 20
0.0
 30
0.0
  9
$PUCSORGFRONT
 10
0.0
 20
0.0
 30
0.0
  9
$PUCSORGBACK
 10
0.0
 20
0.0
 30
0.0
  9
$USERI1
 70
     0
  9
$USERI2
 70
     0
  9
$USERI3
 70
     0
  9
$USERI4
 70
     0
  9
$USERI5
 70
     0
  9
$USERR1
 40
14.5
  9
$USERR2
 40
0.0
  9
$USERR3
 40
0.0
  9
$USERR4
 40
0.0
  9
$USERR5
 40
0.0
  9
$WORLDVIEW
 70
     1
  9
$SHADEDGE
 70
     3
  9
$SHADEDIF
 70
    70
  9
$TILEMODE
 70
     1
  9
$MAXACTVP
 70
    64
  9
$PINSBASE
 10
0.0
 20
0.0
 30
0.0
  9
$PLIMCHECK
 70
     0
  9
$PEXTMIN
 10
1.00000000000000E+20
 20
1.00000000000000E+20
 30
1.00000000000000E+20
  9
$PEXTMAX
 10
-1.00000000000000E+20
 20
-1.00000000000000E+20
 30
-1.00000000000000E+20
  9
$PLIMMIN
 10
0.0
 20
0.0
  9
$PLIMMAX
 10
12.0
 20
9.0
  9
$UNITMODE
 70
     0
  9
$VISRETAIN
 70
     1
  9
$PLINEGEN
 70
     0
  9
$PSLTSCALE
 70
     1
  9
$TREEDEPTH
 70
  3020
  9
$CMLSTYLE
  2
Standard
  9
$CMLJUST
 70
     0
  9
$CMLSCALE
 40
1.0
  9
$PROXYGRAPHICS
 70
     1
  9
$MEASUREMENT
 70
     1
  9
$CELWEIGHT
370
    -1
  9
$ENDCAPS
280
     0
  9
$JOINSTYLE
280
     0
  9
$LWDISPLAY
290
     0
  9
$INSUNITS
 70
     1
  9
$HYPERLINKBASE
  1

  9
$STYLESHEET
  1

  9
$XEDIT
290
     1
  9
$CEPSNTYPE
380
     0
  9
$PSTYLEMODE
290
     1
  9
$FINGERPRINTGUID
  2
{02B47523-2B37-47B7-8EE2-EF928BB76AC0}
  9
$VERSIONGUID
  2
{FAEB1C32-E019-11D5-929B-00C0DF256EC4}
  9
$EXTNAMES
290
     1
  9
$PSVPSCALE
 40
0.0
  9
$OLESTARTUP
290
     0
  9
$SORTENTS
280
   127
  9
$INDEXCTL
280
     0
  9
$HIDETEXT
280
     1
  9
$XCLIPFRAME
290
     0
  9
$HALOGAP
280
     0
  9
$OBSCOLOR
 70
   257
  9
$OBSLTYPE
280
     0
  9
$INTERSECTIONDISPLAY
280
     0
  9
$INTERSECTIONCOLOR
 70
   257
  9
$DIMASSOC
280
     2
  9
$PROJECTNAME
  1

  0
ENDSEC
  0
SECTION
  2
CLASSES
  0
CLASS
  1
ACDBDICTIONARYWDFLT
  2
AcDbDictionaryWithDefault
  3
ObjectDBX Classes
 90
        0
 91
        3
280
     0
281
     0
  0
ENDSEC
  0
SECTION
  2
TABLES
  0
TABLE
  2
VPORT
  5
8
330
0
100
AcDbSymbolTable
 70
     1
  0
VPORT
  5
29
330
8
100
AcDbSymbolTableRecord
100
AcDbViewportTableRecord
  2
*Active
 70
     0
 10
0.0
 20
0.0
 11
1.0
 21
1.0
 12
88.0793459151879
 22
173.1321702942247
 13
0.0
 23
0.0
 14
0.5
 24
0.5
 15
0.5
 25
0.5
 16
0.0
 26
0.0
 36
1.0
 17
0.0
 27
0.0
 37
0.0
 40
115.1660179190785
 41
1.60267857142857
 42
50.0
 43
0.0
 44
0.0
 50
0.0
 51
0.0
 71
     0
 72
   100
 73
     1
 74
     3
 75
     0
 76
     0
 77
     0
 78
     0
281
     0
 65
     1
110
0.0
120
0.0
130
0.0
111
1.0
121
0.0
131
0.0
112
0.0
122
1.0
132
0.0
 79
     0
146
0.0
  0
ENDTAB
  0
TABLE
  2
LTYPE
  5
5
330
0
100
AcDbSymbolTable
 70
     8
  0
LTYPE
  5
14
330
5
100
AcDbSymbolTableRecord
100
AcDbLinetypeTableRecord
  2
ByBlock
 70
     0
  3

 72
    65
 73
     0
 40
0.0
  0
LTYPE
  5
15
330
5
100
AcDbSymbolTableRecord
100
AcDbLinetypeTableRecord
  2
ByLayer
 70
     0
  3

 72
    65
 73
     0
 40
0.0
  0
LTYPE
  5
16
330
5
100
AcDbSymbolTableRecord
100
AcDbLinetypeTableRecord
  2
Continuous
 70
     0
  3
Solid line
 72
    65
 73
     0
 40
0.0
  0
LTYPE
  5
2A
330
5
100
AcDbSymbolTableRecord
100
AcDbLinetypeTableRecord
  2
DASHED
 70
     0
  3
Dashed
 72
    65
 73
     2
 40
15.0
 49
7.0
 74
     0
 49
-8.0
 74
     0
  0
LTYPE
  5
2B
330
5
100
AcDbSymbolTableRecord
100
AcDbLinetypeTableRecord
  2
DOTTED
 70
     0
  3
Dotted
 72
    65
 73
     2
 40
1.0
 49
0.0
 74
     0
 49
-1.0
 74
     0
  0
LTYPE
  5
2C
330
5
100
AcDbSymbolTableRecord
100
AcDbLinetypeTableRecord
  2
DOT_CENTER
 70
     0
  3
Dot_Center
 72
    65
 73
     4
 40
14.0
 49
12.0
 74
     0
 49
-1.0
 74
     0
 49
0.0
 74
     0
 49
-1.0
 74
     0
  0
LTYPE
  5
2D
330
5
100
AcDbSymbolTableRecord
100
AcDbLinetypeTableRecord
  2
LONG_DASHED
 70
     0
  3
Long_Dashed
 72
    65
 73
     2
 40
15.0
 49
10.0
 74
     0
 49
-5.0
 74
     0
  0
LTYPE
  5
2E
330
5
100
AcDbSymbolTableRecord
100
AcDbLinetypeTableRecord
  2
DASH_CENTER
 70
     0
  3
Dash_Center
 72
    65
 73
     4
 40
14.0
 49
11.0
 74
     0
 49
-1.0
 74
     0
 49
1.0
 74
     0
 49
-1.0
 74
     0
  0
LTYPE
  5
2F
330
5
100
AcDbSymbolTableRecord
100
AcDbLinetypeTableRecord
  2
PHANTOM
 70
     0
  3
Phantom
 72
    65
 73
     6
 40
13.0
 49
10.0
 74
     0
 49
-1.0
 74
     0
 49
0.0
 74
     0
 49
-1.0
 74
     0
 49
0.0
 74
     0
 49
-1.0
 74
     0
  0
LTYPE
  5
30
330
5
100
AcDbSymbolTableRecord
100
AcDbLinetypeTableRecord
  2
CENTER_DASH_DASH
 70
     0
  3
Center_Dash_Dash
 72
    65
 73
     6
 40
14.0
 49
9.0
 74
     0
 49
-1.0
 74
     0
 49
1.0
 74
     0
 49
-1.0
 74
     0
 49
1.0
 74
     0
 49
-1.0
 74
     0
  0
ENDTAB
  0
TABLE
  2
LAYER
  5
2
330
0
100
AcDbSymbolTable
 70
     2
  0
LAYER
  5
10
330
2
100
AcDbSymbolTableRecord
100
AcDbLayerTableRecord
  2
0
 70
     0
 62
     7
  6
Continuous
370
    -3
390
F
  0
LAYER
  5
31
330
2
100
AcDbSymbolTableRecord
100
AcDbLayerTableRecord
  2
1
 70
     0
 62
     7
  6
Continuous
370
    -3
390
F
  0
ENDTAB
  0
TABLE
  2
STYLE
  5
3
330
0
100
AcDbSymbolTable
 70
     2
  0
STYLE
  5
11
330
3
100
AcDbSymbolTableRecord
100
AcDbTextStyleTableRecord
  2
Standard
 70
     0
 40
0.0
 41
1.0
 50
0.0
 71
     0
 42
0.2
  3
txt
  4

  0
STYLE
  5
6C
330
3
100
AcDbSymbolTableRecord
100
AcDbTextStyleTableRecord
  2
CONVERTER_11
 70
     0
 40
0.0
 41
0.9
 50
0.0
 71
     0
 42
0.2
  3
txt.shx
  4

  0
ENDTAB
  0
TABLE
  2
VIEW
  5
6
330
0
100
AcDbSymbolTable
 70
     0
  0
ENDTAB
  0
TABLE
  2
UCS
  5
7
330
0
100
AcDbSymbolTable
 70
     0
  0
ENDTAB
  0
TABLE
  2
APPID
  5
9
330
0
100
AcDbSymbolTable
 70
     1
  0
APPID
  5
12
330
9
100
AcDbSymbolTableRecord
100
AcDbRegAppTableRecord
  2
ACAD
 70
     0
  0
ENDTAB
  0
TABLE
  2
DIMSTYLE
  5
A
330
0
100
AcDbSymbolTable
 70
     7
100
AcDbDimStyleTable
  0
DIMSTYLE
105
27
330
A
100
AcDbSymbolTableRecord
100
AcDbDimStyleTableRecord
  2
Standard
 70
     0
340
11
  0
DIMSTYLE
105
70
102
{ACAD_REACTORS
330
71
102
}
330
A
100
AcDbSymbolTableRecord
100
AcDbDimStyleTableRecord
  2
ME10_DIM_10
 70
     0
 41
3.5
 42
0.0
 44
2.0
 73
     0
 74
     0
 77
     1
 78
     8
140
3.5
147
2.0
172
     1
173
     1
176
     2
177
     2
178
     2
271
     2
340
6C
  0
DIMSTYLE
105
7B
102
{ACAD_REACTORS
330
7C
102
}
330
A
100
AcDbSymbolTableRecord
100
AcDbDimStyleTableRecord
  2
ME10_DIM_11
 70
     0
 41
3.5
 42
0.0
 44
2.0
 73
     0
 74
     0
 77
     1
 78
     8
140
3.5
147
2.0
172
     1
173
     1
176
     2
177
     2
178
     2
271
     2
340
6C
  0
DIMSTYLE
105
86
102
{ACAD_REACTORS
330
87
102
}
330
A
100
AcDbSymbolTableRecord
100
AcDbDimStyleTableRecord
  2
ME10_DIM_12
 70
     0
 41
3.5
 42
0.0
 44
2.0
 73
     0
 74
     0
 77
     1
 78
     8
140
3.5
147
2.0
172
     1
173
     1
176
     2
177
     2
178
     2
271
     2
340
6C
  0
DIMSTYLE
105
91
102
{ACAD_REACTORS
330
92
102
}
330
A
100
AcDbSymbolTableRecord
100
AcDbDimStyleTableRecord
  2
ME10_DIM_13
 70
     0
 41
3.5
 42
0.0
 44
2.0
 73
     0
 74
     0
 77
     1
 78
     8
140
3.5
147
2.0
172
     1
173
     1
176
     2
177
     2
178
     2
271
     2
340
6C
  0
DIMSTYLE
105
9C
102
{ACAD_REACTORS
330
9D
102
}
330
A
100
AcDbSymbolTableRecord
100
AcDbDimStyleTableRecord
  2
ME10_DIM_14
 70
     0
 41
3.5
 42
0.0
 44
2.0
 73
     0
 74
     0
 77
     1
 78
     8
140
3.5
147
2.0
172
     1
173
     1
176
     2
177
     2
178
     2
271
     2
340
6C
  0
DIMSTYLE
105
A7
102
{ACAD_REACTORS
330
A8
102
}
330
A
100
AcDbSymbolTableRecord
100
AcDbDimStyleTableRecord
  2
ME10_DIM_15
 70
     0
 41
3.5
 42
0.0
 44
2.0
 73
     0
 74
     0
 77
     1
 78
     8
140
3.5
147
2.0
172
     1
173
     1
176
     2
177
     2
178
     2
271
     2
340
6C
  0
ENDTAB
  0
TABLE
  2
BLOCK_RECORD
  5
1
330
0
100
AcDbSymbolTable
 70
     7
  0
BLOCK_RECORD
  5
1F
330
1
100
AcDbSymbolTableRecord
100
AcDbBlockTableRecord
  2
*Model_Space
340
22
  0
BLOCK_RECORD
  5
1B
330
1
100
AcDbSymbolTableRecord
100
AcDbBlockTableRecord
  2
*Paper_Space
340
1E
  0
BLOCK_RECORD
  5
23
330
1
100
AcDbSymbolTableRecord
100
AcDbBlockTableRecord
  2
*Paper_Space0
340
26
  0
BLOCK_RECORD
  5
66
330
1
100
AcDbSymbolTableRecord
100
AcDbBlockTableRecord
  2
*D1
340
0
  0
BLOCK_RECORD
  5
72
330
1
100
AcDbSymbolTableRecord
100
AcDbBlockTableRecord
  2
*D2
340
0
  0
BLOCK_RECORD
  5
7D
330
1
100
AcDbSymbolTableRecord
100
AcDbBlockTableRecord
  2
*D3
340
0
  0
BLOCK_RECORD
  5
88
330
1
100
AcDbSymbolTableRecord
100
AcDbBlockTableRecord
  2
*D4
340
0
  0
BLOCK_RECORD
  5
93
330
1
100
AcDbSymbolTableRecord
100
AcDbBlockTableRecord
  2
*D5
340
0
  0
BLOCK_RECORD
  5
9E
330
1
100
AcDbSymbolTableRecord
100
AcDbBlockTableRecord
  2
*D6
340
0
  0
ENDTAB
  0
ENDSEC
  0
SECTION
  2
BLOCKS
  0
BLOCK
  5
20
330
1F
100
AcDbEntity
  8
0
100
AcDbBlockBegin
  2
*Model_Space
 70
     0
 71
     0
 10
0.0
 20
0.0
 30
0.0
  3
*Model_Space
  1

  0
ENDBLK
  5
21
330
1F
100
AcDbEntity
  8
0
100
AcDbBlockEnd
  0
BLOCK
  5
1C
330
1B
100
AcDbEntity
 67
     1
  8
0
100
AcDbBlockBegin
  2
*Paper_Space
 70
     0
 71
     0
 10
0.0
 20
0.0
 30
0.0
  3
*Paper_Space
  1

  0
ENDBLK
  5
1D
330
1B
100
AcDbEntity
 67
     1
  8
0
100
AcDbBlockEnd
  0
BLOCK
  5
24
330
23
100
AcDbEntity
  8
0
100
AcDbBlockBegin
  2
*Paper_Space0
 70
     0
 71
     0
 10
0.0
 20
0.0
 30
0.0
  3
*Paper_Space0
  1

  0
ENDBLK
  5
25
330
23
100
AcDbEntity
  8
0
100
AcDbBlockEnd
  0
BLOCK
  5
6E
330
66
100
AcDbEntity
  8
0
100
AcDbBlockBegin
  2
*D1
 70
     1
 71
     0
 10
0.0
 20
0.0
 30
0.0
  3
*D1
  1

  0
LINE
  5
67
330
66
100
AcDbEntity
  8
1
  6
Continuous
 62
     2
100
AcDbLine
 10
159.212447821401
 20
179.0615424034758
 30
0.0
 11
159.212447821401
 21
199.0615424034758
 31
0.0
  0
LINE
  5
68
330
66
100
AcDbEntity
  8
1
  6
Continuous
 62
     2
100
AcDbLine
 10
129.7279332791185
 20
199.0615424034758
 30
0.0
 11
161.212447821401
 21
199.0615424034758
 31
0.0
  0
LINE
  5
69
330
66
100
AcDbEntity
  8
1
  6
Continuous
 62
     2
100
AcDbLine
 10
129.7279332791185
 20
179.0615424034758
 30
0.0
 11
161.212447821401
 21
179.0615424034758
 31
0.0
  0
SOLID
  5
6A
330
66
100
AcDbEntity
  8
1
 62
     2
100
AcDbTrace
 10
159.6732315629569
 20
195.5615424034758
 30
0.0
 11
158.7516640798451
 21
195.5615424034758
 31
0.0
 12
159.212447821401
 22
199.0615424034758
 32
0.0
 13
159.212447821401
 23
199.0615424034758
 33
0.0
  0
SOLID
  5
6B
330
66
100
AcDbEntity
  8
1
 62
     2
100
AcDbTrace
 10
158.7516640798451
 20
182.5615424034758
 30
0.0
 11
159.6732315629569
 21
182.5615424034758
 31
0.0
 12
159.212447821401
 22
179.0615424034758
 32
0.0
 13
159.212447821401
 23
179.0615424034758
 33
0.0
  0
MTEXT
  5
6D
330
66
100
AcDbEntity
  8
1
 62
     2
100
AcDbMText
 10
157.212447821401
 20
186.1790015131912
 30
0.0
 40
3.5
 41
0.0
 71
     7
 72
     1
  1
20
  7
CONVERTER_11
 11
0.0
 21
1.0
 31
0.0
 73
     1
 44
0.60024009603842
  0
ENDBLK
  5
6F
330
66
100
AcDbEntity
  8
0
100
AcDbBlockEnd
  0
BLOCK
  5
79
330
72
100
AcDbEntity
  8
0
100
AcDbBlockBegin
  2
*D2
 70
     1
 71
     0
 10
0.0
 20
0.0
 30
0.0
  3
*D2
  1

  0
LINE
  5
73
330
72
100
AcDbEntity
  8
1
  6
Continuous
 62
     2
100
AcDbLine
 10
29.72793327911845
 20
219.9803602574422
 30
0.0
 11
139.7279332791184
 21
219.9803602574422
 31
0.0
  0
LINE
  5
74
330
72
100
AcDbEntity
  8
1
  6
Continuous
 62
     2
100
AcDbLine
 10
139.7279332791184
 20
189.0615424034758
 30
0.0
 11
139.7279332791184
 21
221.9803602574422
 31
0.0
  0
LINE
  5
75
330
72
100
AcDbEntity
  8
1
  6
Continuous
 62
     2
100
AcDbLine
 10
29.72793327911845
 20
189.0615424034758
 30
0.0
 11
29.72793327911845
 21
221.9803602574422
 31
0.0
  0
SOLID
  5
76
330
72
100
AcDbEntity
  8
1
 62
     2
100
AcDbTrace
 10
33.22793327911845
 20
220.4411439989981
 30
0.0
 11
33.22793327911845
 21
219.5195765158863
 31
0.0
 12
29.72793327911845
 22
219.9803602574422
 32
0.0
 13
29.72793327911845
 23
219.9803602574422
 33
0.0
  0
SOLID
  5
77
330
72
100
AcDbEntity
  8
1
 62
     2
100
AcDbTrace
 10
136.2279332791184
 20
219.5195765158863
 30
0.0
 11
136.2279332791184
 21
220.4411439989981
 31
0.0
 12
139.7279332791184
 22
219.9803602574422
 32
0.0
 13
139.7279332791184
 23
219.9803602574422
 33
0.0
  0
MTEXT
  5
78
330
72
100
AcDbEntity
  8
1
 62
     2
100
AcDbMText
 10
81.7703943050519
 20
221.9803602574422
 30
0.0
 40
3.5
 41
0.0
 71
     7
 72
     1
  1
110
  7
CONVERTER_11
 11
0.9999999999970621
 21
2.424068405545307E-6
 31
0.0
 73
     1
 44
0.60024009603842
  0
ENDBLK
  5
7A
330
72
100
AcDbEntity
  8
0
100
AcDbBlockEnd
  0
BLOCK
  5
84
330
7D
100
AcDbEntity
  8
0
100
AcDbBlockBegin
  2
*D3
 70
     1
 71
     0
 10
0.0
 20
0.0
 30
0.0
  3
*D3
  1

  0
LINE
  5
7E
330
7D
100
AcDbEntity
  8
1
  6
Continuous
 62
     2
100
AcDbLine
 10
32.72793327911845
 20
122.7839803310072
 30
0.0
 11
60.72793327911845
 21
122.7839803310072
 31
0.0
  0
LINE
  5
7F
330
7D
100
AcDbEntity
  8
1
  6
Continuous
 62
     2
100
AcDbLine
 10
60.72793327911845
 20
162.0615424034758
 30
0.0
 11
60.72793327911845
 21
120.7839803310072
 31
0.0
  0
LINE
  5
80
330
7D
100
AcDbEntity
  8
1
  6
Continuous
 62
     2
100
AcDbLine
 10
32.72793327911845
 20
162.0615424034758
 30
0.0
 11
32.72793327911845
 21
120.7839803310072
 31
0.0
  0
SOLID
  5
81
330
7D
100
AcDbEntity
  8
1
 62
     2
100
AcDbTrace
 10
36.22793327911845
 20
123.2447640725631
 30
0.0
 11
36.22793327911845
 21
122.3231965894513
 31
0.0
 12
32.72793327911845
 22
122.7839803310072
 32
0.0
 13
32.72793327911845
 23
122.7839803310072
 33
0.0
  0
SOLID
  5
82
330
7D
100
AcDbEntity
  8
1
 62
     2
100
AcDbTrace
 10
57.22793327911845
 20
122.3231965894513
 30
0.0
 11
57.22793327911845
 21
123.2447640725631
 31
0.0
 12
60.72793327911845
 22
122.7839803310072
 32
0.0
 13
60.72793327911845
 23
122.7839803310072
 33
0.0
  0
MTEXT
  5
83
330
7D
100
AcDbEntity
  8
1
 62
     2
100
AcDbMText
 10
43.4627980696676
 20
124.7839803310072
 30
0.0
 40
3.5
 41
0.0
 71
     7
 72
     1
  1
28
  7
CONVERTER_11
 11
0.9999999999970621
 21
2.424068405545307E-6
 31
0.0
 73
     1
 44
0.60024009603842
  0
ENDBLK
  5
85
330
7D
100
AcDbEntity
  8
0
100
AcDbBlockEnd
  0
BLOCK
  5
8F
330
88
100
AcDbEntity
  8
0
100
AcDbBlockBegin
  2
*D4
 70
     1
 71
     0
 10
0.0
 20
0.0
 30
0.0
  3
*D4
  1

  0
LINE
  5
89
330
88
100
AcDbEntity
  8
1
  6
Continuous
 62
     2
100
AcDbLine
 10
108.7279332791185
 20
122.7839803310072
 30
0.0
 11
136.7279332791185
 21
122.7839803310072
 31
0.0
  0
LINE
  5
8A
330
88
100
AcDbEntity
  8
1
  6
Continuous
 62
     2
100
AcDbLine
 10
136.7279332791185
 20
162.0615424034758
 30
0.0
 11
136.7279332791185
 21
120.7839803310072
 31
0.0
  0
LINE
  5
8B
330
88
100
AcDbEntity
  8
1
  6
Continuous
 62
     2
100
AcDbLine
 10
108.7279332791185
 20
162.0615424034758
 30
0.0
 11
108.7279332791185
 21
120.7839803310072
 31
0.0
  0
SOLID
  5
8C
330
88
100
AcDbEntity
  8
1
 62
     2
100
AcDbTrace
 10
112.2279332791185
 20
123.2447640725631
 30
0.0
 11
112.2279332791185
 21
122.3231965894513
 31
0.0
 12
108.7279332791185
 22
122.7839803310072
 32
0.0
 13
108.7279332791185
 23
122.7839803310072
 33
0.0
  0
SOLID
  5
8D
330
88
100
AcDbEntity
  8
1
 62
     2
100
AcDbTrace
 10
133.2279332791185
 20
122.3231965894513
 30
0.0
 11
133.2279332791185
 21
123.2447640725631
 31
0.0
 12
136.7279332791185
 22
122.7839803310072
 32
0.0
 13
136.7279332791185
 23
122.7839803310072
 33
0.0
  0
MTEXT
  5
8E
330
88
100
AcDbEntity
  8
1
 62
     2
100
AcDbMText
 10
120.1029332791185
 20
124.7839803310072
 30
0.0
 40
3.5
 41
0.0
 71
     7
 72
     1
  1
28
  7
CONVERTER_11
 11
0.9999999999970621
 21
2.424068405545307E-6
 31
0.0
 73
     1
 44
0.60024009603842
  0
ENDBLK
  5
90
330
88
100
AcDbEntity
  8
0
100
AcDbBlockEnd
  0
BLOCK
  5
9A
330
93
100
AcDbEntity
  8
0
100
AcDbBlockBegin
  2
*D5
 70
     1
 71
     0
 10
0.0
 20
0.0
 30
0.0
  3
*D5
  1

  0
LINE
  5
94
330
93
100
AcDbEntity
  8
1
  6
Continuous
 62
     2
100
AcDbLine
 10
84.72793327911846
 20
122.7839803310072
 30
0.0
 11
108.7279332791185
 21
122.7839803310072
 31
0.0
  0
LINE
  5
95
330
93
100
AcDbEntity
  8
1
  6
Continuous
 62
     2
100
AcDbLine
 10
108.7279332791185
 20
162.0615424034758
 30
0.0
 11
108.7279332791185
 21
120.7839803310072
 31
0.0
  0
LINE
  5
96
330
93
100
AcDbEntity
  8
1
  6
Continuous
 62
     2
100
AcDbLine
 10
84.72793327911846
 20
131.8188898778342
 30
0.0
 11
84.72793327911846
 21
120.7839803310072
 31
0.0
  0
SOLID
  5
97
330
93
100
AcDbEntity
  8
1
 62
     2
100
AcDbTrace
 10
88.22793327911846
 20
123.2447640725631
 30
0.0
 11
88.22793327911846
 21
122.3231965894513
 31
0.0
 12
84.72793327911846
 22
122.7839803310072
 32
0.0
 13
84.72793327911846
 23
122.7839803310072
 33
0.0
  0
SOLID
  5
98
330
93
100
AcDbEntity
  8
1
 62
     2
100
AcDbTrace
 10
105.2279332791185
 20
122.3231965894513
 30
0.0
 11
105.2279332791185
 21
123.2447640725631
 31
0.0
 12
108.7279332791185
 22
122.7839803310072
 32
0.0
 13
108.7279332791185
 23
122.7839803310072
 33
0.0
  0
MTEXT
  5
99
330
93
100
AcDbEntity
  8
1
 62
     2
100
AcDbMText
 10
94.10293327911846
 20
124.7839803310072
 30
0.0
 40
3.5
 41
0.0
 71
     7
 72
     1
  1
24
  7
CONVERTER_11
 11
0.9999999999970621
 21
2.424068405545307E-6
 31
0.0
 73
     1
 44
0.60024009603842
  0
ENDBLK
  5
9B
330
93
100
AcDbEntity
  8
0
100
AcDbBlockEnd
  0
BLOCK
  5
A5
330
9E
100
AcDbEntity
  8
0
100
AcDbBlockBegin
  2
*D6
 70
     1
 71
     0
 10
0.0
 20
0.0
 30
0.0
  3
*D6
  1

  0
LINE
  5
9F
330
9E
100
AcDbEntity
  8
1
  6
Continuous
 62
     2
100
AcDbLine
 10
60.72793327911845
 20
122.7839803310072
 30
0.0
 11
84.72793327911846
 21
122.7839803310072
 31
0.0
  0
LINE
  5
A0
330
9E
100
AcDbEntity
  8
1
  6
Continuous
 62
     2
100
AcDbLine
 10
84.72793327911846
 20
131.8188898778342
 30
0.0
 11
84.72793327911846
 21
120.7839803310072
 31
0.0
  0
LINE
  5
A1
330
9E
100
AcDbEntity
  8
1
  6
Continuous
 62
     2
100
AcDbLine
 10
60.72793327911845
 20
162.0615424034758
 30
0.0
 11
60.72793327911845
 21
120.7839803310072
 31
0.0
  0
SOLID
  5
A2
330
9E
100
AcDbEntity
  8
1
 62
     2
100
AcDbTrace
 10
64.22793327911845
 20
123.2447640725631
 30
0.0
 11
64.22793327911845
 21
122.3231965894513
 31
0.0
 12
60.72793327911845
 22
122.7839803310072
 32
0.0
 13
60.72793327911845
 23
122.7839803310072
 33
0.0
  0
SOLID
  5
A3
330
9E
100
AcDbEntity
  8
1
 62
     2
100
AcDbTrace
 10
81.22793327911846
 20
122.3231965894513
 30
0.0
 11
81.22793327911846
 21
123.2447640725631
 31
0.0
 12
84.72793327911846
 22
122.7839803310072
 32
0.0
 13
84.72793327911846
 23
122.7839803310072
 33
0.0
  0
MTEXT
  5
A4
330
9E
100
AcDbEntity
  8
1
 62
     2
100
AcDbMText
 10
70.10293327911845
 20
124.7839803310072
 30
0.0
 40
3.5
 41
0.0
 71
     7
 72
     1
  1
24
  7
CONVERTER_11
 11
0.9999999999970621
 21
2.424068405545307E-6
 31
0.0
 73
     1
 44
0.60024009603842
  0
ENDBLK
  5
A6
330
9E
100
AcDbEntity
  8
0
100
AcDbBlockEnd
  0
ENDSEC
  0
SECTION
  2
ENTITIES
  0
LINE
  5
32
330
1F
100
AcDbEntity
  8
1
  6
DOT_CENTER
 62
     2
100
AcDbLine
 10
147.7279332791185
 20
213.5615424034758
 30
0.0
 11
151.9654628815272
 21
213.5615424034758
 31
0.0
  0
LINE
  5
33
330
1F
100
AcDbEntity
  8
1
  6
Continuous
 62
     7
100
AcDbLine
 10
20.7279332791184
 20
149.5615424034758
 30
0.0
 11
147.7279332791185
 21
149.5615424034758
 31
0.0
  0
LINE
  5
34
330
1F
100
AcDbEntity
  8
1
  6
DOT_CENTER
 62
     2
100
AcDbLine
 10
141.2279332791185
 20
189.0615424034758
 30
0.0
 11
51.22793327911845
 21
189.0615424034758
 31
0.0
  0
LINE
  5
35
330
1F
100
AcDbEntity
  8
1
  6
DOT_CENTER
 62
     2
100
AcDbLine
 10
129.7279332791185
 20
177.5615424034758
 30
0.0
 11
129.7279332791185
 21
200.5615424034758
 31
0.0
  0
LINE
  5
36
330
1F
100
AcDbEntity
  8
1
  6
DOT_CENTER
 62
     2
100
AcDbLine
 10
51.22793327911845
 20
189.0615424034758
 30
0.0
 11
28.2279332791184
 21
189.0615424034758
 31
0.0
  0
LINE
  5
37
330
1F
100
AcDbEntity
  8
1
  6
DOT_CENTER
 62
     2
100
AcDbLine
 10
39.72793327911845
 20
177.5615424034758
 30
0.0
 11
39.72793327911845
 21
200.5615424034758
 31
0.0
  0
LINE
  5
38
330
1F
100
AcDbEntity
  8
1
  6
DOT_CENTER
 62
     2
100
AcDbLine
 10
84.72793327911846
 20
131.8188898778342
 30
0.0
 11
84.72793327911845
 21
216.1476639511242
 31
0.0
  0
LINE
  5
39
330
1F
100
AcDbEntity
  8
1
  6
DOT_CENTER
 62
     2
100
AcDbLine
 10
147.7279332791185
 20
216.5875883801975
 30
0.0
 11
147.7279332791185
 21
213.5615424034758
 31
0.0
  0
LINE
  5
3A
330
1F
100
AcDbEntity
  8
1
  6
DOT_CENTER
 62
     2
100
AcDbLine
 10
147.7279332791185
 20
213.5615424034758
 30
0.0
 11
147.7279332791185
 21
163.5615424034758
 31
0.0
  0
LINE
  5
3B
330
1F
100
AcDbEntity
  8
1
  6
DOT_CENTER
 62
     2
100
AcDbLine
 10
147.7279332791185
 20
163.5615424034758
 30
0.0
 11
147.7279332791185
 21
134.5615424034758
 31
0.0
  0
LINE
  5
3C
330
1F
100
AcDbEntity
  8
1
  6
DOT_CENTER
 62
     2
100
AcDbLine
 10
147.7279332791185
 20
134.5615424034758
 30
0.0
 11
147.7279332791185
 21
130.8130800768594
 31
0.0
  0
LINE
  5
3D
330
1F
100
AcDbEntity
  8
1
  6
DOT_CENTER
 62
     2
100
AcDbLine
 10
20.7279332791184
 20
217.2378475441455
 30
0.0
 11
20.7279332791184
 21
213.5615424034758
 31
0.0
  0
LINE
  5
3E
330
1F
100
AcDbEntity
  8
1
  6
DOT_CENTER
 62
     2
100
AcDbLine
 10
14.9462440089748
 20
213.5615424034758
 30
0.0
 11
147.7279332791185
 21
213.5615424034758
 31
0.0
  0
LINE
  5
3F
330
1F
100
AcDbEntity
  8
1
  6
DOT_CENTER
 62
     2
100
AcDbLine
 10
20.7279332791184
 20
213.5615424034758
 30
0.0
 11
20.7279332791184
 21
163.5615424034758
 31
0.0
  0
LINE
  5
40
330
1F
100
AcDbEntity
  8
1
  6
Continuous
 62
     7
100
AcDbLine
 10
20.7279332791184
 20
163.5615424034758
 30
0.0
 11
29.7279332791184
 21
163.5615424034758
 31
0.0
  0
LINE
  5
41
330
1F
100
AcDbEntity
  8
1
  6
DOT_CENTER
 62
     2
100
AcDbLine
 10
20.7279332791184
 20
163.5615424034758
 30
0.0
 11
20.7279332791184
 21
134.5615424034758
 31
0.0
  0
LINE
  5
42
330
1F
100
AcDbEntity
  8
1
  6
Continuous
 62
     7
100
AcDbLine
 10
20.7279332791184
 20
134.5615424034758
 30
0.0
 11
147.7279332791185
 21
134.5615424034758
 31
0.0
  0
LINE
  5
43
330
1F
100
AcDbEntity
  8
1
  6
DOT_CENTER
 62
     2
100
AcDbLine
 10
20.7279332791184
 20
134.5615424034758
 30
0.0
 11
20.7279332791184
 21
130.8766627065674
 31
0.0
  0
LINE
  5
44
330
1F
100
AcDbEntity
  8
1
  6
Continuous
 62
     7
100
AcDbLine
 10
129.7279332791185
 20
199.0615424034758
 30
0.0
 11
39.72793327911845
 21
199.0615424034758
 31
0.0
  0
LINE
  5
45
330
1F
100
AcDbEntity
  8
1
  6
Continuous
 62
     7
100
AcDbLine
 10
129.7279332791185
 20
179.0615424034758
 30
0.0
 11
111.7279332791185
 21
179.0615424034758
 31
0.0
  0
LINE
  5
46
330
1F
100
AcDbEntity
  8
1
  6
DASHED
 62
     2
100
AcDbLine
 10
105.7279332791185
 20
179.0615424034758
 30
0.0
 11
105.7279332791185
 21
163.5615424034758
 31
0.0
  0
LINE
  5
47
330
1F
100
AcDbEntity
  8
1
  6
Continuous
 62
     7
100
AcDbLine
 10
105.7279332791185
 20
163.5615424034758
 30
0.0
 11
111.7279332791185
 21
163.5615424034758
 31
0.0
  0
LINE
  5
48
330
1F
100
AcDbEntity
  8
1
  6
Continuous
 62
     7
100
AcDbLine
 10
105.7279332791185
 20
179.0615424034758
 30
0.0
 11
63.72793327911845
 21
179.0615424034758
 31
0.0
  0
LINE
  5
49
330
1F
100
AcDbEntity
  8
1
  6
DASHED
 62
     2
100
AcDbLine
 10
111.7279332791185
 20
179.0615424034758
 30
0.0
 11
111.7279332791185
 21
163.5615424034758
 31
0.0
  0
LINE
  5
4A
330
1F
100
AcDbEntity
  8
1
  6
Continuous
 62
     7
100
AcDbLine
 10
111.7279332791185
 20
179.0615424034758
 30
0.0
 11
105.7279332791185
 21
179.0615424034758
 31
0.0
  0
LINE
  5
4B
330
1F
100
AcDbEntity
  8
1
  6
Continuous
 62
     7
100
AcDbLine
 10
111.7279332791185
 20
163.5615424034758
 30
0.0
 11
133.7279332791185
 21
163.5615424034758
 31
0.0
  0
LINE
  5
4C
330
1F
100
AcDbEntity
  8
1
  6
DOT_CENTER
 62
     2
100
AcDbLine
 10
108.7279332791185
 20
180.5615424034758
 30
0.0
 11
108.7279332791185
 21
162.0615424034758
 31
0.0
  0
LINE
  5
4D
330
1F
100
AcDbEntity
  8
1
  6
DASHED
 62
     2
100
AcDbLine
 10
57.72793327911845
 20
179.0615424034758
 30
0.0
 11
57.72793327911845
 21
163.5615424034758
 31
0.0
  0
LINE
  5
4E
330
1F
100
AcDbEntity
  8
1
  6
Continuous
 62
     7
100
AcDbLine
 10
57.72793327911845
 20
163.5615424034758
 30
0.0
 11
63.72793327911845
 21
163.5615424034758
 31
0.0
  0
LINE
  5
4F
330
1F
100
AcDbEntity
  8
1
  6
Continuous
 62
     7
100
AcDbLine
 10
57.72793327911845
 20
179.0615424034758
 30
0.0
 11
39.72793327911845
 21
179.0615424034758
 31
0.0
  0
LINE
  5
50
330
1F
100
AcDbEntity
  8
1
  6
DASHED
 62
     2
100
AcDbLine
 10
63.72793327911845
 20
179.0615424034758
 30
0.0
 11
63.72793327911845
 21
163.5615424034758
 31
0.0
  0
LINE
  5
51
330
1F
100
AcDbEntity
  8
1
  6
Continuous
 62
     7
100
AcDbLine
 10
63.72793327911845
 20
179.0615424034758
 30
0.0
 11
57.72793327911845
 21
179.0615424034758
 31
0.0
  0
LINE
  5
52
330
1F
100
AcDbEntity
  8
1
  6
Continuous
 62
     7
100
AcDbLine
 10
63.72793327911845
 20
163.5615424034758
 30
0.0
 11
105.7279332791185
 21
163.5615424034758
 31
0.0
  0
LINE
  5
53
330
1F
100
AcDbEntity
  8
1
  6
DOT_CENTER
 62
     2
100
AcDbLine
 10
60.72793327911845
 20
180.5615424034758
 30
0.0
 11
60.72793327911845
 21
162.0615424034758
 31
0.0
  0
LINE
  5
54
330
1F
100
AcDbEntity
  8
1
  6
DASHED
 62
     2
100
AcDbLine
 10
139.7279332791185
 20
163.5615424034758
 30
0.0
 11
139.7279332791185
 21
189.0615424034758
 31
0.0
  0
LINE
  5
55
330
1F
100
AcDbEntity
  8
1
  6
Continuous
 62
     7
100
AcDbLine
 10
139.7279332791185
 20
163.5615424034758
 30
0.0
 11
147.7279332791185
 21
163.5615424034758
 31
0.0
  0
LINE
  5
56
330
1F
100
AcDbEntity
  8
1
  6
DASHED
 62
     2
100
AcDbLine
 10
133.7279332791185
 20
163.5615424034758
 30
0.0
 11
133.7279332791185
 21
179.8963910135641
 31
0.0
  0
LINE
  5
57
330
1F
100
AcDbEntity
  8
1
  6
Continuous
 62
     7
100
AcDbLine
 10
133.7279332791185
 20
163.5615424034758
 30
0.0
 11
139.7279332791185
 21
163.5615424034758
 31
0.0
  0
LINE
  5
58
330
1F
100
AcDbEntity
  8
1
  6
DOT_CENTER
 62
     2
100
AcDbLine
 10
136.7279332791185
 20
162.0615424034758
 30
0.0
 11
136.7279332791185
 21
183.4201139749329
 31
0.0
  0
LINE
  5
59
330
1F
100
AcDbEntity
  8
1
  6
DASHED
 62
     2
100
AcDbLine
 10
35.72793327911845
 20
163.5615424034758
 30
0.0
 11
35.72793327911845
 21
179.8963910135641
 31
0.0
  0
LINE
  5
5A
330
1F
100
AcDbEntity
  8
1
  6
Continuous
 62
     7
100
AcDbLine
 10
35.72793327911845
 20
163.5615424034758
 30
0.0
 11
57.72793327911845
 21
163.5615424034758
 31
0.0
  0
LINE
  5
5B
330
1F
100
AcDbEntity
  8
1
  6
DASHED
 62
     2
100
AcDbLine
 10
29.7279332791184
 20
163.5615424034758
 30
0.0
 11
29.7279332791184
 21
189.0615424034758
 31
0.0
  0
LINE
  5
5C
330
1F
100
AcDbEntity
  8
1
  6
Continuous
 62
     7
100
AcDbLine
 10
29.7279332791184
 20
163.5615424034758
 30
0.0
 11
35.72793327911845
 21
163.5615424034758
 31
0.0
  0
LINE
  5
5D
330
1F
100
AcDbEntity
  8
1
  6
DOT_CENTER
 62
     2
100
AcDbLine
 10
32.72793327911845
 20
162.0615424034758
 30
0.0
 11
32.72793327911845
 21
183.4201139749329
 31
0.0
  0
LINE
  5
5E
330
1F
100
AcDbEntity
  8
1
  6
DASHED
 62
     2
100
AcDbLine
 10
81.72793327911845
 20
179.0615424034758
 30
0.0
 11
81.72793327911846
 21
163.5615424034758
 31
0.0
  0
LINE
  5
5F
330
1F
100
AcDbEntity
  8
1
  6
DASHED
 62
     2
100
AcDbLine
 10
87.72793327911845
 20
179.0615424034758
 30
0.0
 11
87.72793327911846
 21
163.5615424034758
 31
0.0
  0
ARC
  5
60
330
1F
100
AcDbEntity
  8
1
  6
Continuous
 62
     7
100
AcDbCircle
 10
129.7279332791185
 20
189.0615424034758
 30
0.0
 40
10.0
100
AcDbArc
 50
0.0
 51
90.0
  0
ARC
  5
61
330
1F
100
AcDbEntity
  8
1
  6
Continuous
 62
     7
100
AcDbCircle
 10
39.72793327911845
 20
189.0615424034758
 30
0.0
 40
10.00000000000002
100
AcDbArc
 50
-113.5781784782018
 51
-90.0
  0
ARC
  5
62
330
1F
100
AcDbEntity
  8
1
  6
Continuous
 62
     7
100
AcDbCircle
 10
129.7279332791185
 20
189.0615424034758
 30
0.0
 40
10.00000000000002
100
AcDbArc
 50
-66.42182152179822
 51
0.0
  0
ARC
  5
63
330
1F
100
AcDbEntity
  8
1
  6
Continuous
 62
     7
100
AcDbCircle
 10
39.72793327911845
 20
189.0615424034758
 30
0.0
 40
10.0
100
AcDbArc
 50
90.0
 51
180.0
  0
ARC
  5
64
330
1F
100
AcDbEntity
  8
1
  6
Continuous
 62
     7
100
AcDbCircle
 10
129.7279332791185
 20
189.0615424034758
 30
0.0
 40
10.0
100
AcDbArc
 50
-90.0
 51
-66.42182152179822
  0
ARC
  5
65
330
1F
100
AcDbEntity
  8
1
  6
Continuous
 62
     7
100
AcDbCircle
 10
39.72793327911845
 20
189.0615424034758
 30
0.0
 40
10.00000000000005
100
AcDbArc
 50
180.0
 51
-113.5781784782018
  0
DIMENSION
  5
71
330
1F
100
AcDbEntity
  8
1
100
AcDbDimension
  2
*D1
 10
159.212447821401
 20
199.0615424034758
 30
0.0
 11
155.462447821401
 21
188.8040015131912
 31
0.0
 70
    32
  1
<>
 71
     5
 42
-1.0
 53
90.0
  3
ME10_DIM_10
100
AcDbAlignedDimension
 13
129.7279332791185
 23
179.0615424034758
 33
0.0
 14
129.7279332791185
 24
199.0615424034758
 34
0.0
 50
90.0
100
AcDbRotatedDimension
  0
DIMENSION
  5
7C
330
1F
100
AcDbEntity
  8
1
100
AcDbDimension
  2
*D2
 10
29.72793327911845
 20
219.9803602574422
 30
0.0
 11
84.9203943050519
 21
223.7303602574422
 31
0.0
 70
    32
  1
<>
 71
     5
 42
-1.0
 53
0.00013888888889
  3
ME10_DIM_11
100
AcDbAlignedDimension
 13
139.7279332791185
 23
189.0615424034758
 33
0.0
 14
29.7279332791184
 24
189.0615424034758
 34
0.0
100
AcDbRotatedDimension
  0
DIMENSION
  5
87
330
1F
100
AcDbEntity
  8
1
100
AcDbDimension
  2
*D3
 10
32.72793327911845
 20
122.7839803310072
 30
0.0
 11
46.0877980696676
 21
126.5339803310072
 31
0.0
 70
    32
  1
<>
 71
     5
 42
-1.0
 53
0.00013888888889
  3
ME10_DIM_12
100
AcDbAlignedDimension
 13
60.72793327911845
 23
162.0615424034758
 33
0.0
 14
32.72793327911845
 24
162.0615424034758
 34
0.0
100
AcDbRotatedDimension
  0
DIMENSION
  5
92
330
1F
100
AcDbEntity
  8
1
100
AcDbDimension
  2
*D4
 10
108.7279332791185
 20
122.7839803310072
 30
0.0
 11
122.7279332791185
 21
126.5339803310072
 31
0.0
 70
    32
  1
<>
 71
     5
 42
-1.0
 53
0.00013888888889
  3
ME10_DIM_13
100
AcDbAlignedDimension
 13
136.7279332791185
 23
162.0615424034758
 33
0.0
 14
108.7279332791185
 24
162.0615424034758
 34
0.0
100
AcDbRotatedDimension
  0
DIMENSION
  5
9D
330
1F
100
AcDbEntity
  8
1
100
AcDbDimension
  2
*D5
 10
84.72793327911846
 20
122.7839803310072
 30
0.0
 11
96.72793327911846
 21
126.5339803310072
 31
0.0
 70
    32
  1
<>
 71
     5
 42
-1.0
 53
0.00013888888889
  3
ME10_DIM_14
100
AcDbAlignedDimension
 13
108.7279332791185
 23
162.0615424034758
 33
0.0
 14
84.72793327911846
 24
131.8188898778342
 34
0.0
100
AcDbRotatedDimension
  0
DIMENSION
  5
A8
330
1F
100
AcDbEntity
  8
1
100
AcDbDimension
  2
*D6
 10
60.72793327911845
 20
122.7839803310072
 30
0.0
 11
72.72793327911845
 21
126.5339803310072
 31
0.0
 70
    32
  1
<>
 71
     5
 42
-1.0
 53
0.00013888888889
  3
ME10_DIM_15
100
AcDbAlignedDimension
 13
84.72793327911846
 23
131.8188898778342
 33
0.0
 14
60.72793327911845
 24
162.0615424034758
 34
0.0
100
AcDbRotatedDimension
  0
ENDSEC
  0
SECTION
  2
OBJECTS
  0
DICTIONARY
  5
C
330
0
100
AcDbDictionary
281
     1
  3
ACAD_GROUP
350
D
  3
ACAD_LAYOUT
350
1A
  3
ACAD_MLINESTYLE
350
17
  3
ACAD_PLOTSETTINGS
350
19
  3
ACAD_PLOTSTYLENAME
350
E
  0
DICTIONARY
  5
D
102
{ACAD_REACTORS
330
C
102
}
330
C
100
AcDbDictionary
281
     1
  0
DICTIONARY
  5
1A
102
{ACAD_REACTORS
330
C
102
}
330
C
100
AcDbDictionary
281
     1
  3
Layout1
350
1E
  3
Layout2
350
26
  3
Model
350
22
  0
DICTIONARY
  5
17
102
{ACAD_REACTORS
330
C
102
}
330
C
100
AcDbDictionary
281
     1
  3
Standard
350
18
  0
DICTIONARY
  5
19
102
{ACAD_REACTORS
330
C
102
}
330
C
100
AcDbDictionary
281
     1
  0
ACDBDICTIONARYWDFLT
  5
E
102
{ACAD_REACTORS
330
C
102
}
330
C
100
AcDbDictionary
281
     1
  3
Normal
350
F
100
AcDbDictionaryWithDefault
340
F
  0
LAYOUT
  5
1E
102
{ACAD_REACTORS
330
1A
102
}
330
1A
100
AcDbPlotSettings
  1

  2

  4

  6

 40
0.0
 41
0.0
 42
0.0
 43
0.0
 44
0.0
 45
0.0
 46
0.0
 47
0.0
 48
0.0
 49
0.0
140
0.0
141
0.0
142
1.0
143
1.0
 70
   688
 72
     0
 73
     0
 74
     5
  7

 75
    16
 76
     0
 77
     2
 78
   300
147
1.0
148
0.0
149
0.0
100
AcDbLayout
  1
Layout1
 70
     1
 71
     1
 10
0.0
 20
0.0
 11
0.0
 21
0.0
 12
0.0
 22
0.0
 32
0.0
 14
0.0
 24
0.0
 34
0.0
 15
0.0
 25
0.0
 35
0.0
146
0.0
 13
0.0
 23
0.0
 33
0.0
 16
1.0
 26
0.0
 36
0.0
 17
0.0
 27
1.0
 37
0.0
 76
     0
330
1B
  0
LAYOUT
  5
26
102
{ACAD_REACTORS
330
1A
102
}
330
1A
100
AcDbPlotSettings
  1

  2

  4

  6

 40
0.0
 41
0.0
 42
0.0
 43
0.0
 44
0.0
 45
0.0
 46
0.0
 47
0.0
 48
0.0
 49
0.0
140
0.0
141
0.0
142
1.0
143
1.0
 70
   688
 72
     0
 73
     0
 74
     5
  7

 75
    16
 76
     0
 77
     2
 78
   300
147
1.0
148
0.0
149
0.0
100
AcDbLayout
  1
Layout2
 70
     1
 71
     2
 10
0.0
 20
0.0
 11
0.0
 21
0.0
 12
0.0
 22
0.0
 32
0.0
 14
0.0
 24
0.0
 34
0.0
 15
0.0
 25
0.0
 35
0.0
146
0.0
 13
0.0
 23
0.0
 33
0.0
 16
1.0
 26
0.0
 36
0.0
 17
0.0
 27
1.0
 37
0.0
 76
     0
330
23
  0
LAYOUT
  5
22
102
{ACAD_REACTORS
330
1A
102
}
330
1A
100
AcDbPlotSettings
  1

  2

  4

  6

 40
0.0
 41
0.0
 42
0.0
 43
0.0
 44
0.0
 45
0.0
 46
0.0
 47
0.0
 48
0.0
 49
0.0
140
0.0
141
0.0
142
1.0
143
1.0
 70
  1712
 72
     0
 73
     0
 74
     0
  7

 75
     0
 76
     0
 77
     2
 78
   300
147
1.0
148
0.0
149
0.0
100
AcDbLayout
  1
Model
 70
     1
 71
     0
 10
0.0
 20
0.0
 11
0.0
 21
0.0
 12
0.0
 22
0.0
 32
0.0
 14
14.9462440089748
 24
120.7839803310072
 34
0.0
 15
161.212447821401
 25
225.4803602574422
 35
0.0
146
0.0
 13
0.0
 23
0.0
 33
0.0
 16
1.0
 26
0.0
 36
0.0
 17
0.0
 27
1.0
 37
0.0
 76
     0
330
1F
  0
MLINESTYLE
  5
18
102
{ACAD_REACTORS
330
17
102
}
330
17
100
AcDbMlineStyle
  2
Standard
 70
     0
  3

 62
   256
 51
90.0
 52
90.0
 71
     2
 49
0.5
 62
   256
  6
BYLAYER
 49
-0.5
 62
   256
  6
BYLAYER
  0
ACDBPLACEHOLDER
  5
F
102
{ACAD_REACTORS
330
E
102
}
330
E
  0
ENDSEC
  0
EOF
