  0
SECTION
  2
HEADER
  9
$ACADVER
  1
AC1018
  9
$ACADMAINTVER
 70
     0
  9
$DWGCODEPAGE
  3
ANSI_1252
  9
$INSBASE
 10
0.0
 20
0.0
 30
0.0
  9
$EXTMIN
 10
41.703596287723
 20
160.7942567656
 30
0.0
  9
$EXTMAX
 10
184.95918517041
 20
301.069265770426
 30
0.0
  9
$LIMMIN
 10
0.0
 20
0.0
  9
$LIMMAX
 10
12.0
 20
9.0
  9
$ORTHOMODE
 70
     0
  9
$REGENMODE
 70
     1
  9
$FILLMODE
 70
     1
  9
$QTEXTMODE
 70
     0
  9
$MIRRTEXT
 70
     1
  9
$LTSCALE
 40
1.0
  9
$ATTMODE
 70
     1
  9
$TEXTSIZE
 40
0.2
  9
$TRACEWID
 40
0.05
  9
$TEXTSTYLE
  7
Standard
  9
$CLAYER
  8
0
  9
$CELTYPE
  6
ByLayer
  9
$CECOLOR
 62
   256
  9
$CELTSCALE
 40
1.0
  9
$DISPSILH
 70
     0
  9
$DIMSCALE
 40
1.0
  9
$DIMASZ
 40
0.18
  9
$DIMEXO
 40
0.0625
  9
$DIMDLI
 40
0.38
  9
$DIMRND
 40
0.0
  9
$DIMDLE
 40
0.0
  9
$DIMEXE
 40
0.18
  9
$DIMTP
 40
0.0
  9
$DIMTM
 40
0.0
  9
$DIMTXT
 40
0.18
  9
$DIMCEN
 40
0.09
  9
$DIMTSZ
 40
0.0
  9
$DIMTOL
 70
     0
  9
$DIMLIM
 70
     0
  9
$DIMTIH
 70
     1
  9
$DIMTOH
 70
     1
  9
$DIMSE1
 70
     0
  9
$DIMSE2
 70
     0
  9
$DIMTAD
 70
     0
  9
$DIMZIN
 70
     0
  9
$DIMBLK
  1

  9
$DIMASO
 70
     1
  9
$DIMSHO
 70
     1
  9
$DIMPOST
  1

  9
$DIMAPOST
  1

  9
$DIMALT
 70
     0
  9
$DIMALTD
 70
     2
  9
$DIMALTF
 40
25.4
  9
$DIMLFAC
 40
1.0
  9
$DIMTOFL
 70
     0
  9
$DIMTVP
 40
0.0
  9
$DIMTIX
 70
     0
  9
$DIMSOXD
 70
     0
  9
$DIMSAH
 70
     0
  9
$DIMBLK1
  1

  9
$DIMBLK2
  1

  9
$DIMSTYLE
  2
Standard
  9
$DIMCLRD
 70
     0
  9
$DIMCLRE
 70
     0
  9
$DIMCLRT
 70
     0
  9
$DIMTFAC
 40
1.0
  9
$DIMGAP
 40
0.09
  9
$DIMJUST
 70
     0
  9
$DIMSD1
 70
     0
  9
$DIMSD2
 70
     0
  9
$DIMTOLJ
 70
     1
  9
$DIMTZIN
 70
     0
  9
$DIMALTZ
 70
     0
  9
$DIMALTTZ
 70
     0
  9
$DIMUPT
 70
     0
  9
$DIMDEC
 70
     4
  9
$DIMTDEC
 70
     4
  9
$DIMALTU
 70
     2
  9
$DIMALTTD
 70
     2
  9
$DIMTXSTY
  7
Standard
  9
$DIMAUNIT
 70
     0
  9
$DIMADEC
 70
     0
  9
$DIMALTRND
 40
0.0
  9
$DIMAZIN
 70
     0
  9
$DIMDSEP
 70
    46
  9
$DIMATFIT
 70
     3
  9
$DIMFRAC
 70
     0
  9
$DIMLDRBLK
  1

  9
$DIMLUNIT
 70
     2
  9
$DIMLWD
 70
    -2
  9
$DIMLWE
 70
    -2
  9
$DIMTMOVE
 70
     0
  9
$LUNITS
 70
     2
  9
$LUPREC
 70
     4
  9
$SKETCHINC
 40
0.1
  9
$FILLETRAD
 40
0.5
  9
$AUNITS
 70
     0
  9
$AUPREC
 70
     0
  9
$MENU
  1
.
  9
$ELEVATION
 40
0.0
  9
$PELEVATION
 40
0.0
  9
$THICKNESS
 40
0.0
  9
$LIMCHECK
 70
     0
  9
$CHAMFERA
 40
0.5
  9
$CHAMFERB
 40
0.5
  9
$CHAMFERC
 40
1.0
  9
$CHAMFERD
 40
0.0
  9
$SKPOLY
 70
     0
  9
$TDCREATE
 40
2455821.389321505
  9
$TDUCREATE
 40
2455821.305988171
  9
$TDUPDATE
 40
2455821.389321516
  9
$TDUUPDATE
 40
2455821.305988183
  9
$TDINDWG
 40
0.0000000116
  9
$TDUSRTIMER
 40
0.0000000116
  9
$USRTIMER
 70
     1
  9
$ANGBASE
 50
0.0
  9
$ANGDIR
 70
     0
  9
$PDMODE
 70
     0
  9
$PDSIZE
 40
0.0
  9
$PLINEWID
 40
0.0
  9
$SPLFRAME
 70
     0
  9
$SPLINETYPE
 70
     6
  9
$SPLINESEGS
 70
     8
  9
$HANDSEED
  5
DC
  9
$SURFTAB1
 70
     6
  9
$SURFTAB2
 70
     6
  9
$SURFTYPE
 70
     6
  9
$SURFU
 70
     6
  9
$SURFV
 70
     6
  9
$UCSBASE
  2

  9
$UCSNAME
  2

  9
$UCSORG
 10
0.0
 20
0.0
 30
0.0
  9
$UCSXDIR
 10
1.0
 20
0.0
 30
0.0
  9
$UCSYDIR
 10
0.0
 20
1.0
 30
0.0
  9
$UCSORTHOREF
  2

  9
$UCSORTHOVIEW
 70
     0
  9
$UCSORGTOP
 10
0.0
 20
0.0
 30
0.0
  9
$UCSORGBOTTOM
 10
0.0
 20
0.0
 30
0.0
  9
$UCSORGLEFT
 10
0.0
 20
0.0
 30
0.0
  9
$UCSORGRIGHT
 10
0.0
 20
0.0
 30
0.0
  9
$UCSORGFRONT
 10
0.0
 20
0.0
 30
0.0
  9
$UCSORGBACK
 10
0.0
 20
0.0
 30
0.0
  9
$PUCSBASE
  2

  9
$PUCSNAME
  2

  9
$PUCSORG
 10
0.0
 20
0.0
 30
0.0
  9
$PUCSXDIR
 10
1.0
 20
0.0
 30
0.0
  9
$PUCSYDIR
 10
0.0
 20
1.0
 30
0.0
  9
$PUCSORTHOREF
  2

  9
$PUCSORTHOVIEW
 70
     0
  9
$PUCSORGTOP
 10
0.0
 20
0.0
 30
0.0
  9
$PUCSORGBOTTOM
 10
0.0
 20
0.0
 30
0.0
  9
$PUCSORGLEFT
 10
0.0
 20
0.0
 30
0.0
  9
$PUCSORGRIGHT
 10
0.0
 20
0.0
 30
0.0
  9
$PUCSORGFRONT
 10
0.0
 20
0.0
 30
0.0
  9
$PUCSORGBACK
 10
0.0
 20
0.0
 30
0.0
  9
$USERI1
 70
     0
  9
$USERI2
 70
     0
  9
$USERI3
 70
     0
  9
$USERI4
 70
     0
  9
$USERI5
 70
     0
  9
$USERR1
 40
14.5
  9
$USERR2
 40
0.0
  9
$USERR3
 40
0.0
  9
$USERR4
 40
0.0
  9
$USERR5
 40
0.0
  9
$WORLDVIEW
 70
     1
  9
$SHADEDGE
 70
     3
  9
$SHADEDIF
 70
    70
  9
$TILEMODE
 70
     1
  9
$MAXACTVP
 70
    64
  9
$PINSBASE
 10
0.0
 20
0.0
 30
0.0
  9
$PLIMCHECK
 70
     0
  9
$PEXTMIN
 10
1.00000000000000E+20
 20
1.00000000000000E+20
 30
1.00000000000000E+20
  9
$PEXTMAX
 10
-1.00000000000000E+20
 20
-1.00000000000000E+20
 30
-1.00000000000000E+20
  9
$PLIMMIN
 10
0.0
 20
0.0
  9
$PLIMMAX
 10
12.0
 20
9.0
  9
$UNITMODE
 70
     0
  9
$VISRETAIN
 70
     1
  9
$PLINEGEN
 70
     0
  9
$PSLTSCALE
 70
     1
  9
$TREEDEPTH
 70
  3020
  9
$CMLSTYLE
  2
Standard
  9
$CMLJUST
 70
     0
  9
$CMLSCALE
 40
1.0
  9
$PROXYGRAPHICS
 70
     1
  9
$MEASUREMENT
 70
     1
  9
$CELWEIGHT
370
    -1
  9
$ENDCAPS
280
     0
  9
$JOINSTYLE
280
     0
  9
$LWDISPLAY
290
     0
  9
$INSUNITS
 70
     1
  9
$HYPERLINKBASE
  1

  9
$STYLESHEET
  1

  9
$XEDIT
290
     1
  9
$CEPSNTYPE
380
     0
  9
$PSTYLEMODE
290
     1
  9
$FINGERPRINTGUID
  2
{1798375C-1B17-4003-A7B2-38A007FB942E}
  9
$VERSIONGUID
  2
{FAEB1C32-E019-11D5-929B-00C0DF256EC4}
  9
$EXTNAMES
290
     1
  9
$PSVPSCALE
 40
0.0
  9
$OLESTARTUP
290
     0
  9
$SORTENTS
280
   127
  9
$INDEXCTL
280
     0
  9
$HIDETEXT
280
     1
  9
$XCLIPFRAME
290
     0
  9
$HALOGAP
280
     0
  9
$OBSCOLOR
 70
   257
  9
$OBSLTYPE
280
     0
  9
$INTERSECTIONDISPLAY
280
     0
  9
$INTERSECTIONCOLOR
 70
   257
  9
$DIMASSOC
280
     2
  9
$PROJECTNAME
  1

  0
ENDSEC
  0
SECTION
  2
CLASSES
  0
CLASS
  1
ACDBDICTIONARYWDFLT
  2
AcDbDictionaryWithDefault
  3
ObjectDBX Classes
 90
        0
 91
        3
280
     0
281
     0
  0
CLASS
  1

  2
exOdDbCircle
  3

 90
        0
 91
        3
280
     0
281
     1
  0
ENDSEC
  0
SECTION
  2
TABLES
  0
TABLE
  2
VPORT
  5
8
330
0
100
AcDbSymbolTable
 70
     1
  0
VPORT
  5
29
330
8
100
AcDbSymbolTableRecord
100
AcDbViewportTableRecord
  2
*Active
 70
     0
 10
0.0
 20
0.0
 11
1.0
 21
1.0
 12
113.3313907290665
 22
230.931761268013
 13
0.0
 23
0.0
 14
0.5
 24
0.5
 15
0.5
 25
0.5
 16
0.0
 26
0.0
 36
1.0
 17
0.0
 27
0.0
 37
0.0
 40
154.3025099053086
 41
1.60267857142857
 42
50.0
 43
0.0
 44
0.0
 50
0.0
 51
0.0
 71
     0
 72
   100
 73
     1
 74
     3
 75
     0
 76
     0
 77
     0
 78
     0
281
     0
 65
     1
110
0.0
120
0.0
130
0.0
111
1.0
121
0.0
131
0.0
112
0.0
122
1.0
132
0.0
 79
     0
146
0.0
  0
ENDTAB
  0
TABLE
  2
LTYPE
  5
5
330
0
100
AcDbSymbolTable
 70
     9
  0
LTYPE
  5
14
330
5
100
AcDbSymbolTableRecord
100
AcDbLinetypeTableRecord
  2
ByBlock
 70
     0
  3

 72
    65
 73
     0
 40
0.0
  0
LTYPE
  5
15
330
5
100
AcDbSymbolTableRecord
100
AcDbLinetypeTableRecord
  2
ByLayer
 70
     0
  3

 72
    65
 73
     0
 40
0.0
  0
LTYPE
  5
16
330
5
100
AcDbSymbolTableRecord
100
AcDbLinetypeTableRecord
  2
Continuous
 70
     0
  3
Solid line
 72
    65
 73
     0
 40
0.0
  0
LTYPE
  5
2A
330
5
100
AcDbSymbolTableRecord
100
AcDbLinetypeTableRecord
  2
DASHED
 70
     0
  3
Dashed
 72
    65
 73
     2
 40
15.0
 49
7.0
 74
     0
 49
-8.0
 74
     0
  0
LTYPE
  5
2B
330
5
100
AcDbSymbolTableRecord
100
AcDbLinetypeTableRecord
  2
DOTTED
 70
     0
  3
Dotted
 72
    65
 73
     2
 40
1.0
 49
0.0
 74
     0
 49
-1.0
 74
     0
  0
LTYPE
  5
2C
330
5
100
AcDbSymbolTableRecord
100
AcDbLinetypeTableRecord
  2
DOT_CENTER
 70
     0
  3
Dot_Center
 72
    65
 73
     4
 40
14.0
 49
12.0
 74
     0
 49
-1.0
 74
     0
 49
0.0
 74
     0
 49
-1.0
 74
     0
  0
LTYPE
  5
2D
330
5
100
AcDbSymbolTableRecord
100
AcDbLinetypeTableRecord
  2
LONG_DASHED
 70
     0
  3
Long_Dashed
 72
    65
 73
     2
 40
15.0
 49
10.0
 74
     0
 49
-5.0
 74
     0
  0
LTYPE
  5
2E
330
5
100
AcDbSymbolTableRecord
100
AcDbLinetypeTableRecord
  2
DASH_CENTER
 70
     0
  3
Dash_Center
 72
    65
 73
     4
 40
14.0
 49
11.0
 74
     0
 49
-1.0
 74
     0
 49
1.0
 74
     0
 49
-1.0
 74
     0
  0
LTYPE
  5
2F
330
5
100
AcDbSymbolTableRecord
100
AcDbLinetypeTableRecord
  2
PHANTOM
 70
     0
  3
Phantom
 72
    65
 73
     6
 40
13.0
 49
10.0
 74
     0
 49
-1.0
 74
     0
 49
0.0
 74
     0
 49
-1.0
 74
     0
 49
0.0
 74
     0
 49
-1.0
 74
     0
  0
LTYPE
  5
30
330
5
100
AcDbSymbolTableRecord
100
AcDbLinetypeTableRecord
  2
CENTER_DASH_DASH
 70
     0
  3
Center_Dash_Dash
 72
    65
 73
     6
 40
14.0
 49
9.0
 74
     0
 49
-1.0
 74
     0
 49
1.0
 74
     0
 49
-1.0
 74
     0
 49
1.0
 74
     0
 49
-1.0
 74
     0
  0
LTYPE
  5
31
330
5
100
AcDbSymbolTableRecord
100
AcDbLinetypeTableRecord
  2
HIDDEN
 70
     0
  3
HIDDEN
 72
    65
 73
     2
 40
4.0
 49
2.0
 74
     0
 49
-2.0
 74
     0
  0
ENDTAB
  0
TABLE
  2
LAYER
  5
2
330
0
100
AcDbSymbolTable
 70
     6
  0
LAYER
  5
10
330
2
100
AcDbSymbolTableRecord
100
AcDbLayerTableRecord
  2
0
 70
     0
 62
     7
  6
Continuous
370
    -3
390
F
  0
LAYER
  5
32
330
2
100
AcDbSymbolTableRecord
100
AcDbLayerTableRecord
  2
1
 70
     0
 62
     7
  6
Continuous
370
    -3
390
F
  0
LAYER
  5
33
330
2
100
AcDbSymbolTableRecord
100
AcDbLayerTableRecord
  2
A_ACHSEN
 70
     0
 62
     7
  6
Continuous
370
    -3
390
F
  0
LAYER
  5
34
330
2
100
AcDbSymbolTableRecord
100
AcDbLayerTableRecord
  2
A_RUNDUNGEN
 70
     0
 62
     7
  6
Continuous
370
    -3
390
F
  0
LAYER
  5
35
330
2
100
AcDbSymbolTableRecord
100
AcDbLayerTableRecord
  2
DEFAULT_1
 70
     0
 62
     7
  6
Continuous
370
    -3
390
F
  0
LAYER
  5
36
330
2
100
AcDbSymbolTableRecord
100
AcDbLayerTableRecord
  2
DEFAULT_2
 70
     0
 62
     7
  6
Continuous
370
    -3
390
F
  0
ENDTAB
  0
TABLE
  2
STYLE
  5
3
330
0
100
AcDbSymbolTable
 70
     2
  0
STYLE
  5
11
330
3
100
AcDbSymbolTableRecord
100
AcDbTextStyleTableRecord
  2
Standard
 70
     0
 40
0.0
 41
1.0
 50
0.0
 71
     0
 42
0.2
  3
txt
  4

  0
STYLE
  5
AE
330
3
100
AcDbSymbolTableRecord
100
AcDbTextStyleTableRecord
  2
CONVERTER_11
 70
     0
 40
0.0
 41
0.9
 50
0.0
 71
     0
 42
0.2
  3
txt.shx
  4

  0
ENDTAB
  0
TABLE
  2
VIEW
  5
6
330
0
100
AcDbSymbolTable
 70
     0
  0
ENDTAB
  0
TABLE
  2
UCS
  5
7
330
0
100
AcDbSymbolTable
 70
     0
  0
ENDTAB
  0
TABLE
  2
APPID
  5
9
330
0
100
AcDbSymbolTable
 70
     1
  0
APPID
  5
12
330
9
100
AcDbSymbolTableRecord
100
AcDbRegAppTableRecord
  2
ACAD
 70
     0
  0
ENDTAB
  0
TABLE
  2
DIMSTYLE
  5
A
330
0
100
AcDbSymbolTable
 70
     5
100
AcDbDimStyleTable
  0
DIMSTYLE
105
27
330
A
100
AcDbSymbolTableRecord
100
AcDbDimStyleTableRecord
  2
Standard
 70
     0
340
11
  0
DIMSTYLE
105
B9
102
{ACAD_REACTORS
330
BA
102
}
330
A
100
AcDbSymbolTableRecord
100
AcDbDimStyleTableRecord
  2
ME10_DIM_10
 70
     0
 41
3.5
 42
0.0
 44
2.0
 73
     0
 74
     0
 77
     1
 78
     8
140
3.5
147
2.0
172
     1
173
     1
176
     2
177
     2
178
     2
271
     3
340
AE
  0
DIMSTYLE
105
C4
102
{ACAD_REACTORS
330
C5
102
}
330
A
100
AcDbSymbolTableRecord
100
AcDbDimStyleTableRecord
  2
ME10_DIM_11
 70
     0
 41
3.5
 42
0.0
 44
2.0
 73
     0
 74
     0
 77
     1
 78
     8
140
3.5
147
2.0
172
     1
173
     1
176
     2
177
     2
178
     2
271
     3
340
AE
  0
DIMSTYLE
105
CF
102
{ACAD_REACTORS
330
D0
102
}
330
A
100
AcDbSymbolTableRecord
100
AcDbDimStyleTableRecord
  2
ME10_DIM_12
 70
     0
  3
ø<>
 41
3.5
 42
0.0
 44
2.0
 73
     0
 74
     0
 77
     1
 78
     8
140
3.5
147
2.0
172
     1
173
     1
176
     2
177
     2
178
     2
271
     3
340
AE
  0
DIMSTYLE
105
DA
102
{ACAD_REACTORS
330
DB
102
}
330
A
100
AcDbSymbolTableRecord
100
AcDbDimStyleTableRecord
  2
ME10_DIM_13
 70
     0
 41
3.5
 42
0.0
 44
2.0
 73
     0
 74
     0
 77
     1
 78
     8
140
3.5
147
2.0
172
     1
173
     1
176
     2
177
     2
178
     2
271
     3
340
AE
  0
ENDTAB
  0
TABLE
  2
BLOCK_RECORD
  5
1
330
0
100
AcDbSymbolTable
 70
     5
  0
BLOCK_RECORD
  5
1F
330
1
100
AcDbSymbolTableRecord
100
AcDbBlockTableRecord
  2
*Model_Space
340
22
  0
BLOCK_RECORD
  5
1B
330
1
100
AcDbSymbolTableRecord
100
AcDbBlockTableRecord
  2
*Paper_Space
340
1E
  0
BLOCK_RECORD
  5
23
330
1
100
AcDbSymbolTableRecord
100
AcDbBlockTableRecord
  2
*Paper_Space0
340
26
  0
BLOCK_RECORD
  5
B0
330
1
100
AcDbSymbolTableRecord
100
AcDbBlockTableRecord
  2
*D1
340
0
  0
BLOCK_RECORD
  5
BB
330
1
100
AcDbSymbolTableRecord
100
AcDbBlockTableRecord
  2
*D2
340
0
  0
BLOCK_RECORD
  5
C6
330
1
100
AcDbSymbolTableRecord
100
AcDbBlockTableRecord
  2
*D3
340
0
  0
BLOCK_RECORD
  5
D1
330
1
100
AcDbSymbolTableRecord
100
AcDbBlockTableRecord
  2
*D4
340
0
  0
ENDTAB
  0
ENDSEC
  0
SECTION
  2
BLOCKS
  0
BLOCK
  5
20
330
1F
100
AcDbEntity
  8
0
100
AcDbBlockBegin
  2
*Model_Space
 70
     0
 71
     0
 10
0.0
 20
0.0
 30
0.0
  3
*Model_Space
  1

  0
ENDBLK
  5
21
330
1F
100
AcDbEntity
  8
0
100
AcDbBlockEnd
  0
BLOCK
  5
1C
330
1B
100
AcDbEntity
 67
     1
  8
0
100
AcDbBlockBegin
  2
*Paper_Space
 70
     0
 71
     0
 10
0.0
 20
0.0
 30
0.0
  3
*Paper_Space
  1

  0
ENDBLK
  5
1D
330
1B
100
AcDbEntity
 67
     1
  8
0
100
AcDbBlockEnd
  0
BLOCK
  5
24
330
23
100
AcDbEntity
  8
0
100
AcDbBlockBegin
  2
*Paper_Space0
 70
     0
 71
     0
 10
0.0
 20
0.0
 30
0.0
  3
*Paper_Space0
  1

  0
ENDBLK
  5
25
330
23
100
AcDbEntity
  8
0
100
AcDbBlockEnd
  0
BLOCK
  5
B7
330
B0
100
AcDbEntity
  8
0
100
AcDbBlockBegin
  2
*D1
 70
     1
 71
     0
 10
0.0
 20
0.0
 30
0.0
  3
*D1
  1

  0
LINE
  5
B1
330
B0
100
AcDbEntity
  8
1
  6
Continuous
 62
     2
100
AcDbLine
 10
57.3884027287402
 20
272.7942567656
 30
0.0
 11
57.3884027287402
 21
172.7942567656
 31
0.0
  0
LINE
  5
B2
330
B0
100
AcDbEntity
  8
1
  6
Continuous
 62
     2
100
AcDbLine
 10
77.6489027852
 20
172.7942567656
 30
0.0
 11
55.3884027287402
 21
172.7942567656
 31
0.0
  0
LINE
  5
B3
330
B0
100
AcDbEntity
  8
1
  6
Continuous
 62
     2
100
AcDbLine
 10
77.6489027852
 20
272.7942567656
 30
0.0
 11
55.3884027287402
 21
272.7942567656
 31
0.0
  0
SOLID
  5
B4
330
B0
100
AcDbEntity
  8
1
 62
     2
100
AcDbTrace
 10
57.84918647029609
 20
269.2942567656
 30
0.0
 11
56.92761898718432
 21
269.2942567656
 31
0.0
 12
57.3884027287402
 22
272.7942567656
 32
0.0
 13
57.3884027287402
 23
272.7942567656
 33
0.0
  0
SOLID
  5
B5
330
B0
100
AcDbEntity
  8
1
 62
     2
100
AcDbTrace
 10
56.92761898718432
 20
176.2942567656
 30
0.0
 11
57.84918647029609
 21
176.2942567656
 31
0.0
 12
57.3884027287402
 22
172.7942567656
 32
0.0
 13
57.3884027287402
 23
172.7942567656
 33
0.0
  0
MTEXT
  5
B6
330
B0
100
AcDbEntity
  8
1
 62
     2
100
AcDbMText
 10
55.3884027287402
 20
219.1192567656
 30
0.0
 40
3.5
 41
0.0
 71
     7
 72
     1
  1
100
  7
CONVERTER_11
 11
0.0
 21
1.0
 31
0.0
 73
     1
 44
0.60024009603842
  0
ENDBLK
  5
B8
330
B0
100
AcDbEntity
  8
0
100
AcDbBlockEnd
  0
BLOCK
  5
C2
330
BB
100
AcDbEntity
  8
0
100
AcDbBlockBegin
  2
*D2
 70
     1
 71
     0
 10
0.0
 20
0.0
 30
0.0
  3
*D2
  1

  0
LINE
  5
BC
330
BB
100
AcDbEntity
  8
1
  6
Continuous
 62
     2
100
AcDbLine
 10
182.95918517041
 20
268.2942567656
 30
0.0
 11
182.95918517041
 21
177.2942567656
 31
0.0
  0
LINE
  5
BD
330
BB
100
AcDbEntity
  8
1
  6
Continuous
 62
     2
100
AcDbLine
 10
172.1489027852
 20
177.2942567656
 30
0.0
 11
184.95918517041
 21
177.2942567656
 31
0.0
  0
LINE
  5
BE
330
BB
100
AcDbEntity
  8
1
  6
Continuous
 62
     2
100
AcDbLine
 10
172.1489027852
 20
268.2942567656
 30
0.0
 11
184.95918517041
 21
268.2942567656
 31
0.0
  0
SOLID
  5
BF
330
BB
100
AcDbEntity
  8
1
 62
     2
100
AcDbTrace
 10
183.4199689119659
 20
264.7942567656
 30
0.0
 11
182.4984014288541
 21
264.7942567656
 31
0.0
 12
182.95918517041
 22
268.2942567656
 32
0.0
 13
182.95918517041
 23
268.2942567656
 33
0.0
  0
SOLID
  5
C0
330
BB
100
AcDbEntity
  8
1
 62
     2
100
AcDbTrace
 10
182.4984014288541
 20
180.7942567656
 30
0.0
 11
183.4199689119659
 21
180.7942567656
 31
0.0
 12
182.95918517041
 22
177.2942567656
 32
0.0
 13
182.95918517041
 23
177.2942567656
 33
0.0
  0
MTEXT
  5
C1
330
BB
100
AcDbEntity
  8
1
 62
     2
100
AcDbMText
 10
180.95918517041
 20
220.6942567656
 30
0.0
 40
3.5
 41
0.0
 71
     7
 72
     1
  1
91
  7
CONVERTER_11
 11
0.0
 21
1.0
 31
0.0
 73
     1
 44
0.60024009603842
  0
ENDBLK
  5
C3
330
BB
100
AcDbEntity
  8
0
100
AcDbBlockEnd
  0
BLOCK
  5
CD
330
C6
100
AcDbEntity
  8
0
100
AcDbBlockBegin
  2
*D3
 70
     1
 71
     0
 10
0.0
 20
0.0
 30
0.0
  3
*D3
  1

  0
LINE
  5
C7
330
C6
100
AcDbEntity
  8
1
  6
Continuous
 62
     2
100
AcDbLine
 10
93.1489027852
 20
295.569265770426
 30
0.0
 11
113.1489027852
 21
295.569265770426
 31
0.0
  0
LINE
  5
C8
330
C6
100
AcDbEntity
  8
1
  6
Continuous
 62
     2
100
AcDbLine
 10
93.1489027852
 20
282.7942567656
 30
0.0
 11
93.1489027852
 21
297.569265770426
 31
0.0
  0
LINE
  5
C9
330
C6
100
AcDbEntity
  8
1
  6
Continuous
 62
     2
100
AcDbLine
 10
113.1489027852
 20
273.2442567656001
 30
0.0
 11
113.1489027852
 21
297.569265770426
 31
0.0
  0
SOLID
  5
CA
330
C6
100
AcDbEntity
  8
1
 62
     2
100
AcDbTrace
 10
96.6489027852
 20
296.0300495119819
 30
0.0
 11
96.6489027852
 21
295.1084820288701
 31
0.0
 12
93.1489027852
 22
295.569265770426
 32
0.0
 13
93.1489027852
 23
295.569265770426
 33
0.0
  0
SOLID
  5
CB
330
C6
100
AcDbEntity
  8
1
 62
     2
100
AcDbTrace
 10
109.6489027852
 20
295.1084820288701
 30
0.0
 11
109.6489027852
 21
296.0300495119819
 31
0.0
 12
113.1489027852
 22
295.569265770426
 32
0.0
 13
113.1489027852
 23
295.569265770426
 33
0.0
  0
MTEXT
  5
CC
330
C6
100
AcDbEntity
  8
1
 62
     2
100
AcDbMText
 10
99.68215066118643
 20
297.5692588133497
 30
0.0
 40
3.5
 41
0.0
 71
     7
 72
     1
  1
\C2;ø\C2;20
  7
CONVERTER_11
 11
0.9999999999970621
 21
2.424068405545307E-6
 31
0.0
 73
     1
 44
0.60024009603842
  0
ENDBLK
  5
CE
330
C6
100
AcDbEntity
  8
0
100
AcDbBlockEnd
  0
BLOCK
  5
D8
330
D1
100
AcDbEntity
  8
0
100
AcDbBlockBegin
  2
*D4
 70
     1
 71
     0
 10
0.0
 20
0.0
 30
0.0
  3
*D4
  1

  0
LINE
  5
D2
330
D1
100
AcDbEntity
  8
1
  6
Continuous
 62
     2
100
AcDbLine
 10
47.203596287723
 20
282.7942567656
 30
0.0
 11
47.203596287723
 21
162.7942567656
 31
0.0
  0
LINE
  5
D3
330
D1
100
AcDbEntity
  8
1
  6
Continuous
 62
     2
100
AcDbLine
 10
93.1489027852
 20
162.7942567656
 30
0.0
 11
45.203596287723
 21
162.7942567656
 31
0.0
  0
LINE
  5
D4
330
D1
100
AcDbEntity
  8
1
  6
Continuous
 62
     2
100
AcDbLine
 10
93.1489027852
 20
282.7942567656
 30
0.0
 11
45.203596287723
 21
282.7942567656
 31
0.0
  0
SOLID
  5
D5
330
D1
100
AcDbEntity
  8
1
 62
     2
100
AcDbTrace
 10
47.66438002927889
 20
279.2942567656
 30
0.0
 11
46.74281254616712
 21
279.2942567656
 31
0.0
 12
47.203596287723
 22
282.7942567656
 32
0.0
 13
47.203596287723
 23
282.7942567656
 33
0.0
  0
SOLID
  5
D6
330
D1
100
AcDbEntity
  8
1
 62
     2
100
AcDbTrace
 10
46.74281254616712
 20
166.2942567656
 30
0.0
 11
47.66438002927889
 21
166.2942567656
 31
0.0
 12
47.203596287723
 22
162.7942567656
 32
0.0
 13
47.203596287723
 23
162.7942567656
 33
0.0
  0
MTEXT
  5
D7
330
D1
100
AcDbEntity
  8
1
 62
     2
100
AcDbMText
 10
45.203596287723
 20
219.1192567656
 30
0.0
 40
3.5
 41
0.0
 71
     7
 72
     1
  1
120
  7
CONVERTER_11
 11
0.0
 21
1.0
 31
0.0
 73
     1
 44
0.60024009603842
  0
ENDBLK
  5
D9
330
D1
100
AcDbEntity
  8
0
100
AcDbBlockEnd
  0
ENDSEC
  0
SECTION
  2
ENTITIES
  0
LINE
  5
37
330
1F
100
AcDbEntity
  8
A_RUNDUNGEN
  6
HIDDEN
 62
   252
420
  8685188
100
AcDbLine
 10
88.6489027852
 20
172.7942567656
 30
0.0
 11
77.6489027852
 21
172.7942567656
 31
0.0
  0
LINE
  5
38
330
1F
100
AcDbEntity
  8
A_ACHSEN
  6
Continuous
 62
     7
100
AcDbLine
 10
111.6489027852
 20
192.7942567656
 30
0.0
 11
111.6489027852
 21
192.2942567656
 31
0.0
  0
LINE
  5
39
330
1F
100
AcDbEntity
  8
A_ACHSEN
  6
Continuous
 62
     7
100
AcDbLine
 10
94.6489027852
 20
192.7942567656
 30
0.0
 11
94.6489027852
 21
192.2942567656
 31
0.0
  0
LINE
  5
3A
330
1F
100
AcDbEntity
  8
A_ACHSEN
  6
Continuous
 62
     7
100
AcDbLine
 10
94.6489027852
 20
253.2942567656
 30
0.0
 11
94.6489027852
 21
252.7942567656
 31
0.0
  0
LINE
  5
3B
330
1F
100
AcDbEntity
  8
A_ACHSEN
  6
Continuous
 62
     7
100
AcDbLine
 10
111.6489027852
 20
253.2942567656
 30
0.0
 11
111.6489027852
 21
252.7942567656
 31
0.0
  0
LINE
  5
3C
330
1F
100
AcDbEntity
  8
A_ACHSEN
  6
Continuous
 62
     7
100
AcDbLine
 10
117.1489027852
 20
182.244034351
 30
0.0
 11
117.1489027852
 21
172.3444791802
 31
0.0
  0
LINE
  5
3D
330
1F
100
AcDbEntity
  8
0
  6
Continuous
 62
     7
100
AcDbLine
 10
67.6489027852
 20
262.7942567656
 30
0.0
 11
67.6489027852
 21
182.7942567656
 31
0.0
  0
LINE
  5
3E
330
1F
100
AcDbEntity
  8
A_ACHSEN
  6
DOT_CENTER
 62
     2
100
AcDbLine
 10
103.1489027852
 20
288.7796367834
 30
0.0
 11
103.1489027852
 21
160.7942567656
 31
0.0
  0
LINE
  5
3F
330
1F
100
AcDbEntity
  8
A_ACHSEN
  6
Continuous
 62
     7
100
AcDbLine
 10
170.1489027852
 20
271.0442567656
 30
0.0
 11
164.3642240334
 21
272.5942567656001
 31
0.0
  0
LINE
  5
40
330
1F
100
AcDbEntity
  8
0
  6
Continuous
 62
     7
100
AcDbLine
 10
111.1489027852
 20
283.7942567656
 30
0.0
 11
103.7489027852
 21
283.7942567656
 31
0.0
  0
LINE
  5
41
330
1F
100
AcDbEntity
  8
0
  6
Continuous
 62
     7
100
AcDbLine
 10
102.5489027852
 20
283.7942567656
 30
0.0
 11
95.1489027852
 21
283.7942567656
 31
0.0
  0
LINE
  5
42
330
1F
100
AcDbEntity
  8
DEFAULT_2
  6
HIDDEN
 62
   252
420
  8685188
100
AcDbLine
 10
95.14919811439997
 20
282.7942567656
 30
0.0
 11
111.6489027852
 21
282.7942567656
 31
0.0
  0
LINE
  5
43
330
1F
100
AcDbEntity
  8
A_ACHSEN
  6
Continuous
 62
     7
100
AcDbLine
 10
93.1489027852
 20
282.7942567656
 30
0.0
 11
113.1489027852
 21
282.7942567656
 31
0.0
  0
LINE
  5
44
330
1F
100
AcDbEntity
  8
A_ACHSEN
  6
Continuous
 62
     7
100
AcDbLine
 10
117.1489027852
 20
273.2442567656001
 30
0.0
 11
113.1489027852
 21
273.2442567656001
 31
0.0
  0
LINE
  5
45
330
1F
100
AcDbEntity
  8
A_ACHSEN
  6
HIDDEN
 62
   252
420
  8685188
100
AcDbLine
 10
113.1489027852
 20
273.2442567656001
 30
0.0
 11
113.1237760051
 21
273.2442567656001
 31
0.0
  0
LINE
  5
46
330
1F
100
AcDbEntity
  8
A_RUNDUNGEN
  6
HIDDEN
 62
   252
420
  8685188
100
AcDbLine
 10
77.6489027852
 20
272.7942567656
 30
0.0
 11
88.6489027852
 21
272.7942567656
 31
0.0
  0
LINE
  5
47
330
1F
100
AcDbEntity
  8
0
  6
Continuous
 62
     7
100
AcDbLine
 10
88.6489027852
 20
272.7942567656
 30
0.0
 11
77.6489027852
 21
272.7942567656
 31
0.0
  0
LINE
  5
48
330
1F
100
AcDbEntity
  8
A_ACHSEN
  6
Continuous
 62
     7
100
AcDbLine
 10
164.3642240334
 20
272.5942567656001
 30
0.0
 11
161.6489027852
 21
272.5942567656001
 31
0.0
  0
LINE
  5
49
330
1F
100
AcDbEntity
  8
0
  6
Continuous
 62
     2
100
AcDbLine
 10
117.1489027852
 20
272.2942567656
 30
0.0
 11
161.6489027852
 21
272.2942567656
 31
0.0
  0
LINE
  5
4A
330
1F
100
AcDbEntity
  8
A_ACHSEN
  6
Continuous
 62
     7
100
AcDbLine
 10
159.9978679172
 20
273.1951843133001
 30
0.0
 11
117.1489027852
 21
273.2192567656001
 31
0.0
  0
LINE
  5
4B
330
1F
100
AcDbEntity
  8
A_ACHSEN
  6
Continuous
 62
     7
100
AcDbLine
 10
159.9978679172
 20
263.3933292179
 30
0.0
 11
117.1489027852
 21
263.3692567656001
 31
0.0
  0
LINE
  5
4C
330
1F
100
AcDbEntity
  8
A_ACHSEN
  6
DOT_CENTER
 62
     2
100
AcDbLine
 10
110.6489027852
 20
268.2942567656
 30
0.0
 11
172.1489027852
 21
268.2942567656
 31
0.0
  0
LINE
  5
4D
330
1F
100
AcDbEntity
  8
0
  6
Continuous
 62
     2
100
AcDbLine
 10
117.1489027852
 20
264.2942567656
 30
0.0
 11
161.6489027852
 21
264.2942567656
 31
0.0
  0
LINE
  5
4E
330
1F
100
AcDbEntity
  8
A_ACHSEN
  6
Continuous
 62
     7
100
AcDbLine
 10
164.3642240334
 20
263.9942567656001
 30
0.0
 11
161.6489027852
 21
263.9942567656001
 31
0.0
  0
LINE
  5
4F
330
1F
100
AcDbEntity
  8
A_ACHSEN
  6
Continuous
 62
     7
100
AcDbLine
 10
117.1489027852
 20
263.3442567656001
 30
0.0
 11
113.1489027852
 21
263.3442567656
 31
0.0
  0
LINE
  5
50
330
1F
100
AcDbEntity
  8
A_ACHSEN
  6
HIDDEN
 62
   252
420
  8685188
100
AcDbLine
 10
113.1489027852
 20
263.3442567656
 30
0.0
 11
113.1237760051
 21
263.3442567656001
 31
0.0
  0
LINE
  5
51
330
1F
100
AcDbEntity
  8
A_ACHSEN
  6
Continuous
 62
     7
100
AcDbLine
 10
93.1489027852
 20
253.2942567656
 30
0.0
 11
113.1489027852
 21
253.2942567656
 31
0.0
  0
LINE
  5
52
330
1F
100
AcDbEntity
  8
A_ACHSEN
  6
Continuous
 62
     7
100
AcDbLine
 10
113.1487444608
 20
252.7942567656
 30
0.0
 11
93.14902635989998
 21
252.7942567656
 31
0.0
  0
LINE
  5
53
330
1F
100
AcDbEntity
  8
A_ACHSEN
  6
Continuous
 62
     7
100
AcDbLine
 10
170.1489027852
 20
265.5442567656
 30
0.0
 11
164.3642240334
 21
263.9942567656001
 31
0.0
  0
LINE
  5
54
330
1F
100
AcDbEntity
  8
0
  6
Continuous
 62
     7
100
AcDbLine
 10
159.9978679172
 20
263.3933292179
 30
0.0
 11
161.6489027852
 21
263.9942567656001
 31
0.0
  0
LINE
  5
55
330
1F
100
AcDbEntity
  8
0
  6
Continuous
 62
     7
100
AcDbLine
 10
90.0489027852
 20
172.89274173
 30
0.0
 11
90.0489027852
 21
272.6957718012
 31
0.0
  0
LINE
  5
56
330
1F
100
AcDbEntity
  8
A_ACHSEN
  6
Continuous
 62
     7
100
AcDbLine
 10
93.1489027852
 20
252.7942567656
 30
0.0
 11
93.1489027852
 21
192.7942567656
 31
0.0
  0
LINE
  5
57
330
1F
100
AcDbEntity
  8
A_ACHSEN
  6
DOT_CENTER
 62
     2
100
AcDbLine
 10
65.6489027852
 20
222.7942567656
 30
0.0
 11
116.3175045442
 21
222.7942567656
 31
0.0
  0
LINE
  5
58
330
1F
100
AcDbEntity
  8
A_ACHSEN
  6
Continuous
 62
     7
100
AcDbLine
 10
113.1489027852
 20
252.7942567656
 30
0.0
 11
113.1489027852
 21
192.7942567656
 31
0.0
  0
LINE
  5
59
330
1F
100
AcDbEntity
  8
A_ACHSEN
  6
Continuous
 62
     7
100
AcDbLine
 10
170.1489027852
 20
180.0442567656
 30
0.0
 11
164.3642240334
 21
181.5942567656
 31
0.0
  0
LINE
  5
5A
330
1F
100
AcDbEntity
  8
A_ACHSEN
  6
Continuous
 62
     7
100
AcDbLine
 10
113.1487444608
 20
192.7942567656
 30
0.0
 11
93.14902635989998
 21
192.7942567656
 31
0.0
  0
LINE
  5
5B
330
1F
100
AcDbEntity
  8
A_ACHSEN
  6
Continuous
 62
     7
100
AcDbLine
 10
93.1489027852
 20
192.2942567656
 30
0.0
 11
113.1489027852
 21
192.2942567656
 31
0.0
  0
LINE
  5
5C
330
1F
100
AcDbEntity
  8
A_ACHSEN
  6
Continuous
 62
     7
100
AcDbLine
 10
117.1489027852
 20
182.2442567656
 30
0.0
 11
113.1489027852
 21
182.2442567656
 31
0.0
  0
LINE
  5
5D
330
1F
100
AcDbEntity
  8
A_ACHSEN
  6
HIDDEN
 62
   252
420
  8685188
100
AcDbLine
 10
113.1489027852
 20
182.2442567656
 30
0.0
 11
113.1237760051
 21
182.2442567656
 31
0.0
  0
LINE
  5
5E
330
1F
100
AcDbEntity
  8
A_ACHSEN
  6
Continuous
 62
     7
100
AcDbLine
 10
164.3642240334
 20
181.5942567656
 30
0.0
 11
161.6489027852
 21
181.5942567656
 31
0.0
  0
LINE
  5
5F
330
1F
100
AcDbEntity
  8
0
  6
Continuous
 62
     2
100
AcDbLine
 10
117.1489027852
 20
181.2942567656
 30
0.0
 11
161.6489027852
 21
181.2942567656
 31
0.0
  0
LINE
  5
60
330
1F
100
AcDbEntity
  8
A_ACHSEN
  6
Continuous
 62
     7
100
AcDbLine
 10
159.9978679172
 20
182.1951843133
 30
0.0
 11
117.1489027852
 21
182.2192567656
 31
0.0
  0
LINE
  5
61
330
1F
100
AcDbEntity
  8
A_ACHSEN
  6
Continuous
 62
     7
100
AcDbLine
 10
93.1489027852
 20
162.7942567656
 30
0.0
 11
93.1489027852
 21
192.2942567656
 31
0.0
  0
LINE
  5
62
330
1F
100
AcDbEntity
  8
A_ACHSEN
  6
Continuous
 62
     7
100
AcDbLine
 10
93.1489027852
 20
253.2942567656
 30
0.0
 11
93.1489027852
 21
282.7942567656
 31
0.0
  0
LINE
  5
63
330
1F
100
AcDbEntity
  8
A_ACHSEN
  6
Continuous
 62
     7
100
AcDbLine
 10
159.9978679172
 20
172.3933292179
 30
0.0
 11
117.1489027852
 21
172.3692567656
 31
0.0
  0
LINE
  5
64
330
1F
100
AcDbEntity
  8
A_ACHSEN
  6
DOT_CENTER
 62
     2
100
AcDbLine
 10
110.6489027852
 20
177.2942567656
 30
0.0
 11
172.1489027852
 21
177.2942567656
 31
0.0
  0
LINE
  5
65
330
1F
100
AcDbEntity
  8
0
  6
Continuous
 62
     2
100
AcDbLine
 10
117.1489027852
 20
173.2942567656
 30
0.0
 11
161.6489027852
 21
173.2942567656
 31
0.0
  0
LINE
  5
66
330
1F
100
AcDbEntity
  8
A_ACHSEN
  6
Continuous
 62
     7
100
AcDbLine
 10
164.3642240334
 20
172.9942567656
 30
0.0
 11
161.6489027852
 21
172.9942567656
 31
0.0
  0
LINE
  5
67
330
1F
100
AcDbEntity
  8
0
  6
Continuous
 62
     7
100
AcDbLine
 10
77.6489027852
 20
172.7942567656
 30
0.0
 11
88.6489027852
 21
172.7942567656
 31
0.0
  0
LINE
  5
68
330
1F
100
AcDbEntity
  8
A_ACHSEN
  6
Continuous
 62
     7
100
AcDbLine
 10
117.1489027852
 20
172.3442567656
 30
0.0
 11
113.1489027852
 21
172.3442567656
 31
0.0
  0
LINE
  5
69
330
1F
100
AcDbEntity
  8
A_ACHSEN
  6
HIDDEN
 62
   252
420
  8685188
100
AcDbLine
 10
113.1489027852
 20
172.3442567656
 30
0.0
 11
113.1237760051
 21
172.3442567656
 31
0.0
  0
LINE
  5
6A
330
1F
100
AcDbEntity
  8
A_ACHSEN
  6
Continuous
 62
     7
100
AcDbLine
 10
95.1489027852
 20
282.7942567656
 30
0.0
 11
95.1489027852
 21
283.7942567656
 31
0.0
  0
LINE
  5
6B
330
1F
100
AcDbEntity
  8
0
  6
Continuous
 62
     7
100
AcDbLine
 10
102.5489027852
 20
286.7794648176
 30
0.0
 11
102.5489027852
 21
282.7942567656
 31
0.0
  0
LINE
  5
6C
330
1F
100
AcDbEntity
  8
0
  6
Continuous
 62
     7
100
AcDbLine
 10
103.7489027852
 20
282.7942567656
 30
0.0
 11
103.7489027852
 21
286.7794648176
 31
0.0
  0
LINE
  5
6D
330
1F
100
AcDbEntity
  8
A_ACHSEN
  6
Continuous
 62
     7
100
AcDbLine
 10
111.1489027852
 20
282.7942567656
 30
0.0
 11
111.1489027852
 21
283.7942567656
 31
0.0
  0
LINE
  5
6E
330
1F
100
AcDbEntity
  8
A_ACHSEN
  6
Continuous
 62
     7
100
AcDbLine
 10
170.1489027852
 20
174.5442567656
 30
0.0
 11
164.3642240334
 21
172.9942567656
 31
0.0
  0
LINE
  5
6F
330
1F
100
AcDbEntity
  8
A_ACHSEN
  6
Continuous
 62
     7
100
AcDbLine
 10
93.1489027852
 20
162.7942567656
 30
0.0
 11
113.1489027852
 21
162.7942567656
 31
0.0
  0
LINE
  5
70
330
1F
100
AcDbEntity
  8
0
  6
Continuous
 62
     7
100
AcDbLine
 10
159.9978679172
 20
182.1951843133
 30
0.0
 11
161.6489027852
 21
181.5942567656
 31
0.0
  0
LINE
  5
71
330
1F
100
AcDbEntity
  8
A_ACHSEN
  6
Continuous
 62
     7
100
AcDbLine
 10
113.1489027852
 20
162.7942567656
 30
0.0
 11
113.1489027852
 21
172.3442567656
 31
0.0
  0
LINE
  5
72
330
1F
100
AcDbEntity
  8
A_ACHSEN
  6
Continuous
 62
     7
100
AcDbLine
 10
113.1489027852
 20
172.3442567656
 30
0.0
 11
113.1489027852
 21
182.2442567656
 31
0.0
  0
LINE
  5
73
330
1F
100
AcDbEntity
  8
A_ACHSEN
  6
Continuous
 62
     7
100
AcDbLine
 10
113.1489027852
 20
182.2442567656
 30
0.0
 11
113.1489027852
 21
192.2942567656
 31
0.0
  0
LINE
  5
74
330
1F
100
AcDbEntity
  8
A_ACHSEN
  6
Continuous
 62
     7
100
AcDbLine
 10
113.1489027852
 20
253.2942567656
 30
0.0
 11
113.1489027852
 21
263.3442567656
 31
0.0
  0
LINE
  5
75
330
1F
100
AcDbEntity
  8
A_ACHSEN
  6
Continuous
 62
     7
100
AcDbLine
 10
113.1489027852
 20
263.3442567656
 30
0.0
 11
113.1489027852
 21
273.2442567656001
 31
0.0
  0
LINE
  5
76
330
1F
100
AcDbEntity
  8
A_ACHSEN
  6
Continuous
 62
     7
100
AcDbLine
 10
113.1489027852
 20
273.2442567656001
 30
0.0
 11
113.1489027852
 21
282.7942567656
 31
0.0
  0
LINE
  5
77
330
1F
100
AcDbEntity
  8
DEFAULT_2
  6
Continuous
 62
     7
100
AcDbLine
 10
117.1489027852
 20
263.3692567656001
 30
0.0
 11
117.1489027852
 21
273.2192567656001
 31
0.0
  0
LINE
  5
78
330
1F
100
AcDbEntity
  8
0
  6
Continuous
 62
     7
100
AcDbLine
 10
159.9978679172
 20
172.3933292179
 30
0.0
 11
161.6489027852
 21
172.9942567656
 31
0.0
  0
LINE
  5
79
330
1F
100
AcDbEntity
  8
0
  6
Continuous
 62
     7
100
AcDbLine
 10
159.9978679172
 20
172.3933292179
 30
0.0
 11
159.9978679172
 21
182.1951843133
 31
0.0
  0
LINE
  5
7A
330
1F
100
AcDbEntity
  8
0
  6
Continuous
 62
     7
100
AcDbLine
 10
159.9978679172
 20
263.3933292179
 30
0.0
 11
159.9978679172
 21
273.1951843133001
 31
0.0
  0
LINE
  5
7B
330
1F
100
AcDbEntity
  8
0
  6
Continuous
 62
     7
100
AcDbLine
 10
161.6489027852
 20
272.5942567656001
 30
0.0
 11
161.6489027852
 21
263.9942567656001
 31
0.0
  0
LINE
  5
7C
330
1F
100
AcDbEntity
  8
0
  6
Continuous
 62
     7
100
AcDbLine
 10
161.6489027852
 20
181.5942567656
 30
0.0
 11
161.6489027852
 21
172.9942567656
 31
0.0
  0
LINE
  5
7D
330
1F
100
AcDbEntity
  8
A_ACHSEN
  6
Continuous
 62
     7
100
AcDbLine
 10
164.3642240334
 20
272.5942567656001
 30
0.0
 11
164.3642240334
 21
263.9942567656001
 31
0.0
  0
LINE
  5
7E
330
1F
100
AcDbEntity
  8
A_ACHSEN
  6
Continuous
 62
     7
100
AcDbLine
 10
164.3642240334
 20
181.5942567656
 30
0.0
 11
164.3642240334
 21
172.9942567656
 31
0.0
  0
LINE
  5
7F
330
1F
100
AcDbEntity
  8
A_ACHSEN
  6
Continuous
 62
     7
100
AcDbLine
 10
170.1489027852
 20
271.0440380114001
 30
0.0
 11
170.1489027852
 21
265.5444755198001
 31
0.0
  0
LINE
  5
80
330
1F
100
AcDbEntity
  8
A_ACHSEN
  6
Continuous
 62
     7
100
AcDbLine
 10
170.1489027852
 20
180.0440380114
 30
0.0
 11
170.1489027852
 21
174.5444755198
 31
0.0
  0
LINE
  5
81
330
1F
100
AcDbEntity
  8
0
  6
Continuous
 62
     7
100
AcDbLine
 10
159.9978679172
 20
273.1951843133001
 30
0.0
 11
161.6489027852
 21
272.5942567656001
 31
0.0
  0
LINE
  5
82
330
1F
100
AcDbEntity
  8
A_ACHSEN
  6
DOT_CENTER
 62
     2
100
AcDbLine
 10
83.6489027852
 20
200.2942567656
 30
0.0
 11
87.7489027851999
 21
200.2942567656
 31
0.0
  0
LINE
  5
83
330
1F
100
AcDbEntity
  8
DEFAULT_1
  6
DOT_CENTER
 62
     2
100
AcDbLine
 10
84.6489027852
 20
186.7942567656
 30
0.0
 11
84.6489027852
 21
193.0442567656
 31
0.0
  0
LINE
  5
84
330
1F
100
AcDbEntity
  8
DEFAULT_1
  6
DOT_CENTER
 62
     2
100
AcDbLine
 10
84.6489027852
 20
186.7942567656
 30
0.0
 11
84.6489027852
 21
180.5442567656
 31
0.0
  0
LINE
  5
85
330
1F
100
AcDbEntity
  8
A_ACHSEN
  6
DOT_CENTER
 62
     2
100
AcDbLine
 10
83.6489027852
 20
200.2942567656
 30
0.0
 11
83.6489027852
 21
196.1942567656
 31
0.0
  0
LINE
  5
86
330
1F
100
AcDbEntity
  8
A_ACHSEN
  6
DOT_CENTER
 62
     2
100
AcDbLine
 10
74.6489027852
 20
180.7942567656
 30
0.0
 11
74.6489027852
 21
187.0442567656
 31
0.0
  0
LINE
  5
87
330
1F
100
AcDbEntity
  8
A_ACHSEN
  6
DOT_CENTER
 62
     2
100
AcDbLine
 10
74.6489027852
 20
180.7942567656
 30
0.0
 11
74.6489027852
 21
174.5442567656
 31
0.0
  0
LINE
  5
88
330
1F
100
AcDbEntity
  8
A_ACHSEN
  6
DOT_CENTER
 62
     2
100
AcDbLine
 10
83.6489027852
 20
200.2942567656
 30
0.0
 11
78.97561452933382
 21
200.2942567656
 31
0.0
  0
LINE
  5
89
330
1F
100
AcDbEntity
  8
DEFAULT_1
  6
DOT_CENTER
 62
     2
100
AcDbLine
 10
84.6489027852
 20
186.7942567656
 30
0.0
 11
90.8989027852
 21
186.7942567656
 31
0.0
  0
LINE
  5
8A
330
1F
100
AcDbEntity
  8
DEFAULT_1
  6
DOT_CENTER
 62
     2
100
AcDbLine
 10
84.6489027852
 20
186.7942567656
 30
0.0
 11
78.3989027852
 21
186.7942567656
 31
0.0
  0
LINE
  5
8B
330
1F
100
AcDbEntity
  8
A_ACHSEN
  6
DOT_CENTER
 62
     2
100
AcDbLine
 10
74.6489027852
 20
180.7942567656
 30
0.0
 11
80.8989027852
 21
180.7942567656
 31
0.0
  0
LINE
  5
8C
330
1F
100
AcDbEntity
  8
A_ACHSEN
  6
DOT_CENTER
 62
     2
100
AcDbLine
 10
74.6489027852
 20
180.7942567656
 30
0.0
 11
68.3989027852
 21
180.7942567656
 31
0.0
  0
LINE
  5
8D
330
1F
100
AcDbEntity
  8
A_ACHSEN
  6
DOT_CENTER
 62
     2
100
AcDbLine
 10
83.6489027852
 20
200.2942567656
 30
0.0
 11
83.6489027852
 21
204.236851814791
 31
0.0
  0
LINE
  5
8E
330
1F
100
AcDbEntity
  8
1
  6
DOT_CENTER
 62
     2
100
AcDbLine
 10
81.6489027852
 20
222.7942567656
 30
0.0
 11
81.6489027852
 21
218.7942567656
 31
0.0
  0
LINE
  5
8F
330
1F
100
AcDbEntity
  8
1
  6
DOT_CENTER
 62
     2
100
AcDbLine
 10
81.6489027852
 20
222.7942567656
 30
0.0
 11
81.6489027852
 21
226.7942567656
 31
0.0
  0
LINE
  5
90
330
1F
100
AcDbEntity
  8
A_ACHSEN
  6
DOT_CENTER
 62
     2
100
AcDbLine
 10
83.6489027852
 20
241.052048721072
 30
0.0
 11
83.6489027852
 21
245.2942567656
 31
0.0
  0
LINE
  5
91
330
1F
100
AcDbEntity
  8
A_ACHSEN
  6
DOT_CENTER
 62
     2
100
AcDbLine
 10
68.3989027852
 20
264.7942567656
 30
0.0
 11
74.6489027852
 21
264.7942567656
 31
0.0
  0
LINE
  5
92
330
1F
100
AcDbEntity
  8
A_ACHSEN
  6
DOT_CENTER
 62
     2
100
AcDbLine
 10
80.8989027852
 20
264.7942567656
 30
0.0
 11
74.6489027852
 21
264.7942567656
 31
0.0
  0
LINE
  5
93
330
1F
100
AcDbEntity
  8
DEFAULT_1
  6
DOT_CENTER
 62
     2
100
AcDbLine
 10
78.3989027852
 20
258.7942567656
 30
0.0
 11
84.6489027852
 21
258.7942567656
 31
0.0
  0
LINE
  5
94
330
1F
100
AcDbEntity
  8
DEFAULT_1
  6
DOT_CENTER
 62
     2
100
AcDbLine
 10
90.8989027852
 20
258.7942567656
 30
0.0
 11
84.6489027852
 21
258.7942567656
 31
0.0
  0
LINE
  5
95
330
1F
100
AcDbEntity
  8
A_ACHSEN
  6
DOT_CENTER
 62
     2
100
AcDbLine
 10
79.54890278519991
 20
245.2942567656
 30
0.0
 11
83.6489027852
 21
245.2942567656
 31
0.0
  0
LINE
  5
96
330
1F
100
AcDbEntity
  8
A_ACHSEN
  6
DOT_CENTER
 62
     2
100
AcDbLine
 10
87.7489027851999
 20
245.2942567656
 30
0.0
 11
83.6489027852
 21
245.2942567656
 31
0.0
  0
LINE
  5
97
330
1F
100
AcDbEntity
  8
A_ACHSEN
  6
DOT_CENTER
 62
     2
100
AcDbLine
 10
74.6489027852
 20
271.0442567656
 30
0.0
 11
74.6489027852
 21
264.7942567656
 31
0.0
  0
LINE
  5
98
330
1F
100
AcDbEntity
  8
A_ACHSEN
  6
DOT_CENTER
 62
     2
100
AcDbLine
 10
74.6489027852
 20
258.5442567656
 30
0.0
 11
74.6489027852
 21
264.7942567656
 31
0.0
  0
LINE
  5
99
330
1F
100
AcDbEntity
  8
A_ACHSEN
  6
DOT_CENTER
 62
     2
100
AcDbLine
 10
83.6489027852
 20
249.3942567656
 30
0.0
 11
83.6489027852
 21
245.2942567656
 31
0.0
  0
LINE
  5
9A
330
1F
100
AcDbEntity
  8
DEFAULT_1
  6
DOT_CENTER
 62
     2
100
AcDbLine
 10
84.6489027852
 20
265.0442567656
 30
0.0
 11
84.6489027852
 21
258.7942567656
 31
0.0
  0
LINE
  5
9B
330
1F
100
AcDbEntity
  8
DEFAULT_1
  6
DOT_CENTER
 62
     2
100
AcDbLine
 10
84.6489027852
 20
252.5442567656
 30
0.0
 11
84.6489027852
 21
258.7942567656
 31
0.0
  0
LINE
  5
9C
330
1F
100
AcDbEntity
  8
A_ACHSEN
  6
DOT_CENTER
 62
     2
100
AcDbLine
 10
88.1489027852
 20
222.7942567656
 30
0.0
 11
81.6489027852
 21
222.7942567656
 31
0.0
  0
ARC
  5
9D
330
1F
100
AcDbEntity
  8
A_RUNDUNGEN
  6
Continuous
 62
     7
100
AcDbCircle
 10
88.6489027852
 20
182.7942567656
 30
0.0
 40
10.0
100
AcDbArc
 50
-90.0
 51
-63.25631604955402
  0
ARC
  5
9E
330
1F
100
AcDbEntity
  8
A_RUNDUNGEN
  6
Continuous
 62
     7
100
AcDbCircle
 10
77.6489027852
 20
262.7942567656
 30
0.0
 40
10.0
100
AcDbArc
 50
90.0
 51
180.0
  0
ARC
  5
9F
330
1F
100
AcDbEntity
  8
A_RUNDUNGEN
  6
Continuous
 62
     7
100
AcDbCircle
 10
88.6489027852
 20
262.7942567656
 30
0.0
 40
9.999999999999936
100
AcDbArc
 50
63.25631604959682
 51
90.0
  0
ARC
  5
A0
330
1F
100
AcDbEntity
  8
A_RUNDUNGEN
  6
Continuous
 62
     7
100
AcDbCircle
 10
77.6489027852
 20
182.7942567656
 30
0.0
 40
10.0
100
AcDbArc
 50
180.0
 51
-90.0
  0
ARC
  5
A1
330
1F
100
AcDbEntity
  8
A_ACHSEN
  6
Continuous
 62
     7
100
AcDbCircle
 10
103.1489027852
 20
274.6275900989
 30
0.0
 40
12.16666666669178
100
AcDbArc
 50
48.88790956093628
 51
87.12009547350118
  0
ARC
  5
A2
330
1F
100
AcDbEntity
  8
A_ACHSEN
  6
Continuous
 62
     7
100
AcDbCircle
 10
103.1489027852
 20
274.6275900989
 30
0.0
 40
12.16666666669962
100
AcDbArc
 50
92.87990452649876
 51
131.1120904390637
  0
CIRCLE
  5
A3
330
1F
100
AcDbEntity
  8
A_ACHSEN
  6
Continuous
 62
     7
100
AcDbCircle
 10
83.6489027852
 20
200.2942567656
 30
0.0
 40
2.5
  0
CIRCLE
  5
A4
330
1F
100
AcDbEntity
  8
A_ACHSEN
  6
Continuous
 62
     7
100
AcDbCircle
 10
83.6489027852
 20
245.2942567656
 30
0.0
 40
2.5
  0
CIRCLE
  5
A5
330
1F
100
AcDbEntity
  8
0
  6
Continuous
 62
     7
100
AcDbCircle
 10
84.6489027852
 20
186.7942567656
 30
0.0
 40
5.25
  0
CIRCLE
  5
A6
330
1F
100
AcDbEntity
  8
0
  6
Continuous
 62
     7
100
AcDbCircle
 10
84.6489027852
 20
186.7942567656
 30
0.0
 40
3.0
  0
CIRCLE
  5
A7
330
1F
100
AcDbEntity
  8
A_ACHSEN
  6
Continuous
 62
     7
100
AcDbCircle
 10
74.6489027852
 20
180.7942567656
 30
0.0
 40
5.25
  0
CIRCLE
  5
A8
330
1F
100
AcDbEntity
  8
A_ACHSEN
  6
Continuous
 62
     7
100
AcDbCircle
 10
74.6489027852
 20
180.7942567656
 30
0.0
 40
3.0
  0
CIRCLE
  5
A9
330
1F
100
AcDbEntity
  8
A_ACHSEN
  6
Continuous
 62
     7
100
AcDbCircle
 10
74.6489027852
 20
264.7942567656
 30
0.0
 40
3.0
  0
CIRCLE
  5
AA
330
1F
100
AcDbEntity
  8
A_ACHSEN
  6
Continuous
 62
     7
100
AcDbCircle
 10
74.6489027852
 20
264.7942567656
 30
0.0
 40
5.25
  0
CIRCLE
  5
AB
330
1F
100
AcDbEntity
  8
0
  6
Continuous
 62
     7
100
AcDbCircle
 10
84.6489027852
 20
258.7942567656
 30
0.0
 40
3.0
  0
CIRCLE
  5
AC
330
1F
100
AcDbEntity
  8
0
  6
Continuous
 62
     7
100
AcDbCircle
 10
84.6489027852
 20
258.7942567656
 30
0.0
 40
5.25
  0
CIRCLE
  5
AD
330
1F
100
AcDbEntity
  8
A_ACHSEN
  6
Continuous
 62
     7
100
AcDbCircle
 10
81.6489027852
 20
222.7942567656
 30
0.0
 40
2.5
  0
MTEXT
  5
AF
330
1F
100
AcDbEntity
  8
1
 62
     2
100
AcDbMText
 10
137.3756068786152
 20
255.1507614955031
 30
0.0
 40
3.5
 41
0.0
 71
     5
 72
     1
  1
ø9.9x57
  7
CONVERTER_11
 73
     1
 44
1.32052821128451
  0
DIMENSION
  5
BA
330
1F
100
AcDbEntity
  8
1
100
AcDbDimension
  2
*D1
 10
57.3884027287402
 20
272.7942567656
 30
0.0
 11
53.6384027287402
 21
222.7942567656
 31
0.0
 70
    32
  1
<>
 71
     5
 42
-1.0
 53
90.0
  3
ME10_DIM_10
100
AcDbAlignedDimension
 13
77.6489027852
 23
172.7942567656
 33
0.0
 14
77.6489027852
 24
272.7942567656
 34
0.0
 50
90.0
100
AcDbRotatedDimension
  0
DIMENSION
  5
C5
330
1F
100
AcDbEntity
  8
1
100
AcDbDimension
  2
*D2
 10
182.95918517041
 20
268.2942567656
 30
0.0
 11
179.20918517041
 21
222.7942567656
 31
0.0
 70
    32
  1
<>
 71
     5
 42
-1.0
 53
90.0
  3
ME10_DIM_11
100
AcDbAlignedDimension
 13
172.1489027852
 23
177.2942567656
 33
0.0
 14
172.1489027852
 24
268.2942567656
 34
0.0
 50
90.0
100
AcDbRotatedDimension
  0
DIMENSION
  5
D0
330
1F
100
AcDbEntity
  8
1
100
AcDbDimension
  2
*D3
 10
93.1489027852
 20
295.569265770426
 30
0.0
 11
103.077150661178
 21
299.319265770426
 31
0.0
 70
    32
  1
<>
 71
     5
 42
-1.0
 53
0.00013888888889
  3
ME10_DIM_12
100
AcDbAlignedDimension
 13
113.1489027852
 23
273.2442567656001
 33
0.0
 14
93.1489027852
 24
282.7942567656
 34
0.0
100
AcDbRotatedDimension
  0
DIMENSION
  5
DB
330
1F
100
AcDbEntity
  8
1
100
AcDbDimension
  2
*D4
 10
47.203596287723
 20
282.7942567656
 30
0.0
 11
43.453596287723
 21
222.7942567656
 31
0.0
 70
    32
  1
<>
 71
     5
 42
-1.0
 53
90.0
  3
ME10_DIM_13
100
AcDbAlignedDimension
 13
93.1489027852
 23
162.7942567656
 33
0.0
 14
93.1489027852
 24
282.7942567656
 34
0.0
 50
90.0
100
AcDbRotatedDimension
  0
ENDSEC
  0
SECTION
  2
OBJECTS
  0
DICTIONARY
  5
C
330
0
100
AcDbDictionary
281
     1
  3
ACAD_GROUP
350
D
  3
ACAD_LAYOUT
350
1A
  3
ACAD_MLINESTYLE
350
17
  3
ACAD_PLOTSETTINGS
350
19
  3
ACAD_PLOTSTYLENAME
350
E
  0
DICTIONARY
  5
D
102
{ACAD_REACTORS
330
C
102
}
330
C
100
AcDbDictionary
281
     1
  0
DICTIONARY
  5
1A
102
{ACAD_REACTORS
330
C
102
}
330
C
100
AcDbDictionary
281
     1
  3
Layout1
350
1E
  3
Layout2
350
26
  3
Model
350
22
  0
DICTIONARY
  5
17
102
{ACAD_REACTORS
330
C
102
}
330
C
100
AcDbDictionary
281
     1
  3
Standard
350
18
  0
DICTIONARY
  5
19
102
{ACAD_REACTORS
330
C
102
}
330
C
100
AcDbDictionary
281
     1
  0
ACDBDICTIONARYWDFLT
  5
E
102
{ACAD_REACTORS
330
C
102
}
330
C
100
AcDbDictionary
281
     1
  3
Normal
350
F
100
AcDbDictionaryWithDefault
340
F
  0
LAYOUT
  5
1E
102
{ACAD_REACTORS
330
1A
102
}
330
1A
100
AcDbPlotSettings
  1

  2

  4

  6

 40
0.0
 41
0.0
 42
0.0
 43
0.0
 44
0.0
 45
0.0
 46
0.0
 47
0.0
 48
0.0
 49
0.0
140
0.0
141
0.0
142
1.0
143
1.0
 70
   688
 72
     0
 73
     0
 74
     5
  7

 75
    16
 76
     0
 77
     2
 78
   300
147
1.0
148
0.0
149
0.0
100
AcDbLayout
  1
Layout1
 70
     1
 71
     1
 10
0.0
 20
0.0
 11
0.0
 21
0.0
 12
0.0
 22
0.0
 32
0.0
 14
0.0
 24
0.0
 34
0.0
 15
0.0
 25
0.0
 35
0.0
146
0.0
 13
0.0
 23
0.0
 33
0.0
 16
1.0
 26
0.0
 36
0.0
 17
0.0
 27
1.0
 37
0.0
 76
     0
330
1B
  0
LAYOUT
  5
26
102
{ACAD_REACTORS
330
1A
102
}
330
1A
100
AcDbPlotSettings
  1

  2

  4

  6

 40
0.0
 41
0.0
 42
0.0
 43
0.0
 44
0.0
 45
0.0
 46
0.0
 47
0.0
 48
0.0
 49
0.0
140
0.0
141
0.0
142
1.0
143
1.0
 70
   688
 72
     0
 73
     0
 74
     5
  7

 75
    16
 76
     0
 77
     2
 78
   300
147
1.0
148
0.0
149
0.0
100
AcDbLayout
  1
Layout2
 70
     1
 71
     2
 10
0.0
 20
0.0
 11
0.0
 21
0.0
 12
0.0
 22
0.0
 32
0.0
 14
0.0
 24
0.0
 34
0.0
 15
0.0
 25
0.0
 35
0.0
146
0.0
 13
0.0
 23
0.0
 33
0.0
 16
1.0
 26
0.0
 36
0.0
 17
0.0
 27
1.0
 37
0.0
 76
     0
330
23
  0
LAYOUT
  5
22
102
{ACAD_REACTORS
330
1A
102
}
330
1A
100
AcDbPlotSettings
  1

  2

  4

  6

 40
0.0
 41
0.0
 42
0.0
 43
0.0
 44
0.0
 45
0.0
 46
0.0
 47
0.0
 48
0.0
 49
0.0
140
0.0
141
0.0
142
1.0
143
1.0
 70
  1712
 72
     0
 73
     0
 74
     0
  7

 75
     0
 76
     0
 77
     2
 78
   300
147
1.0
148
0.0
149
0.0
100
AcDbLayout
  1
Model
 70
     1
 71
     0
 10
0.0
 20
0.0
 11
0.0
 21
0.0
 12
0.0
 22
0.0
 32
0.0
 14
41.703596287723
 24
160.7942567656
 34
0.0
 15
184.95918517041
 25
301.069265770426
 35
0.0
146
0.0
 13
0.0
 23
0.0
 33
0.0
 16
1.0
 26
0.0
 36
0.0
 17
0.0
 27
1.0
 37
0.0
 76
     0
330
1F
  0
MLINESTYLE
  5
18
102
{ACAD_REACTORS
330
17
102
}
330
17
100
AcDbMlineStyle
  2
Standard
 70
     0
  3

 62
   256
 51
90.0
 52
90.0
 71
     2
 49
0.5
 62
   256
  6
BYLAYER
 49
-0.5
 62
   256
  6
BYLAYER
  0
ACDBPLACEHOLDER
  5
F
102
{ACAD_REACTORS
330
E
102
}
330
E
  0
ENDSEC
  0
EOF
