  0
SECTION
  2
HEADER
  9
$ACADVER
  1
AC1018
  9
$ACADMAINTVER
 70
     0
  9
$DWGCODEPAGE
  3
ANSI_1252
  9
$INSBASE
 10
0.0
 20
0.0
 30
0.0
  9
$EXTMIN
 10
182.931906753853
 20
304.924576061384
 30
0.0
  9
$EXTMAX
 10
324.945765635884
 20
412.966734574492
 30
0.0
  9
$LIMMIN
 10
0.0
 20
0.0
  9
$LIMMAX
 10
12.0
 20
9.0
  9
$ORTHOMODE
 70
     0
  9
$REGENMODE
 70
     1
  9
$FILLMODE
 70
     1
  9
$QTEXTMODE
 70
     0
  9
$MIRRTEXT
 70
     1
  9
$LTSCALE
 40
1.0
  9
$ATTMODE
 70
     1
  9
$TEXTSIZE
 40
0.2
  9
$TRACEWID
 40
0.05
  9
$TEXTSTYLE
  7
Standard
  9
$CLAYER
  8
0
  9
$CELTYPE
  6
ByLayer
  9
$CECOLOR
 62
   256
  9
$CELTSCALE
 40
1.0
  9
$DISPSILH
 70
     0
  9
$DIMSCALE
 40
1.0
  9
$DIMASZ
 40
0.18
  9
$DIMEXO
 40
0.0625
  9
$DIMDLI
 40
0.38
  9
$DIMRND
 40
0.0
  9
$DIMDLE
 40
0.0
  9
$DIMEXE
 40
0.18
  9
$DIMTP
 40
0.0
  9
$DIMTM
 40
0.0
  9
$DIMTXT
 40
0.18
  9
$DIMCEN
 40
0.09
  9
$DIMTSZ
 40
0.0
  9
$DIMTOL
 70
     0
  9
$DIMLIM
 70
     0
  9
$DIMTIH
 70
     1
  9
$DIMTOH
 70
     1
  9
$DIMSE1
 70
     0
  9
$DIMSE2
 70
     0
  9
$DIMTAD
 70
     0
  9
$DIMZIN
 70
     0
  9
$DIMBLK
  1

  9
$DIMASO
 70
     1
  9
$DIMSHO
 70
     1
  9
$DIMPOST
  1

  9
$DIMAPOST
  1

  9
$DIMALT
 70
     0
  9
$DIMALTD
 70
     2
  9
$DIMALTF
 40
25.4
  9
$DIMLFAC
 40
1.0
  9
$DIMTOFL
 70
     0
  9
$DIMTVP
 40
0.0
  9
$DIMTIX
 70
     0
  9
$DIMSOXD
 70
     0
  9
$DIMSAH
 70
     0
  9
$DIMBLK1
  1

  9
$DIMBLK2
  1

  9
$DIMSTYLE
  2
Standard
  9
$DIMCLRD
 70
     0
  9
$DIMCLRE
 70
     0
  9
$DIMCLRT
 70
     0
  9
$DIMTFAC
 40
1.0
  9
$DIMGAP
 40
0.09
  9
$DIMJUST
 70
     0
  9
$DIMSD1
 70
     0
  9
$DIMSD2
 70
     0
  9
$DIMTOLJ
 70
     1
  9
$DIMTZIN
 70
     0
  9
$DIMALTZ
 70
     0
  9
$DIMALTTZ
 70
     0
  9
$DIMUPT
 70
     0
  9
$DIMDEC
 70
     4
  9
$DIMTDEC
 70
     4
  9
$DIMALTU
 70
     2
  9
$DIMALTTD
 70
     2
  9
$DIMTXSTY
  7
Standard
  9
$DIMAUNIT
 70
     0
  9
$DIMADEC
 70
     0
  9
$DIMALTRND
 40
0.0
  9
$DIMAZIN
 70
     0
  9
$DIMDSEP
 70
    46
  9
$DIMATFIT
 70
     3
  9
$DIMFRAC
 70
     0
  9
$DIMLDRBLK
  1

  9
$DIMLUNIT
 70
     2
  9
$DIMLWD
 70
    -2
  9
$DIMLWE
 70
    -2
  9
$DIMTMOVE
 70
     0
  9
$LUNITS
 70
     2
  9
$LUPREC
 70
     4
  9
$SKETCHINC
 40
0.1
  9
$FILLETRAD
 40
0.5
  9
$AUNITS
 70
     0
  9
$AUPREC
 70
     0
  9
$MENU
  1
.
  9
$ELEVATION
 40
0.0
  9
$PELEVATION
 40
0.0
  9
$THICKNESS
 40
0.0
  9
$LIMCHECK
 70
     0
  9
$CHAMFERA
 40
0.5
  9
$CHAMFERB
 40
0.5
  9
$CHAMFERC
 40
1.0
  9
$CHAMFERD
 40
0.0
  9
$SKPOLY
 70
     0
  9
$TDCREATE
 40
2455827.503909745
  9
$TDUCREATE
 40
2455827.420576412
  9
$TDUPDATE
 40
2455827.503909757
  9
$TDUUPDATE
 40
2455827.420576423
  9
$TDINDWG
 40
0.0000000116
  9
$TDUSRTIMER
 40
0.0000000116
  9
$USRTIMER
 70
     1
  9
$ANGBASE
 50
0.0
  9
$ANGDIR
 70
     0
  9
$PDMODE
 70
     0
  9
$PDSIZE
 40
0.0
  9
$PLINEWID
 40
0.0
  9
$SPLFRAME
 70
     0
  9
$SPLINETYPE
 70
     6
  9
$SPLINESEGS
 70
     8
  9
$HANDSEED
  5
12B
  9
$SURFTAB1
 70
     6
  9
$SURFTAB2
 70
     6
  9
$SURFTYPE
 70
     6
  9
$SURFU
 70
     6
  9
$SURFV
 70
     6
  9
$UCSBASE
  2

  9
$UCSNAME
  2

  9
$UCSORG
 10
0.0
 20
0.0
 30
0.0
  9
$UCSXDIR
 10
1.0
 20
0.0
 30
0.0
  9
$UCSYDIR
 10
0.0
 20
1.0
 30
0.0
  9
$UCSORTHOREF
  2

  9
$UCSORTHOVIEW
 70
     0
  9
$UCSORGTOP
 10
0.0
 20
0.0
 30
0.0
  9
$UCSORGBOTTOM
 10
0.0
 20
0.0
 30
0.0
  9
$UCSORGLEFT
 10
0.0
 20
0.0
 30
0.0
  9
$UCSORGRIGHT
 10
0.0
 20
0.0
 30
0.0
  9
$UCSORGFRONT
 10
0.0
 20
0.0
 30
0.0
  9
$UCSORGBACK
 10
0.0
 20
0.0
 30
0.0
  9
$PUCSBASE
  2

  9
$PUCSNAME
  2

  9
$PUCSORG
 10
0.0
 20
0.0
 30
0.0
  9
$PUCSXDIR
 10
1.0
 20
0.0
 30
0.0
  9
$PUCSYDIR
 10
0.0
 20
1.0
 30
0.0
  9
$PUCSORTHOREF
  2

  9
$PUCSORTHOVIEW
 70
     0
  9
$PUCSORGTOP
 10
0.0
 20
0.0
 30
0.0
  9
$PUCSORGBOTTOM
 10
0.0
 20
0.0
 30
0.0
  9
$PUCSORGLEFT
 10
0.0
 20
0.0
 30
0.0
  9
$PUCSORGRIGHT
 10
0.0
 20
0.0
 30
0.0
  9
$PUCSORGFRONT
 10
0.0
 20
0.0
 30
0.0
  9
$PUCSORGBACK
 10
0.0
 20
0.0
 30
0.0
  9
$USERI1
 70
     0
  9
$USERI2
 70
     0
  9
$USERI3
 70
     0
  9
$USERI4
 70
     0
  9
$USERI5
 70
     0
  9
$USERR1
 40
14.5
  9
$USERR2
 40
0.0
  9
$USERR3
 40
0.0
  9
$USERR4
 40
0.0
  9
$USERR5
 40
0.0
  9
$WORLDVIEW
 70
     1
  9
$SHADEDGE
 70
     3
  9
$SHADEDIF
 70
    70
  9
$TILEMODE
 70
     1
  9
$MAXACTVP
 70
    64
  9
$PINSBASE
 10
0.0
 20
0.0
 30
0.0
  9
$PLIMCHECK
 70
     0
  9
$PEXTMIN
 10
1.00000000000000E+20
 20
1.00000000000000E+20
 30
1.00000000000000E+20
  9
$PEXTMAX
 10
-1.00000000000000E+20
 20
-1.00000000000000E+20
 30
-1.00000000000000E+20
  9
$PLIMMIN
 10
0.0
 20
0.0
  9
$PLIMMAX
 10
12.0
 20
9.0
  9
$UNITMODE
 70
     0
  9
$VISRETAIN
 70
     1
  9
$PLINEGEN
 70
     0
  9
$PSLTSCALE
 70
     1
  9
$TREEDEPTH
 70
  3020
  9
$CMLSTYLE
  2
Standard
  9
$CMLJUST
 70
     0
  9
$CMLSCALE
 40
1.0
  9
$PROXYGRAPHICS
 70
     1
  9
$MEASUREMENT
 70
     1
  9
$CELWEIGHT
370
    -1
  9
$ENDCAPS
280
     0
  9
$JOINSTYLE
280
     0
  9
$LWDISPLAY
290
     0
  9
$INSUNITS
 70
     1
  9
$HYPERLINKBASE
  1

  9
$STYLESHEET
  1

  9
$XEDIT
290
     1
  9
$CEPSNTYPE
380
     0
  9
$PSTYLEMODE
290
     1
  9
$FINGERPRINTGUID
  2
{6AD82C6C-9039-4B6A-A824-97565F7A6607}
  9
$VERSIONGUID
  2
{FAEB1C32-E019-11D5-929B-00C0DF256EC4}
  9
$EXTNAMES
290
     1
  9
$PSVPSCALE
 40
0.0
  9
$OLESTARTUP
290
     0
  9
$SORTENTS
280
   127
  9
$INDEXCTL
280
     0
  9
$HIDETEXT
280
     1
  9
$XCLIPFRAME
290
     0
  9
$HALOGAP
280
     0
  9
$OBSCOLOR
 70
   257
  9
$OBSLTYPE
280
     0
  9
$INTERSECTIONDISPLAY
280
     0
  9
$INTERSECTIONCOLOR
 70
   257
  9
$DIMASSOC
280
     2
  9
$PROJECTNAME
  1

  0
ENDSEC
  0
SECTION
  2
CLASSES
  0
CLASS
  1
ACDBDICTIONARYWDFLT
  2
AcDbDictionaryWithDefault
  3
ObjectDBX Classes
 90
        0
 91
        3
280
     0
281
     0
  0
CLASS
  1

  2
exOdDbCircle
  3

 90
        0
 91
        3
280
     0
281
     1
  0
CLASS
  1

  2
exOdDbSpline
  3

 90
        0
 91
        3
280
     0
281
     1
  0
ENDSEC
  0
SECTION
  2
TABLES
  0
TABLE
  2
VPORT
  5
8
330
0
100
AcDbSymbolTable
 70
     1
  0
VPORT
  5
29
330
8
100
AcDbSymbolTableRecord
100
AcDbViewportTableRecord
  2
*Active
 70
     0
 10
0.0
 20
0.0
 11
1.0
 21
1.0
 12
253.9388361948685
 22
358.945655317938
 13
0.0
 23
0.0
 14
0.5
 24
0.5
 15
0.5
 25
0.5
 16
0.0
 26
0.0
 36
1.0
 17
0.0
 27
0.0
 37
0.0
 40
118.8463743644188
 41
1.60267857142857
 42
50.0
 43
0.0
 44
0.0
 50
0.0
 51
0.0
 71
     0
 72
   100
 73
     1
 74
     3
 75
     0
 76
     0
 77
     0
 78
     0
281
     0
 65
     1
110
0.0
120
0.0
130
0.0
111
1.0
121
0.0
131
0.0
112
0.0
122
1.0
132
0.0
 79
     0
146
0.0
  0
ENDTAB
  0
TABLE
  2
LTYPE
  5
5
330
0
100
AcDbSymbolTable
 70
     8
  0
LTYPE
  5
14
330
5
100
AcDbSymbolTableRecord
100
AcDbLinetypeTableRecord
  2
ByBlock
 70
     0
  3

 72
    65
 73
     0
 40
0.0
  0
LTYPE
  5
15
330
5
100
AcDbSymbolTableRecord
100
AcDbLinetypeTableRecord
  2
ByLayer
 70
     0
  3

 72
    65
 73
     0
 40
0.0
  0
LTYPE
  5
16
330
5
100
AcDbSymbolTableRecord
100
AcDbLinetypeTableRecord
  2
Continuous
 70
     0
  3
Solid line
 72
    65
 73
     0
 40
0.0
  0
LTYPE
  5
2A
330
5
100
AcDbSymbolTableRecord
100
AcDbLinetypeTableRecord
  2
DASHED
 70
     0
  3
Dashed
 72
    65
 73
     2
 40
15.0
 49
7.0
 74
     0
 49
-8.0
 74
     0
  0
LTYPE
  5
2B
330
5
100
AcDbSymbolTableRecord
100
AcDbLinetypeTableRecord
  2
DOTTED
 70
     0
  3
Dotted
 72
    65
 73
     2
 40
1.0
 49
0.0
 74
     0
 49
-1.0
 74
     0
  0
LTYPE
  5
2C
330
5
100
AcDbSymbolTableRecord
100
AcDbLinetypeTableRecord
  2
DOT_CENTER
 70
     0
  3
Dot_Center
 72
    65
 73
     4
 40
14.0
 49
12.0
 74
     0
 49
-1.0
 74
     0
 49
0.0
 74
     0
 49
-1.0
 74
     0
  0
LTYPE
  5
2D
330
5
100
AcDbSymbolTableRecord
100
AcDbLinetypeTableRecord
  2
LONG_DASHED
 70
     0
  3
Long_Dashed
 72
    65
 73
     2
 40
15.0
 49
10.0
 74
     0
 49
-5.0
 74
     0
  0
LTYPE
  5
2E
330
5
100
AcDbSymbolTableRecord
100
AcDbLinetypeTableRecord
  2
DASH_CENTER
 70
     0
  3
Dash_Center
 72
    65
 73
     4
 40
14.0
 49
11.0
 74
     0
 49
-1.0
 74
     0
 49
1.0
 74
     0
 49
-1.0
 74
     0
  0
LTYPE
  5
2F
330
5
100
AcDbSymbolTableRecord
100
AcDbLinetypeTableRecord
  2
PHANTOM
 70
     0
  3
Phantom
 72
    65
 73
     6
 40
13.0
 49
10.0
 74
     0
 49
-1.0
 74
     0
 49
0.0
 74
     0
 49
-1.0
 74
     0
 49
0.0
 74
     0
 49
-1.0
 74
     0
  0
LTYPE
  5
30
330
5
100
AcDbSymbolTableRecord
100
AcDbLinetypeTableRecord
  2
CENTER_DASH_DASH
 70
     0
  3
Center_Dash_Dash
 72
    65
 73
     6
 40
14.0
 49
9.0
 74
     0
 49
-1.0
 74
     0
 49
1.0
 74
     0
 49
-1.0
 74
     0
 49
1.0
 74
     0
 49
-1.0
 74
     0
  0
ENDTAB
  0
TABLE
  2
LAYER
  5
2
330
0
100
AcDbSymbolTable
 70
     2
  0
LAYER
  5
10
330
2
100
AcDbSymbolTableRecord
100
AcDbLayerTableRecord
  2
0
 70
     0
 62
     7
  6
Continuous
370
    -3
390
F
  0
LAYER
  5
31
330
2
100
AcDbSymbolTableRecord
100
AcDbLayerTableRecord
  2
1
 70
     0
 62
     7
  6
Continuous
370
    -3
390
F
  0
ENDTAB
  0
TABLE
  2
STYLE
  5
3
330
0
100
AcDbSymbolTable
 70
     2
  0
STYLE
  5
11
330
3
100
AcDbSymbolTableRecord
100
AcDbTextStyleTableRecord
  2
Standard
 70
     0
 40
0.0
 41
1.0
 50
0.0
 71
     0
 42
0.2
  3
txt
  4

  0
STYLE
  5
11A
330
3
100
AcDbSymbolTableRecord
100
AcDbTextStyleTableRecord
  2
CONVERTER_11
 70
     0
 40
0.0
 41
0.9
 50
0.0
 71
     0
 42
0.2
  3
txt.shx
  4

  0
ENDTAB
  0
TABLE
  2
VIEW
  5
6
330
0
100
AcDbSymbolTable
 70
     0
  0
ENDTAB
  0
TABLE
  2
UCS
  5
7
330
0
100
AcDbSymbolTable
 70
     0
  0
ENDTAB
  0
TABLE
  2
APPID
  5
9
330
0
100
AcDbSymbolTable
 70
     1
  0
APPID
  5
12
330
9
100
AcDbSymbolTableRecord
100
AcDbRegAppTableRecord
  2
ACAD
 70
     0
  0
ENDTAB
  0
TABLE
  2
DIMSTYLE
  5
A
330
0
100
AcDbSymbolTable
 70
     3
100
AcDbDimStyleTable
  0
DIMSTYLE
105
27
330
A
100
AcDbSymbolTableRecord
100
AcDbDimStyleTableRecord
  2
Standard
 70
     0
340
11
  0
DIMSTYLE
105
11E
102
{ACAD_REACTORS
330
11F
102
}
330
A
100
AcDbSymbolTableRecord
100
AcDbDimStyleTableRecord
  2
ME10_DIM_10
 70
     0
 41
3.5
 42
0.0
 44
2.0
 73
     0
 74
     0
 77
     1
 78
     8
140
3.5
147
2.0
172
     1
173
     1
176
     2
177
     2
178
     2
271
     2
340
11A
  0
DIMSTYLE
105
129
102
{ACAD_REACTORS
330
12A
102
}
330
A
100
AcDbSymbolTableRecord
100
AcDbDimStyleTableRecord
  2
ME10_DIM_11
 70
     0
 41
3.5
 42
0.0
 44
2.0
 73
     0
 74
     0
 77
     1
 78
     8
140
3.5
147
2.0
172
     1
173
     1
176
     2
177
     2
178
     2
271
     2
340
11A
  0
ENDTAB
  0
TABLE
  2
BLOCK_RECORD
  5
1
330
0
100
AcDbSymbolTable
 70
     3
  0
BLOCK_RECORD
  5
1F
330
1
100
AcDbSymbolTableRecord
100
AcDbBlockTableRecord
  2
*Model_Space
340
22
  0
BLOCK_RECORD
  5
1B
330
1
100
AcDbSymbolTableRecord
100
AcDbBlockTableRecord
  2
*Paper_Space
340
1E
  0
BLOCK_RECORD
  5
23
330
1
100
AcDbSymbolTableRecord
100
AcDbBlockTableRecord
  2
*Paper_Space0
340
26
  0
BLOCK_RECORD
  5
112
330
1
100
AcDbSymbolTableRecord
100
AcDbBlockTableRecord
  2
*D1
340
0
  0
BLOCK_RECORD
  5
120
330
1
100
AcDbSymbolTableRecord
100
AcDbBlockTableRecord
  2
*D2
340
0
  0
ENDTAB
  0
ENDSEC
  0
SECTION
  2
BLOCKS
  0
BLOCK
  5
20
330
1F
100
AcDbEntity
  8
0
100
AcDbBlockBegin
  2
*Model_Space
 70
     0
 71
     0
 10
0.0
 20
0.0
 30
0.0
  3
*Model_Space
  1

  0
ENDBLK
  5
21
330
1F
100
AcDbEntity
  8
0
100
AcDbBlockEnd
  0
BLOCK
  5
1C
330
1B
100
AcDbEntity
 67
     1
  8
0
100
AcDbBlockBegin
  2
*Paper_Space
 70
     0
 71
     0
 10
0.0
 20
0.0
 30
0.0
  3
*Paper_Space
  1

  0
ENDBLK
  5
1D
330
1B
100
AcDbEntity
 67
     1
  8
0
100
AcDbBlockEnd
  0
BLOCK
  5
24
330
23
100
AcDbEntity
  8
0
100
AcDbBlockBegin
  2
*Paper_Space0
 70
     0
 71
     0
 10
0.0
 20
0.0
 30
0.0
  3
*Paper_Space0
  1

  0
ENDBLK
  5
25
330
23
100
AcDbEntity
  8
0
100
AcDbBlockEnd
  0
BLOCK
  5
11C
330
112
100
AcDbEntity
  8
0
100
AcDbBlockBegin
  2
*D1
 70
     1
 71
     0
 10
0.0
 20
0.0
 30
0.0
  3
*D1
  1

  0
LINE
  5
113
330
112
100
AcDbEntity
  8
1
  6
Continuous
 62
     2
100
AcDbLine
 10
249.279098969217
 20
407.466734574492
 30
0.0
 11
256.279098969217
 21
407.466734574492
 31
0.0
  0
LINE
  5
114
330
112
100
AcDbEntity
  8
1
  6
Continuous
 62
     2
100
AcDbLine
 10
245.279098969217
 20
407.466734574492
 30
0.0
 11
249.279098969217
 21
407.466734574492
 31
0.0
  0
LINE
  5
115
330
112
100
AcDbEntity
  8
1
  6
Continuous
 62
     2
100
AcDbLine
 10
238.279098969217
 20
407.466734574492
 30
0.0
 11
245.279098969217
 21
407.466734574492
 31
0.0
  0
LINE
  5
116
330
112
100
AcDbEntity
  8
1
  6
Continuous
 62
     2
100
AcDbLine
 10
249.279098969217
 20
362.670151481937
 30
0.0
 11
249.279098969217
 21
409.466734574492
 31
0.0
  0
LINE
  5
117
330
112
100
AcDbEntity
  8
1
  6
Continuous
 62
     2
100
AcDbLine
 10
245.279098969217
 20
369.670151481937
 30
0.0
 11
245.279098969217
 21
409.466734574492
 31
0.0
  0
SOLID
  5
118
330
112
100
AcDbEntity
  8
1
 62
     2
100
AcDbTrace
 10
241.779098969217
 20
407.0059508329362
 30
0.0
 11
241.779098969217
 21
407.9275183160479
 31
0.0
 12
245.279098969217
 22
407.466734574492
 32
0.0
 13
245.279098969217
 23
407.466734574492
 33
0.0
  0
SOLID
  5
119
330
112
100
AcDbEntity
  8
1
 62
     2
100
AcDbTrace
 10
252.779098969217
 20
407.9275183160479
 30
0.0
 11
252.779098969217
 21
407.0059508329362
 31
0.0
 12
249.279098969217
 22
407.466734574492
 32
0.0
 13
249.279098969217
 23
407.466734574492
 33
0.0
  0
MTEXT
  5
11B
330
112
100
AcDbEntity
  8
1
 62
     2
100
AcDbMText
 10
246.016547754172
 20
409.466734574492
 30
0.0
 40
3.5
 41
0.0
 71
     7
 72
     1
  1
4
  7
CONVERTER_11
 11
0.9999999999970621
 21
2.424068405545307E-6
 31
0.0
 73
     1
 44
0.60024009603842
  0
ENDBLK
  5
11D
330
112
100
AcDbEntity
  8
0
100
AcDbBlockEnd
  0
BLOCK
  5
127
330
120
100
AcDbEntity
  8
0
100
AcDbBlockBegin
  2
*D2
 70
     1
 71
     0
 10
0.0
 20
0.0
 30
0.0
  3
*D2
  1

  0
LINE
  5
121
330
120
100
AcDbEntity
  8
1
  6
Continuous
 62
     2
100
AcDbLine
 10
234.279098969217
 20
306.924576061384
 30
0.0
 11
249.279098969217
 21
306.924576061384
 31
0.0
  0
LINE
  5
122
330
120
100
AcDbEntity
  8
1
  6
Continuous
 62
     2
100
AcDbLine
 10
234.279098969217
 20
318.670151481937
 30
0.0
 11
234.279098969217
 21
304.924576061384
 31
0.0
  0
LINE
  5
123
330
120
100
AcDbEntity
  8
1
  6
Continuous
 62
     2
100
AcDbLine
 10
249.279098969217
 20
340.670151481937
 30
0.0
 11
249.279098969217
 21
304.924576061384
 31
0.0
  0
SOLID
  5
124
330
120
100
AcDbEntity
  8
1
 62
     2
100
AcDbTrace
 10
237.779098969217
 20
307.3853598029399
 30
0.0
 11
237.779098969217
 21
306.4637923198281
 31
0.0
 12
234.279098969217
 22
306.924576061384
 32
0.0
 13
234.279098969217
 23
306.924576061384
 33
0.0
  0
SOLID
  5
125
330
120
100
AcDbEntity
  8
1
 62
     2
100
AcDbTrace
 10
245.779098969217
 20
306.4637923198281
 30
0.0
 11
245.779098969217
 21
307.3853598029399
 31
0.0
 12
249.279098969217
 22
306.924576061384
 32
0.0
 13
249.279098969217
 23
306.924576061384
 33
0.0
  0
MTEXT
  5
126
330
120
100
AcDbEntity
  8
1
 62
     2
100
AcDbMText
 10
240.237230977779
 20
308.924576061384
 30
0.0
 40
3.5
 41
0.0
 71
     7
 72
     1
  1
15
  7
CONVERTER_11
 11
0.9999999999970621
 21
2.424068405545307E-6
 31
0.0
 73
     1
 44
0.60024009603842
  0
ENDBLK
  5
128
330
120
100
AcDbEntity
  8
0
100
AcDbBlockEnd
  0
ENDSEC
  0
SECTION
  2
ENTITIES
  0
LINE
  5
32
330
1F
100
AcDbEntity
  8
1
  6
Continuous
 62
     7
100
AcDbLine
 10
264.279098969217
 20
371.4201514819369
 30
0.0
 11
264.279098969217
 21
369.6701514819369
 31
0.0
  0
LINE
  5
33
330
1F
100
AcDbEntity
  8
1
  6
Continuous
 62
     7
100
AcDbLine
 10
256.6860681812291
 20
368.170151481937
 30
0.0
 11
261.918964589297
 21
368.170151481937
 31
0.0
  0
LINE
  5
34
330
1F
100
AcDbEntity
  8
1
  6
Continuous
 62
     7
100
AcDbLine
 10
262.318964589297
 20
368.570151481937
 30
0.0
 11
262.318964589297
 21
369.270151481937
 31
0.0
  0
LINE
  5
35
330
1F
100
AcDbEntity
  8
1
  6
Continuous
 62
     7
100
AcDbLine
 10
261.918964589297
 20
369.6701514819369
 30
0.0
 11
261.5790989692171
 21
369.6701514819369
 31
0.0
  0
LINE
  5
36
330
1F
100
AcDbEntity
  8
1
  6
Continuous
 62
     7
100
AcDbLine
 10
266.9764478109269
 20
366.6684137658014
 30
0.0
 11
266.279098969217
 21
367.920151481937
 31
0.0
  0
LINE
  5
37
330
1F
100
AcDbEntity
  8
1
  6
Continuous
 62
     7
100
AcDbLine
 10
268.0585547122525
 20
366.466623863896
 30
0.0
 11
266.9992101797443
 21
368.6701514819369
 31
0.0
  0
LINE
  5
38
330
1F
100
AcDbEntity
  8
1
  6
Continuous
 62
     7
100
AcDbLine
 10
269.0697625405645
 20
368.6701514819369
 30
0.0
 11
268.0344863601543
 21
368.6701514819369
 31
0.0
  0
LINE
  5
39
330
1F
100
AcDbEntity
  8
1
  6
Continuous
 62
     7
100
AcDbLine
 10
269.0383506093658
 20
366.6736790999781
 30
0.0
 11
268.0344863601543
 21
368.6701514819369
 31
0.0
  0
LINE
  5
3A
330
1F
100
AcDbEntity
  8
1
  6
Continuous
 62
     7
100
AcDbLine
 10
270.1291070730726
 20
366.466623863896
 30
0.0
 11
269.0697625405645
 21
368.6701514819369
 31
0.0
  0
LINE
  5
3B
330
1F
100
AcDbEntity
  8
1
  6
Continuous
 62
     7
100
AcDbLine
 10
271.1403149013847
 20
368.6701514819369
 30
0.0
 11
270.1050387209746
 21
368.6701514819369
 31
0.0
  0
LINE
  5
3C
330
1F
100
AcDbEntity
  8
1
  6
Continuous
 62
     7
100
AcDbLine
 10
271.108902970186
 20
366.6736790999781
 30
0.0
 11
270.1050387209746
 21
368.6701514819369
 31
0.0
  0
LINE
  5
3D
330
1F
100
AcDbEntity
  8
1
  6
Continuous
 62
     7
100
AcDbLine
 10
272.279098969217
 20
366.170151481937
 30
0.0
 11
271.1403149013847
 21
368.6701514819369
 31
0.0
  0
LINE
  5
3E
330
1F
100
AcDbEntity
  8
1
  6
Continuous
 62
     7
100
AcDbLine
 10
270.7225326396704
 20
366.170151481937
 30
0.0
 11
270.5154774035883
 21
366.170151481937
 31
0.0
  0
LINE
  5
3F
330
1F
100
AcDbEntity
  8
1
  6
Continuous
 62
     7
100
AcDbLine
 10
268.6519802788501
 20
366.170151481937
 30
0.0
 11
268.4449250427681
 21
366.170151481937
 31
0.0
  0
LINE
  5
40
330
1F
100
AcDbEntity
  8
1
  6
Continuous
 62
     7
100
AcDbLine
 10
266.5887049533914
 20
366.170151481937
 30
0.0
 11
264.679098969217
 21
366.170151481937
 31
0.0
  0
LINE
  5
41
330
1F
100
AcDbEntity
  8
1
  6
Continuous
 62
     7
100
AcDbLine
 10
264.279098969217
 20
366.570151481937
 30
0.0
 11
264.279098969217
 21
368.920151481937
 31
0.0
  0
LINE
  5
42
330
1F
100
AcDbEntity
  8
1
  6
Continuous
 62
     7
100
AcDbLine
 10
264.279098969217
 20
371.4201514819369
 30
0.0
 11
263.679098969217
 21
371.4201514819369
 31
0.0
  0
LINE
  5
43
330
1F
100
AcDbEntity
  8
1
  6
Continuous
 62
     7
100
AcDbLine
 10
263.279098969217
 20
371.020151481937
 30
0.0
 11
263.279098969217
 21
366.570151481937
 31
0.0
  0
LINE
  5
44
330
1F
100
AcDbEntity
  8
1
  6
Continuous
 62
     7
100
AcDbLine
 10
262.879098969217
 20
366.170151481937
 30
0.0
 11
256.6860681812291
 21
366.170151481937
 31
0.0
  0
LINE
  5
45
330
1F
100
AcDbEntity
  8
1
  6
Continuous
 62
     7
100
AcDbLine
 10
258.279098969217
 20
369.6701514819369
 30
0.0
 11
256.6860681812291
 21
369.6701514819369
 31
0.0
  0
LINE
  5
46
330
1F
100
AcDbEntity
  8
1
  6
Continuous
 62
     7
100
AcDbLine
 10
256.6860681812291
 20
364.670151481937
 30
0.0
 11
271.779098969217
 21
364.670151481937
 31
0.0
  0
LINE
  5
47
330
1F
100
AcDbEntity
  8
1
  6
Continuous
 62
     7
100
AcDbLine
 10
264.279098969217
 20
369.6701514819369
 30
0.0
 11
264.279098969217
 21
368.920151481937
 31
0.0
  0
LINE
  5
48
330
1F
100
AcDbEntity
  8
1
  6
Continuous
 62
     7
100
AcDbLine
 10
266.9992101797443
 20
368.6701514819369
 30
0.0
 11
266.279098969217
 21
368.6701514819369
 31
0.0
  0
LINE
  5
49
330
1F
100
AcDbEntity
  8
1
  6
Continuous
 62
     7
100
AcDbLine
 10
266.279098969217
 20
368.6701514819369
 30
0.0
 11
266.279098969217
 21
367.920151481937
 31
0.0
  0
LINE
  5
4A
330
1F
100
AcDbEntity
  8
1
  6
Continuous
 62
     7
100
AcDbLine
 10
272.279098969217
 20
366.170151481937
 30
0.0
 11
272.279098969217
 21
365.170151481937
 31
0.0
  0
LINE
  5
4B
330
1F
100
AcDbEntity
  8
1
  6
Continuous
 62
     7
100
AcDbLine
 10
264.279098969217
 20
371.4201514819369
 30
0.0
 11
264.279098969217
 21
369.6701514819369
 31
0.0
  0
LINE
  5
4C
330
1F
100
AcDbEntity
  8
1
  6
Continuous
 62
     7
100
AcDbLine
 10
261.5790989692171
 20
369.6701514819369
 30
0.0
 11
258.279098969217
 21
369.6701514819369
 31
0.0
  0
LINE
  5
4D
330
1F
100
AcDbEntity
  8
1
  6
Continuous
 62
     7
100
AcDbLine
 10
258.279098969217
 20
369.6701514819369
 30
0.0
 11
256.6860681812291
 21
369.6701514819369
 31
0.0
  0
LINE
  5
4E
330
1F
100
AcDbEntity
  8
1
  6
DOT_CENTER
 62
     2
100
AcDbLine
 10
182.931906753853
 20
341.670151481937
 30
0.0
 11
182.931906753853
 21
338.477680427162
 31
0.0
  0
LINE
  5
4F
330
1F
100
AcDbEntity
  8
1
  6
DOT_CENTER
 62
     2
100
AcDbLine
 10
182.931906753853
 20
397.670151481937
 30
0.0
 11
182.931906753853
 21
400.139600956963
 31
0.0
  0
LINE
  5
50
330
1F
100
AcDbEntity
  8
1
  6
Continuous
 62
     7
100
AcDbLine
 10
245.279098969217
 20
369.670151481937
 30
0.0
 11
245.279098969217
 21
343.670151481937
 31
0.0
  0
LINE
  5
51
330
1F
100
AcDbEntity
  8
1
  6
Continuous
 62
     7
100
AcDbLine
 10
259.279098969217
 20
369.670151481937
 30
0.0
 11
245.279098969217
 21
369.670151481937
 31
0.0
  0
LINE
  5
52
330
1F
100
AcDbEntity
  8
1
  6
Continuous
 62
     7
100
AcDbLine
 10
259.279098969217
 20
376.670151481937
 30
0.0
 11
259.279098969217
 21
369.670151481937
 31
0.0
  0
LINE
  5
53
330
1F
100
AcDbEntity
  8
1
  6
Continuous
 62
     7
100
AcDbLine
 10
272.279098969217
 20
376.670151481937
 30
0.0
 11
259.279098969217
 21
376.670151481937
 31
0.0
  0
LINE
  5
54
330
1F
100
AcDbEntity
  8
1
  6
Continuous
 62
     7
100
AcDbLine
 10
274.279098969217
 20
395.670151481937
 30
0.0
 11
274.279098969217
 21
378.670151481937
 31
0.0
  0
LINE
  5
55
330
1F
100
AcDbEntity
  8
1
  6
Continuous
 62
     7
100
AcDbLine
 10
182.931906753853
 20
397.670151481937
 30
0.0
 11
272.279098969217
 21
397.670151481937
 31
0.0
  0
LINE
  5
56
330
1F
100
AcDbEntity
  8
1
  6
DOT_CENTER
 62
     2
100
AcDbLine
 10
182.931906753853
 20
341.670151481937
 30
0.0
 11
182.931906753853
 21
397.670151481937
 31
0.0
  0
LINE
  5
57
330
1F
100
AcDbEntity
  8
1
  6
Continuous
 62
     7
100
AcDbLine
 10
215.279098969217
 20
341.670151481937
 30
0.0
 11
215.279098969217
 21
336.3304055197814
 31
0.0
  0
LINE
  5
58
330
1F
100
AcDbEntity
  8
1
  6
Continuous
 62
     7
100
AcDbLine
 10
215.279098969217
 20
341.670151481937
 30
0.0
 11
182.931906753853
 21
341.670151481937
 31
0.0
  0
LINE
  5
59
330
1F
100
AcDbEntity
  8
1
  6
DOT_CENTER
 62
     2
100
AcDbLine
 10
324.945765635884
 20
316.670151481937
 30
0.0
 11
324.945765635884
 21
312.798896871107
 31
0.0
  0
LINE
  5
5A
330
1F
100
AcDbEntity
  8
1
  6
DOT_CENTER
 62
     2
100
AcDbLine
 10
324.945765635884
 20
375.670151481937
 30
0.0
 11
324.945765635884
 21
378.340544813397
 31
0.0
  0
LINE
  5
5B
330
1F
100
AcDbEntity
  8
1
  6
Continuous
 62
     7
100
AcDbLine
 10
249.279098969217
 20
358.670151481937
 30
0.0
 11
249.279098969217
 21
340.670151481937
 31
0.0
  0
LINE
  5
5C
330
1F
100
AcDbEntity
  8
1
  6
Continuous
 62
     7
100
AcDbLine
 10
249.279098969217
 20
358.670151481937
 30
0.0
 11
252.279098969217
 21
358.670151481937
 31
0.0
  0
LINE
  5
5D
330
1F
100
AcDbEntity
  8
1
  6
Continuous
 62
     7
100
AcDbLine
 10
249.279098969217
 20
362.670151481937
 30
0.0
 11
249.279098969217
 21
358.670151481937
 31
0.0
  0
LINE
  5
5E
330
1F
100
AcDbEntity
  8
1
  6
Continuous
 62
     7
100
AcDbLine
 10
272.279098969217
 20
364.670151481937
 30
0.0
 11
251.279098969217
 21
364.670151481937
 31
0.0
  0
LINE
  5
5F
330
1F
100
AcDbEntity
  8
1
  6
Continuous
 62
     7
100
AcDbLine
 10
272.279098969217
 20
368.670151481937
 30
0.0
 11
272.279098969217
 21
364.670151481937
 31
0.0
  0
LINE
  5
60
330
1F
100
AcDbEntity
  8
1
  6
Continuous
 62
     7
100
AcDbLine
 10
264.279098969217
 20
368.670151481937
 30
0.0
 11
272.279098969217
 21
368.670151481937
 31
0.0
  0
LINE
  5
61
330
1F
100
AcDbEntity
  8
1
  6
Continuous
 62
     7
100
AcDbLine
 10
264.279098969217
 20
373.670151481937
 30
0.0
 11
264.279098969217
 21
368.670151481937
 31
0.0
  0
LINE
  5
62
330
1F
100
AcDbEntity
  8
1
  6
Continuous
 62
     7
100
AcDbLine
 10
324.945765635884
 20
375.670151481937
 30
0.0
 11
266.279098969217
 21
375.670151481937
 31
0.0
  0
LINE
  5
63
330
1F
100
AcDbEntity
  8
1
  6
DOT_CENTER
 62
     2
100
AcDbLine
 10
324.945765635884
 20
316.670151481937
 30
0.0
 11
324.945765635884
 21
375.670151481937
 31
0.0
  0
LINE
  5
64
330
1F
100
AcDbEntity
  8
1
  6
Continuous
 62
     7
100
AcDbLine
 10
236.279098969217
 20
316.670151481937
 30
0.0
 11
324.945765635884
 21
316.670151481937
 31
0.0
  0
LINE
  5
65
330
1F
100
AcDbEntity
  8
1
  6
Continuous
 62
     7
100
AcDbLine
 10
234.279098969217
 20
326.670151481937
 30
0.0
 11
234.279098969217
 21
318.670151481937
 31
0.0
  0
LINE
  5
66
330
1F
100
AcDbEntity
  8
1
  6
DOT_CENTER
 62
     2
100
AcDbLine
 10
220.279098969217
 20
338.377562705505
 30
0.0
 11
220.279098969217
 21
383.175876282525
 31
0.0
  0
LINE
  5
67
330
1F
100
AcDbEntity
  8
1
  6
Continuous
 62
     7
100
AcDbLine
 10
225.279098969217
 20
336.670151481937
 30
0.0
 11
225.279098969217
 21
341.670151481937
 31
0.0
  0
LINE
  5
68
330
1F
100
AcDbEntity
  8
1
  6
Continuous
 62
     7
100
AcDbLine
 10
215.279098969217
 20
342.670151481937
 30
0.0
 11
215.279098969217
 21
341.670151481937
 31
0.0
  0
LINE
  5
69
330
1F
100
AcDbEntity
  8
1
  6
Continuous
 62
     7
100
AcDbLine
 10
224.529098969217
 20
342.670151481937
 30
0.0
 11
225.279098969217
 21
342.670151481937
 31
0.0
  0
LINE
  5
6A
330
1F
100
AcDbEntity
  8
1
  6
Continuous
 62
     7
100
AcDbLine
 10
224.529098969217
 20
374.9808116537168
 30
0.0
 11
223.4151379385381
 21
377.670151481937
 31
0.0
  0
LINE
  5
6B
330
1F
100
AcDbEntity
  8
1
  6
Continuous
 62
     2
100
AcDbLine
 10
224.529098969217
 20
374.9808116537168
 30
0.0
 11
224.529098969217
 21
342.670151481937
 31
0.0
  0
LINE
  5
6C
330
1F
100
AcDbEntity
  8
1
  6
Continuous
 62
     7
100
AcDbLine
 10
216.029098969217
 20
342.670151481937
 30
0.0
 11
224.529098969217
 21
342.670151481937
 31
0.0
  0
LINE
  5
6D
330
1F
100
AcDbEntity
  8
1
  6
Continuous
 62
     7
100
AcDbLine
 10
216.029098969217
 20
374.9808116537168
 30
0.0
 11
217.1430599998959
 21
377.670151481937
 31
0.0
  0
LINE
  5
6E
330
1F
100
AcDbEntity
  8
1
  6
Continuous
 62
     2
100
AcDbLine
 10
216.029098969217
 20
374.9808116537168
 30
0.0
 11
216.029098969217
 21
342.670151481937
 31
0.0
  0
LINE
  5
6F
330
1F
100
AcDbEntity
  8
1
  6
Continuous
 62
     7
100
AcDbLine
 10
215.279098969217
 20
342.670151481937
 30
0.0
 11
215.279098969217
 21
373.170151481937
 31
0.0
  0
LINE
  5
70
330
1F
100
AcDbEntity
  8
1
  6
Continuous
 62
     7
100
AcDbLine
 10
215.279098969217
 20
342.670151481937
 30
0.0
 11
216.029098969217
 21
342.670151481937
 31
0.0
  0
LINE
  5
71
330
1F
100
AcDbEntity
  8
1
  6
Continuous
 62
     7
100
AcDbLine
 10
225.279098969217
 20
373.170151481937
 30
0.0
 11
224.529098969217
 21
374.9808116537168
 31
0.0
  0
LINE
  5
72
330
1F
100
AcDbEntity
  8
1
  6
Continuous
 62
     7
100
AcDbLine
 10
215.279098969217
 20
373.170151481937
 30
0.0
 11
216.029098969217
 21
374.9808116537168
 31
0.0
  0
LINE
  5
73
330
1F
100
AcDbEntity
  8
1
  6
Continuous
 62
     7
100
AcDbLine
 10
217.1430599998959
 20
377.670151481937
 30
0.0
 11
223.4151379385381
 21
377.670151481937
 31
0.0
  0
LINE
  5
74
330
1F
100
AcDbEntity
  8
1
  6
Continuous
 62
     7
100
AcDbLine
 10
225.279098969217
 20
336.670151481937
 30
0.0
 11
225.279098969217
 21
336.3304055197814
 31
0.0
  0
LINE
  5
75
330
1F
100
AcDbEntity
  8
1
  6
Continuous
 62
     7
100
AcDbLine
 10
225.279098969217
 20
336.670151481937
 30
0.0
 11
234.279098969217
 21
336.670151481937
 31
0.0
  0
LINE
  5
76
330
1F
100
AcDbEntity
  8
1
  6
Continuous
 62
     7
100
AcDbLine
 10
225.279098969217
 20
373.170151481937
 30
0.0
 11
225.279098969217
 21
342.670151481937
 31
0.0
  0
LINE
  5
77
330
1F
100
AcDbEntity
  8
1
  6
Continuous
 62
     7
100
AcDbLine
 10
215.279098969217
 20
373.170151481937
 30
0.0
 11
225.279098969217
 21
373.170151481937
 31
0.0
  0
LINE
  5
78
330
1F
100
AcDbEntity
  8
1
  6
DOT_CENTER
 62
     2
100
AcDbLine
 10
220.279098969217
 20
334.170151481937
 30
0.0
 11
220.279098969217
 21
338.377562705505
 31
0.0
  0
LINE
  5
79
330
1F
100
AcDbEntity
  8
1
  6
DASHED
 62
     2
100
AcDbLine
 10
254.279098969217
 20
333.170151481937
 30
0.0
 11
259.279098969217
 21
333.170151481937
 31
0.0
  0
LINE
  5
7A
330
1F
100
AcDbEntity
  8
1
  6
DASHED
 62
     2
100
AcDbLine
 10
234.279098969217
 20
331.670151481937
 30
0.0
 11
252.779098969217
 21
331.670151481937
 31
0.0
  0
LINE
  5
7B
330
1F
100
AcDbEntity
  8
1
  6
Continuous
 62
     7
100
AcDbLine
 10
234.279098969217
 20
331.670151481937
 30
0.0
 11
234.279098969217
 21
333.170151481937
 31
0.0
  0
LINE
  5
7C
330
1F
100
AcDbEntity
  8
1
  6
DOT_CENTER
 62
     2
100
AcDbLine
 10
207.347543648221
 20
327.670151481937
 30
0.0
 11
233.043309504433
 21
327.670151481937
 31
0.0
  0
LINE
  5
7D
330
1F
100
AcDbEntity
  8
1
  6
DOT_CENTER
 62
     2
100
AcDbLine
 10
280.279098969217
 20
336.670151481937
 30
0.0
 11
291.169044977896
 21
336.670151481937
 31
0.0
  0
LINE
  5
7E
330
1F
100
AcDbEntity
  8
1
  6
DOT_CENTER
 62
     2
100
AcDbLine
 10
259.572709744763
 20
339.670151481937
 30
0.0
 11
281.591310743431
 21
339.670151481937
 31
0.0
  0
LINE
  5
7F
330
1F
100
AcDbEntity
  8
1
  6
DASHED
 62
     2
100
AcDbLine
 10
280.279098969217
 20
337.170151481937
 30
0.0
 11
280.279098969217
 21
342.170151481937
 31
0.0
  0
LINE
  5
80
330
1F
100
AcDbEntity
  8
1
  6
Continuous
 62
     7
100
AcDbLine
 10
264.279098969217
 20
337.170151481937
 30
0.0
 11
264.279098969217
 21
336.670151481937
 31
0.0
  0
LINE
  5
81
330
1F
100
AcDbEntity
  8
1
  6
DASHED
 62
     2
100
AcDbLine
 10
264.279098969217
 20
337.170151481937
 30
0.0
 11
280.279098969217
 21
337.170151481937
 31
0.0
  0
LINE
  5
82
330
1F
100
AcDbEntity
  8
1
  6
DASHED
 62
     2
100
AcDbLine
 10
280.279098969217
 20
342.170151481937
 30
0.0
 11
280.279098969217
 21
342.670151481937
 31
0.0
  0
LINE
  5
83
330
1F
100
AcDbEntity
  8
1
  6
Continuous
 62
     7
100
AcDbLine
 10
264.279098969217
 20
342.170151481937
 30
0.0
 11
264.279098969217
 21
337.170151481937
 31
0.0
  0
LINE
  5
84
330
1F
100
AcDbEntity
  8
1
  6
DASHED
 62
     2
100
AcDbLine
 10
264.279098969217
 20
342.170151481937
 30
0.0
 11
280.279098969217
 21
342.170151481937
 31
0.0
  0
LINE
  5
85
330
1F
100
AcDbEntity
  8
1
  6
DASHED
 62
     2
100
AcDbLine
 10
280.279098969217
 20
336.670151481937
 30
0.0
 11
280.279098969217
 21
337.170151481937
 31
0.0
  0
LINE
  5
86
330
1F
100
AcDbEntity
  8
1
  6
DASHED
 62
     2
100
AcDbLine
 10
280.279098969217
 20
342.670151481937
 30
0.0
 11
280.279098969217
 21
346.670151481937
 31
0.0
  0
LINE
  5
87
330
1F
100
AcDbEntity
  8
1
  6
Continuous
 62
     7
100
AcDbLine
 10
264.279098969217
 20
342.670151481937
 30
0.0
 11
264.279098969217
 21
342.170151481937
 31
0.0
  0
LINE
  5
88
330
1F
100
AcDbEntity
  8
1
  6
DASHED
 62
     2
100
AcDbLine
 10
264.279098969217
 20
342.670151481937
 30
0.0
 11
280.279098969217
 21
342.670151481937
 31
0.0
  0
LINE
  5
89
330
1F
100
AcDbEntity
  8
1
  6
Continuous
 62
     7
100
AcDbLine
 10
264.279098969217
 20
344.670151481937
 30
0.0
 11
264.279098969217
 21
342.670151481937
 31
0.0
  0
LINE
  5
8A
330
1F
100
AcDbEntity
  8
1
  6
DASHED
 62
     2
100
AcDbLine
 10
260.279098969217
 20
344.670151481937
 30
0.0
 11
264.279098969217
 21
344.670151481937
 31
0.0
  0
LINE
  5
8B
330
1F
100
AcDbEntity
  8
1
  6
DASHED
 62
     2
100
AcDbLine
 10
260.279098969217
 20
334.670151481937
 30
0.0
 11
260.279098969217
 21
336.670151481937
 31
0.0
  0
LINE
  5
8C
330
1F
100
AcDbEntity
  8
1
  6
DASHED
 62
     2
100
AcDbLine
 10
264.279098969217
 20
334.670151481937
 30
0.0
 11
264.279098969217
 21
333.170151481937
 31
0.0
  0
LINE
  5
8D
330
1F
100
AcDbEntity
  8
1
  6
DASHED
 62
     2
100
AcDbLine
 10
264.279098969217
 20
334.670151481937
 30
0.0
 11
260.279098969217
 21
334.670151481937
 31
0.0
  0
LINE
  5
8E
330
1F
100
AcDbEntity
  8
1
  6
DASHED
 62
     2
100
AcDbLine
 10
264.279098969217
 20
336.670151481937
 30
0.0
 11
270.279098969217
 21
336.670151481937
 31
0.0
  0
LINE
  5
8F
330
1F
100
AcDbEntity
  8
1
  6
DASHED
 62
     2
100
AcDbLine
 10
264.279098969217
 20
336.670151481937
 30
0.0
 11
264.279098969217
 21
334.670151481937
 31
0.0
  0
LINE
  5
90
330
1F
100
AcDbEntity
  8
1
  6
DASHED
 62
     2
100
AcDbLine
 10
259.279098969217
 20
333.170151481937
 30
0.0
 11
264.279098969217
 21
333.170151481937
 31
0.0
  0
LINE
  5
91
330
1F
100
AcDbEntity
  8
1
  6
Continuous
 62
     7
100
AcDbLine
 10
259.279098969217
 20
336.670151481937
 30
0.0
 11
260.279098969217
 21
336.670151481937
 31
0.0
  0
LINE
  5
92
330
1F
100
AcDbEntity
  8
1
  6
DASHED
 62
     2
100
AcDbLine
 10
259.279098969217
 20
336.670151481937
 30
0.0
 11
259.279098969217
 21
333.170151481937
 31
0.0
  0
LINE
  5
93
330
1F
100
AcDbEntity
  8
1
  6
DASHED
 62
     2
100
AcDbLine
 10
274.279098969217
 20
333.170151481937
 30
0.0
 11
270.279098969217
 21
333.170151481937
 31
0.0
  0
LINE
  5
94
330
1F
100
AcDbEntity
  8
1
  6
Continuous
 62
     7
100
AcDbLine
 10
246.779098969217
 20
326.670151481937
 30
0.0
 11
241.779098969217
 21
326.670151481937
 31
0.0
  0
LINE
  5
95
330
1F
100
AcDbEntity
  8
1
  6
DASHED
 62
     2
100
AcDbLine
 10
246.779098969217
 20
333.670151481937
 30
0.0
 11
247.279098969217
 21
333.670151481937
 31
0.0
  0
LINE
  5
96
330
1F
100
AcDbEntity
  8
1
  6
DASHED
 62
     2
100
AcDbLine
 10
246.779098969217
 20
333.670151481937
 30
0.0
 11
246.779098969217
 21
326.670151481937
 31
0.0
  0
LINE
  5
97
330
1F
100
AcDbEntity
  8
1
  6
Continuous
 62
     7
100
AcDbLine
 10
241.779098969217
 20
326.670151481937
 30
0.0
 11
241.279098969217
 21
326.670151481937
 31
0.0
  0
LINE
  5
98
330
1F
100
AcDbEntity
  8
1
  6
DASHED
 62
     2
100
AcDbLine
 10
241.779098969217
 20
333.670151481937
 30
0.0
 11
246.779098969217
 21
333.670151481937
 31
0.0
  0
LINE
  5
99
330
1F
100
AcDbEntity
  8
1
  6
DASHED
 62
     2
100
AcDbLine
 10
241.779098969217
 20
333.670151481937
 30
0.0
 11
241.779098969217
 21
326.670151481937
 31
0.0
  0
LINE
  5
9A
330
1F
100
AcDbEntity
  8
1
  6
Continuous
 62
     7
100
AcDbLine
 10
247.279098969217
 20
326.670151481937
 30
0.0
 11
246.779098969217
 21
326.670151481937
 31
0.0
  0
LINE
  5
9B
330
1F
100
AcDbEntity
  8
1
  6
DASHED
 62
     2
100
AcDbLine
 10
247.279098969217
 20
333.670151481937
 30
0.0
 11
247.279098969217
 21
326.670151481937
 31
0.0
  0
LINE
  5
9C
330
1F
100
AcDbEntity
  8
1
  6
Continuous
 62
     7
100
AcDbLine
 10
241.279098969217
 20
326.670151481937
 30
0.0
 11
236.279098969217
 21
326.670151481937
 31
0.0
  0
LINE
  5
9D
330
1F
100
AcDbEntity
  8
1
  6
DASHED
 62
     2
100
AcDbLine
 10
241.279098969217
 20
333.670151481937
 30
0.0
 11
241.279098969217
 21
326.670151481937
 31
0.0
  0
LINE
  5
9E
330
1F
100
AcDbEntity
  8
1
  6
DASHED
 62
     2
100
AcDbLine
 10
247.279098969217
 20
333.670151481937
 30
0.0
 11
250.279098969217
 21
336.670151481937
 31
0.0
  0
LINE
  5
9F
330
1F
100
AcDbEntity
  8
1
  6
DASHED
 62
     2
100
AcDbLine
 10
241.279098969217
 20
333.670151481937
 30
0.0
 11
241.779098969217
 21
333.670151481937
 31
0.0
  0
LINE
  5
A0
330
1F
100
AcDbEntity
  8
1
  6
DASHED
 62
     2
100
AcDbLine
 10
238.279098969217
 20
336.670151481937
 30
0.0
 11
241.279098969217
 21
333.670151481937
 31
0.0
  0
LINE
  5
A1
330
1F
100
AcDbEntity
  8
1
  6
DASHED
 62
     2
100
AcDbLine
 10
252.279098969217
 20
330.170151481937
 30
0.0
 11
252.279098969217
 21
326.670151481937
 31
0.0
  0
LINE
  5
A2
330
1F
100
AcDbEntity
  8
1
  6
DASHED
 62
     2
100
AcDbLine
 10
236.279098969217
 20
330.170151481937
 30
0.0
 11
236.279098969217
 21
326.670151481937
 31
0.0
  0
LINE
  5
A3
330
1F
100
AcDbEntity
  8
1
  6
DASHED
 62
     2
100
AcDbLine
 10
236.279098969217
 20
330.170151481937
 30
0.0
 11
252.279098969217
 21
330.170151481937
 31
0.0
  0
LINE
  5
A4
330
1F
100
AcDbEntity
  8
1
  6
DASHED
 62
     2
100
AcDbLine
 10
239.279098969217
 20
332.670151481937
 30
0.0
 11
239.279098969217
 21
328.170151481937
 31
0.0
  0
LINE
  5
A5
330
1F
100
AcDbEntity
  8
1
  6
DASHED
 62
     2
100
AcDbLine
 10
249.279098969217
 20
332.670151481937
 30
0.0
 11
239.279098969217
 21
332.670151481937
 31
0.0
  0
LINE
  5
A6
330
1F
100
AcDbEntity
  8
1
  6
DASHED
 62
     2
100
AcDbLine
 10
249.279098969217
 20
328.170151481937
 30
0.0
 11
249.279098969217
 21
332.670151481937
 31
0.0
  0
LINE
  5
A7
330
1F
100
AcDbEntity
  8
1
  6
DASHED
 62
     2
100
AcDbLine
 10
239.279098969217
 20
328.170151481937
 30
0.0
 11
249.279098969217
 21
328.170151481937
 31
0.0
  0
LINE
  5
A8
330
1F
100
AcDbEntity
  8
1
  6
Continuous
 62
     7
100
AcDbLine
 10
252.279098969217
 20
326.670151481937
 30
0.0
 11
247.279098969217
 21
326.670151481937
 31
0.0
  0
LINE
  5
A9
330
1F
100
AcDbEntity
  8
1
  6
DASHED
 62
     2
100
AcDbLine
 10
252.279098969217
 20
333.170151481937
 30
0.0
 11
254.279098969217
 21
333.170151481937
 31
0.0
  0
LINE
  5
AA
330
1F
100
AcDbEntity
  8
1
  6
DASHED
 62
     2
100
AcDbLine
 10
252.279098969217
 20
333.170151481937
 30
0.0
 11
252.279098969217
 21
330.170151481937
 31
0.0
  0
LINE
  5
AB
330
1F
100
AcDbEntity
  8
1
  6
Continuous
 62
     7
100
AcDbLine
 10
236.279098969217
 20
326.670151481937
 30
0.0
 11
234.279098969217
 21
326.670151481937
 31
0.0
  0
LINE
  5
AC
330
1F
100
AcDbEntity
  8
1
  6
DASHED
 62
     2
100
AcDbLine
 10
236.279098969217
 20
333.170151481937
 30
0.0
 11
252.279098969217
 21
333.170151481937
 31
0.0
  0
LINE
  5
AD
330
1F
100
AcDbEntity
  8
1
  6
DASHED
 62
     2
100
AcDbLine
 10
236.279098969217
 20
333.170151481937
 30
0.0
 11
236.279098969217
 21
330.170151481937
 31
0.0
  0
LINE
  5
AE
330
1F
100
AcDbEntity
  8
1
  6
Continuous
 62
     7
100
AcDbLine
 10
274.279098969217
 20
346.670151481937
 30
0.0
 11
280.279098969217
 21
346.670151481937
 31
0.0
  0
LINE
  5
AF
330
1F
100
AcDbEntity
  8
1
  6
DASHED
 62
     2
100
AcDbLine
 10
274.279098969217
 20
346.670151481937
 30
0.0
 11
274.279098969217
 21
345.170151481937
 31
0.0
  0
LINE
  5
B0
330
1F
100
AcDbEntity
  8
1
  6
Continuous
 62
     7
100
AcDbLine
 10
234.279098969217
 20
331.170151481937
 30
0.0
 11
234.279098969217
 21
331.670151481937
 31
0.0
  0
LINE
  5
B1
330
1F
100
AcDbEntity
  8
1
  6
DASHED
 62
     2
100
AcDbLine
 10
234.279098969217
 20
331.170151481937
 30
0.0
 11
274.279098969217
 21
331.170151481937
 31
0.0
  0
LINE
  5
B2
330
1F
100
AcDbEntity
  8
1
  6
Continuous
 62
     7
100
AcDbLine
 10
234.279098969217
 20
333.170151481937
 30
0.0
 11
234.279098969217
 21
336.670151481937
 31
0.0
  0
LINE
  5
B3
330
1F
100
AcDbEntity
  8
1
  6
DASHED
 62
     2
100
AcDbLine
 10
234.279098969217
 20
333.170151481937
 30
0.0
 11
236.279098969217
 21
333.170151481937
 31
0.0
  0
LINE
  5
B4
330
1F
100
AcDbEntity
  8
1
  6
Continuous
 62
     7
100
AcDbLine
 10
280.279098969217
 20
346.670151481937
 30
0.0
 11
283.279098969217
 21
346.670151481937
 31
0.0
  0
LINE
  5
B5
330
1F
100
AcDbEntity
  8
1
  6
Continuous
 62
     7
100
AcDbLine
 10
283.279098969217
 20
326.670151481937
 30
0.0
 11
286.279098969217
 21
327.4739990592304
 31
0.0
  0
LINE
  5
B6
330
1F
100
AcDbEntity
  8
1
  6
Continuous
 62
     7
100
AcDbLine
 10
283.279098969217
 20
346.670151481937
 30
0.0
 11
286.279098969217
 21
345.8663039046436
 31
0.0
  0
LINE
  5
B7
330
1F
100
AcDbEntity
  8
1
  6
Continuous
 62
     7
100
AcDbLine
 10
286.279098969217
 20
345.8663039046436
 30
0.0
 11
286.279098969217
 21
327.4739990592304
 31
0.0
  0
LINE
  5
B8
330
1F
100
AcDbEntity
  8
1
  6
Continuous
 62
     7
100
AcDbLine
 10
264.279098969217
 20
346.670151481937
 30
0.0
 11
264.279098969217
 21
344.670151481937
 31
0.0
  0
LINE
  5
B9
330
1F
100
AcDbEntity
  8
1
  6
Continuous
 62
     7
100
AcDbLine
 10
283.279098969217
 20
326.670151481937
 30
0.0
 11
280.279098969217
 21
326.670151481937
 31
0.0
  0
LINE
  5
BA
330
1F
100
AcDbEntity
  8
1
  6
Continuous
 62
     7
100
AcDbLine
 10
283.279098969217
 20
346.670151481937
 30
0.0
 11
283.279098969217
 21
326.670151481937
 31
0.0
  0
LINE
  5
BB
330
1F
100
AcDbEntity
  8
1
  6
Continuous
 62
     7
100
AcDbLine
 10
264.279098969217
 20
346.670151481937
 30
0.0
 11
274.279098969217
 21
346.670151481937
 31
0.0
  0
LINE
  5
BC
330
1F
100
AcDbEntity
  8
1
  6
Continuous
 62
     7
100
AcDbLine
 10
264.279098969217
 20
358.670151481937
 30
0.0
 11
264.279098969217
 21
355.670151481937
 31
0.0
  0
LINE
  5
BD
330
1F
100
AcDbEntity
  8
1
  6
Continuous
 62
     7
100
AcDbLine
 10
234.279098969217
 20
326.670151481937
 30
0.0
 11
234.279098969217
 21
331.170151481937
 31
0.0
  0
LINE
  5
BE
330
1F
100
AcDbEntity
  8
1
  6
DASHED
 62
     2
100
AcDbLine
 10
261.279098969217
 20
336.670151481937
 30
0.0
 11
264.279098969217
 21
336.670151481937
 31
0.0
  0
LINE
  5
BF
330
1F
100
AcDbEntity
  8
1
  6
Continuous
 62
     7
100
AcDbLine
 10
261.279098969217
 20
336.670151481937
 30
0.0
 11
261.279098969217
 21
337.670151481937
 31
0.0
  0
LINE
  5
C0
330
1F
100
AcDbEntity
  8
1
  6
Continuous
 62
     7
100
AcDbLine
 10
261.279098969217
 20
340.670151481937
 30
0.0
 11
260.279098969217
 21
340.670151481937
 31
0.0
  0
LINE
  5
C1
330
1F
100
AcDbEntity
  8
1
  6
Continuous
 62
     7
100
AcDbLine
 10
254.779098969217
 20
340.670151481937
 30
0.0
 11
254.779098969217
 21
343.170151481937
 31
0.0
  0
LINE
  5
C2
330
1F
100
AcDbEntity
  8
1
  6
Continuous
 62
     7
100
AcDbLine
 10
254.779098969217
 20
343.170151481937
 30
0.0
 11
252.279098969217
 21
343.170151481937
 31
0.0
  0
LINE
  5
C3
330
1F
100
AcDbEntity
  8
1
  6
Continuous
 62
     7
100
AcDbLine
 10
252.279098969217
 20
358.670151481937
 30
0.0
 11
252.279098969217
 21
357.670151481937
 31
0.0
  0
LINE
  5
C4
330
1F
100
AcDbEntity
  8
1
  6
Continuous
 62
     7
100
AcDbLine
 10
252.279098969217
 20
358.670151481937
 30
0.0
 11
264.279098969217
 21
358.670151481937
 31
0.0
  0
LINE
  5
C5
330
1F
100
AcDbEntity
  8
1
  6
DASHED
 62
     2
100
AcDbLine
 10
270.279098969217
 20
336.670151481937
 30
0.0
 11
270.279098969217
 21
333.170151481937
 31
0.0
  0
LINE
  5
C6
330
1F
100
AcDbEntity
  8
1
  6
DASHED
 62
     2
100
AcDbLine
 10
270.279098969217
 20
336.670151481937
 30
0.0
 11
280.279098969217
 21
336.670151481937
 31
0.0
  0
LINE
  5
C7
330
1F
100
AcDbEntity
  8
1
  6
DASHED
 62
     2
100
AcDbLine
 10
270.279098969217
 20
333.170151481937
 30
0.0
 11
264.279098969217
 21
333.170151481937
 31
0.0
  0
LINE
  5
C8
330
1F
100
AcDbEntity
  8
1
  6
DASHED
 62
     2
100
AcDbLine
 10
252.279098969217
 20
345.170151481937
 30
0.0
 11
274.279098969217
 21
345.170151481937
 31
0.0
  0
LINE
  5
C9
330
1F
100
AcDbEntity
  8
1
  6
Continuous
 62
     7
100
AcDbLine
 10
252.279098969217
 20
345.170151481937
 30
0.0
 11
252.279098969217
 21
343.170151481937
 31
0.0
  0
LINE
  5
CA
330
1F
100
AcDbEntity
  8
1
  6
DASHED
 62
     2
100
AcDbLine
 10
274.279098969217
 20
345.170151481937
 30
0.0
 11
274.279098969217
 21
337.670151481937
 31
0.0
  0
LINE
  5
CB
330
1F
100
AcDbEntity
  8
1
  6
DASHED
 62
     2
100
AcDbLine
 10
260.279098969217
 20
340.670151481937
 30
0.0
 11
260.279098969217
 21
344.670151481937
 31
0.0
  0
LINE
  5
CC
330
1F
100
AcDbEntity
  8
1
  6
Continuous
 62
     7
100
AcDbLine
 10
260.279098969217
 20
336.670151481937
 30
0.0
 11
260.279098969217
 21
340.670151481937
 31
0.0
  0
LINE
  5
CD
330
1F
100
AcDbEntity
  8
1
  6
DASHED
 62
     2
100
AcDbLine
 10
280.279098969217
 20
326.670151481937
 30
0.0
 11
280.279098969217
 21
336.670151481937
 31
0.0
  0
LINE
  5
CE
330
1F
100
AcDbEntity
  8
1
  6
Continuous
 62
     7
100
AcDbLine
 10
280.279098969217
 20
326.670151481937
 30
0.0
 11
252.279098969217
 21
326.670151481937
 31
0.0
  0
LINE
  5
CF
330
1F
100
AcDbEntity
  8
1
  6
DASHED
 62
     2
100
AcDbLine
 10
252.279098969217
 20
357.670151481937
 30
0.0
 11
254.279098969217
 21
355.670151481937
 31
0.0
  0
LINE
  5
D0
330
1F
100
AcDbEntity
  8
1
  6
Continuous
 62
     7
100
AcDbLine
 10
252.279098969217
 20
357.670151481937
 30
0.0
 11
252.279098969217
 21
347.670151481937
 31
0.0
  0
LINE
  5
D1
330
1F
100
AcDbEntity
  8
1
  6
DASHED
 62
     2
100
AcDbLine
 10
254.279098969217
 20
355.670151481937
 30
0.0
 11
254.279098969217
 21
349.670151481937
 31
0.0
  0
LINE
  5
D2
330
1F
100
AcDbEntity
  8
1
  6
DASHED
 62
     2
100
AcDbLine
 10
254.279098969217
 20
349.670151481937
 30
0.0
 11
252.279098969217
 21
347.670151481937
 31
0.0
  0
LINE
  5
D3
330
1F
100
AcDbEntity
  8
1
  6
Continuous
 62
     7
100
AcDbLine
 10
252.279098969217
 20
347.670151481937
 30
0.0
 11
252.279098969217
 21
345.170151481937
 31
0.0
  0
LINE
  5
D4
330
1F
100
AcDbEntity
  8
1
  6
DASHED
 62
     2
100
AcDbLine
 10
254.279098969217
 20
355.670151481937
 30
0.0
 11
264.279098969217
 21
355.670151481937
 31
0.0
  0
LINE
  5
D5
330
1F
100
AcDbEntity
  8
1
  6
Continuous
 62
     7
100
AcDbLine
 10
264.279098969217
 20
355.670151481937
 30
0.0
 11
264.279098969217
 21
349.670151481937
 31
0.0
  0
LINE
  5
D6
330
1F
100
AcDbEntity
  8
1
  6
DASHED
 62
     2
100
AcDbLine
 10
254.279098969217
 20
349.670151481937
 30
0.0
 11
264.279098969217
 21
349.670151481937
 31
0.0
  0
LINE
  5
D7
330
1F
100
AcDbEntity
  8
1
  6
Continuous
 62
     7
100
AcDbLine
 10
264.279098969217
 20
349.670151481937
 30
0.0
 11
264.279098969217
 21
346.670151481937
 31
0.0
  0
LINE
  5
D8
330
1F
100
AcDbEntity
  8
1
  6
DOT_CENTER
 62
     2
100
AcDbLine
 10
250.620405659423
 20
352.670151481937
 30
0.0
 11
272.190199178366
 21
352.670151481937
 31
0.0
  0
LINE
  5
D9
330
1F
100
AcDbEntity
  8
1
  6
DASHED
 62
     2
100
AcDbLine
 10
261.279098969217
 20
337.670151481937
 30
0.0
 11
274.279098969217
 21
337.670151481937
 31
0.0
  0
LINE
  5
DA
330
1F
100
AcDbEntity
  8
1
  6
Continuous
 62
     7
100
AcDbLine
 10
261.279098969217
 20
337.670151481937
 30
0.0
 11
261.279098969217
 21
340.670151481937
 31
0.0
  0
LINE
  5
DB
330
1F
100
AcDbEntity
  8
1
  6
DASHED
 62
     2
100
AcDbLine
 10
274.279098969217
 20
337.670151481937
 30
0.0
 11
274.279098969217
 21
331.170151481937
 31
0.0
  0
LINE
  5
DC
330
1F
100
AcDbEntity
  8
1
  6
Continuous
 62
     7
100
AcDbLine
 10
228.630745513462
 20
333.170151481937
 30
0.0
 11
234.279098969217
 21
333.170151481937
 31
0.0
  0
LINE
  5
DD
330
1F
100
AcDbEntity
  8
1
  6
Continuous
 62
     7
100
AcDbLine
 10
234.279098969217
 20
331.670151481937
 30
0.0
 11
229.4594173447307
 21
331.670151481937
 31
0.0
  0
LINE
  5
DE
330
1F
100
AcDbEntity
  8
1
  6
DOT_CENTER
 62
     2
100
AcDbLine
 10
220.279098969217
 20
334.170151481937
 30
0.0
 11
220.279098969217
 21
315.58171126703
 31
0.0
  0
LINE
  5
DF
330
1F
100
AcDbEntity
  8
1
  6
Continuous
 62
     7
100
AcDbLine
 10
260.279098969217
 20
340.670151481937
 30
0.0
 11
254.779098969217
 21
340.670151481937
 31
0.0
  0
LINE
  5
E0
330
1F
100
AcDbEntity
  8
1
  6
Continuous
 62
     7
100
AcDbLine
 10
260.279098969217
 20
336.670151481937
 30
0.0
 11
261.279098969217
 21
336.670151481937
 31
0.0
  0
LINE
  5
E1
330
1F
100
AcDbEntity
  8
1
  6
DOT_CENTER
 62
     2
100
AcDbLine
 10
244.279098969217
 20
338.143673581407
 30
0.0
 11
244.279098969217
 21
326.015142146988
 31
0.0
  0
LINE
  5
E2
330
1F
100
AcDbEntity
  8
1
  6
Continuous
 62
     7
100
AcDbLine
 10
254.779098969217
 20
340.670151481937
 30
0.0
 11
254.779098969217
 21
343.170151481937
 31
0.0
  0
LINE
  5
E3
330
1F
100
AcDbEntity
  8
1
  6
Continuous
 62
     7
100
AcDbLine
 10
254.779098969217
 20
343.170151481937
 30
0.0
 11
252.279098969217
 21
343.170151481937
 31
0.0
  0
LINE
  5
E4
330
1F
100
AcDbEntity
  8
1
  6
Continuous
 62
     7
100
AcDbLine
 10
249.279098969217
 20
340.670151481937
 30
0.0
 11
252.279098969217
 21
340.670151481937
 31
0.0
  0
LINE
  5
E5
330
1F
100
AcDbEntity
  8
1
  6
Continuous
 62
     7
100
AcDbLine
 10
234.279098969217
 20
336.670151481937
 30
0.0
 11
238.279098969217
 21
336.670151481937
 31
0.0
  0
LINE
  5
E6
330
1F
100
AcDbEntity
  8
1
  6
Continuous
 62
     7
100
AcDbLine
 10
250.279098969217
 20
336.670151481937
 30
0.0
 11
259.279098969217
 21
336.670151481937
 31
0.0
  0
LINE
  5
E7
330
1F
100
AcDbEntity
  8
1
  6
Continuous
 62
     7
100
AcDbLine
 10
238.279098969217
 20
336.670151481937
 30
0.0
 11
250.279098969217
 21
336.670151481937
 31
0.0
  0
LINE
  5
E8
330
1F
100
AcDbEntity
  8
1
  6
Continuous
 62
     7
100
AcDbLine
 10
252.279098969217
 20
343.170151481937
 30
0.0
 11
252.279098969217
 21
340.670151481937
 31
0.0
  0
LINE
  5
E9
330
1F
100
AcDbEntity
  8
1
  6
Continuous
 62
     7
100
AcDbLine
 10
243.279098969217
 20
341.670151481937
 30
0.0
 11
225.279098969217
 21
341.670151481937
 31
0.0
  0
LINE
  5
EA
330
1F
100
AcDbEntity
  8
1
  6
Continuous
 62
     7
100
AcDbLine
 10
225.279098969217
 20
341.670151481937
 30
0.0
 11
225.279098969217
 21
342.670151481937
 31
0.0
  0
LINE
  5
EB
330
1F
100
AcDbEntity
  8
1
  6
Continuous
 62
     7
100
AcDbLine
 10
254.779098969217
 20
343.170151481937
 30
0.0
 11
254.779098969217
 21
338.170151481937
 31
0.0
  0
LINE
  5
EC
330
1F
100
AcDbEntity
  8
1
  6
Continuous
 62
     7
100
AcDbLine
 10
254.779098969217
 20
343.170151481937
 30
0.0
 11
252.279098969217
 21
343.170151481937
 31
0.0
  0
LINE
  5
ED
330
1F
100
AcDbEntity
  8
1
  6
Continuous
 62
     7
100
AcDbLine
 10
252.279098969217
 20
343.170151481937
 30
0.0
 11
252.279098969217
 21
340.170151481937
 31
0.0
  0
LINE
  5
EE
330
1F
100
AcDbEntity
  8
1
  6
Continuous
 62
     7
100
AcDbLine
 10
252.279098969217
 20
340.170151481937
 30
0.0
 11
241.137333907152
 21
340.170151481937
 31
0.0
  0
LINE
  5
EF
330
1F
100
AcDbEntity
  8
1
  6
Continuous
 62
     7
100
AcDbLine
 10
235.40787583873
 20
341.670151481937
 30
0.0
 11
239.789226126347
 21
341.670151481937
 31
0.0
  0
LINE
  5
F0
330
1F
100
AcDbEntity
  8
1
  6
Continuous
 62
     7
100
AcDbLine
 10
252.279098969217
 20
339.170151481937
 30
0.0
 11
240.800306961951
 21
339.170151481937
 31
0.0
  0
LINE
  5
F1
330
1F
100
AcDbEntity
  8
1
  6
Continuous
 62
     7
100
AcDbLine
 10
252.279098969217
 20
339.170151481937
 30
0.0
 11
252.279098969217
 21
337.670151481937
 31
0.0
  0
LINE
  5
F2
330
1F
100
AcDbEntity
  8
1
  6
Continuous
 62
     7
100
AcDbLine
 10
252.279098969217
 20
337.670151481937
 30
0.0
 11
236.503213410634
 21
337.670151481937
 31
0.0
  0
LINE
  5
F3
330
1F
100
AcDbEntity
  8
1
  6
Continuous
 62
     7
100
AcDbLine
 10
258.353652672837
 20
336.670151481937
 30
0.0
 11
235.955544624682
 21
336.670151481937
 31
0.0
  0
ARC
  5
F4
330
1F
100
AcDbEntity
  8
1
  6
Continuous
 62
     7
100
AcDbCircle
 10
256.6860681812291
 20
367.170151481937
 30
0.0
 40
1.0
100
AcDbArc
 50
90.0
 51
-90.0
  0
ARC
  5
F5
330
1F
100
AcDbEntity
  8
1
  6
Continuous
 62
     7
100
AcDbCircle
 10
256.6860681812291
 20
367.170151481937
 30
0.0
 40
2.499999999999886
100
AcDbArc
 50
90.0
 51
-90.0
  0
ARC
  5
F6
330
1F
100
AcDbEntity
  8
1
  6
Continuous
 62
     7
100
AcDbCircle
 10
220.279098969217
 20
327.670151481937
 30
0.0
 40
9.999999999999972
100
AcDbArc
 50
33.36701296923186
 51
59.99999999999994
  0
ARC
  5
F7
330
1F
100
AcDbEntity
  8
1
  6
Continuous
 62
     7
100
AcDbCircle
 10
220.279098969217
 20
327.670151481937
 30
0.0
 40
10.00000000000004
100
AcDbArc
 50
114.1477399170222
 51
120.0000000000001
  0
ARC
  5
F8
330
1F
100
AcDbEntity
  8
1
  6
Continuous
 62
     7
100
AcDbCircle
 10
220.279098969217
 20
327.670151481937
 30
0.0
 40
10.0
100
AcDbArc
 50
90.0
 51
114.1477399170222
  0
ARC
  5
F9
330
1F
100
AcDbEntity
  8
1
  6
Continuous
 62
     7
100
AcDbCircle
 10
220.279098969217
 20
327.670151481937
 30
0.0
 40
9.999999999999984
100
AcDbArc
 50
120.0000000000001
 51
33.36701296923186
  0
ARC
  5
FA
330
1F
100
AcDbEntity
  8
1
  6
Continuous
 62
     7
100
AcDbCircle
 10
220.279098969217
 20
327.670151481937
 30
0.0
 40
9.999999999999984
100
AcDbArc
 50
59.99999999999994
 51
90.0
  0
CIRCLE
  5
FB
330
1F
100
AcDbEntity
  8
1
  6
Continuous
 62
     7
100
AcDbCircle
 10
220.279098969217
 20
327.670151481937
 30
0.0
 40
8.0
  0
SPLINE
  5
FC
330
1F
100
AcDbEntity
  8
1
  6
Continuous
 62
     7
100
AcDbSpline
210
0.0
220
0.0
230
1.0
 70
     8
 71
     3
 72
    11
 73
     7
 74
     5
 42
0.0000000001
 43
0.0000000001
 44
0.00000001
 40
0.0
 40
0.0
 40
0.0
 40
0.0
 40
0.5910899247691361
 40
1.157604842455715
 40
1.609591797176259
 40
2.077157862448319
 40
2.077157862448319
 40
2.077157862448319
 40
2.077157862448319
 10
239.789226126347
 20
341.670151481937
 30
0.0
 10
239.960446982785
 20
341.5730131837697
 30
0.0
 10
240.2957700600973
 20
341.3827751850583
 30
0.0
 10
240.715284725204
 20
341.0332757271697
 30
0.0
 10
240.9654415400491
 20
340.5990537479291
 30
0.0
 10
241.0793929281904
 20
340.3147246098151
 30
0.0
 10
241.137333907152
 20
340.170151481937
 30
0.0
 11
239.789226126347
 21
341.670151481937
 31
0.0
 11
240.2941252172124
 21
341.3628011814542
 31
0.0
 11
240.716050225651
 21
340.984755629681
 31
0.0
 11
240.952951746305
 21
340.5998272249752
 31
0.0
 11
241.137333907152
 21
340.170151481937
 31
0.0
  0
SPLINE
  5
FD
330
1F
100
AcDbEntity
  8
1
  6
Continuous
 62
     7
100
AcDbSpline
210
0.0
220
0.0
230
1.0
 70
     8
 71
     3
 72
    29
 73
    25
 74
    23
 42
0.0000000001
 43
0.0000000001
 44
0.00000001
 40
0.0
 40
0.0
 40
0.0
 40
0.0
 40
0.8895106004828426
 40
1.614720294011842
 40
2.084459729670793
 40
2.530572635717853
 40
3.177440313769198
 40
3.946876071015289
 40
4.48692996529153
 40
4.935200976377557
 40
5.190029714505144
 40
5.438248718820184
 40
6.016987659841021
 40
6.788861584319728
 40
7.584413180769899
 40
8.247133744393292
 40
8.707331222480976
 40
9.15468763011896
 40
9.677694262883474
 40
10.11258093474853
 40
10.62571263616353
 40
11.21277240015656
 40
11.70017573250111
 40
12.21005469173254
 40
12.21005469173254
 40
12.21005469173254
 40
12.21005469173254
 10
236.503213410634
 20
337.670151481937
 30
0.0
 10
236.797463047488
 20
337.7194059348273
 30
0.0
 10
237.3316116679494
 20
337.8088170836199
 30
0.0
 10
237.9949146065644
 20
337.9384694565395
 30
0.0
 10
238.5047281367191
 20
338.3400958327249
 30
0.0
 10
238.2567535813969
 20
338.8971502190843
 30
0.0
 10
237.814011666818
 20
339.310622030044
 30
0.0
 10
237.2613397456289
 20
339.6644405515066
 30
0.0
 10
236.6898437079364
 20
339.8767872014938
 30
0.0
 10
236.3543113984906
 20
339.9958633264131
 30
0.0
 10
235.9408569438171
 20
340.1512939988687
 30
0.0
 10
236.3239464207902
 20
340.4770204481719
 30
0.0
 10
236.8052311125455
 20
340.5233630640824
 30
0.0
 10
237.5306630680848
 20
340.6642206896778
 30
0.0
 10
238.271136762874
 20
340.6541009779909
 30
0.0
 10
238.9111144214105
 20
340.592869264705
 30
0.0
 10
239.3739321516069
 20
340.1985803327503
 30
0.0
 10
239.219120471798
 20
339.6848586991715
 30
0.0
 10
239.0530641981854
 20
339.2797216776755
 30
0.0
 10
238.9926253696549
 20
338.7246217035717
 30
0.0
 10
239.5236187929848
 20
338.4526223303927
 30
0.0
 10
240.0664669144826
 20
338.4328270980281
 30
0.0
 10
240.5271081913784
 20
338.7469642519256
 30
0.0
 10
240.7078826744182
 20
339.0269854708133
 30
0.0
 10
240.800306961951
 20
339.170151481937
 30
0.0
 11
236.503213410634
 21
337.670151481937
 31
0.0
 11
237.3797950013894
 21
337.8212601286787
 31
0.0
 11
238.0728845407678
 21
338.0346986209726
 31
0.0
 11
238.398989977392
 21
338.372796804371
 31
0.0
 11
238.2742169654403
 21
338.8011055953504
 31
0.0
 11
237.8299203019661
 21
339.2712526656733
 31
0.0
 11
237.177267301037
 21
339.678776217026
 31
0.0
 11
236.6762991468465
 21
339.8804916532471
 31
0.0
 11
236.2550268166704
 21
340.0337121584286
 31
0.0
 11
236.039801360982
 21
340.170151481937
 31
0.0
 11
236.2029439886969
 21
340.3572267532195
 31
0.0
 11
236.7562663829398
 21
340.5268530774833
 31
0.0
 11
237.5203851478782
 21
340.6359945836076
 31
0.0
 11
238.3159168876801
 21
340.6416154004717
 31
0.0
 11
238.9634782065131
 21
340.5006796569551
 31
0.0
 11
239.283685708545
 21
340.170151481937
 31
0.0
 11
239.2252548509698
 21
339.7266274235841
 31
0.0
 11
239.0646628132566
 21
339.22888639118
 31
0.0
 11
239.073043867794
 21
338.794080485872
 31
0.0
 11
239.4970952098001
 21
338.5051434644643
 31
0.0
 11
240.084124703398
 21
338.499181908821
 31
0.0
 11
240.4944945673448
 21
338.7621621041683
 31
0.0
 11
240.800306961951
 21
339.170151481937
 31
0.0
  0
SPLINE
  5
FE
330
1F
100
AcDbEntity
  8
1
  6
Continuous
 62
     7
100
AcDbSpline
210
0.0
220
0.0
230
1.0
 70
     8
 71
     3
 72
    27
 73
    23
 74
    21
 42
0.0000000001
 43
0.0000000001
 44
0.00000001
 40
0.0
 40
0.0
 40
0.0
 40
0.0
 40
0.7277950974380761
 40
1.337859413161287
 40
1.833896610316253
 40
2.118542941909013
 40
2.401621501324731
 40
2.945988552284755
 40
3.638553609528698
 40
4.451143321879508
 40
4.947746839607102
 40
5.29175906973598
 40
5.53729525865132
 40
5.962835195523105
 40
6.528388499581602
 40
7.124332020494771
 40
7.898367861786443
 40
8.496448681030687
 40
8.907320562793204
 40
9.326538941889158
 40
9.95484302572855
 40
10.67592761448759
 40
10.67592761448759
 40
10.67592761448759
 40
10.67592761448759
 10
235.955544624682
 20
336.670151481937
 30
0.0
 10
235.7144987168428
 20
336.6590979221677
 30
0.0
 10
235.2713993638218
 20
336.6387788666555
 30
0.0
 10
234.6436586730526
 20
336.6738695666723
 30
0.0
 10
234.2601551101816
 20
337.0283879121909
 30
0.0
 10
234.227499607135
 20
337.3895744738815
 30
0.0
 10
234.2615694080833
 20
337.7690006219678
 30
0.0
 10
234.7089075210437
 20
338.1353229209311
 30
0.0
 10
235.3972977265013
 20
338.1493507875784
 30
0.0
 10
236.0803263496839
 20
338.2076155476028
 30
0.0
 10
236.5724459474241
 20
338.3527552536677
 30
0.0
 10
236.9879106985356
 20
338.5217368263521
 30
0.0
 10
236.8650429460746
 20
338.9142022464177
 30
0.0
 10
236.4772903171427
 20
339.0913806944692
 30
0.0
 10
236.0069850306309
 20
339.3210784378342
 30
0.0
 10
235.3954866090377
 20
339.5406354552082
 30
0.0
 10
234.76044415014
 20
339.6866678503059
 30
0.0
 10
234.2481821375207
 20
340.0858073190067
 30
0.0
 10
234.1790773872881
 20
340.5764645073947
 30
0.0
 10
234.2506807912787
 20
341.0746650043636
 30
0.0
 10
234.7453105047727
 20
341.4839843409594
 30
0.0
 10
235.1771239327385
 20
341.6053149738798
 30
0.0
 10
235.40787583873
 20
341.670151481937
 30
0.0
 11
235.955544624682
 21
336.670151481937
 31
0.0
 11
235.2280127365958
 21
336.6505796738284
 31
0.0
 11
234.627018350708
 21
336.7553852912835
 31
0.0
 11
234.279098969217
 21
337.108945759866
 31
0.0
 11
234.2362048205783
 21
337.3903416128948
 31
0.0
 11
234.279098969217
 21
337.670151481937
 31
0.0
 11
234.6752541811956
 21
338.0435099346244
 31
0.0
 11
235.3586844147299
 21
338.1556236019742
 31
0.0
 11
236.166186465433
 21
338.24641169992
 31
0.0
 11
236.6427570348571
 21
338.3860381522068
 31
0.0
 11
236.9244970921359
 21
338.583438645121
 31
0.0
 11
236.8695357646693
 21
338.8227444589872
 31
0.0
 11
236.5243376011395
 21
339.0715867097576
 31
0.0
 11
236.0105959617939
 21
339.3080609530358
 31
0.0
 11
235.45000420688
 21
339.510262744425
 31
0.0
 11
234.7191117899246
 21
339.7650720033642
 31
0.0
 11
234.279098969217
 21
340.170151481937
 31
0.0
 11
234.1993066610599
 21
340.5732009711837
 31
0.0
 11
234.279098969217
 21
340.984755629681
 31
0.0
 11
234.7311624195561
 21
341.4211094524404
 31
0.0
 11
235.40787583873
 21
341.670151481937
 31
0.0
  0
SPLINE
  5
FF
330
1F
100
AcDbEntity
  8
1
  6
Continuous
 62
     7
100
AcDbSpline
210
0.0
220
0.0
230
1.0
 70
     8
 71
     3
 72
    63
 73
    59
 74
    57
 42
0.0000000001
 43
0.0000000001
 44
0.00000001
 40
0.0
 40
0.0
 40
0.0
 40
0.0
 40
0.3102622619370617
 40
0.5813023457658395
 40
0.80252574602155
 40
1.072839394501807
 40
1.386772392193633
 40
1.619378266302089
 40
1.842867620196997
 40
2.144020077985796
 40
2.443005547531403
 40
2.70757254851328
 40
2.985208345253678
 40
3.13878757711075
 40
3.315654653541769
 40
3.522752500218649
 40
3.778482474749765
 40
4.03660102029594
 40
4.221634352352483
 40
4.399608438126896
 40
4.657682686678105
 40
4.913036866218459
 40
5.267613008691782
 40
5.632924356044615
 40
5.911528700838975
 40
6.168162952766434
 40
6.347523236486407
 40
6.536407266327165
 40
6.846529412624934
 40
7.158454244701073
 40
7.572512845536756
 40
7.97358984979364
 40
8.212351839808735
 40
8.455654598993894
 40
8.778949917279668
 40
9.107450821066461
 40
9.361300907370197
 40
9.586321037784204
 40
9.766414755768874
 40
9.951954391279692
 40
10.18209677059236
 40
10.41761057659606
 40
10.67686312283326
 40
10.93787283263258
 40
11.25246554960603
 40
11.61199671920559
 40
11.93648391892572
 40
12.26073844113551
 40
12.59465489453304
 40
12.92757031180027
 40
13.20220673637512
 40
13.4800558721865
 40
13.74569589594925
 40
14.00245347574339
 40
14.23416584439992
 40
14.47260335531502
 40
14.65218711902433
 40
14.82980244936512
 40
14.82980244936512
 40
14.82980244936512
 40
14.82980244936512
 10
254.779098969217
 20
338.170151481937
 30
0.0
 10
254.8797330987529
 20
338.1463980129275
 30
0.0
 10
255.0682795729456
 20
338.1018938983466
 30
0.0
 10
255.3347103566877
 20
338.0660837874415
 30
0.0
 10
255.5958249570913
 20
338.1538057952604
 30
0.0
 10
255.702280552175
 20
338.4243809528841
 30
0.0
 10
255.743106490652
 20
338.6885092886566
 30
0.0
 10
255.7762814831055
 20
338.944139275882
 30
0.0
 10
255.7946725086317
 20
339.1958280839809
 30
0.0
 10
255.7916627674473
 20
339.4707608410879
 30
0.0
 10
255.7478910798133
 20
339.7580795301128
 30
0.0
 10
255.6455391822697
 20
340.0193722844282
 30
0.0
 10
255.5790928547009
 20
340.2437056474706
 30
0.0
 10
255.5650294364337
 20
340.4455897709296
 30
0.0
 10
255.6306341990745
 20
340.6321805228475
 30
0.0
 10
255.8620969763429
 20
340.6927741501419
 30
0.0
 10
256.0974384154634
 20
340.6321264174408
 30
0.0
 10
256.2985498296296
 20
340.5068626920723
 30
0.0
 10
256.4354783175397
 20
340.3452090687381
 30
0.0
 10
256.4961197218817
 20
340.1443491288437
 30
0.0
 10
256.5441855051304
 20
339.9197733457877
 30
0.0
 10
256.5953234562359
 20
339.6345072106296
 30
0.0
 10
256.6183475912758
 20
339.3096047650978
 30
0.0
 10
256.5963110151393
 20
338.9753476866443
 30
0.0
 10
256.5386588836356
 20
338.6829316944632
 30
0.0
 10
256.5546162388081
 20
338.4328080559677
 30
0.0
 10
256.6900284792585
 20
338.2648022315039
 30
0.0
 10
256.8809960130334
 20
338.1398772191998
 30
0.0
 10
257.1549872287979
 20
338.0806831562319
 30
0.0
 10
257.5014491649545
 20
338.1591683244657
 30
0.0
 10
257.8054276117379
 20
338.4019689495324
 30
0.0
 10
257.9644540240059
 20
338.7369668435999
 30
0.0
 10
257.9426906839675
 20
339.035772103839
 30
0.0
 10
257.8724177778932
 20
339.2949806695638
 30
0.0
 10
257.7867637609389
 20
339.5797410756097
 30
0.0
 10
257.6728060770082
 20
339.86473381478
 30
0.0
 10
257.4974082496707
 20
340.0680561711316
 30
0.0
 10
257.4204826449075
 20
340.2918533552142
 30
0.0
 10
257.5043638393181
 20
340.4814664286402
 30
0.0
 10
257.64873637607
 20
340.6260994538513
 30
0.0
 10
257.873730133774
 20
340.6729427001358
 30
0.0
 10
258.1137192397986
 20
340.6129193530832
 30
0.0
 10
258.3211164004484
 20
340.4575706132085
 30
0.0
 10
258.4748732716952
 20
340.2241301360449
 30
0.0
 10
258.6403410399212
 20
339.9577183622952
 30
0.0
 10
258.7251281967749
 20
339.632786634314
 30
0.0
 10
258.8173424923889
 20
339.310323363714
 30
0.0
 10
258.888946489528
 20
338.9901894197719
 30
0.0
 10
258.9350764200508
 20
338.662760475914
 30
0.0
 10
258.9536409563669
 20
338.3490511647236
 30
0.0
 10
258.9494794914472
 20
338.0539806839091
 30
0.0
 10
258.9469181934635
 20
337.7809459349784
 30
0.0
 10
258.9638806582256
 20
337.5153843304088
 30
0.0
 10
258.9364568252794
 20
337.2602698132628
 30
0.0
 10
258.8111368159673
 20
337.0467097998186
 30
0.0
 10
258.6587666163115
 20
336.8914531507997
 30
0.0
 10
258.5014756869049
 20
336.7698151270922
 30
0.0
 10
258.4027456521551
 20
336.7032504232706
 30
0.0
 10
258.353652672837
 20
336.670151481937
 30
0.0
 11
254.779098969217
 21
338.170151481937
 31
0.0
 11
255.0822662811448
 21
338.1041798807681
 31
0.0
 11
255.3528040997245
 21
338.0876869804759
 31
0.0
 11
255.558082931608
 21
338.170151481937
 31
0.0
 11
255.6862368517402
 21
338.4081557703636
 31
0.0
 11
255.745927538726
 21
338.716361787383
 31
0.0
 11
255.7744445053366
 21
338.9472129846619
 31
0.0
 11
255.790126269812
 21
339.170151481937
 31
0.0
 11
255.7845573313426
 21
339.4712524446664
 31
0.0
 11
255.734877855954
 21
339.76608165069
 31
0.0
 11
255.6505086030888
 21
340.0168355682656
 31
0.0
 11
255.580182297151
 21
340.285416740958
 31
0.0
 11
255.5759301663105
 21
340.4389370973969
 31
0.0
 11
255.646480393781
 21
340.6011241133048
 31
0.0
 11
255.841219891026
 21
340.6715942936008
 31
0.0
 11
256.0917368482995
 21
340.6202223752785
 31
0.0
 11
256.30946136008
 21
340.4815817588458
 31
0.0
 11
256.4254512737186
 21
340.3374163194851
 31
0.0
 11
256.486256284427
 21
340.170151481937
 31
0.0
 11
256.5429989308359
 21
339.9183924903522
 31
0.0
 11
256.585703429372
 21
339.666634505745
 31
0.0
 11
256.6101166571526
 21
339.3128998097925
 31
0.0
 11
256.585703429372
 21
338.948405125587
 31
0.0
 11
256.549774774626
 21
338.6721271628277
 31
0.0
 11
256.585703429372
 21
338.418020352548
 31
0.0
 11
256.6936264483605
 21
338.2747627756157
 31
0.0
 11
256.850895815892
 21
338.170151481937
 31
0.0
 11
257.153839519151
 21
338.1038125169161
 31
0.0
 11
257.458628368333
 21
338.170151481937
 31
0.0
 11
257.7839388355554
 21
338.4263108558462
 31
0.0
 11
257.9448144102861
 21
338.793709566784
 31
0.0
 11
257.9353981390911
 21
339.0322858055689
 31
0.0
 11
257.878516313656
 21
339.268845925966
 31
0.0
 11
257.7824290658814
 21
339.577532018365
 31
0.0
 11
257.646472975451
 21
339.876578478407
 31
0.0
 11
257.5046701279268
 21
340.0871297043603
 31
0.0
 11
257.447578685561
 21
340.3047868344988
 31
0.0
 11
257.5124887512839
 21
340.4727762110242
 31
0.0
 11
257.646472975451
 21
340.6011241133048
 31
0.0
 11
257.8702309492909
 21
340.6549561102839
 31
0.0
 11
258.099509969089
 21
340.6011241133048
 31
0.0
 11
258.3089756964854
 21
340.4483628885887
 31
0.0
 11
258.464149500554
 21
340.2384887378688
 31
0.0
 11
258.6188768501493
 21
339.9645762977352
 31
0.0
 11
258.729341887074
 21
339.622435774659
 31
0.0
 11
258.8143465788569
 21
339.3092806291526
 31
0.0
 11
258.8840374458771
 21
338.992603856674
 31
0.0
 11
258.9306374502964
 21
338.6619550438261
 31
0.0
 11
258.950335542507
 21
338.329622890375
 31
0.0
 11
258.9497088455385
 21
338.0549871808357
 31
0.0
 11
258.950335542507
 21
337.777138751792
 31
0.0
 11
258.9562935035363
 21
337.5115655511014
 31
0.0
 11
258.917186494192
 21
337.257803661524
 31
0.0
 11
258.80520332293
 21
337.0549480696797
 31
0.0
 11
258.6409444249
 21
336.882114447287
 31
0.0
 11
258.4998427694635
 21
336.7710259644408
 31
0.0
 11
258.353652672837
 21
336.670151481937
 31
0.0
  0
ARC
  5
100
330
1F
100
AcDbEntity
  8
1
  6
Continuous
 62
     7
100
AcDbCircle
 10
263.679098969217
 20
371.020151481937
 30
0.0
 40
0.3999999999999204
100
AcDbArc
 50
90.0
 51
180.0
  0
ARC
  5
101
330
1F
100
AcDbEntity
  8
1
  6
Continuous
 62
     7
100
AcDbCircle
 10
261.918964589297
 20
368.570151481937
 30
0.0
 40
0.3999999999999773
100
AcDbArc
 50
-90.0
 51
0.0
  0
ARC
  5
102
330
1F
100
AcDbEntity
  8
1
  6
Continuous
 62
     7
100
AcDbCircle
 10
261.918964589297
 20
369.270151481937
 30
0.0
 40
0.4000000000000341
100
AcDbArc
 50
0.0
 51
90.0
  0
ARC
  5
103
330
1F
100
AcDbEntity
  8
1
  6
Continuous
 62
     7
100
AcDbCircle
 10
262.879098969217
 20
366.570151481937
 30
0.0
 40
0.3999999999999773
100
AcDbArc
 50
-90.0
 51
0.0
  0
ARC
  5
104
330
1F
100
AcDbEntity
  8
1
  6
Continuous
 62
     7
100
AcDbCircle
 10
264.679098969217
 20
366.570151481937
 30
0.0
 40
0.4000000000000341
100
AcDbArc
 50
180.0
 51
-90.0
  0
ARC
  5
105
330
1F
100
AcDbEntity
  8
1
  6
Continuous
 62
     7
100
AcDbCircle
 10
266.5887049533914
 20
366.570151481937
 30
0.0
 40
0.3999999999999773
100
AcDbArc
 50
-90.0
 51
14.22058743216374
  0
ARC
  5
106
330
1F
100
AcDbEntity
  8
1
  6
Continuous
 62
     7
100
AcDbCircle
 10
268.4449250427681
 20
366.570151481937
 30
0.0
 40
0.3999999999999675
100
AcDbArc
 50
-165.0000000000043
 51
-90.0
  0
ARC
  5
107
330
1F
100
AcDbEntity
  8
1
  6
Continuous
 62
     7
100
AcDbCircle
 10
268.6519802788501
 20
366.570151481937
 30
0.0
 40
0.3999999999999773
100
AcDbArc
 50
-90.0
 51
15.00000000000723
  0
ARC
  5
108
330
1F
100
AcDbEntity
  8
1
  6
Continuous
 62
     7
100
AcDbCircle
 10
270.5154774035883
 20
366.570151481937
 30
0.0
 40
0.4000000000000773
100
AcDbArc
 50
-165.0000000000085
 51
-90.0
  0
ARC
  5
109
330
1F
100
AcDbEntity
  8
1
  6
Continuous
 62
     7
100
AcDbCircle
 10
270.7225326396704
 20
366.570151481937
 30
0.0
 40
0.3999999999999773
100
AcDbArc
 50
-90.0
 51
15.00000000001145
  0
ARC
  5
10A
330
1F
100
AcDbEntity
  8
1
  6
Continuous
 62
     7
100
AcDbCircle
 10
271.779098969217
 20
365.170151481937
 30
0.0
 40
0.5
100
AcDbArc
 50
-90.0
 51
0.0
  0
ARC
  5
10B
330
1F
100
AcDbEntity
  8
1
  6
Continuous
 62
     7
100
AcDbCircle
 10
243.279098969217
 20
343.670151481937
 30
0.0
 40
2.0
100
AcDbArc
 50
-90.0
 51
0.0
  0
ARC
  5
10C
330
1F
100
AcDbEntity
  8
1
  6
Continuous
 62
     7
100
AcDbCircle
 10
272.279098969217
 20
378.670151481937
 30
0.0
 40
2.0
100
AcDbArc
 50
-90.0
 51
0.0
  0
ARC
  5
10D
330
1F
100
AcDbEntity
  8
1
  6
Continuous
 62
     7
100
AcDbCircle
 10
272.279098969217
 20
395.670151481937
 30
0.0
 40
2.0
100
AcDbArc
 50
0.0
 51
90.0
  0
ARC
  5
10E
330
1F
100
AcDbEntity
  8
1
  6
Continuous
 62
     7
100
AcDbCircle
 10
266.279098969217
 20
373.670151481937
 30
0.0
 40
2.0
100
AcDbArc
 50
90.0
 51
180.0
  0
ARC
  5
10F
330
1F
100
AcDbEntity
  8
1
  6
Continuous
 62
     7
100
AcDbCircle
 10
251.279098969217
 20
362.670151481937
 30
0.0
 40
2.0
100
AcDbArc
 50
90.0
 51
180.0
  0
ARC
  5
110
330
1F
100
AcDbEntity
  8
1
  6
Continuous
 62
     7
100
AcDbCircle
 10
236.279098969217
 20
318.670151481937
 30
0.0
 40
2.0
100
AcDbArc
 50
180.0
 51
-90.0
  0
ARC
  5
111
330
1F
100
AcDbEntity
  8
1
  6
DASHED
 62
     2
100
AcDbCircle
 10
252.779098969217
 20
333.170151481937
 30
0.0
 40
1.5
100
AcDbArc
 50
-90.0
 51
0.0
  0
DIMENSION
  5
11F
330
1F
100
AcDbEntity
  8
1
100
AcDbDimension
  2
*D1
 10
245.279098969217
 20
407.466734574492
 30
0.0
 11
247.066547754172
 21
411.216734574492
 31
0.0
 70
    32
  1
<>
 71
     5
 42
-1.0
 53
0.00013888888889
  3
ME10_DIM_10
100
AcDbAlignedDimension
 13
249.279098969217
 23
362.670151481937
 33
0.0
 14
245.279098969217
 24
369.670151481937
 34
0.0
100
AcDbRotatedDimension
  0
DIMENSION
  5
12A
330
1F
100
AcDbEntity
  8
1
100
AcDbDimension
  2
*D2
 10
234.279098969217
 20
306.924576061384
 30
0.0
 11
242.337230977779
 21
310.674576061384
 31
0.0
 70
    32
  1
<>
 71
     5
 42
-1.0
 53
0.00013888888889
  3
ME10_DIM_11
100
AcDbAlignedDimension
 13
249.279098969217
 23
340.670151481937
 33
0.0
 14
234.279098969217
 24
318.670151481937
 34
0.0
100
AcDbRotatedDimension
  0
ENDSEC
  0
SECTION
  2
OBJECTS
  0
DICTIONARY
  5
C
330
0
100
AcDbDictionary
281
     1
  3
ACAD_GROUP
350
D
  3
ACAD_LAYOUT
350
1A
  3
ACAD_MLINESTYLE
350
17
  3
ACAD_PLOTSETTINGS
350
19
  3
ACAD_PLOTSTYLENAME
350
E
  0
DICTIONARY
  5
D
102
{ACAD_REACTORS
330
C
102
}
330
C
100
AcDbDictionary
281
     1
  0
DICTIONARY
  5
1A
102
{ACAD_REACTORS
330
C
102
}
330
C
100
AcDbDictionary
281
     1
  3
Layout1
350
1E
  3
Layout2
350
26
  3
Model
350
22
  0
DICTIONARY
  5
17
102
{ACAD_REACTORS
330
C
102
}
330
C
100
AcDbDictionary
281
     1
  3
Standard
350
18
  0
DICTIONARY
  5
19
102
{ACAD_REACTORS
330
C
102
}
330
C
100
AcDbDictionary
281
     1
  0
ACDBDICTIONARYWDFLT
  5
E
102
{ACAD_REACTORS
330
C
102
}
330
C
100
AcDbDictionary
281
     1
  3
Normal
350
F
100
AcDbDictionaryWithDefault
340
F
  0
LAYOUT
  5
1E
102
{ACAD_REACTORS
330
1A
102
}
330
1A
100
AcDbPlotSettings
  1

  2

  4

  6

 40
0.0
 41
0.0
 42
0.0
 43
0.0
 44
0.0
 45
0.0
 46
0.0
 47
0.0
 48
0.0
 49
0.0
140
0.0
141
0.0
142
1.0
143
1.0
 70
   688
 72
     0
 73
     0
 74
     5
  7

 75
    16
 76
     0
 77
     2
 78
   300
147
1.0
148
0.0
149
0.0
100
AcDbLayout
  1
Layout1
 70
     1
 71
     1
 10
0.0
 20
0.0
 11
0.0
 21
0.0
 12
0.0
 22
0.0
 32
0.0
 14
0.0
 24
0.0
 34
0.0
 15
0.0
 25
0.0
 35
0.0
146
0.0
 13
0.0
 23
0.0
 33
0.0
 16
1.0
 26
0.0
 36
0.0
 17
0.0
 27
1.0
 37
0.0
 76
     0
330
1B
  0
LAYOUT
  5
26
102
{ACAD_REACTORS
330
1A
102
}
330
1A
100
AcDbPlotSettings
  1

  2

  4

  6

 40
0.0
 41
0.0
 42
0.0
 43
0.0
 44
0.0
 45
0.0
 46
0.0
 47
0.0
 48
0.0
 49
0.0
140
0.0
141
0.0
142
1.0
143
1.0
 70
   688
 72
     0
 73
     0
 74
     5
  7

 75
    16
 76
     0
 77
     2
 78
   300
147
1.0
148
0.0
149
0.0
100
AcDbLayout
  1
Layout2
 70
     1
 71
     2
 10
0.0
 20
0.0
 11
0.0
 21
0.0
 12
0.0
 22
0.0
 32
0.0
 14
0.0
 24
0.0
 34
0.0
 15
0.0
 25
0.0
 35
0.0
146
0.0
 13
0.0
 23
0.0
 33
0.0
 16
1.0
 26
0.0
 36
0.0
 17
0.0
 27
1.0
 37
0.0
 76
     0
330
23
  0
LAYOUT
  5
22
102
{ACAD_REACTORS
330
1A
102
}
330
1A
100
AcDbPlotSettings
  1

  2

  4

  6

 40
0.0
 41
0.0
 42
0.0
 43
0.0
 44
0.0
 45
0.0
 46
0.0
 47
0.0
 48
0.0
 49
0.0
140
0.0
141
0.0
142
1.0
143
1.0
 70
  1712
 72
     0
 73
     0
 74
     0
  7

 75
     0
 76
     0
 77
     2
 78
   300
147
1.0
148
0.0
149
0.0
100
AcDbLayout
  1
Model
 70
     1
 71
     0
 10
0.0
 20
0.0
 11
0.0
 21
0.0
 12
0.0
 22
0.0
 32
0.0
 14
182.931906753853
 24
304.924576061384
 34
0.0
 15
324.945765635884
 25
412.966734574492
 35
0.0
146
0.0
 13
0.0
 23
0.0
 33
0.0
 16
1.0
 26
0.0
 36
0.0
 17
0.0
 27
1.0
 37
0.0
 76
     0
330
1F
  0
MLINESTYLE
  5
18
102
{ACAD_REACTORS
330
17
102
}
330
17
100
AcDbMlineStyle
  2
Standard
 70
     0
  3

 62
   256
 51
90.0
 52
90.0
 71
     2
 49
0.5
 62
   256
  6
BYLAYER
 49
-0.5
 62
   256
  6
BYLAYER
  0
ACDBPLACEHOLDER
  5
F
102
{ACAD_REACTORS
330
E
102
}
330
E
  0
ENDSEC
  0
EOF
