  0
SECTION
  2
HEADER
  9
$ACADVER
  1
AC1018
  9
$ACADMAINTVER
 70
     0
  9
$DWGCODEPAGE
  3
ANSI_1252
  9
$INSBASE
 10
0.0
 20
0.0
 30
0.0
  9
$EXTMIN
 10
-226.9574895888669
 20
452.682975202577
 30
0.0
  9
$EXTMAX
 10
-110.9574895888668
 20
550.702187339696
 30
0.0
  9
$LIMMIN
 10
0.0
 20
0.0
  9
$LIMMAX
 10
12.0
 20
9.0
  9
$ORTHOMODE
 70
     0
  9
$REGENMODE
 70
     1
  9
$FILLMODE
 70
     1
  9
$QTEXTMODE
 70
     0
  9
$MIRRTEXT
 70
     1
  9
$LTSCALE
 40
1.0
  9
$ATTMODE
 70
     1
  9
$TEXTSIZE
 40
0.2
  9
$TRACEWID
 40
0.05
  9
$TEXTSTYLE
  7
Standard
  9
$CLAYER
  8
0
  9
$CELTYPE
  6
ByLayer
  9
$CECOLOR
 62
   256
  9
$CELTSCALE
 40
1.0
  9
$DISPSILH
 70
     0
  9
$DIMSCALE
 40
1.0
  9
$DIMASZ
 40
0.18
  9
$DIMEXO
 40
0.0625
  9
$DIMDLI
 40
0.38
  9
$DIMRND
 40
0.0
  9
$DIMDLE
 40
0.0
  9
$DIMEXE
 40
0.18
  9
$DIMTP
 40
0.0
  9
$DIMTM
 40
0.0
  9
$DIMTXT
 40
0.18
  9
$DIMCEN
 40
0.09
  9
$DIMTSZ
 40
0.0
  9
$DIMTOL
 70
     0
  9
$DIMLIM
 70
     0
  9
$DIMTIH
 70
     1
  9
$DIMTOH
 70
     1
  9
$DIMSE1
 70
     0
  9
$DIMSE2
 70
     0
  9
$DIMTAD
 70
     0
  9
$DIMZIN
 70
     0
  9
$DIMBLK
  1

  9
$DIMASO
 70
     1
  9
$DIMSHO
 70
     1
  9
$DIMPOST
  1

  9
$DIMAPOST
  1

  9
$DIMALT
 70
     0
  9
$DIMALTD
 70
     2
  9
$DIMALTF
 40
25.4
  9
$DIMLFAC
 40
1.0
  9
$DIMTOFL
 70
     0
  9
$DIMTVP
 40
0.0
  9
$DIMTIX
 70
     0
  9
$DIMSOXD
 70
     0
  9
$DIMSAH
 70
     0
  9
$DIMBLK1
  1

  9
$DIMBLK2
  1

  9
$DIMSTYLE
  2
Standard
  9
$DIMCLRD
 70
     0
  9
$DIMCLRE
 70
     0
  9
$DIMCLRT
 70
     0
  9
$DIMTFAC
 40
1.0
  9
$DIMGAP
 40
0.09
  9
$DIMJUST
 70
     0
  9
$DIMSD1
 70
     0
  9
$DIMSD2
 70
     0
  9
$DIMTOLJ
 70
     1
  9
$DIMTZIN
 70
     0
  9
$DIMALTZ
 70
     0
  9
$DIMALTTZ
 70
     0
  9
$DIMUPT
 70
     0
  9
$DIMDEC
 70
     4
  9
$DIMTDEC
 70
     4
  9
$DIMALTU
 70
     2
  9
$DIMALTTD
 70
     2
  9
$DIMTXSTY
  7
Standard
  9
$DIMAUNIT
 70
     0
  9
$DIMADEC
 70
     0
  9
$DIMALTRND
 40
0.0
  9
$DIMAZIN
 70
     0
  9
$DIMDSEP
 70
    46
  9
$DIMATFIT
 70
     3
  9
$DIMFRAC
 70
     0
  9
$DIMLDRBLK
  1

  9
$DIMLUNIT
 70
     2
  9
$DIMLWD
 70
    -2
  9
$DIMLWE
 70
    -2
  9
$DIMTMOVE
 70
     0
  9
$LUNITS
 70
     2
  9
$LUPREC
 70
     4
  9
$SKETCHINC
 40
0.1
  9
$FILLETRAD
 40
0.5
  9
$AUNITS
 70
     0
  9
$AUPREC
 70
     0
  9
$MENU
  1
.
  9
$ELEVATION
 40
0.0
  9
$PELEVATION
 40
0.0
  9
$THICKNESS
 40
0.0
  9
$LIMCHECK
 70
     0
  9
$CHAMFERA
 40
0.5
  9
$CHAMFERB
 40
0.5
  9
$CHAMFERC
 40
1.0
  9
$CHAMFERD
 40
0.0
  9
$SKPOLY
 70
     0
  9
$TDCREATE
 40
2455706.348032894
  9
$TDUCREATE
 40
2455706.26469956
  9
$TDUPDATE
 40
2455706.348032905
  9
$TDUUPDATE
 40
2455706.264699572
  9
$TDINDWG
 40
0.0000000116
  9
$TDUSRTIMER
 40
0.0000000116
  9
$USRTIMER
 70
     1
  9
$ANGBASE
 50
0.0
  9
$ANGDIR
 70
     0
  9
$PDMODE
 70
     0
  9
$PDSIZE
 40
0.0
  9
$PLINEWID
 40
0.0
  9
$SPLFRAME
 70
     0
  9
$SPLINETYPE
 70
     6
  9
$SPLINESEGS
 70
     8
  9
$HANDSEED
  5
1CC
  9
$SURFTAB1
 70
     6
  9
$SURFTAB2
 70
     6
  9
$SURFTYPE
 70
     6
  9
$SURFU
 70
     6
  9
$SURFV
 70
     6
  9
$UCSBASE
  2

  9
$UCSNAME
  2

  9
$UCSORG
 10
0.0
 20
0.0
 30
0.0
  9
$UCSXDIR
 10
1.0
 20
0.0
 30
0.0
  9
$UCSYDIR
 10
0.0
 20
1.0
 30
0.0
  9
$UCSORTHOREF
  2

  9
$UCSORTHOVIEW
 70
     0
  9
$UCSORGTOP
 10
0.0
 20
0.0
 30
0.0
  9
$UCSORGBOTTOM
 10
0.0
 20
0.0
 30
0.0
  9
$UCSORGLEFT
 10
0.0
 20
0.0
 30
0.0
  9
$UCSORGRIGHT
 10
0.0
 20
0.0
 30
0.0
  9
$UCSORGFRONT
 10
0.0
 20
0.0
 30
0.0
  9
$UCSORGBACK
 10
0.0
 20
0.0
 30
0.0
  9
$PUCSBASE
  2

  9
$PUCSNAME
  2

  9
$PUCSORG
 10
0.0
 20
0.0
 30
0.0
  9
$PUCSXDIR
 10
1.0
 20
0.0
 30
0.0
  9
$PUCSYDIR
 10
0.0
 20
1.0
 30
0.0
  9
$PUCSORTHOREF
  2

  9
$PUCSORTHOVIEW
 70
     0
  9
$PUCSORGTOP
 10
0.0
 20
0.0
 30
0.0
  9
$PUCSORGBOTTOM
 10
0.0
 20
0.0
 30
0.0
  9
$PUCSORGLEFT
 10
0.0
 20
0.0
 30
0.0
  9
$PUCSORGRIGHT
 10
0.0
 20
0.0
 30
0.0
  9
$PUCSORGFRONT
 10
0.0
 20
0.0
 30
0.0
  9
$PUCSORGBACK
 10
0.0
 20
0.0
 30
0.0
  9
$USERI1
 70
     0
  9
$USERI2
 70
     0
  9
$USERI3
 70
     0
  9
$USERI4
 70
     0
  9
$USERI5
 70
     0
  9
$USERR1
 40
14.5
  9
$USERR2
 40
0.0
  9
$USERR3
 40
0.0
  9
$USERR4
 40
0.0
  9
$USERR5
 40
0.0
  9
$WORLDVIEW
 70
     1
  9
$SHADEDGE
 70
     3
  9
$SHADEDIF
 70
    70
  9
$TILEMODE
 70
     1
  9
$MAXACTVP
 70
    64
  9
$PINSBASE
 10
0.0
 20
0.0
 30
0.0
  9
$PLIMCHECK
 70
     0
  9
$PEXTMIN
 10
1.00000000000000E+20
 20
1.00000000000000E+20
 30
1.00000000000000E+20
  9
$PEXTMAX
 10
-1.00000000000000E+20
 20
-1.00000000000000E+20
 30
-1.00000000000000E+20
  9
$PLIMMIN
 10
0.0
 20
0.0
  9
$PLIMMAX
 10
12.0
 20
9.0
  9
$UNITMODE
 70
     0
  9
$VISRETAIN
 70
     1
  9
$PLINEGEN
 70
     0
  9
$PSLTSCALE
 70
     1
  9
$TREEDEPTH
 70
  3020
  9
$CMLSTYLE
  2
Standard
  9
$CMLJUST
 70
     0
  9
$CMLSCALE
 40
1.0
  9
$PROXYGRAPHICS
 70
     1
  9
$MEASUREMENT
 70
     1
  9
$CELWEIGHT
370
    -1
  9
$ENDCAPS
280
     0
  9
$JOINSTYLE
280
     0
  9
$LWDISPLAY
290
     0
  9
$INSUNITS
 70
     1
  9
$HYPERLINKBASE
  1

  9
$STYLESHEET
  1

  9
$XEDIT
290
     1
  9
$CEPSNTYPE
380
     0
  9
$PSTYLEMODE
290
     1
  9
$FINGERPRINTGUID
  2
{542747EC-40A7-4FA3-AE9F-AFCE2237914E}
  9
$VERSIONGUID
  2
{FAEB1C32-E019-11D5-929B-00C0DF256EC4}
  9
$EXTNAMES
290
     1
  9
$PSVPSCALE
 40
0.0
  9
$OLESTARTUP
290
     0
  9
$SORTENTS
280
   127
  9
$INDEXCTL
280
     0
  9
$HIDETEXT
280
     1
  9
$XCLIPFRAME
290
     0
  9
$HALOGAP
280
     0
  9
$OBSCOLOR
 70
   257
  9
$OBSLTYPE
280
     0
  9
$INTERSECTIONDISPLAY
280
     0
  9
$INTERSECTIONCOLOR
 70
   257
  9
$DIMASSOC
280
     2
  9
$PROJECTNAME
  1

  0
ENDSEC
  0
SECTION
  2
CLASSES
  0
CLASS
  1
ACDBDICTIONARYWDFLT
  2
AcDbDictionaryWithDefault
  3
ObjectDBX Classes
 90
        0
 91
        3
280
     0
281
     0
  0
CLASS
  1

  2
exOdDbSpline
  3

 90
        0
 91
        3
280
     0
281
     1
  0
ENDSEC
  0
SECTION
  2
TABLES
  0
TABLE
  2
VPORT
  5
8
330
0
100
AcDbSymbolTable
 70
     1
  0
VPORT
  5
29
330
8
100
AcDbSymbolTableRecord
100
AcDbViewportTableRecord
  2
*Active
 70
     0
 10
0.0
 20
0.0
 11
1.0
 21
1.0
 12
-168.9574895888668
 22
501.6925812711365
 13
0.0
 23
0.0
 14
0.5
 24
0.5
 15
0.5
 25
0.5
 16
0.0
 26
0.0
 36
1.0
 17
0.0
 27
0.0
 37
0.0
 40
107.8211333508309
 41
1.60267857142857
 42
50.0
 43
0.0
 44
0.0
 50
0.0
 51
0.0
 71
     0
 72
   100
 73
     1
 74
     3
 75
     0
 76
     0
 77
     0
 78
     0
281
     0
 65
     1
110
0.0
120
0.0
130
0.0
111
1.0
121
0.0
131
0.0
112
0.0
122
1.0
132
0.0
 79
     0
146
0.0
  0
ENDTAB
  0
TABLE
  2
LTYPE
  5
5
330
0
100
AcDbSymbolTable
 70
     8
  0
LTYPE
  5
14
330
5
100
AcDbSymbolTableRecord
100
AcDbLinetypeTableRecord
  2
ByBlock
 70
     0
  3

 72
    65
 73
     0
 40
0.0
  0
LTYPE
  5
15
330
5
100
AcDbSymbolTableRecord
100
AcDbLinetypeTableRecord
  2
ByLayer
 70
     0
  3

 72
    65
 73
     0
 40
0.0
  0
LTYPE
  5
16
330
5
100
AcDbSymbolTableRecord
100
AcDbLinetypeTableRecord
  2
Continuous
 70
     0
  3
Solid line
 72
    65
 73
     0
 40
0.0
  0
LTYPE
  5
2A
330
5
100
AcDbSymbolTableRecord
100
AcDbLinetypeTableRecord
  2
DASHED
 70
     0
  3
Dashed
 72
    65
 73
     2
 40
15.0
 49
7.0
 74
     0
 49
-8.0
 74
     0
  0
LTYPE
  5
2B
330
5
100
AcDbSymbolTableRecord
100
AcDbLinetypeTableRecord
  2
DOTTED
 70
     0
  3
Dotted
 72
    65
 73
     2
 40
1.0
 49
0.0
 74
     0
 49
-1.0
 74
     0
  0
LTYPE
  5
2C
330
5
100
AcDbSymbolTableRecord
100
AcDbLinetypeTableRecord
  2
DOT_CENTER
 70
     0
  3
Dot_Center
 72
    65
 73
     4
 40
14.0
 49
12.0
 74
     0
 49
-1.0
 74
     0
 49
0.0
 74
     0
 49
-1.0
 74
     0
  0
LTYPE
  5
2D
330
5
100
AcDbSymbolTableRecord
100
AcDbLinetypeTableRecord
  2
LONG_DASHED
 70
     0
  3
Long_Dashed
 72
    65
 73
     2
 40
15.0
 49
10.0
 74
     0
 49
-5.0
 74
     0
  0
LTYPE
  5
2E
330
5
100
AcDbSymbolTableRecord
100
AcDbLinetypeTableRecord
  2
DASH_CENTER
 70
     0
  3
Dash_Center
 72
    65
 73
     4
 40
14.0
 49
11.0
 74
     0
 49
-1.0
 74
     0
 49
1.0
 74
     0
 49
-1.0
 74
     0
  0
LTYPE
  5
2F
330
5
100
AcDbSymbolTableRecord
100
AcDbLinetypeTableRecord
  2
PHANTOM
 70
     0
  3
Phantom
 72
    65
 73
     6
 40
13.0
 49
10.0
 74
     0
 49
-1.0
 74
     0
 49
0.0
 74
     0
 49
-1.0
 74
     0
 49
0.0
 74
     0
 49
-1.0
 74
     0
  0
LTYPE
  5
30
330
5
100
AcDbSymbolTableRecord
100
AcDbLinetypeTableRecord
  2
CENTER_DASH_DASH
 70
     0
  3
Center_Dash_Dash
 72
    65
 73
     6
 40
14.0
 49
9.0
 74
     0
 49
-1.0
 74
     0
 49
1.0
 74
     0
 49
-1.0
 74
     0
 49
1.0
 74
     0
 49
-1.0
 74
     0
  0
ENDTAB
  0
TABLE
  2
LAYER
  5
2
330
0
100
AcDbSymbolTable
 70
     2
  0
LAYER
  5
10
330
2
100
AcDbSymbolTableRecord
100
AcDbLayerTableRecord
  2
0
 70
     0
 62
     7
  6
Continuous
370
    -3
390
F
  0
LAYER
  5
31
330
2
100
AcDbSymbolTableRecord
100
AcDbLayerTableRecord
  2
1
 70
     0
 62
     7
  6
Continuous
370
    -3
390
F
  0
ENDTAB
  0
TABLE
  2
STYLE
  5
3
330
0
100
AcDbSymbolTable
 70
     2
  0
STYLE
  5
11
330
3
100
AcDbSymbolTableRecord
100
AcDbTextStyleTableRecord
  2
Standard
 70
     0
 40
0.0
 41
1.0
 50
0.0
 71
     0
 42
0.2
  3
txt
  4

  0
STYLE
  5
1BB
330
3
100
AcDbSymbolTableRecord
100
AcDbTextStyleTableRecord
  2
CONVERTER_11
 70
     0
 40
0.0
 41
0.9
 50
0.0
 71
     0
 42
0.2
  3
txt.shx
  4

  0
ENDTAB
  0
TABLE
  2
VIEW
  5
6
330
0
100
AcDbSymbolTable
 70
     0
  0
ENDTAB
  0
TABLE
  2
UCS
  5
7
330
0
100
AcDbSymbolTable
 70
     0
  0
ENDTAB
  0
TABLE
  2
APPID
  5
9
330
0
100
AcDbSymbolTable
 70
     1
  0
APPID
  5
12
330
9
100
AcDbSymbolTableRecord
100
AcDbRegAppTableRecord
  2
ACAD
 70
     0
  0
ENDTAB
  0
TABLE
  2
DIMSTYLE
  5
A
330
0
100
AcDbSymbolTable
 70
     3
100
AcDbDimStyleTable
  0
DIMSTYLE
105
27
330
A
100
AcDbSymbolTableRecord
100
AcDbDimStyleTableRecord
  2
Standard
 70
     0
340
11
  0
DIMSTYLE
105
1BF
102
{ACAD_REACTORS
330
1C0
102
}
330
A
100
AcDbSymbolTableRecord
100
AcDbDimStyleTableRecord
  2
ME10_DIM_10
 70
     0
 41
3.5
 42
0.0
 44
2.0
 73
     0
 74
     0
 77
     1
 78
     8
140
3.5
147
2.0
172
     1
173
     1
176
     2
177
     2
178
     2
271
     2
340
1BB
  0
DIMSTYLE
105
1CA
102
{ACAD_REACTORS
330
1CB
102
}
330
A
100
AcDbSymbolTableRecord
100
AcDbDimStyleTableRecord
  2
ME10_DIM_11
 70
     0
 41
3.5
 42
0.0
 44
2.0
 73
     0
 74
     0
 77
     1
 78
     8
140
3.5
147
2.0
172
     1
173
     1
176
     2
177
     2
178
     2
271
     2
340
1BB
  0
ENDTAB
  0
TABLE
  2
BLOCK_RECORD
  5
1
330
0
100
AcDbSymbolTable
 70
     3
  0
BLOCK_RECORD
  5
1F
330
1
100
AcDbSymbolTableRecord
100
AcDbBlockTableRecord
  2
*Model_Space
340
22
  0
BLOCK_RECORD
  5
1B
330
1
100
AcDbSymbolTableRecord
100
AcDbBlockTableRecord
  2
*Paper_Space
340
1E
  0
BLOCK_RECORD
  5
23
330
1
100
AcDbSymbolTableRecord
100
AcDbBlockTableRecord
  2
*Paper_Space0
340
26
  0
BLOCK_RECORD
  5
1B5
330
1
100
AcDbSymbolTableRecord
100
AcDbBlockTableRecord
  2
*D1
340
0
  0
BLOCK_RECORD
  5
1C1
330
1
100
AcDbSymbolTableRecord
100
AcDbBlockTableRecord
  2
*D2
340
0
  0
ENDTAB
  0
ENDSEC
  0
SECTION
  2
BLOCKS
  0
BLOCK
  5
20
330
1F
100
AcDbEntity
  8
0
100
AcDbBlockBegin
  2
*Model_Space
 70
     0
 71
     0
 10
0.0
 20
0.0
 30
0.0
  3
*Model_Space
  1

  0
ENDBLK
  5
21
330
1F
100
AcDbEntity
  8
0
100
AcDbBlockEnd
  0
BLOCK
  5
1C
330
1B
100
AcDbEntity
 67
     1
  8
0
100
AcDbBlockBegin
  2
*Paper_Space
 70
     0
 71
     0
 10
0.0
 20
0.0
 30
0.0
  3
*Paper_Space
  1

  0
ENDBLK
  5
1D
330
1B
100
AcDbEntity
 67
     1
  8
0
100
AcDbBlockEnd
  0
BLOCK
  5
24
330
23
100
AcDbEntity
  8
0
100
AcDbBlockBegin
  2
*Paper_Space0
 70
     0
 71
     0
 10
0.0
 20
0.0
 30
0.0
  3
*Paper_Space0
  1

  0
ENDBLK
  5
25
330
23
100
AcDbEntity
  8
0
100
AcDbBlockEnd
  0
BLOCK
  5
1BD
330
1B5
100
AcDbEntity
  8
0
100
AcDbBlockBegin
  2
*D1
 70
     1
 71
     0
 10
0.0
 20
0.0
 30
0.0
  3
*D1
  1

  0
LINE
  5
1B6
330
1B5
100
AcDbEntity
  8
1
  6
Continuous
 62
     2
100
AcDbLine
 10
-187.9574895888668
 20
454.682975202577
 30
0.0
 11
-169.9574895888668
 21
454.682975202577
 31
0.0
  0
LINE
  5
1B7
330
1B5
100
AcDbEntity
  8
1
  6
Continuous
 62
     2
100
AcDbLine
 10
-187.9574895888668
 20
466.4763115524038
 30
0.0
 11
-187.9574895888668
 21
452.682975202577
 31
0.0
  0
LINE
  5
1B8
330
1B5
100
AcDbEntity
  8
1
  6
Continuous
 62
     2
100
AcDbLine
 10
-169.9574895888668
 20
481.9763115524038
 30
0.0
 11
-169.9574895888668
 21
452.682975202577
 31
0.0
  0
SOLID
  5
1B9
330
1B5
100
AcDbEntity
  8
1
 62
     2
100
AcDbTrace
 10
-173.4574895888668
 20
454.2221914610211
 30
0.0
 11
-173.4574895888668
 21
455.1437589441329
 31
0.0
 12
-169.9574895888668
 22
454.682975202577
 32
0.0
 13
-169.9574895888668
 23
454.682975202577
 33
0.0
  0
SOLID
  5
1BA
330
1B5
100
AcDbEntity
  8
1
 62
     2
100
AcDbTrace
 10
-184.4574895888668
 20
455.1437589441329
 30
0.0
 11
-184.4574895888668
 21
454.2221914610211
 31
0.0
 12
-187.9574895888668
 22
454.682975202577
 32
0.0
 13
-187.9574895888668
 23
454.682975202577
 33
0.0
  0
MTEXT
  5
1BC
330
1B5
100
AcDbEntity
  8
1
 62
     2
100
AcDbMText
 10
-180.655341013345
 20
456.682975202577
 30
0.0
 40
3.5
 41
0.0
 71
     7
 72
     1
  1
18
  7
CONVERTER_11
 11
0.9999999999970621
 21
2.424068405545307E-6
 31
0.0
 73
     1
 44
0.60024009603842
  0
ENDBLK
  5
1BE
330
1B5
100
AcDbEntity
  8
0
100
AcDbBlockEnd
  0
BLOCK
  5
1C8
330
1C1
100
AcDbEntity
  8
0
100
AcDbBlockBegin
  2
*D2
 70
     1
 71
     0
 10
0.0
 20
0.0
 30
0.0
  3
*D2
  1

  0
LINE
  5
1C2
330
1C1
100
AcDbEntity
  8
1
  6
Continuous
 62
     2
100
AcDbLine
 10
-180.9574895888668
 20
545.202187339696
 30
0.0
 11
-169.9574895888668
 21
545.202187339696
 31
0.0
  0
LINE
  5
1C3
330
1C1
100
AcDbEntity
  8
1
  6
Continuous
 62
     2
100
AcDbLine
 10
-180.9574895888668
 20
509.4763115524039
 30
0.0
 11
-180.9574895888668
 21
547.202187339696
 31
0.0
  0
LINE
  5
1C4
330
1C1
100
AcDbEntity
  8
1
  6
Continuous
 62
     2
100
AcDbLine
 10
-169.9574895888668
 20
501.9763115524039
 30
0.0
 11
-169.9574895888668
 21
547.202187339696
 31
0.0
  0
SOLID
  5
1C5
330
1C1
100
AcDbEntity
  8
1
 62
     2
100
AcDbTrace
 10
-173.4574895888668
 20
544.7414035981401
 30
0.0
 11
-173.4574895888668
 21
545.662971081252
 31
0.0
 12
-169.9574895888668
 22
545.202187339696
 32
0.0
 13
-169.9574895888668
 23
545.202187339696
 33
0.0
  0
SOLID
  5
1C6
330
1C1
100
AcDbEntity
  8
1
 62
     2
100
AcDbTrace
 10
-177.4574895888668
 20
545.662971081252
 30
0.0
 11
-177.4574895888668
 21
544.7414035981401
 31
0.0
 12
-180.9574895888668
 22
545.202187339696
 32
0.0
 13
-180.9574895888668
 23
545.202187339696
 33
0.0
  0
MTEXT
  5
1C7
330
1C1
100
AcDbEntity
  8
1
 62
     2
100
AcDbMText
 10
-175.800697924705
 20
547.202187339696
 30
0.0
 40
3.5
 41
0.0
 71
     7
 72
     1
  1
11
  7
CONVERTER_11
 11
0.9999999999970621
 21
2.424068405545307E-6
 31
0.0
 73
     1
 44
0.60024009603842
  0
ENDBLK
  5
1C9
330
1C1
100
AcDbEntity
  8
0
100
AcDbBlockEnd
  0
ENDSEC
  0
SECTION
  2
ENTITIES
  0
LINE
  5
32
330
1F
100
AcDbEntity
  8
1
  6
DOT_CENTER
 62
     2
100
AcDbLine
 10
-226.9574895888669
 20
544.5267303863749
 30
0.0
 11
-226.9574895888669
 21
539.4763115524038
 31
0.0
  0
LINE
  5
33
330
1F
100
AcDbEntity
  8
1
  6
DOT_CENTER
 62
     2
100
AcDbLine
 10
-226.9574895888669
 20
479.478101120516
 30
0.0
 11
-226.9574895888669
 21
483.4763115524037
 31
0.0
  0
LINE
  5
34
330
1F
100
AcDbEntity
  8
1
  6
Continuous
 62
     7
100
AcDbLine
 10
-206.9574895888668
 20
483.476311552404
 30
0.0
 11
-226.9574895888669
 21
483.4763115524037
 31
0.0
  0
LINE
  5
35
330
1F
100
AcDbEntity
  8
1
  6
DOT_CENTER
 62
     2
100
AcDbLine
 10
-226.9574895888669
 20
483.4763115524037
 30
0.0
 11
-226.9574895888669
 21
494.4763115524038
 31
0.0
  0
LINE
  5
36
330
1F
100
AcDbEntity
  8
1
  6
DOT_CENTER
 62
     2
100
AcDbLine
 10
-226.9574895888669
 20
494.4763115524038
 30
0.0
 11
-226.9574895888669
 21
514.4763115524038
 31
0.0
  0
LINE
  5
37
330
1F
100
AcDbEntity
  8
1
  6
DOT_CENTER
 62
     2
100
AcDbLine
 10
-226.9574895888669
 20
514.4763115524038
 30
0.0
 11
-226.9574895888669
 21
539.4763115524038
 31
0.0
  0
LINE
  5
38
330
1F
100
AcDbEntity
  8
1
  6
Continuous
 62
     7
100
AcDbLine
 10
-146.9574895888668
 20
524.4763115524037
 30
0.0
 11
-146.9574895888668
 21
536.4763115524038
 31
0.0
  0
LINE
  5
39
330
1F
100
AcDbEntity
  8
1
  6
Continuous
 62
     7
100
AcDbLine
 10
-226.9574895888669
 20
539.4763115524038
 30
0.0
 11
-149.9574895888667
 21
539.4763115524038
 31
0.0
  0
LINE
  5
3A
330
1F
100
AcDbEntity
  8
1
  6
DOT_CENTER
 62
     2
100
AcDbLine
 10
-110.9574895888668
 20
526.3274592331469
 30
0.0
 11
-110.9574895888668
 21
524.4763115524037
 31
0.0
  0
LINE
  5
3B
330
1F
100
AcDbEntity
  8
1
  6
DOT_CENTER
 62
     2
100
AcDbLine
 10
-110.9574895888668
 20
461.1041830900579
 30
0.0
 11
-110.9574895888668
 21
463.476311552404
 31
0.0
  0
LINE
  5
3C
330
1F
100
AcDbEntity
  8
1
  6
DOT_CENTER
 62
     2
100
AcDbLine
 10
-110.9574895888668
 20
463.476311552404
 30
0.0
 11
-110.9574895888668
 21
524.4763115524037
 31
0.0
  0
LINE
  5
3D
330
1F
100
AcDbEntity
  8
1
  6
Continuous
 62
     7
100
AcDbLine
 10
-146.9574895888668
 20
524.4763115524037
 30
0.0
 11
-110.9574895888668
 21
524.4763115524037
 31
0.0
  0
LINE
  5
3E
330
1F
100
AcDbEntity
  8
1
  6
DOT_CENTER
 62
     2
100
AcDbLine
 10
-201.9574895888668
 20
479.476311552404
 30
0.0
 11
-201.9574895888668
 21
477.476311552404
 31
0.0
  0
LINE
  5
3F
330
1F
100
AcDbEntity
  8
1
  6
DOT_CENTER
 62
     2
100
AcDbLine
 10
-201.9574895888668
 20
482.4763115524039
 30
0.0
 11
-201.9574895888668
 21
479.476311552404
 31
0.0
  0
LINE
  5
40
330
1F
100
AcDbEntity
  8
1
  6
Continuous
 62
     7
100
AcDbLine
 10
-206.3574895888667
 20
514.9763115524038
 30
0.0
 11
-201.9574895888668
 21
514.9763115524038
 31
0.0
  0
LINE
  5
41
330
1F
100
AcDbEntity
  8
1
  6
DOT_CENTER
 62
     2
100
AcDbLine
 10
-201.9574895888668
 20
519.4763115524039
 30
0.0
 11
-201.9574895888668
 21
514.9763115524038
 31
0.0
  0
LINE
  5
42
330
1F
100
AcDbEntity
  8
1
  6
Continuous
 62
     7
100
AcDbLine
 10
-206.3574895888667
 20
482.4763115524039
 30
0.0
 11
-201.9574895888668
 21
482.4763115524039
 31
0.0
  0
LINE
  5
43
330
1F
100
AcDbEntity
  8
1
  6
DOT_CENTER
 62
     2
100
AcDbLine
 10
-201.9574895888668
 20
514.9763115524038
 30
0.0
 11
-201.9574895888668
 21
482.4763115524039
 31
0.0
  0
LINE
  5
44
330
1F
100
AcDbEntity
  8
1
  6
Continuous
 62
     7
100
AcDbLine
 10
-205.0935285581879
 20
519.4763115524039
 30
0.0
 11
-201.9574895888668
 21
519.4763115524039
 31
0.0
  0
LINE
  5
45
330
1F
100
AcDbEntity
  8
1
  6
DOT_CENTER
 62
     2
100
AcDbLine
 10
-201.9574895888668
 20
522.4611953414658
 30
0.0
 11
-201.9574895888668
 21
519.4763115524039
 31
0.0
  0
LINE
  5
46
330
1F
100
AcDbEntity
  8
1
  6
Continuous
 62
     7
100
AcDbLine
 10
-157.9574895888669
 20
524.4763115524037
 30
0.0
 11
-157.9574895888669
 21
511.2263115524039
 31
0.0
  0
LINE
  5
47
330
1F
100
AcDbEntity
  8
1
  6
DOT_CENTER
 62
     2
100
AcDbLine
 10
-147.9574895888669
 20
481.4763115524039
 30
0.0
 11
-141.9574895888669
 21
481.4763115524039
 31
0.0
  0
LINE
  5
48
330
1F
100
AcDbEntity
  8
1
  6
DASHED
 62
     2
100
AcDbLine
 10
-141.9574895888669
 20
478.9763115524038
 30
0.0
 11
-141.9574895888669
 21
481.4763115524039
 31
0.0
  0
LINE
  5
49
330
1F
100
AcDbEntity
  8
1
  6
DOT_CENTER
 62
     2
100
AcDbLine
 10
-160.9574895888668
 20
481.4763115524039
 30
0.0
 11
-157.9574895888669
 21
481.4763115524039
 31
0.0
  0
LINE
  5
4A
330
1F
100
AcDbEntity
  8
1
  6
Continuous
 62
     7
100
AcDbLine
 10
-157.9574895888669
 20
483.9763115524039
 30
0.0
 11
-157.9574895888669
 21
481.4763115524039
 31
0.0
  0
LINE
  5
4B
330
1F
100
AcDbEntity
  8
1
  6
DASHED
 62
     2
100
AcDbLine
 10
-160.9574895888668
 20
479.476311552404
 30
0.0
 11
-157.9574895888669
 21
479.476311552404
 31
0.0
  0
LINE
  5
4C
330
1F
100
AcDbEntity
  8
1
  6
Continuous
 62
     7
100
AcDbLine
 10
-157.9574895888669
 20
481.4763115524039
 30
0.0
 11
-157.9574895888669
 21
479.476311552404
 31
0.0
  0
LINE
  5
4D
330
1F
100
AcDbEntity
  8
1
  6
DASHED
 62
     2
100
AcDbLine
 10
-175.4574895888668
 20
473.4763115524039
 30
0.0
 11
-175.4574895888668
 21
472.9763115524039
 31
0.0
  0
LINE
  5
4E
330
1F
100
AcDbEntity
  8
1
  6
DASHED
 62
     2
100
AcDbLine
 10
-177.9574895888667
 20
472.9763115524039
 30
0.0
 11
-175.4574895888668
 21
472.9763115524039
 31
0.0
  0
LINE
  5
4F
330
1F
100
AcDbEntity
  8
1
  6
DASHED
 62
     2
100
AcDbLine
 10
-180.4574895888669
 20
473.4763115524039
 30
0.0
 11
-180.4574895888669
 21
472.9763115524039
 31
0.0
  0
LINE
  5
50
330
1F
100
AcDbEntity
  8
1
  6
DASHED
 62
     2
100
AcDbLine
 10
-180.9574895888668
 20
472.9763115524039
 30
0.0
 11
-180.4574895888669
 21
472.9763115524039
 31
0.0
  0
LINE
  5
51
330
1F
100
AcDbEntity
  8
1
  6
DASHED
 62
     2
100
AcDbLine
 10
-174.9574895888668
 20
473.4763115524039
 30
0.0
 11
-174.9574895888668
 21
472.9763115524039
 31
0.0
  0
LINE
  5
52
330
1F
100
AcDbEntity
  8
1
  6
DASHED
 62
     2
100
AcDbLine
 10
-175.4574895888668
 20
472.9763115524039
 30
0.0
 11
-174.9574895888668
 21
472.9763115524039
 31
0.0
  0
LINE
  5
53
330
1F
100
AcDbEntity
  8
1
  6
DASHED
 62
     2
100
AcDbLine
 10
-180.9574895888668
 20
473.4763115524039
 30
0.0
 11
-180.9574895888668
 21
472.9763115524039
 31
0.0
  0
LINE
  5
54
330
1F
100
AcDbEntity
  8
1
  6
DASHED
 62
     2
100
AcDbLine
 10
-182.9574895888669
 20
472.9763115524039
 30
0.0
 11
-180.9574895888668
 21
472.9763115524039
 31
0.0
  0
LINE
  5
55
330
1F
100
AcDbEntity
  8
1
  6
DASHED
 62
     2
100
AcDbLine
 10
-182.9574895888669
 20
473.4763115524039
 30
0.0
 11
-182.9574895888669
 21
472.9763115524039
 31
0.0
  0
LINE
  5
56
330
1F
100
AcDbEntity
  8
1
  6
DASHED
 62
     2
100
AcDbLine
 10
-185.9574895888668
 20
472.9763115524039
 30
0.0
 11
-182.9574895888669
 21
472.9763115524039
 31
0.0
  0
LINE
  5
57
330
1F
100
AcDbEntity
  8
1
  6
DASHED
 62
     2
100
AcDbLine
 10
-172.9574895888668
 20
471.9763115524039
 30
0.0
 11
-172.9574895888668
 21
472.9763115524039
 31
0.0
  0
LINE
  5
58
330
1F
100
AcDbEntity
  8
1
  6
DASHED
 62
     2
100
AcDbLine
 10
-174.9574895888668
 20
472.9763115524039
 30
0.0
 11
-172.9574895888668
 21
472.9763115524039
 31
0.0
  0
LINE
  5
59
330
1F
100
AcDbEntity
  8
1
  6
DASHED
 62
     2
100
AcDbLine
 10
-169.9574895888669
 20
473.4763115524039
 30
0.0
 11
-169.9574895888669
 21
472.9763115524039
 31
0.0
  0
LINE
  5
5A
330
1F
100
AcDbEntity
  8
1
  6
DASHED
 62
     2
100
AcDbLine
 10
-172.9574895888668
 20
472.9763115524039
 30
0.0
 11
-169.9574895888669
 21
472.9763115524039
 31
0.0
  0
LINE
  5
5B
330
1F
100
AcDbEntity
  8
1
  6
DASHED
 62
     2
100
AcDbLine
 10
-185.9574895888668
 20
473.4763115524039
 30
0.0
 11
-185.9574895888668
 21
472.9763115524039
 31
0.0
  0
LINE
  5
5C
330
1F
100
AcDbEntity
  8
1
  6
DASHED
 62
     2
100
AcDbLine
 10
-187.9574895888668
 20
472.9763115524039
 30
0.0
 11
-185.9574895888668
 21
472.9763115524039
 31
0.0
  0
LINE
  5
5D
330
1F
100
AcDbEntity
  8
1
  6
DOT_CENTER
 62
     2
100
AcDbLine
 10
-177.9574895888667
 20
473.4763115524039
 30
0.0
 11
-177.9574895888667
 21
472.9763115524039
 31
0.0
  0
LINE
  5
5E
330
1F
100
AcDbEntity
  8
1
  6
DASHED
 62
     2
100
AcDbLine
 10
-180.4574895888669
 20
472.9763115524039
 30
0.0
 11
-177.9574895888667
 21
472.9763115524039
 31
0.0
  0
LINE
  5
5F
330
1F
100
AcDbEntity
  8
1
  6
DOT_CENTER
 62
     2
100
AcDbLine
 10
-138.9574895888668
 20
478.4763115524038
 30
0.0
 11
-135.9574895888669
 21
478.4763115524038
 31
0.0
  0
LINE
  5
60
330
1F
100
AcDbEntity
  8
1
  6
Continuous
 62
     7
100
AcDbLine
 10
-135.9574895888669
 20
487.6724639751104
 30
0.0
 11
-135.9574895888669
 21
478.4763115524038
 31
0.0
  0
LINE
  5
61
330
1F
100
AcDbEntity
  8
1
  6
DOT_CENTER
 62
     2
100
AcDbLine
 10
-141.9574895888669
 20
478.4763115524038
 30
0.0
 11
-138.9574895888668
 21
478.4763115524038
 31
0.0
  0
LINE
  5
62
330
1F
100
AcDbEntity
  8
1
  6
Continuous
 62
     7
100
AcDbLine
 10
-138.9574895888668
 20
488.4763115524039
 30
0.0
 11
-138.9574895888668
 21
478.4763115524038
 31
0.0
  0
LINE
  5
63
330
1F
100
AcDbEntity
  8
1
  6
Continuous
 62
     7
100
AcDbLine
 10
-157.9574895888669
 20
488.4763115524039
 30
0.0
 11
-157.9574895888669
 21
486.976311552404
 31
0.0
  0
LINE
  5
64
330
1F
100
AcDbEntity
  8
1
  6
DASHED
 62
     2
100
AcDbLine
 10
-169.9574895888669
 20
486.976311552404
 30
0.0
 11
-157.9574895888669
 21
486.976311552404
 31
0.0
  0
LINE
  5
65
330
1F
100
AcDbEntity
  8
1
  6
DASHED
 62
     2
100
AcDbLine
 10
-157.9574895888669
 20
483.9763115524039
 30
0.0
 11
-147.9574895888669
 21
483.9763115524039
 31
0.0
  0
LINE
  5
66
330
1F
100
AcDbEntity
  8
1
  6
DASHED
 62
     2
100
AcDbLine
 10
-147.9574895888669
 20
484.4763115524039
 30
0.0
 11
-147.9574895888669
 21
483.9763115524039
 31
0.0
  0
LINE
  5
67
330
1F
100
AcDbEntity
  8
1
  6
DASHED
 62
     2
100
AcDbLine
 10
-157.9574895888669
 20
484.4763115524039
 30
0.0
 11
-147.9574895888669
 21
484.4763115524039
 31
0.0
  0
LINE
  5
68
330
1F
100
AcDbEntity
  8
1
  6
DASHED
 62
     2
100
AcDbLine
 10
-147.9574895888669
 20
486.976311552404
 30
0.0
 11
-147.9574895888669
 21
484.4763115524039
 31
0.0
  0
LINE
  5
69
330
1F
100
AcDbEntity
  8
1
  6
DOT_CENTER
 62
     2
100
AcDbLine
 10
-157.9574895888669
 20
481.4763115524039
 30
0.0
 11
-147.9574895888669
 21
481.4763115524039
 31
0.0
  0
LINE
  5
6A
330
1F
100
AcDbEntity
  8
1
  6
DASHED
 62
     2
100
AcDbLine
 10
-147.9574895888669
 20
483.9763115524039
 30
0.0
 11
-147.9574895888669
 21
481.4763115524039
 31
0.0
  0
LINE
  5
6B
330
1F
100
AcDbEntity
  8
1
  6
DOT_CENTER
 62
     2
100
AcDbLine
 10
-162.6638788133208
 20
481.4763115524039
 30
0.0
 11
-161.9574895888669
 21
481.4763115524039
 31
0.0
  0
LINE
  5
6C
330
1F
100
AcDbEntity
  8
1
  6
Continuous
 62
     7
100
AcDbLine
 10
-161.9574895888669
 20
478.4763115524038
 30
0.0
 11
-161.9574895888669
 21
481.4763115524039
 31
0.0
  0
LINE
  5
6D
330
1F
100
AcDbEntity
  8
1
  6
Continuous
 62
     7
100
AcDbLine
 10
-169.9574895888669
 20
499.476311552404
 30
0.0
 11
-169.9574895888669
 21
494.4763115524038
 31
0.0
  0
LINE
  5
6E
330
1F
100
AcDbEntity
  8
1
  6
DOT_CENTER
 62
     2
100
AcDbLine
 10
-171.616182898661
 20
494.4763115524038
 30
0.0
 11
-169.9574895888669
 21
494.4763115524038
 31
0.0
  0
LINE
  5
6F
330
1F
100
AcDbEntity
  8
1
  6
DASHED
 62
     2
100
AcDbLine
 10
-167.9574895888668
 20
497.4763115524039
 30
0.0
 11
-167.9574895888668
 21
494.4763115524038
 31
0.0
  0
LINE
  5
70
330
1F
100
AcDbEntity
  8
1
  6
DOT_CENTER
 62
     2
100
AcDbLine
 10
-169.9574895888669
 20
494.4763115524038
 30
0.0
 11
-167.9574895888668
 21
494.4763115524038
 31
0.0
  0
LINE
  5
71
330
1F
100
AcDbEntity
  8
1
  6
Continuous
 62
     7
100
AcDbLine
 10
-157.9574895888669
 20
497.4763115524039
 30
0.0
 11
-157.9574895888669
 21
494.4763115524038
 31
0.0
  0
LINE
  5
72
330
1F
100
AcDbEntity
  8
1
  6
DOT_CENTER
 62
     2
100
AcDbLine
 10
-167.9574895888668
 20
494.4763115524038
 30
0.0
 11
-157.9574895888669
 21
494.4763115524038
 31
0.0
  0
LINE
  5
73
330
1F
100
AcDbEntity
  8
1
  6
DOT_CENTER
 62
     2
100
AcDbLine
 10
-161.9574895888669
 20
481.4763115524039
 30
0.0
 11
-160.9574895888668
 21
481.4763115524039
 31
0.0
  0
LINE
  5
74
330
1F
100
AcDbEntity
  8
1
  6
Continuous
 62
     7
100
AcDbLine
 10
-160.9574895888668
 20
479.476311552404
 30
0.0
 11
-160.9574895888668
 21
481.4763115524039
 31
0.0
  0
LINE
  5
75
330
1F
100
AcDbEntity
  8
1
  6
Continuous
 62
     7
100
AcDbLine
 10
-163.9574895888667
 20
509.4763115524039
 30
0.0
 11
-165.5505203768548
 21
509.4763115524039
 31
0.0
  0
LINE
  5
76
330
1F
100
AcDbEntity
  8
1
  6
Continuous
 62
     7
100
AcDbLine
 10
-206.9574895888668
 20
514.9763115524038
 30
0.0
 11
-206.3574895888667
 21
514.9763115524038
 31
0.0
  0
LINE
  5
77
330
1F
100
AcDbEntity
  8
1
  6
Continuous
 62
     2
100
AcDbLine
 10
-206.3574895888667
 20
482.4763115524039
 30
0.0
 11
-206.3574895888667
 21
514.9763115524038
 31
0.0
  0
LINE
  5
78
330
1F
100
AcDbEntity
  8
1
  6
Continuous
 62
     7
100
AcDbLine
 10
-201.9574895888668
 20
514.9763115524038
 30
0.0
 11
-197.5574895888667
 21
514.9763115524038
 31
0.0
  0
LINE
  5
79
330
1F
100
AcDbEntity
  8
1
  6
Continuous
 62
     2
100
AcDbLine
 10
-197.5574895888667
 20
482.4763115524039
 30
0.0
 11
-197.5574895888667
 21
514.9763115524038
 31
0.0
  0
LINE
  5
7A
330
1F
100
AcDbEntity
  8
1
  6
Continuous
 62
     7
100
AcDbLine
 10
-160.6574895888668
 20
509.4763115524039
 30
0.0
 11
-163.9574895888667
 21
509.4763115524039
 31
0.0
  0
LINE
  5
7B
330
1F
100
AcDbEntity
  8
1
  6
DASHED
 62
     2
100
AcDbLine
 10
-147.9574895888669
 20
479.476311552404
 30
0.0
 11
-147.9574895888669
 21
478.9763115524038
 31
0.0
  0
LINE
  5
7C
330
1F
100
AcDbEntity
  8
1
  6
DASHED
 62
     2
100
AcDbLine
 10
-157.9574895888669
 20
478.9763115524038
 30
0.0
 11
-147.9574895888669
 21
478.9763115524038
 31
0.0
  0
LINE
  5
7D
330
1F
100
AcDbEntity
  8
1
  6
DASHED
 62
     2
100
AcDbLine
 10
-147.9574895888669
 20
478.4763115524038
 30
0.0
 11
-147.9574895888669
 21
474.9763115524038
 31
0.0
  0
LINE
  5
7E
330
1F
100
AcDbEntity
  8
1
  6
DASHED
 62
     2
100
AcDbLine
 10
-147.9574895888669
 20
478.9763115524038
 30
0.0
 11
-147.9574895888669
 21
478.4763115524038
 31
0.0
  0
LINE
  5
7F
330
1F
100
AcDbEntity
  8
1
  6
DASHED
 62
     2
100
AcDbLine
 10
-151.9574895888668
 20
478.4763115524038
 30
0.0
 11
-147.9574895888669
 21
478.4763115524038
 31
0.0
  0
LINE
  5
80
330
1F
100
AcDbEntity
  8
1
  6
DOT_CENTER
 62
     2
100
AcDbLine
 10
-201.9574895888668
 20
461.476311552404
 30
0.0
 11
-201.9574895888668
 21
459.4763115524038
 31
0.0
  0
LINE
  5
81
330
1F
100
AcDbEntity
  8
1
  6
DOT_CENTER
 62
     2
100
AcDbLine
 10
-214.8890449098628
 20
469.4763115524039
 30
0.0
 11
-211.9574895888669
 21
469.4763115524039
 31
0.0
  0
LINE
  5
82
330
1F
100
AcDbEntity
  8
1
  6
DOT_CENTER
 62
     2
100
AcDbLine
 10
-193.9574895888668
 20
469.4763115524039
 30
0.0
 11
-191.9574895888667
 21
469.4763115524039
 31
0.0
  0
LINE
  5
83
330
1F
100
AcDbEntity
  8
1
  6
DOT_CENTER
 62
     2
100
AcDbLine
 10
-211.9574895888669
 20
469.4763115524039
 30
0.0
 11
-209.9574895888669
 21
469.4763115524039
 31
0.0
  0
LINE
  5
84
330
1F
100
AcDbEntity
  8
1
  6
DOT_CENTER
 62
     2
100
AcDbLine
 10
-201.9574895888668
 20
475.9763115524038
 30
0.0
 11
-201.9574895888668
 21
469.4763115524039
 31
0.0
  0
LINE
  5
85
330
1F
100
AcDbEntity
  8
1
  6
DOT_CENTER
 62
     2
100
AcDbLine
 10
-201.9574895888668
 20
469.4763115524039
 30
0.0
 11
-201.9574895888668
 21
461.476311552404
 31
0.0
  0
LINE
  5
86
330
1F
100
AcDbEntity
  8
1
  6
DOT_CENTER
 62
     2
100
AcDbLine
 10
-209.9574895888669
 20
469.4763115524039
 30
0.0
 11
-201.9574895888668
 21
469.4763115524039
 31
0.0
  0
LINE
  5
87
330
1F
100
AcDbEntity
  8
1
  6
DOT_CENTER
 62
     2
100
AcDbLine
 10
-193.9574895888668
 20
469.4763115524039
 30
0.0
 11
-201.9574895888668
 21
469.4763115524039
 31
0.0
  0
LINE
  5
88
330
1F
100
AcDbEntity
  8
1
  6
DASHED
 62
     2
100
AcDbLine
 10
-175.4574895888668
 20
474.4763115524039
 30
0.0
 11
-175.4574895888668
 21
473.4763115524039
 31
0.0
  0
LINE
  5
89
330
1F
100
AcDbEntity
  8
1
  6
DASHED
 62
     2
100
AcDbLine
 10
-177.9574895888667
 20
473.4763115524039
 30
0.0
 11
-175.4574895888668
 21
473.4763115524039
 31
0.0
  0
LINE
  5
8A
330
1F
100
AcDbEntity
  8
1
  6
DASHED
 62
     2
100
AcDbLine
 10
-180.4574895888669
 20
474.4763115524039
 30
0.0
 11
-180.4574895888669
 21
473.4763115524039
 31
0.0
  0
LINE
  5
8B
330
1F
100
AcDbEntity
  8
1
  6
DASHED
 62
     2
100
AcDbLine
 10
-180.9574895888668
 20
473.4763115524039
 30
0.0
 11
-180.4574895888669
 21
473.4763115524039
 31
0.0
  0
LINE
  5
8C
330
1F
100
AcDbEntity
  8
1
  6
DASHED
 62
     2
100
AcDbLine
 10
-174.9574895888668
 20
474.4763115524039
 30
0.0
 11
-174.9574895888668
 21
473.4763115524039
 31
0.0
  0
LINE
  5
8D
330
1F
100
AcDbEntity
  8
1
  6
DASHED
 62
     2
100
AcDbLine
 10
-175.4574895888668
 20
473.4763115524039
 30
0.0
 11
-174.9574895888668
 21
473.4763115524039
 31
0.0
  0
LINE
  5
8E
330
1F
100
AcDbEntity
  8
1
  6
DASHED
 62
     2
100
AcDbLine
 10
-180.9574895888668
 20
474.4763115524039
 30
0.0
 11
-180.9574895888668
 21
473.4763115524039
 31
0.0
  0
LINE
  5
8F
330
1F
100
AcDbEntity
  8
1
  6
DASHED
 62
     2
100
AcDbLine
 10
-182.9574895888669
 20
473.4763115524039
 30
0.0
 11
-180.9574895888668
 21
473.4763115524039
 31
0.0
  0
LINE
  5
90
330
1F
100
AcDbEntity
  8
1
  6
DASHED
 62
     2
100
AcDbLine
 10
-182.9574895888669
 20
474.4763115524039
 30
0.0
 11
-182.9574895888669
 21
473.4763115524039
 31
0.0
  0
LINE
  5
91
330
1F
100
AcDbEntity
  8
1
  6
DASHED
 62
     2
100
AcDbLine
 10
-185.9574895888668
 20
473.4763115524039
 30
0.0
 11
-182.9574895888669
 21
473.4763115524039
 31
0.0
  0
LINE
  5
92
330
1F
100
AcDbEntity
  8
1
  6
DASHED
 62
     2
100
AcDbLine
 10
-172.9574895888668
 20
472.9763115524039
 30
0.0
 11
-172.9574895888668
 21
473.4763115524039
 31
0.0
  0
LINE
  5
93
330
1F
100
AcDbEntity
  8
1
  6
DASHED
 62
     2
100
AcDbLine
 10
-174.9574895888668
 20
473.4763115524039
 30
0.0
 11
-172.9574895888668
 21
473.4763115524039
 31
0.0
  0
LINE
  5
94
330
1F
100
AcDbEntity
  8
1
  6
DASHED
 62
     2
100
AcDbLine
 10
-169.9574895888669
 20
474.9763115524038
 30
0.0
 11
-169.9574895888669
 21
473.4763115524039
 31
0.0
  0
LINE
  5
95
330
1F
100
AcDbEntity
  8
1
  6
DASHED
 62
     2
100
AcDbLine
 10
-172.9574895888668
 20
473.4763115524039
 30
0.0
 11
-169.9574895888669
 21
473.4763115524039
 31
0.0
  0
LINE
  5
96
330
1F
100
AcDbEntity
  8
1
  6
DASHED
 62
     2
100
AcDbLine
 10
-185.9574895888668
 20
474.9763115524038
 30
0.0
 11
-185.9574895888668
 21
473.4763115524039
 31
0.0
  0
LINE
  5
97
330
1F
100
AcDbEntity
  8
1
  6
DASHED
 62
     2
100
AcDbLine
 10
-187.9574895888668
 20
473.4763115524039
 30
0.0
 11
-185.9574895888668
 21
473.4763115524039
 31
0.0
  0
LINE
  5
98
330
1F
100
AcDbEntity
  8
1
  6
DOT_CENTER
 62
     2
100
AcDbLine
 10
-177.9574895888667
 20
474.4763115524039
 30
0.0
 11
-177.9574895888667
 21
473.4763115524039
 31
0.0
  0
LINE
  5
99
330
1F
100
AcDbEntity
  8
1
  6
DASHED
 62
     2
100
AcDbLine
 10
-180.4574895888669
 20
473.4763115524039
 30
0.0
 11
-177.9574895888667
 21
473.4763115524039
 31
0.0
  0
LINE
  5
9A
330
1F
100
AcDbEntity
  8
1
  6
DASHED
 62
     2
100
AcDbLine
 10
-177.9574895888667
 20
471.9763115524039
 30
0.0
 11
-175.4574895888668
 21
471.9763115524039
 31
0.0
  0
LINE
  5
9B
330
1F
100
AcDbEntity
  8
1
  6
DASHED
 62
     2
100
AcDbLine
 10
-175.4574895888668
 20
472.9763115524039
 30
0.0
 11
-175.4574895888668
 21
471.9763115524039
 31
0.0
  0
LINE
  5
9C
330
1F
100
AcDbEntity
  8
1
  6
DASHED
 62
     2
100
AcDbLine
 10
-174.9574895888668
 20
474.4763115524039
 30
0.0
 11
-175.4574895888668
 21
474.4763115524039
 31
0.0
  0
LINE
  5
9D
330
1F
100
AcDbEntity
  8
1
  6
DASHED
 62
     2
100
AcDbLine
 10
-175.4574895888668
 20
474.9763115524038
 30
0.0
 11
-175.4574895888668
 21
474.4763115524039
 31
0.0
  0
LINE
  5
9E
330
1F
100
AcDbEntity
  8
1
  6
DASHED
 62
     2
100
AcDbLine
 10
-177.9574895888667
 20
469.9763115524038
 30
0.0
 11
-175.4574895888668
 21
469.9763115524038
 31
0.0
  0
LINE
  5
9F
330
1F
100
AcDbEntity
  8
1
  6
DASHED
 62
     2
100
AcDbLine
 10
-175.4574895888668
 20
471.9763115524039
 30
0.0
 11
-175.4574895888668
 21
469.9763115524038
 31
0.0
  0
LINE
  5
A0
330
1F
100
AcDbEntity
  8
1
  6
DASHED
 62
     2
100
AcDbLine
 10
-177.9574895888667
 20
474.9763115524038
 30
0.0
 11
-175.4574895888668
 21
474.9763115524038
 31
0.0
  0
LINE
  5
A1
330
1F
100
AcDbEntity
  8
1
  6
DASHED
 62
     2
100
AcDbLine
 10
-175.4574895888668
 20
475.4763115524039
 30
0.0
 11
-175.4574895888668
 21
474.9763115524038
 31
0.0
  0
LINE
  5
A2
330
1F
100
AcDbEntity
  8
1
  6
DASHED
 62
     2
100
AcDbLine
 10
-180.9574895888668
 20
471.9763115524039
 30
0.0
 11
-180.4574895888669
 21
471.9763115524039
 31
0.0
  0
LINE
  5
A3
330
1F
100
AcDbEntity
  8
1
  6
DASHED
 62
     2
100
AcDbLine
 10
-180.4574895888669
 20
472.9763115524039
 30
0.0
 11
-180.4574895888669
 21
471.9763115524039
 31
0.0
  0
LINE
  5
A4
330
1F
100
AcDbEntity
  8
1
  6
DASHED
 62
     2
100
AcDbLine
 10
-177.9574895888667
 20
474.4763115524039
 30
0.0
 11
-180.4574895888669
 21
474.4763115524039
 31
0.0
  0
LINE
  5
A5
330
1F
100
AcDbEntity
  8
1
  6
DASHED
 62
     2
100
AcDbLine
 10
-180.4574895888669
 20
474.9763115524038
 30
0.0
 11
-180.4574895888669
 21
474.4763115524039
 31
0.0
  0
LINE
  5
A6
330
1F
100
AcDbEntity
  8
1
  6
DASHED
 62
     2
100
AcDbLine
 10
-180.9574895888668
 20
469.9763115524038
 30
0.0
 11
-180.4574895888669
 21
469.9763115524038
 31
0.0
  0
LINE
  5
A7
330
1F
100
AcDbEntity
  8
1
  6
DASHED
 62
     2
100
AcDbLine
 10
-180.4574895888669
 20
471.9763115524039
 30
0.0
 11
-180.4574895888669
 21
469.9763115524038
 31
0.0
  0
LINE
  5
A8
330
1F
100
AcDbEntity
  8
1
  6
DASHED
 62
     2
100
AcDbLine
 10
-180.9574895888668
 20
474.9763115524038
 30
0.0
 11
-180.4574895888669
 21
474.9763115524038
 31
0.0
  0
LINE
  5
A9
330
1F
100
AcDbEntity
  8
1
  6
DASHED
 62
     2
100
AcDbLine
 10
-180.4574895888669
 20
475.4763115524039
 30
0.0
 11
-180.4574895888669
 21
474.9763115524038
 31
0.0
  0
LINE
  5
AA
330
1F
100
AcDbEntity
  8
1
  6
DASHED
 62
     2
100
AcDbLine
 10
-175.4574895888668
 20
471.9763115524039
 30
0.0
 11
-174.9574895888668
 21
471.9763115524039
 31
0.0
  0
LINE
  5
AB
330
1F
100
AcDbEntity
  8
1
  6
DASHED
 62
     2
100
AcDbLine
 10
-174.9574895888668
 20
472.9763115524039
 30
0.0
 11
-174.9574895888668
 21
471.9763115524039
 31
0.0
  0
LINE
  5
AC
330
1F
100
AcDbEntity
  8
1
  6
DASHED
 62
     2
100
AcDbLine
 10
-172.9574895888668
 20
474.4763115524039
 30
0.0
 11
-174.9574895888668
 21
474.4763115524039
 31
0.0
  0
LINE
  5
AD
330
1F
100
AcDbEntity
  8
1
  6
DASHED
 62
     2
100
AcDbLine
 10
-174.9574895888668
 20
474.9763115524038
 30
0.0
 11
-174.9574895888668
 21
474.4763115524039
 31
0.0
  0
LINE
  5
AE
330
1F
100
AcDbEntity
  8
1
  6
DASHED
 62
     2
100
AcDbLine
 10
-175.4574895888668
 20
469.9763115524038
 30
0.0
 11
-174.9574895888668
 21
469.9763115524038
 31
0.0
  0
LINE
  5
AF
330
1F
100
AcDbEntity
  8
1
  6
DASHED
 62
     2
100
AcDbLine
 10
-174.9574895888668
 20
471.9763115524039
 30
0.0
 11
-174.9574895888668
 21
469.9763115524038
 31
0.0
  0
LINE
  5
B0
330
1F
100
AcDbEntity
  8
1
  6
DASHED
 62
     2
100
AcDbLine
 10
-175.4574895888668
 20
474.9763115524038
 30
0.0
 11
-174.9574895888668
 21
474.9763115524038
 31
0.0
  0
LINE
  5
B1
330
1F
100
AcDbEntity
  8
1
  6
DASHED
 62
     2
100
AcDbLine
 10
-174.9574895888668
 20
475.4763115524039
 30
0.0
 11
-174.9574895888668
 21
474.9763115524038
 31
0.0
  0
LINE
  5
B2
330
1F
100
AcDbEntity
  8
1
  6
DASHED
 62
     2
100
AcDbLine
 10
-182.9574895888669
 20
471.9763115524039
 30
0.0
 11
-180.9574895888668
 21
471.9763115524039
 31
0.0
  0
LINE
  5
B3
330
1F
100
AcDbEntity
  8
1
  6
DASHED
 62
     2
100
AcDbLine
 10
-180.9574895888668
 20
472.9763115524039
 30
0.0
 11
-180.9574895888668
 21
471.9763115524039
 31
0.0
  0
LINE
  5
B4
330
1F
100
AcDbEntity
  8
1
  6
DASHED
 62
     2
100
AcDbLine
 10
-180.4574895888669
 20
474.4763115524039
 30
0.0
 11
-180.9574895888668
 21
474.4763115524039
 31
0.0
  0
LINE
  5
B5
330
1F
100
AcDbEntity
  8
1
  6
DASHED
 62
     2
100
AcDbLine
 10
-180.9574895888668
 20
474.9763115524038
 30
0.0
 11
-180.9574895888668
 21
474.4763115524039
 31
0.0
  0
LINE
  5
B6
330
1F
100
AcDbEntity
  8
1
  6
DASHED
 62
     2
100
AcDbLine
 10
-182.9574895888669
 20
469.9763115524038
 30
0.0
 11
-180.9574895888668
 21
469.9763115524038
 31
0.0
  0
LINE
  5
B7
330
1F
100
AcDbEntity
  8
1
  6
DASHED
 62
     2
100
AcDbLine
 10
-180.9574895888668
 20
471.9763115524039
 30
0.0
 11
-180.9574895888668
 21
469.9763115524038
 31
0.0
  0
LINE
  5
B8
330
1F
100
AcDbEntity
  8
1
  6
DASHED
 62
     2
100
AcDbLine
 10
-185.9574895888668
 20
474.9763115524038
 30
0.0
 11
-180.9574895888668
 21
474.9763115524038
 31
0.0
  0
LINE
  5
B9
330
1F
100
AcDbEntity
  8
1
  6
DASHED
 62
     2
100
AcDbLine
 10
-180.9574895888668
 20
475.4763115524039
 30
0.0
 11
-180.9574895888668
 21
474.9763115524038
 31
0.0
  0
LINE
  5
BA
330
1F
100
AcDbEntity
  8
1
  6
DOT_CENTER
 62
     2
100
AcDbLine
 10
-177.9574895888667
 20
479.476311552404
 30
0.0
 11
-177.9574895888667
 21
478.4763115524038
 31
0.0
  0
LINE
  5
BB
330
1F
100
AcDbEntity
  8
1
  6
Continuous
 62
     7
100
AcDbLine
 10
-183.9574895888667
 20
478.4763115524038
 30
0.0
 11
-177.9574895888667
 21
478.4763115524038
 31
0.0
  0
LINE
  5
BC
330
1F
100
AcDbEntity
  8
1
  6
DASHED
 62
     2
100
AcDbLine
 10
-182.9574895888669
 20
472.9763115524039
 30
0.0
 11
-182.9574895888669
 21
471.9763115524039
 31
0.0
  0
LINE
  5
BD
330
1F
100
AcDbEntity
  8
1
  6
DASHED
 62
     2
100
AcDbLine
 10
-185.9574895888668
 20
471.9763115524039
 30
0.0
 11
-182.9574895888669
 21
471.9763115524039
 31
0.0
  0
LINE
  5
BE
330
1F
100
AcDbEntity
  8
1
  6
DASHED
 62
     2
100
AcDbLine
 10
-172.9574895888668
 20
469.9763115524038
 30
0.0
 11
-172.9574895888668
 21
471.9763115524039
 31
0.0
  0
LINE
  5
BF
330
1F
100
AcDbEntity
  8
1
  6
DASHED
 62
     2
100
AcDbLine
 10
-174.9574895888668
 20
471.9763115524039
 30
0.0
 11
-172.9574895888668
 21
471.9763115524039
 31
0.0
  0
LINE
  5
C0
330
1F
100
AcDbEntity
  8
1
  6
DOT_CENTER
 62
     2
100
AcDbLine
 10
-177.9574895888667
 20
472.9763115524039
 30
0.0
 11
-177.9574895888667
 21
471.9763115524039
 31
0.0
  0
LINE
  5
C1
330
1F
100
AcDbEntity
  8
1
  6
DASHED
 62
     2
100
AcDbLine
 10
-180.4574895888669
 20
471.9763115524039
 30
0.0
 11
-177.9574895888667
 21
471.9763115524039
 31
0.0
  0
LINE
  5
C2
330
1F
100
AcDbEntity
  8
1
  6
DOT_CENTER
 62
     2
100
AcDbLine
 10
-177.9574895888667
 20
474.9763115524038
 30
0.0
 11
-177.9574895888667
 21
474.4763115524039
 31
0.0
  0
LINE
  5
C3
330
1F
100
AcDbEntity
  8
1
  6
DASHED
 62
     2
100
AcDbLine
 10
-175.4574895888668
 20
474.4763115524039
 30
0.0
 11
-177.9574895888667
 21
474.4763115524039
 31
0.0
  0
LINE
  5
C4
330
1F
100
AcDbEntity
  8
1
  6
DOT_CENTER
 62
     2
100
AcDbLine
 10
-177.9574895888667
 20
471.9763115524039
 30
0.0
 11
-177.9574895888667
 21
469.9763115524038
 31
0.0
  0
LINE
  5
C5
330
1F
100
AcDbEntity
  8
1
  6
DASHED
 62
     2
100
AcDbLine
 10
-180.4574895888669
 20
469.9763115524038
 30
0.0
 11
-177.9574895888667
 21
469.9763115524038
 31
0.0
  0
LINE
  5
C6
330
1F
100
AcDbEntity
  8
1
  6
DOT_CENTER
 62
     2
100
AcDbLine
 10
-177.9574895888667
 20
475.4763115524039
 30
0.0
 11
-177.9574895888667
 21
474.9763115524038
 31
0.0
  0
LINE
  5
C7
330
1F
100
AcDbEntity
  8
1
  6
DASHED
 62
     2
100
AcDbLine
 10
-180.4574895888669
 20
474.9763115524038
 30
0.0
 11
-177.9574895888667
 21
474.9763115524038
 31
0.0
  0
LINE
  5
C8
330
1F
100
AcDbEntity
  8
1
  6
DOT_CENTER
 62
     2
100
AcDbLine
 10
-177.9574895888667
 20
479.949833651874
 30
0.0
 11
-177.9574895888667
 21
479.476311552404
 31
0.0
  0
LINE
  5
C9
330
1F
100
AcDbEntity
  8
1
  6
Continuous
 62
     7
100
AcDbLine
 10
-169.9574895888669
 20
479.476311552404
 30
0.0
 11
-177.9574895888667
 21
479.476311552404
 31
0.0
  0
LINE
  5
CA
330
1F
100
AcDbEntity
  8
1
  6
DASHED
 62
     2
100
AcDbLine
 10
-180.4574895888669
 20
475.4763115524039
 30
0.0
 11
-177.9574895888667
 21
475.4763115524039
 31
0.0
  0
LINE
  5
CB
330
1F
100
AcDbEntity
  8
1
  6
DOT_CENTER
 62
     2
100
AcDbLine
 10
-177.9574895888667
 20
478.4763115524038
 30
0.0
 11
-177.9574895888667
 21
475.4763115524039
 31
0.0
  0
LINE
  5
CC
330
1F
100
AcDbEntity
  8
1
  6
Continuous
 62
     7
100
AcDbLine
 10
-175.4574895888668
 20
468.4763115524038
 30
0.0
 11
-177.9574895888667
 21
468.4763115524038
 31
0.0
  0
LINE
  5
CD
330
1F
100
AcDbEntity
  8
1
  6
DOT_CENTER
 62
     2
100
AcDbLine
 10
-177.9574895888667
 20
469.9763115524038
 30
0.0
 11
-177.9574895888667
 21
468.4763115524038
 31
0.0
  0
LINE
  5
CE
330
1F
100
AcDbEntity
  8
1
  6
DASHED
 62
     2
100
AcDbLine
 10
-167.9574895888668
 20
474.9763115524038
 30
0.0
 11
-162.9574895888669
 21
474.9763115524038
 31
0.0
  0
LINE
  5
CF
330
1F
100
AcDbEntity
  8
1
  6
DASHED
 62
     2
100
AcDbLine
 10
-169.9574895888669
 20
473.4763115524039
 30
0.0
 11
-169.4574895888668
 21
473.4763115524039
 31
0.0
  0
LINE
  5
D0
330
1F
100
AcDbEntity
  8
1
  6
Continuous
 62
     7
100
AcDbLine
 10
-187.9574895888668
 20
473.4763115524039
 30
0.0
 11
-187.9574895888668
 21
474.9763115524038
 31
0.0
  0
LINE
  5
D1
330
1F
100
AcDbEntity
  8
1
  6
DOT_CENTER
 62
     2
100
AcDbLine
 10
-191.9574895888667
 20
469.4763115524039
 30
0.0
 11
-189.1932790536508
 21
469.4763115524039
 31
0.0
  0
LINE
  5
D2
330
1F
100
AcDbEntity
  8
1
  6
DOT_CENTER
 62
     2
100
AcDbLine
 10
-135.9574895888669
 20
478.4763115524038
 30
0.0
 11
-131.0675435801878
 21
478.4763115524038
 31
0.0
  0
LINE
  5
D3
330
1F
100
AcDbEntity
  8
1
  6
DOT_CENTER
 62
     2
100
AcDbLine
 10
-141.9574895888669
 20
481.4763115524039
 30
0.0
 11
-140.645277814653
 21
481.4763115524039
 31
0.0
  0
LINE
  5
D4
330
1F
100
AcDbEntity
  8
1
  6
DASHED
 62
     2
100
AcDbLine
 10
-141.9574895888669
 20
481.4763115524039
 30
0.0
 11
-141.9574895888669
 21
483.9763115524039
 31
0.0
  0
LINE
  5
D5
330
1F
100
AcDbEntity
  8
1
  6
Continuous
 62
     7
100
AcDbLine
 10
-157.9574895888669
 20
478.9763115524038
 30
0.0
 11
-157.9574895888669
 21
478.4763115524038
 31
0.0
  0
LINE
  5
D6
330
1F
100
AcDbEntity
  8
1
  6
DASHED
 62
     2
100
AcDbLine
 10
-147.9574895888669
 20
478.9763115524038
 30
0.0
 11
-141.9574895888669
 21
478.9763115524038
 31
0.0
  0
LINE
  5
D7
330
1F
100
AcDbEntity
  8
1
  6
DASHED
 62
     2
100
AcDbLine
 10
-141.9574895888669
 20
483.9763115524039
 30
0.0
 11
-141.9574895888669
 21
484.4763115524039
 31
0.0
  0
LINE
  5
D8
330
1F
100
AcDbEntity
  8
1
  6
Continuous
 62
     7
100
AcDbLine
 10
-157.9574895888669
 20
479.476311552404
 30
0.0
 11
-157.9574895888669
 21
478.9763115524038
 31
0.0
  0
LINE
  5
D9
330
1F
100
AcDbEntity
  8
1
  6
DASHED
 62
     2
100
AcDbLine
 10
-147.9574895888669
 20
483.9763115524039
 30
0.0
 11
-141.9574895888669
 21
483.9763115524039
 31
0.0
  0
LINE
  5
DA
330
1F
100
AcDbEntity
  8
1
  6
DASHED
 62
     2
100
AcDbLine
 10
-141.9574895888669
 20
478.4763115524038
 30
0.0
 11
-141.9574895888669
 21
478.9763115524038
 31
0.0
  0
LINE
  5
DB
330
1F
100
AcDbEntity
  8
1
  6
DASHED
 62
     2
100
AcDbLine
 10
-141.9574895888669
 20
484.4763115524039
 30
0.0
 11
-141.9574895888669
 21
488.4763115524039
 31
0.0
  0
LINE
  5
DC
330
1F
100
AcDbEntity
  8
1
  6
Continuous
 62
     7
100
AcDbLine
 10
-157.9574895888669
 20
484.4763115524039
 30
0.0
 11
-157.9574895888669
 21
483.9763115524039
 31
0.0
  0
LINE
  5
DD
330
1F
100
AcDbEntity
  8
1
  6
DASHED
 62
     2
100
AcDbLine
 10
-147.9574895888669
 20
484.4763115524039
 30
0.0
 11
-141.9574895888669
 21
484.4763115524039
 31
0.0
  0
LINE
  5
DE
330
1F
100
AcDbEntity
  8
1
  6
Continuous
 62
     7
100
AcDbLine
 10
-157.9574895888669
 20
486.4763115524038
 30
0.0
 11
-157.9574895888669
 21
484.4763115524039
 31
0.0
  0
LINE
  5
DF
330
1F
100
AcDbEntity
  8
1
  6
DASHED
 62
     2
100
AcDbLine
 10
-161.9574895888669
 20
486.4763115524038
 30
0.0
 11
-157.9574895888669
 21
486.4763115524038
 31
0.0
  0
LINE
  5
E0
330
1F
100
AcDbEntity
  8
1
  6
DASHED
 62
     2
100
AcDbLine
 10
-161.9574895888669
 20
476.476311552404
 30
0.0
 11
-161.9574895888669
 21
478.4763115524038
 31
0.0
  0
LINE
  5
E1
330
1F
100
AcDbEntity
  8
1
  6
DASHED
 62
     2
100
AcDbLine
 10
-157.9574895888669
 20
476.476311552404
 30
0.0
 11
-157.9574895888669
 21
474.9763115524038
 31
0.0
  0
LINE
  5
E2
330
1F
100
AcDbEntity
  8
1
  6
DASHED
 62
     2
100
AcDbLine
 10
-157.9574895888669
 20
476.476311552404
 30
0.0
 11
-161.9574895888669
 21
476.476311552404
 31
0.0
  0
LINE
  5
E3
330
1F
100
AcDbEntity
  8
1
  6
DASHED
 62
     2
100
AcDbLine
 10
-157.9574895888669
 20
478.4763115524038
 30
0.0
 11
-151.9574895888668
 21
478.4763115524038
 31
0.0
  0
LINE
  5
E4
330
1F
100
AcDbEntity
  8
1
  6
DASHED
 62
     2
100
AcDbLine
 10
-157.9574895888669
 20
478.4763115524038
 30
0.0
 11
-157.9574895888669
 21
476.476311552404
 31
0.0
  0
LINE
  5
E5
330
1F
100
AcDbEntity
  8
1
  6
DASHED
 62
     2
100
AcDbLine
 10
-162.9574895888669
 20
474.9763115524038
 30
0.0
 11
-157.9574895888669
 21
474.9763115524038
 31
0.0
  0
LINE
  5
E6
330
1F
100
AcDbEntity
  8
1
  6
Continuous
 62
     7
100
AcDbLine
 10
-162.9574895888669
 20
478.4763115524038
 30
0.0
 11
-161.9574895888669
 21
478.4763115524038
 31
0.0
  0
LINE
  5
E7
330
1F
100
AcDbEntity
  8
1
  6
DASHED
 62
     2
100
AcDbLine
 10
-162.9574895888669
 20
478.4763115524038
 30
0.0
 11
-162.9574895888669
 21
474.9763115524038
 31
0.0
  0
LINE
  5
E8
330
1F
100
AcDbEntity
  8
1
  6
DASHED
 62
     2
100
AcDbLine
 10
-147.9574895888669
 20
474.9763115524038
 30
0.0
 11
-151.9574895888668
 21
474.9763115524038
 31
0.0
  0
LINE
  5
E9
330
1F
100
AcDbEntity
  8
1
  6
Continuous
 62
     7
100
AcDbLine
 10
-172.9574895888668
 20
478.4763115524038
 30
0.0
 11
-171.9574895888668
 21
478.4763115524038
 31
0.0
  0
LINE
  5
EA
330
1F
100
AcDbEntity
  8
1
  6
Continuous
 62
     7
100
AcDbLine
 10
-177.9574895888667
 20
468.4763115524038
 30
0.0
 11
-180.4574895888669
 21
468.4763115524038
 31
0.0
  0
LINE
  5
EB
330
1F
100
AcDbEntity
  8
1
  6
DASHED
 62
     2
100
AcDbLine
 10
-175.4574895888668
 20
475.4763115524039
 30
0.0
 11
-174.9574895888668
 21
475.4763115524039
 31
0.0
  0
LINE
  5
EC
330
1F
100
AcDbEntity
  8
1
  6
DASHED
 62
     2
100
AcDbLine
 10
-175.4574895888668
 20
469.9763115524038
 30
0.0
 11
-175.4574895888668
 21
468.4763115524038
 31
0.0
  0
LINE
  5
ED
330
1F
100
AcDbEntity
  8
1
  6
Continuous
 62
     7
100
AcDbLine
 10
-180.4574895888669
 20
468.4763115524038
 30
0.0
 11
-180.9574895888668
 21
468.4763115524038
 31
0.0
  0
LINE
  5
EE
330
1F
100
AcDbEntity
  8
1
  6
DASHED
 62
     2
100
AcDbLine
 10
-177.9574895888667
 20
475.4763115524039
 30
0.0
 11
-175.4574895888668
 21
475.4763115524039
 31
0.0
  0
LINE
  5
EF
330
1F
100
AcDbEntity
  8
1
  6
DASHED
 62
     2
100
AcDbLine
 10
-180.4574895888669
 20
469.9763115524038
 30
0.0
 11
-180.4574895888669
 21
468.4763115524038
 31
0.0
  0
LINE
  5
F0
330
1F
100
AcDbEntity
  8
1
  6
Continuous
 62
     7
100
AcDbLine
 10
-174.9574895888668
 20
468.4763115524038
 30
0.0
 11
-175.4574895888668
 21
468.4763115524038
 31
0.0
  0
LINE
  5
F1
330
1F
100
AcDbEntity
  8
1
  6
DASHED
 62
     2
100
AcDbLine
 10
-174.9574895888668
 20
469.9763115524038
 30
0.0
 11
-174.9574895888668
 21
468.4763115524038
 31
0.0
  0
LINE
  5
F2
330
1F
100
AcDbEntity
  8
1
  6
Continuous
 62
     7
100
AcDbLine
 10
-180.9574895888668
 20
468.4763115524038
 30
0.0
 11
-185.9574895888668
 21
468.4763115524038
 31
0.0
  0
LINE
  5
F3
330
1F
100
AcDbEntity
  8
1
  6
DASHED
 62
     2
100
AcDbLine
 10
-180.9574895888668
 20
469.9763115524038
 30
0.0
 11
-180.9574895888668
 21
468.4763115524038
 31
0.0
  0
LINE
  5
F4
330
1F
100
AcDbEntity
  8
1
  6
DASHED
 62
     2
100
AcDbLine
 10
-171.9574895888668
 20
478.4763115524038
 30
0.0
 11
-172.9574895888668
 21
478.4763115524038
 31
0.0
  0
LINE
  5
F5
330
1F
100
AcDbEntity
  8
1
  6
DASHED
 62
     2
100
AcDbLine
 10
-174.9574895888668
 20
475.4763115524039
 30
0.0
 11
-171.9574895888668
 21
478.4763115524038
 31
0.0
  0
LINE
  5
F6
330
1F
100
AcDbEntity
  8
1
  6
DASHED
 62
     2
100
AcDbLine
 10
-180.9574895888668
 20
475.4763115524039
 30
0.0
 11
-180.4574895888669
 21
475.4763115524039
 31
0.0
  0
LINE
  5
F7
330
1F
100
AcDbEntity
  8
1
  6
Continuous
 62
     7
100
AcDbLine
 10
-177.9574895888667
 20
478.4763115524038
 30
0.0
 11
-172.9574895888668
 21
478.4763115524038
 31
0.0
  0
LINE
  5
F8
330
1F
100
AcDbEntity
  8
1
  6
DASHED
 62
     2
100
AcDbLine
 10
-183.9574895888667
 20
478.4763115524038
 30
0.0
 11
-180.9574895888668
 21
475.4763115524039
 31
0.0
  0
LINE
  5
F9
330
1F
100
AcDbEntity
  8
1
  6
DASHED
 62
     2
100
AcDbLine
 10
-169.9574895888669
 20
471.9763115524039
 30
0.0
 11
-169.9574895888669
 21
468.4763115524038
 31
0.0
  0
LINE
  5
FA
330
1F
100
AcDbEntity
  8
1
  6
DASHED
 62
     2
100
AcDbLine
 10
-185.9574895888668
 20
471.9763115524039
 30
0.0
 11
-185.9574895888668
 21
468.4763115524038
 31
0.0
  0
LINE
  5
FB
330
1F
100
AcDbEntity
  8
1
  6
DASHED
 62
     2
100
AcDbLine
 10
-172.9574895888668
 20
471.9763115524039
 30
0.0
 11
-169.9574895888669
 21
471.9763115524039
 31
0.0
  0
LINE
  5
FC
330
1F
100
AcDbEntity
  8
1
  6
DASHED
 62
     2
100
AcDbLine
 10
-182.9574895888669
 20
471.9763115524039
 30
0.0
 11
-182.9574895888669
 21
469.9763115524038
 31
0.0
  0
LINE
  5
FD
330
1F
100
AcDbEntity
  8
1
  6
DASHED
 62
     2
100
AcDbLine
 10
-180.9574895888668
 20
474.4763115524039
 30
0.0
 11
-182.9574895888669
 21
474.4763115524039
 31
0.0
  0
LINE
  5
FE
330
1F
100
AcDbEntity
  8
1
  6
DASHED
 62
     2
100
AcDbLine
 10
-172.9574895888668
 20
473.4763115524039
 30
0.0
 11
-172.9574895888668
 21
474.4763115524039
 31
0.0
  0
LINE
  5
FF
330
1F
100
AcDbEntity
  8
1
  6
DASHED
 62
     2
100
AcDbLine
 10
-174.9574895888668
 20
469.9763115524038
 30
0.0
 11
-172.9574895888668
 21
469.9763115524038
 31
0.0
  0
LINE
  5
100
330
1F
100
AcDbEntity
  8
1
  6
Continuous
 62
     7
100
AcDbLine
 10
-169.9574895888669
 20
468.4763115524038
 30
0.0
 11
-174.9574895888668
 21
468.4763115524038
 31
0.0
  0
LINE
  5
101
330
1F
100
AcDbEntity
  8
1
  6
DASHED
 62
     2
100
AcDbLine
 10
-169.9574895888669
 20
474.9763115524038
 30
0.0
 11
-167.9574895888668
 21
474.9763115524038
 31
0.0
  0
LINE
  5
102
330
1F
100
AcDbEntity
  8
1
  6
DASHED
 62
     2
100
AcDbLine
 10
-169.9574895888669
 20
472.9763115524039
 30
0.0
 11
-169.9574895888669
 21
471.9763115524039
 31
0.0
  0
LINE
  5
103
330
1F
100
AcDbEntity
  8
1
  6
Continuous
 62
     7
100
AcDbLine
 10
-185.9574895888668
 20
468.4763115524038
 30
0.0
 11
-187.9574895888668
 21
468.4763115524038
 31
0.0
  0
LINE
  5
104
330
1F
100
AcDbEntity
  8
1
  6
DASHED
 62
     2
100
AcDbLine
 10
-174.9574895888668
 20
474.9763115524038
 30
0.0
 11
-169.9574895888669
 21
474.9763115524038
 31
0.0
  0
LINE
  5
105
330
1F
100
AcDbEntity
  8
1
  6
DASHED
 62
     2
100
AcDbLine
 10
-185.9574895888668
 20
472.9763115524039
 30
0.0
 11
-185.9574895888668
 21
471.9763115524039
 31
0.0
  0
LINE
  5
106
330
1F
100
AcDbEntity
  8
1
  6
Continuous
 62
     7
100
AcDbLine
 10
-147.9574895888669
 20
488.4763115524039
 30
0.0
 11
-141.9574895888669
 21
488.4763115524039
 31
0.0
  0
LINE
  5
107
330
1F
100
AcDbEntity
  8
1
  6
DASHED
 62
     2
100
AcDbLine
 10
-147.9574895888669
 20
488.4763115524039
 30
0.0
 11
-147.9574895888669
 21
486.976311552404
 31
0.0
  0
LINE
  5
108
330
1F
100
AcDbEntity
  8
1
  6
Continuous
 62
     7
100
AcDbLine
 10
-187.9574895888668
 20
472.9763115524039
 30
0.0
 11
-187.9574895888668
 21
473.4763115524039
 31
0.0
  0
LINE
  5
109
330
1F
100
AcDbEntity
  8
1
  6
DASHED
 62
     2
100
AcDbLine
 10
-169.9574895888669
 20
472.9763115524039
 30
0.0
 11
-147.9574895888669
 21
472.9763115524039
 31
0.0
  0
LINE
  5
10A
330
1F
100
AcDbEntity
  8
1
  6
Continuous
 62
     7
100
AcDbLine
 10
-187.9574895888668
 20
474.9763115524038
 30
0.0
 11
-187.9574895888668
 21
478.4763115524038
 31
0.0
  0
LINE
  5
10B
330
1F
100
AcDbEntity
  8
1
  6
DASHED
 62
     2
100
AcDbLine
 10
-187.9574895888668
 20
474.9763115524038
 30
0.0
 11
-185.9574895888668
 21
474.9763115524038
 31
0.0
  0
LINE
  5
10C
330
1F
100
AcDbEntity
  8
1
  6
Continuous
 62
     7
100
AcDbLine
 10
-141.9574895888669
 20
488.4763115524039
 30
0.0
 11
-138.9574895888668
 21
488.4763115524039
 31
0.0
  0
LINE
  5
10D
330
1F
100
AcDbEntity
  8
1
  6
Continuous
 62
     7
100
AcDbLine
 10
-138.9574895888668
 20
468.4763115524038
 30
0.0
 11
-135.9574895888669
 21
469.2801591296974
 31
0.0
  0
LINE
  5
10E
330
1F
100
AcDbEntity
  8
1
  6
Continuous
 62
     7
100
AcDbLine
 10
-138.9574895888668
 20
488.4763115524039
 30
0.0
 11
-135.9574895888669
 21
487.6724639751104
 31
0.0
  0
LINE
  5
10F
330
1F
100
AcDbEntity
  8
1
  6
Continuous
 62
     7
100
AcDbLine
 10
-135.9574895888669
 20
478.4763115524038
 30
0.0
 11
-135.9574895888669
 21
469.2801591296974
 31
0.0
  0
LINE
  5
110
330
1F
100
AcDbEntity
  8
1
  6
Continuous
 62
     7
100
AcDbLine
 10
-187.9574895888668
 20
468.4763115524038
 30
0.0
 11
-187.9574895888668
 21
466.4763115524038
 31
0.0
  0
LINE
  5
111
330
1F
100
AcDbEntity
  8
1
  6
Continuous
 62
     7
100
AcDbLine
 10
-157.9574895888669
 20
486.976311552404
 30
0.0
 11
-157.9574895888669
 21
486.4763115524038
 31
0.0
  0
LINE
  5
112
330
1F
100
AcDbEntity
  8
1
  6
Continuous
 62
     7
100
AcDbLine
 10
-138.9574895888668
 20
468.4763115524038
 30
0.0
 11
-141.9574895888669
 21
468.4763115524038
 31
0.0
  0
LINE
  5
113
330
1F
100
AcDbEntity
  8
1
  6
Continuous
 62
     7
100
AcDbLine
 10
-138.9574895888668
 20
478.4763115524038
 30
0.0
 11
-138.9574895888668
 21
468.4763115524038
 31
0.0
  0
LINE
  5
114
330
1F
100
AcDbEntity
  8
1
  6
Continuous
 62
     7
100
AcDbLine
 10
-157.9574895888669
 20
488.4763115524039
 30
0.0
 11
-147.9574895888669
 21
488.4763115524039
 31
0.0
  0
LINE
  5
115
330
1F
100
AcDbEntity
  8
1
  6
Continuous
 62
     7
100
AcDbLine
 10
-157.9574895888669
 20
500.4763115524039
 30
0.0
 11
-157.9574895888669
 21
497.4763115524039
 31
0.0
  0
LINE
  5
116
330
1F
100
AcDbEntity
  8
1
  6
Continuous
 62
     7
100
AcDbLine
 10
-187.9574895888668
 20
468.4763115524038
 30
0.0
 11
-187.9574895888668
 21
472.9763115524039
 31
0.0
  0
LINE
  5
117
330
1F
100
AcDbEntity
  8
1
  6
Continuous
 62
     7
100
AcDbLine
 10
-110.9574895888668
 20
463.476311552404
 30
0.0
 11
-184.9574895888667
 21
463.476311552404
 31
0.0
  0
LINE
  5
118
330
1F
100
AcDbEntity
  8
1
  6
DASHED
 62
     2
100
AcDbLine
 10
-160.9574895888668
 20
478.4763115524038
 30
0.0
 11
-157.9574895888669
 21
478.4763115524038
 31
0.0
  0
LINE
  5
119
330
1F
100
AcDbEntity
  8
1
  6
Continuous
 62
     7
100
AcDbLine
 10
-160.9574895888668
 20
478.4763115524038
 30
0.0
 11
-160.9574895888668
 21
479.476311552404
 31
0.0
  0
LINE
  5
11A
330
1F
100
AcDbEntity
  8
1
  6
Continuous
 62
     7
100
AcDbLine
 10
-160.9574895888668
 20
482.4763115524039
 30
0.0
 11
-161.9574895888669
 21
482.4763115524039
 31
0.0
  0
LINE
  5
11B
330
1F
100
AcDbEntity
  8
1
  6
Continuous
 62
     7
100
AcDbLine
 10
-167.4574895888669
 20
482.4763115524039
 30
0.0
 11
-167.4574895888669
 21
484.9763115524039
 31
0.0
  0
LINE
  5
11C
330
1F
100
AcDbEntity
  8
1
  6
Continuous
 62
     7
100
AcDbLine
 10
-167.4574895888669
 20
484.9763115524039
 30
0.0
 11
-169.9574895888669
 21
484.9763115524039
 31
0.0
  0
LINE
  5
11D
330
1F
100
AcDbEntity
  8
1
  6
Continuous
 62
     7
100
AcDbLine
 10
-169.9574895888669
 20
500.4763115524039
 30
0.0
 11
-169.9574895888669
 21
499.476311552404
 31
0.0
  0
LINE
  5
11E
330
1F
100
AcDbEntity
  8
1
  6
Continuous
 62
     7
100
AcDbLine
 10
-169.9574895888669
 20
500.4763115524039
 30
0.0
 11
-157.9574895888669
 21
500.4763115524039
 31
0.0
  0
LINE
  5
11F
330
1F
100
AcDbEntity
  8
1
  6
DASHED
 62
     2
100
AcDbLine
 10
-151.9574895888668
 20
478.4763115524038
 30
0.0
 11
-151.9574895888668
 21
474.9763115524038
 31
0.0
  0
LINE
  5
120
330
1F
100
AcDbEntity
  8
1
  6
DASHED
 62
     2
100
AcDbLine
 10
-147.9574895888669
 20
478.4763115524038
 30
0.0
 11
-141.9574895888669
 21
478.4763115524038
 31
0.0
  0
LINE
  5
121
330
1F
100
AcDbEntity
  8
1
  6
DASHED
 62
     2
100
AcDbLine
 10
-151.9574895888668
 20
474.9763115524038
 30
0.0
 11
-157.9574895888669
 21
474.9763115524038
 31
0.0
  0
LINE
  5
122
330
1F
100
AcDbEntity
  8
1
  6
DASHED
 62
     2
100
AcDbLine
 10
-157.9574895888669
 20
486.976311552404
 30
0.0
 11
-147.9574895888669
 21
486.976311552404
 31
0.0
  0
LINE
  5
123
330
1F
100
AcDbEntity
  8
1
  6
Continuous
 62
     7
100
AcDbLine
 10
-169.9574895888669
 20
486.976311552404
 30
0.0
 11
-169.9574895888669
 21
484.9763115524039
 31
0.0
  0
LINE
  5
124
330
1F
100
AcDbEntity
  8
1
  6
DASHED
 62
     2
100
AcDbLine
 10
-147.9574895888669
 20
481.4763115524039
 30
0.0
 11
-147.9574895888669
 21
479.476311552404
 31
0.0
  0
LINE
  5
125
330
1F
100
AcDbEntity
  8
1
  6
DASHED
 62
     2
100
AcDbLine
 10
-161.9574895888669
 20
482.4763115524039
 30
0.0
 11
-161.9574895888669
 21
486.4763115524038
 31
0.0
  0
LINE
  5
126
330
1F
100
AcDbEntity
  8
1
  6
Continuous
 62
     7
100
AcDbLine
 10
-161.9574895888669
 20
481.4763115524039
 30
0.0
 11
-161.9574895888669
 21
482.4763115524039
 31
0.0
  0
LINE
  5
127
330
1F
100
AcDbEntity
  8
1
  6
DASHED
 62
     2
100
AcDbLine
 10
-141.9574895888669
 20
468.4763115524038
 30
0.0
 11
-141.9574895888669
 21
478.4763115524038
 31
0.0
  0
LINE
  5
128
330
1F
100
AcDbEntity
  8
1
  6
Continuous
 62
     7
100
AcDbLine
 10
-141.9574895888669
 20
468.4763115524038
 30
0.0
 11
-169.9574895888669
 21
468.4763115524038
 31
0.0
  0
LINE
  5
129
330
1F
100
AcDbEntity
  8
1
  6
DASHED
 62
     2
100
AcDbLine
 10
-169.9574895888669
 20
499.476311552404
 30
0.0
 11
-167.9574895888668
 21
497.4763115524039
 31
0.0
  0
LINE
  5
12A
330
1F
100
AcDbEntity
  8
1
  6
Continuous
 62
     7
100
AcDbLine
 10
-169.9574895888669
 20
494.4763115524038
 30
0.0
 11
-169.9574895888669
 21
489.4763115524038
 31
0.0
  0
LINE
  5
12B
330
1F
100
AcDbEntity
  8
1
  6
DASHED
 62
     2
100
AcDbLine
 10
-167.9574895888668
 20
494.4763115524038
 30
0.0
 11
-167.9574895888668
 21
491.4763115524039
 31
0.0
  0
LINE
  5
12C
330
1F
100
AcDbEntity
  8
1
  6
DASHED
 62
     2
100
AcDbLine
 10
-167.9574895888668
 20
491.4763115524039
 30
0.0
 11
-169.9574895888669
 21
489.4763115524038
 31
0.0
  0
LINE
  5
12D
330
1F
100
AcDbEntity
  8
1
  6
Continuous
 62
     7
100
AcDbLine
 10
-169.9574895888669
 20
489.4763115524038
 30
0.0
 11
-169.9574895888669
 21
486.976311552404
 31
0.0
  0
LINE
  5
12E
330
1F
100
AcDbEntity
  8
1
  6
DASHED
 62
     2
100
AcDbLine
 10
-167.9574895888668
 20
497.4763115524039
 30
0.0
 11
-157.9574895888669
 21
497.4763115524039
 31
0.0
  0
LINE
  5
12F
330
1F
100
AcDbEntity
  8
1
  6
Continuous
 62
     7
100
AcDbLine
 10
-157.9574895888669
 20
494.4763115524038
 30
0.0
 11
-157.9574895888669
 21
491.4763115524039
 31
0.0
  0
LINE
  5
130
330
1F
100
AcDbEntity
  8
1
  6
DASHED
 62
     2
100
AcDbLine
 10
-167.9574895888668
 20
491.4763115524039
 30
0.0
 11
-157.9574895888669
 21
491.4763115524039
 31
0.0
  0
LINE
  5
131
330
1F
100
AcDbEntity
  8
1
  6
Continuous
 62
     7
100
AcDbLine
 10
-157.9574895888669
 20
491.4763115524039
 30
0.0
 11
-157.9574895888669
 21
488.4763115524039
 31
0.0
  0
LINE
  5
132
330
1F
100
AcDbEntity
  8
1
  6
DOT_CENTER
 62
     2
100
AcDbLine
 10
-157.9574895888669
 20
494.4763115524038
 30
0.0
 11
-150.0463893797178
 21
494.4763115524038
 31
0.0
  0
LINE
  5
133
330
1F
100
AcDbEntity
  8
1
  6
DASHED
 62
     2
100
AcDbLine
 10
-157.9574895888669
 20
479.476311552404
 30
0.0
 11
-147.9574895888669
 21
479.476311552404
 31
0.0
  0
LINE
  5
134
330
1F
100
AcDbEntity
  8
1
  6
Continuous
 62
     7
100
AcDbLine
 10
-160.9574895888668
 20
481.4763115524039
 30
0.0
 11
-160.9574895888668
 21
482.4763115524039
 31
0.0
  0
LINE
  5
135
330
1F
100
AcDbEntity
  8
1
  6
DASHED
 62
     2
100
AcDbLine
 10
-147.9574895888669
 20
474.9763115524038
 30
0.0
 11
-147.9574895888669
 21
472.9763115524039
 31
0.0
  0
LINE
  5
136
330
1F
100
AcDbEntity
  8
1
  6
Continuous
 62
     7
100
AcDbLine
 10
-196.9574895888667
 20
478.4763115524038
 30
0.0
 11
-187.9574895888668
 21
478.4763115524038
 31
0.0
  0
LINE
  5
137
330
1F
100
AcDbEntity
  8
1
  6
Continuous
 62
     7
100
AcDbLine
 10
-193.6058430446217
 20
474.9763115524038
 30
0.0
 11
-187.9574895888668
 21
474.9763115524038
 31
0.0
  0
LINE
  5
138
330
1F
100
AcDbEntity
  8
1
  6
Continuous
 62
     7
100
AcDbLine
 10
-187.9574895888668
 20
473.4763115524039
 30
0.0
 11
-192.777171213353
 21
473.4763115524039
 31
0.0
  0
LINE
  5
139
330
1F
100
AcDbEntity
  8
1
  6
Continuous
 62
     7
100
AcDbLine
 10
-196.9574895888667
 20
483.4763115524037
 30
0.0
 11
-186.8287127193536
 21
483.4763115524037
 31
0.0
  0
LINE
  5
13A
330
1F
100
AcDbEntity
  8
1
  6
Continuous
 62
     7
100
AcDbLine
 10
-184.9574895888667
 20
498.4763115524039
 30
0.0
 11
-180.9574895888668
 21
498.4763115524039
 31
0.0
  0
LINE
  5
13B
330
1F
100
AcDbEntity
  8
1
  6
DOT_CENTER
 62
     2
100
AcDbLine
 10
-201.9574895888668
 20
459.4763115524038
 30
0.0
 11
-201.9574895888668
 21
457.3878713374967
 31
0.0
  0
LINE
  5
13C
330
1F
100
AcDbEntity
  8
1
  6
Continuous
 62
     7
100
AcDbLine
 10
-205.4574895888668
 20
478.8438085500017
 30
0.0
 11
-205.4574895888668
 21
478.8278384869558
 31
0.0
  0
LINE
  5
13D
330
1F
100
AcDbEntity
  8
1
  6
Continuous
 62
     7
100
AcDbLine
 10
-167.4574895888669
 20
482.4763115524039
 30
0.0
 11
-167.4574895888669
 21
479.9763115524039
 31
0.0
  0
LINE
  5
13E
330
1F
100
AcDbEntity
  8
1
  6
Continuous
 62
     7
100
AcDbLine
 10
-163.8829358852468
 20
478.4763115524038
 30
0.0
 11
-162.9574895888669
 21
478.4763115524038
 31
0.0
  0
LINE
  5
13F
330
1F
100
AcDbEntity
  8
1
  6
Continuous
 62
     7
100
AcDbLine
 10
-169.9574895888669
 20
484.9763115524039
 30
0.0
 11
-169.9574895888669
 21
481.9763115524038
 31
0.0
  0
LINE
  5
140
330
1F
100
AcDbEntity
  8
1
  6
Continuous
 62
     7
100
AcDbLine
 10
-169.9574895888669
 20
481.9763115524038
 30
0.0
 11
-170.9574895888667
 21
481.9763115524038
 31
0.0
  0
LINE
  5
141
330
1F
100
AcDbEntity
  8
1
  6
Continuous
 62
     7
100
AcDbLine
 10
-170.9574895888667
 20
481.9763115524038
 30
0.0
 11
-170.9574895888667
 21
482.4763115524039
 31
0.0
  0
LINE
  5
142
330
1F
100
AcDbEntity
  8
1
  6
Continuous
 62
     7
100
AcDbLine
 10
-171.9574895888668
 20
482.4763115524039
 30
0.0
 11
-171.9574895888668
 21
481.9763115524038
 31
0.0
  0
LINE
  5
143
330
1F
100
AcDbEntity
  8
1
  6
Continuous
 62
     7
100
AcDbLine
 10
-186.2810439334018
 20
478.4763115524038
 30
0.0
 11
-183.9574895888667
 21
478.4763115524038
 31
0.0
  0
LINE
  5
144
330
1F
100
AcDbEntity
  8
1
  6
Continuous
 62
     7
100
AcDbLine
 10
-182.9574895888669
 20
483.4763115524037
 30
0.0
 11
-182.4473624317368
 21
483.4763115524037
 31
0.0
  0
LINE
  5
145
330
1F
100
AcDbEntity
  8
1
  6
Continuous
 62
     7
100
AcDbLine
 10
-182.9574895888669
 20
483.4763115524037
 30
0.0
 11
-183.9574895888667
 21
483.4763115524037
 31
0.0
  0
LINE
  5
146
330
1F
100
AcDbEntity
  8
1
  6
Continuous
 62
     7
100
AcDbLine
 10
-181.0992546509318
 20
481.9763115524038
 30
0.0
 11
-171.9574895888668
 21
481.9763115524038
 31
0.0
  0
LINE
  5
147
330
1F
100
AcDbEntity
  8
1
  6
Continuous
 62
     7
100
AcDbLine
 10
-169.9574895888669
 20
480.976311552404
 30
0.0
 11
-181.4362815961328
 21
480.976311552404
 31
0.0
  0
LINE
  5
148
330
1F
100
AcDbEntity
  8
1
  6
Continuous
 62
     7
100
AcDbLine
 10
-169.9574895888669
 20
480.976311552404
 30
0.0
 11
-169.9574895888669
 21
479.476311552404
 31
0.0
  0
LINE
  5
149
330
1F
100
AcDbEntity
  8
1
  6
Continuous
 62
     7
100
AcDbLine
 10
-177.9574895888667
 20
479.476311552404
 30
0.0
 11
-185.7333751474496
 21
479.476311552404
 31
0.0
  0
LINE
  5
14A
330
1F
100
AcDbEntity
  8
1
  6
Continuous
 62
     7
100
AcDbLine
 10
-161.9574895888669
 20
482.4763115524039
 30
0.0
 11
-167.4574895888669
 21
482.4763115524039
 31
0.0
  0
LINE
  5
14B
330
1F
100
AcDbEntity
  8
1
  6
Continuous
 62
     7
100
AcDbLine
 10
-171.9574895888668
 20
478.4763115524038
 30
0.0
 11
-163.8829358852468
 21
478.4763115524038
 31
0.0
  0
LINE
  5
14C
330
1F
100
AcDbEntity
  8
1
  6
Continuous
 62
     7
100
AcDbLine
 10
-161.9574895888669
 20
478.4763115524038
 30
0.0
 11
-160.9574895888668
 21
478.4763115524038
 31
0.0
  0
LINE
  5
14D
330
1F
100
AcDbEntity
  8
1
  6
Continuous
 62
     7
100
AcDbLine
 10
-187.9574895888668
 20
478.4763115524038
 30
0.0
 11
-186.2810439334018
 21
478.4763115524038
 31
0.0
  0
LINE
  5
14E
330
1F
100
AcDbEntity
  8
1
  6
DOT_CENTER
 62
     2
100
AcDbLine
 10
-177.9574895888667
 20
468.4763115524038
 30
0.0
 11
-177.9574895888667
 21
467.821302217455
 31
0.0
  0
LINE
  5
14F
330
1F
100
AcDbEntity
  8
1
  6
Continuous
 62
     7
100
AcDbLine
 10
-184.9574895888667
 20
490.4763115524038
 30
0.0
 11
-184.9574895888667
 21
498.4763115524039
 31
0.0
  0
LINE
  5
150
330
1F
100
AcDbEntity
  8
1
  6
Continuous
 62
     7
100
AcDbLine
 10
-180.9574895888668
 20
490.4763115524038
 30
0.0
 11
-184.9574895888667
 21
490.4763115524038
 31
0.0
  0
LINE
  5
151
330
1F
100
AcDbEntity
  8
1
  6
Continuous
 62
     7
100
AcDbLine
 10
-180.9574895888668
 20
485.476311552404
 30
0.0
 11
-180.9574895888668
 21
490.4763115524038
 31
0.0
  0
LINE
  5
152
330
1F
100
AcDbEntity
  8
1
  6
Continuous
 62
     7
100
AcDbLine
 10
-165.5505203768548
 20
509.4763115524039
 30
0.0
 11
-180.9574895888668
 21
509.4763115524039
 31
0.0
  0
LINE
  5
153
330
1F
100
AcDbEntity
  8
1
  6
Continuous
 62
     7
100
AcDbLine
 10
-180.9574895888668
 20
498.4763115524039
 30
0.0
 11
-180.9574895888668
 21
509.4763115524039
 31
0.0
  0
LINE
  5
154
330
1F
100
AcDbEntity
  8
1
  6
Continuous
 62
     7
100
AcDbLine
 10
-161.9574895888669
 20
524.4763115524037
 30
0.0
 11
-161.9574895888669
 21
511.4763115524038
 31
0.0
  0
LINE
  5
155
330
1F
100
AcDbEntity
  8
1
  6
Continuous
 62
     7
100
AcDbLine
 10
-157.9574895888669
 20
524.4763115524037
 30
0.0
 11
-161.9574895888669
 21
524.4763115524037
 31
0.0
  0
LINE
  5
156
330
1F
100
AcDbEntity
  8
1
  6
Continuous
 62
     7
100
AcDbLine
 10
-183.9574895888667
 20
483.4763115524037
 30
0.0
 11
-182.9574895888669
 21
483.4763115524037
 31
0.0
  0
LINE
  5
157
330
1F
100
AcDbEntity
  8
1
  6
Continuous
 62
     7
100
AcDbLine
 10
-182.4473624317368
 20
483.4763115524037
 30
0.0
 11
-182.9574895888669
 21
483.4763115524037
 31
0.0
  0
LINE
  5
158
330
1F
100
AcDbEntity
  8
1
  6
Continuous
 62
     7
100
AcDbLine
 10
-186.8287127193536
 20
483.4763115524037
 30
0.0
 11
-183.9574895888667
 21
483.4763115524037
 31
0.0
  0
LINE
  5
159
330
1F
100
AcDbEntity
  8
1
  6
Continuous
 62
     7
100
AcDbLine
 10
-186.8287127193536
 20
483.4763115524037
 30
0.0
 11
-183.9574895888667
 21
483.4763115524037
 31
0.0
  0
LINE
  5
15A
330
1F
100
AcDbEntity
  8
1
  6
Continuous
 62
     7
100
AcDbLine
 10
-169.9574895888669
 20
501.9763115524039
 30
0.0
 11
-169.9574895888669
 21
500.4763115524039
 31
0.0
  0
LINE
  5
15B
330
1F
100
AcDbEntity
  8
1
  6
Continuous
 62
     7
100
AcDbLine
 10
-157.9574895888669
 20
511.2263115524039
 30
0.0
 11
-157.9574895888669
 21
509.4763115524039
 31
0.0
  0
LINE
  5
15C
330
1F
100
AcDbEntity
  8
1
  6
Continuous
 62
     7
100
AcDbLine
 10
-146.9574895888668
 20
524.4763115524037
 30
0.0
 11
-157.9574895888669
 21
524.4763115524037
 31
0.0
  0
LINE
  5
15D
330
1F
100
AcDbEntity
  8
1
  6
Continuous
 62
     7
100
AcDbLine
 10
-149.9574895888667
 20
505.4763115524039
 30
0.0
 11
-149.9574895888667
 21
504.4763115524038
 31
0.0
  0
LINE
  5
15E
330
1F
100
AcDbEntity
  8
1
  6
Continuous
 62
     7
100
AcDbLine
 10
-155.9574895888669
 20
509.4763115524039
 30
0.0
 11
-155.9574895888669
 21
508.726311552404
 31
0.0
  0
LINE
  5
15F
330
1F
100
AcDbEntity
  8
1
  6
Continuous
 62
     7
100
AcDbLine
 10
-155.2373783783396
 20
509.4763115524039
 30
0.0
 11
-155.9574895888669
 21
509.4763115524039
 31
0.0
  0
LINE
  5
160
330
1F
100
AcDbEntity
  8
1
  6
Continuous
 62
     7
100
AcDbLine
 10
-157.9574895888669
 20
509.4763115524039
 30
0.0
 11
-157.9574895888669
 21
508.726311552404
 31
0.0
  0
LINE
  5
161
330
1F
100
AcDbEntity
  8
1
  6
Continuous
 62
     7
100
AcDbLine
 10
-165.5505203768548
 20
503.9763115524039
 30
0.0
 11
-150.4574895888668
 21
503.9763115524039
 31
0.0
  0
LINE
  5
162
330
1F
100
AcDbEntity
  8
1
  6
Continuous
 62
     7
100
AcDbLine
 10
-163.9574895888667
 20
509.4763115524039
 30
0.0
 11
-165.5505203768548
 21
509.4763115524039
 31
0.0
  0
LINE
  5
163
330
1F
100
AcDbEntity
  8
1
  6
Continuous
 62
     7
100
AcDbLine
 10
-159.3574895888668
 20
505.4763115524039
 30
0.0
 11
-165.5505203768548
 21
505.4763115524039
 31
0.0
  0
LINE
  5
164
330
1F
100
AcDbEntity
  8
1
  6
Continuous
 62
     7
100
AcDbLine
 10
-158.9574895888668
 20
510.8263115524038
 30
0.0
 11
-158.9574895888668
 21
505.8763115524038
 31
0.0
  0
LINE
  5
165
330
1F
100
AcDbEntity
  8
1
  6
Continuous
 62
     7
100
AcDbLine
 10
-157.9574895888669
 20
511.2263115524039
 30
0.0
 11
-158.5574895888668
 21
511.2263115524039
 31
0.0
  0
LINE
  5
166
330
1F
100
AcDbEntity
  8
1
  6
Continuous
 62
     7
100
AcDbLine
 10
-157.9574895888669
 20
505.8763115524038
 30
0.0
 11
-157.9574895888669
 21
508.726311552404
 31
0.0
  0
LINE
  5
167
330
1F
100
AcDbEntity
  8
1
  6
Continuous
 62
     7
100
AcDbLine
 10
-155.6478836046924
 20
505.4763115524039
 30
0.0
 11
-157.5574895888668
 21
505.4763115524039
 31
0.0
  0
LINE
  5
168
330
1F
100
AcDbEntity
  8
1
  6
Continuous
 62
     7
100
AcDbLine
 10
-153.5846082792336
 20
505.4763115524039
 30
0.0
 11
-153.7916635153158
 21
505.4763115524039
 31
0.0
  0
LINE
  5
169
330
1F
100
AcDbEntity
  8
1
  6
Continuous
 62
     7
100
AcDbLine
 10
-151.5140559184134
 20
505.4763115524039
 30
0.0
 11
-151.7211111544958
 21
505.4763115524039
 31
0.0
  0
LINE
  5
16A
330
1F
100
AcDbEntity
  8
1
  6
Continuous
 62
     7
100
AcDbLine
 10
-149.9574895888667
 20
505.4763115524039
 30
0.0
 11
-151.0962736566991
 21
509.4763115524039
 31
0.0
  0
LINE
  5
16B
330
1F
100
AcDbEntity
  8
1
  6
Continuous
 62
     7
100
AcDbLine
 10
-151.1276855878978
 20
505.979839170445
 30
0.0
 11
-152.1315498371092
 21
509.4763115524039
 31
0.0
  0
LINE
  5
16C
330
1F
100
AcDbEntity
  8
1
  6
Continuous
 62
     7
100
AcDbLine
 10
-151.0962736566991
 20
509.4763115524039
 30
0.0
 11
-152.1315498371092
 21
509.4763115524039
 31
0.0
  0
LINE
  5
16D
330
1F
100
AcDbEntity
  8
1
  6
Continuous
 62
     7
100
AcDbLine
 10
-152.1074814850111
 20
505.7727839343628
 30
0.0
 11
-153.1668260175193
 21
509.4763115524039
 31
0.0
  0
LINE
  5
16E
330
1F
100
AcDbEntity
  8
1
  6
Continuous
 62
     7
100
AcDbLine
 10
-153.1982379487181
 20
505.979839170445
 30
0.0
 11
-154.2021021979294
 21
509.4763115524039
 31
0.0
  0
LINE
  5
16F
330
1F
100
AcDbEntity
  8
1
  6
Continuous
 62
     7
100
AcDbLine
 10
-153.1668260175193
 20
509.4763115524039
 30
0.0
 11
-154.2021021979294
 21
509.4763115524039
 31
0.0
  0
LINE
  5
170
330
1F
100
AcDbEntity
  8
1
  6
Continuous
 62
     7
100
AcDbLine
 10
-154.1780338458312
 20
505.7727839343628
 30
0.0
 11
-155.2373783783396
 21
509.4763115524039
 31
0.0
  0
LINE
  5
171
330
1F
100
AcDbEntity
  8
1
  6
Continuous
 62
     7
100
AcDbLine
 10
-155.2601407471569
 20
505.9745738362684
 30
0.0
 11
-155.9574895888669
 21
508.726311552404
 31
0.0
  0
LINE
  5
172
330
1F
100
AcDbEntity
  8
1
  6
Continuous
 62
     7
100
AcDbLine
 10
-160.3176239687868
 20
509.4763115524039
 30
0.0
 11
-160.6574895888668
 21
509.4763115524039
 31
0.0
  0
LINE
  5
173
330
1F
100
AcDbEntity
  8
1
  6
Continuous
 62
     7
100
AcDbLine
 10
-159.9176239687868
 20
508.376311552404
 30
0.0
 11
-159.9176239687868
 21
509.076311552404
 31
0.0
  0
LINE
  5
174
330
1F
100
AcDbEntity
  8
1
  6
Continuous
 62
     7
100
AcDbLine
 10
-165.5505203768548
 20
507.9763115524039
 30
0.0
 11
-160.3176239687868
 21
507.9763115524039
 31
0.0
  0
LINE
  5
175
330
1F
100
AcDbEntity
  8
1
  6
Continuous
 62
     7
100
AcDbLine
 10
-157.9574895888669
 20
509.4763115524039
 30
0.0
 11
-155.9574895888669
 21
509.4763115524039
 31
0.0
  0
LINE
  5
176
330
1F
100
AcDbEntity
  8
1
  6
Continuous
 62
     7
100
AcDbLine
 10
-157.9574895888669
 20
511.2263115524039
 30
0.0
 11
-157.9574895888669
 21
509.4763115524039
 31
0.0
  0
LINE
  5
177
330
1F
100
AcDbEntity
  8
1
  6
Continuous
 62
     7
100
AcDbLine
 10
-155.2373783783396
 20
509.4763115524039
 30
0.0
 11
-154.2021021979294
 21
509.4763115524039
 31
0.0
  0
LINE
  5
178
330
1F
100
AcDbEntity
  8
1
  6
Continuous
 62
     7
100
AcDbLine
 10
-153.1668260175193
 20
509.4763115524039
 30
0.0
 11
-152.1315498371092
 21
509.4763115524039
 31
0.0
  0
LINE
  5
179
330
1F
100
AcDbEntity
  8
1
  6
Continuous
 62
     7
100
AcDbLine
 10
-151.0962736566991
 20
509.4763115524039
 30
0.0
 11
-149.9574895888667
 21
509.4763115524039
 31
0.0
  0
LINE
  5
17A
330
1F
100
AcDbEntity
  8
1
  6
Continuous
 62
     7
100
AcDbLine
 10
-149.9574895888667
 20
505.4763115524039
 30
0.0
 11
-149.9574895888667
 21
509.4763115524039
 31
0.0
  0
LINE
  5
17B
330
1F
100
AcDbEntity
  8
1
  6
Continuous
 62
     7
100
AcDbLine
 10
-167.9574895888668
 20
503.9763115524039
 30
0.0
 11
-165.5505203768548
 21
503.9763115524039
 31
0.0
  0
LINE
  5
17C
330
1F
100
AcDbEntity
  8
1
  6
Continuous
 62
     7
100
AcDbLine
 10
-196.9574895888667
 20
482.4763115524039
 30
0.0
 11
-196.9574895888667
 21
478.4763115524038
 31
0.0
  0
LINE
  5
17D
330
1F
100
AcDbEntity
  8
1
  6
Continuous
 62
     7
100
AcDbLine
 10
-197.5985906453261
 20
478.4763115524038
 30
0.0
 11
-196.9574895888667
 21
478.4763115524038
 31
0.0
  0
LINE
  5
17E
330
1F
100
AcDbEntity
  8
1
  6
Continuous
 62
     7
100
AcDbLine
 10
-197.5574895888667
 20
516.4248396898276
 30
0.0
 11
-196.9574895888667
 21
514.9763115524038
 31
0.0
  0
LINE
  5
17F
330
1F
100
AcDbEntity
  8
1
  6
Continuous
 62
     7
100
AcDbLine
 10
-201.9574895888668
 20
519.4763115524039
 30
0.0
 11
-198.8214506195457
 21
519.4763115524039
 31
0.0
  0
LINE
  5
180
330
1F
100
AcDbEntity
  8
1
  6
Continuous
 62
     7
100
AcDbLine
 10
-206.9574895888668
 20
483.476311552404
 30
0.0
 11
-206.9574895888668
 21
514.9763115524038
 31
0.0
  0
LINE
  5
181
330
1F
100
AcDbEntity
  8
1
  6
Continuous
 62
     7
100
AcDbLine
 10
-206.9574895888668
 20
482.4763115524039
 30
0.0
 11
-206.9574895888668
 21
483.476311552404
 31
0.0
  0
LINE
  5
182
330
1F
100
AcDbEntity
  8
1
  6
Continuous
 62
     7
100
AcDbLine
 10
-197.5574895888667
 20
482.4763115524039
 30
0.0
 11
-196.9574895888667
 21
482.4763115524039
 31
0.0
  0
LINE
  5
183
330
1F
100
AcDbEntity
  8
1
  6
Continuous
 62
     7
100
AcDbLine
 10
-196.9574895888667
 20
483.4763115524037
 30
0.0
 11
-196.9574895888667
 21
482.4763115524039
 31
0.0
  0
LINE
  5
184
330
1F
100
AcDbEntity
  8
1
  6
Continuous
 62
     7
100
AcDbLine
 10
-206.9574895888668
 20
478.1365655902483
 30
0.0
 11
-206.9574895888668
 21
482.4763115524039
 31
0.0
  0
LINE
  5
185
330
1F
100
AcDbEntity
  8
1
  6
Continuous
 62
     7
100
AcDbLine
 10
-196.9574895888667
 20
514.9763115524038
 30
0.0
 11
-196.9574895888667
 21
483.4763115524037
 31
0.0
  0
LINE
  5
186
330
1F
100
AcDbEntity
  8
1
  6
Continuous
 62
     7
100
AcDbLine
 10
-201.9574895888668
 20
482.4763115524039
 30
0.0
 11
-197.5574895888667
 21
482.4763115524039
 31
0.0
  0
LINE
  5
187
330
1F
100
AcDbEntity
  8
1
  6
Continuous
 62
     7
100
AcDbLine
 10
-206.3574895888667
 20
516.4248396898276
 30
0.0
 11
-206.9574895888668
 21
514.9763115524038
 31
0.0
  0
LINE
  5
188
330
1F
100
AcDbEntity
  8
1
  6
Continuous
 62
     7
100
AcDbLine
 10
-206.9574895888668
 20
482.4763115524039
 30
0.0
 11
-206.3574895888667
 21
482.4763115524039
 31
0.0
  0
LINE
  5
189
330
1F
100
AcDbEntity
  8
1
  6
DOT_CENTER
 62
     2
100
AcDbLine
 10
-201.9574895888668
 20
477.476311552404
 30
0.0
 11
-201.9574895888668
 21
475.9763115524038
 31
0.0
  0
LINE
  5
18A
330
1F
100
AcDbEntity
  8
1
  6
Continuous
 62
     7
100
AcDbLine
 10
-197.5574895888667
 20
514.9763115524038
 30
0.0
 11
-196.9574895888667
 21
514.9763115524038
 31
0.0
  0
LINE
  5
18B
330
1F
100
AcDbEntity
  8
1
  6
Continuous
 62
     2
100
AcDbLine
 10
-197.5574895888667
 20
516.4248396898276
 30
0.0
 11
-197.5574895888667
 21
514.9763115524038
 31
0.0
  0
LINE
  5
18C
330
1F
100
AcDbEntity
  8
1
  6
Continuous
 62
     7
100
AcDbLine
 10
-198.8214506195457
 20
519.4763115524039
 30
0.0
 11
-197.5574895888667
 21
516.4248396898276
 31
0.0
  0
LINE
  5
18D
330
1F
100
AcDbEntity
  8
1
  6
Continuous
 62
     2
100
AcDbLine
 10
-206.3574895888667
 20
516.4248396898276
 30
0.0
 11
-206.3574895888667
 21
514.9763115524038
 31
0.0
  0
LINE
  5
18E
330
1F
100
AcDbEntity
  8
1
  6
Continuous
 62
     7
100
AcDbLine
 10
-205.0935285581879
 20
519.4763115524039
 30
0.0
 11
-206.3574895888667
 21
516.4248396898276
 31
0.0
  0
ARC
  5
18F
330
1F
100
AcDbEntity
  8
1
  6
Continuous
 62
     7
100
AcDbCircle
 10
-201.9574895888668
 20
469.4763115524039
 30
0.0
 40
10.00000000000011
100
AcDbArc
 50
-90.0
 51
0.0
  0
ARC
  5
190
330
1F
100
AcDbEntity
  8
1
  6
Continuous
 62
     7
100
AcDbCircle
 10
-201.9574895888668
 20
469.4763115524039
 30
0.0
 40
10.00000000000011
100
AcDbArc
 50
180.0
 51
-90.0
  0
ARC
  5
191
330
1F
100
AcDbEntity
  8
1
  6
Continuous
 62
     7
100
AcDbCircle
 10
-201.9574895888668
 20
469.4763115524039
 30
0.0
 40
10.00000000000009
100
AcDbArc
 50
0.0
 51
33.36701296923104
  0
ARC
  5
192
330
1F
100
AcDbEntity
  8
1
  6
Continuous
 62
     7
100
AcDbCircle
 10
-201.9574895888668
 20
469.4763115524039
 30
0.0
 40
10.0000000000002
100
AcDbArc
 50
110.4873151147222
 51
114.1477399170216
  0
ARC
  5
193
330
1F
100
AcDbEntity
  8
1
  6
Continuous
 62
     7
100
AcDbCircle
 10
-201.9574895888668
 20
469.4763115524039
 30
0.0
 40
10.00000000000006
100
AcDbArc
 50
114.1477399170216
 51
119.9999999999999
  0
ARC
  5
194
330
1F
100
AcDbEntity
  8
1
  6
Continuous
 62
     7
100
AcDbCircle
 10
-201.9574895888668
 20
469.4763115524039
 30
0.0
 40
9.99999999999998
100
AcDbArc
 50
33.36701296923104
 51
64.15806723683255
  0
ARC
  5
195
330
1F
100
AcDbEntity
  8
1
  6
Continuous
 62
     7
100
AcDbCircle
 10
-201.9574895888668
 20
469.4763115524039
 30
0.0
 40
9.9999999999999
100
AcDbArc
 50
64.15806723683255
 51
90.0
  0
ARC
  5
196
330
1F
100
AcDbEntity
  8
1
  6
Continuous
 62
     7
100
AcDbCircle
 10
-182.9574895888669
 20
485.476311552404
 30
0.0
 40
2.000000000000341
100
AcDbArc
 50
-90.0
 51
0.0
  0
ARC
  5
197
330
1F
100
AcDbEntity
  8
1
  6
Continuous
 62
     7
100
AcDbCircle
 10
-165.5505203768548
 20
506.7263115524038
 30
0.0
 40
2.750000000000114
100
AcDbArc
 50
90.0
 51
-90.0
  0
ARC
  5
198
330
1F
100
AcDbEntity
  8
1
  6
Continuous
 62
     7
100
AcDbCircle
 10
-165.5505203768548
 20
506.7263115524038
 30
0.0
 40
1.250000000000114
100
AcDbArc
 50
90.0
 51
-90.0
  0
ARC
  5
199
330
1F
100
AcDbEntity
  8
1
  6
Continuous
 62
     7
100
AcDbCircle
 10
-201.9574895888668
 20
469.4763115524039
 30
0.0
 40
10.00000000000011
100
AcDbArc
 50
90.0
 51
110.4873151147222
  0
ARC
  5
19A
330
1F
100
AcDbEntity
  8
1
  6
Continuous
 62
     7
100
AcDbCircle
 10
-201.9574895888668
 20
469.4763115524039
 30
0.0
 40
7.999999999999886
100
AcDbArc
 50
-90.0
 51
0.0
  0
ARC
  5
19B
330
1F
100
AcDbEntity
  8
1
  6
Continuous
 62
     7
100
AcDbCircle
 10
-201.9574895888668
 20
469.4763115524039
 30
0.0
 40
8.0
100
AcDbArc
 50
0.0
 51
90.0
  0
ARC
  5
19C
330
1F
100
AcDbEntity
  8
1
  6
Continuous
 62
     7
100
AcDbCircle
 10
-201.9574895888668
 20
469.4763115524039
 30
0.0
 40
8.000000000000114
100
AcDbArc
 50
90.0
 51
180.0
  0
ARC
  5
19D
330
1F
100
AcDbEntity
  8
1
  6
Continuous
 62
     7
100
AcDbCircle
 10
-201.9574895888668
 20
469.4763115524039
 30
0.0
 40
8.000000000000114
100
AcDbArc
 50
180.0
 51
-90.0
  0
ARC
  5
19E
330
1F
100
AcDbEntity
  8
1
  6
Continuous
 62
     7
100
AcDbCircle
 10
-201.9574895888668
 20
469.4763115524039
 30
0.0
 40
10.00000000000003
100
AcDbArc
 50
119.9999999999999
 51
180.0
  0
SPLINE
  5
19F
330
1F
100
AcDbEntity
  8
1
  6
Continuous
 62
     7
100
AcDbSpline
210
0.0
220
0.0
230
1.0
 70
     8
 71
     3
 72
    11
 73
     7
 74
     5
 42
0.0000000001
 43
0.0000000001
 44
0.00000001
 40
0.0
 40
0.0
 40
0.0
 40
0.0
 40
0.5910899247691392
 40
1.157604842455588
 40
1.609591797176198
 40
2.077157862448412
 40
2.077157862448412
 40
2.077157862448412
 40
2.077157862448412
 10
-182.4473624317368
 20
483.4763115524037
 30
0.0
 10
-182.2761415752988
 20
483.3791732542364
 30
0.0
 10
-181.9408184979864
 20
483.1889352555253
 30
0.0
 10
-181.5213038328795
 20
482.8394357976367
 30
0.0
 10
-181.2711470180345
 20
482.405213818396
 30
0.0
 10
-181.1571956298934
 20
482.120884680282
 30
0.0
 10
-181.0992546509318
 20
481.9763115524038
 30
0.0
 11
-182.4473624317368
 21
483.4763115524037
 31
0.0
 11
-181.9424633408713
 21
483.1689612519211
 31
0.0
 11
-181.5205383324326
 21
482.7909157001481
 31
0.0
 11
-181.2836368117786
 21
482.4059872954422
 31
0.0
 11
-181.0992546509318
 21
481.9763115524038
 31
0.0
  0
SPLINE
  5
1A0
330
1F
100
AcDbEntity
  8
1
  6
Continuous
 62
     7
100
AcDbSpline
210
0.0
220
0.0
230
1.0
 70
     8
 71
     3
 72
    29
 73
    25
 74
    23
 42
0.0000000001
 43
0.0000000001
 44
0.00000001
 40
0.0
 40
0.0
 40
0.0
 40
0.0
 40
0.8895106004826928
 40
1.614720294011557
 40
2.084459729670566
 40
2.530572635717728
 40
3.177440313769177
 40
3.946876071015316
 40
4.486929965291441
 40
4.935200976377375
 40
5.190029714504896
 40
5.438248718819869
 40
6.016987659840571
 40
6.788861584319306
 40
7.584413180769449
 40
8.247133744392897
 40
8.70733122248054
 40
9.154687630118474
 40
9.677694262883058
 40
10.11258093474817
 40
10.62571263616319
 40
11.21277240015617
 40
11.70017573250074
 40
12.21005469173212
 40
12.21005469173212
 40
12.21005469173212
 40
12.21005469173212
 10
-185.7333751474496
 20
479.476311552404
 30
0.0
 10
-185.4391255105957
 20
479.5255660052942
 30
0.0
 10
-184.9049768901342
 20
479.6149771540867
 30
0.0
 10
-184.2416739515195
 20
479.7446295270066
 30
0.0
 10
-183.7318604213647
 20
480.1462559031917
 30
0.0
 10
-183.9798349766868
 20
480.7033102895514
 30
0.0
 10
-184.4225768912657
 20
481.1167821005112
 30
0.0
 10
-184.9752488124549
 20
481.4706006219737
 30
0.0
 10
-185.5467448501473
 20
481.6829472719608
 30
0.0
 10
-185.8822771595931
 20
481.80202339688
 30
0.0
 10
-186.2957316142666
 20
481.9574540693354
 30
0.0
 10
-185.9126421372934
 20
482.2831805186386
 30
0.0
 10
-185.4313574455384
 20
482.3295231345491
 30
0.0
 10
-184.705925489999
 20
482.4703807601444
 30
0.0
 10
-183.9654517952097
 20
482.4602610484576
 30
0.0
 10
-183.3254741366733
 20
482.3990293351717
 30
0.0
 10
-182.8626564064769
 20
482.0047404032171
 30
0.0
 10
-183.0174680862858
 20
481.4910187696382
 30
0.0
 10
-183.1835243598985
 20
481.0858817481424
 30
0.0
 10
-183.2439631884289
 20
480.5307817740385
 30
0.0
 10
-182.7129697650989
 20
480.2587824008594
 30
0.0
 10
-182.1701216436011
 20
480.2389871684951
 30
0.0
 10
-181.7094803667055
 20
480.5531243223928
 30
0.0
 10
-181.5287058836656
 20
480.8331455412804
 30
0.0
 10
-181.4362815961328
 20
480.976311552404
 30
0.0
 11
-185.7333751474496
 21
479.476311552404
 31
0.0
 11
-184.8567935566944
 21
479.6274201991456
 31
0.0
 11
-184.1637040173161
 21
479.8408586914395
 31
0.0
 11
-183.8375985806918
 21
480.1789568748379
 31
0.0
 11
-183.9623715926434
 21
480.6072656658175
 31
0.0
 11
-184.4066682561176
 21
481.0774127361406
 31
0.0
 11
-185.0593212570468
 21
481.4849362874932
 31
0.0
 11
-185.5602894112373
 21
481.6866517237141
 31
0.0
 11
-185.9815617414133
 21
481.8398722288955
 31
0.0
 11
-186.1967871971017
 21
481.9763115524038
 31
0.0
 11
-186.0336445693868
 21
482.1633868236862
 31
0.0
 11
-185.4803221751441
 21
482.33301314795
 31
0.0
 11
-184.7162034102056
 21
482.4421546540742
 31
0.0
 11
-183.9206716704037
 21
482.4477754709384
 31
0.0
 11
-183.2731103515707
 21
482.3068397274218
 31
0.0
 11
-182.9529028495388
 21
481.9763115524038
 31
0.0
 11
-183.011333707114
 21
481.532787494051
 31
0.0
 11
-183.1719257448273
 21
481.0350464616467
 31
0.0
 11
-183.1635446902898
 21
480.6002405563387
 31
0.0
 11
-182.7394933482837
 21
480.3113035349311
 31
0.0
 11
-182.1524638546858
 21
480.305341979288
 31
0.0
 11
-181.7420939907391
 21
480.5683221746353
 31
0.0
 11
-181.4362815961328
 21
480.976311552404
 31
0.0
  0
SPLINE
  5
1A1
330
1F
100
AcDbEntity
  8
1
  6
Continuous
 62
     7
100
AcDbSpline
210
0.0
220
0.0
230
1.0
 70
     8
 71
     3
 72
    27
 73
    23
 74
    21
 42
0.0000000001
 43
0.0000000001
 44
0.00000001
 40
0.0
 40
0.0
 40
0.0
 40
0.0
 40
0.7277950974381284
 40
1.337859413161311
 40
1.833896610316278
 40
2.118542941909094
 40
2.401621501324755
 40
2.945988552284819
 40
3.63855360952877
 40
4.451143321879647
 40
4.947746839607278
 40
5.291759069736179
 40
5.537295258651575
 40
5.962835195523442
 40
6.528388499581995
 40
7.124332020495218
 40
7.898367861786828
 40
8.49644868103099
 40
8.907320562793693
 40
9.32653894188983
 40
9.954843025729126
 40
10.67592761448817
 40
10.67592761448817
 40
10.67592761448817
 40
10.67592761448817
 10
-186.2810439334018
 20
478.4763115524038
 30
0.0
 10
-186.522089841241
 20
478.4652579926345
 30
0.0
 10
-186.9651891942621
 20
478.4449389371224
 30
0.0
 10
-187.5929298850312
 20
478.4800296371392
 30
0.0
 10
-187.9764334479022
 20
478.8345479826579
 30
0.0
 10
-188.0090889509488
 20
479.1957345443487
 30
0.0
 10
-187.9750191500005
 20
479.5751606924347
 30
0.0
 10
-187.5276810370402
 20
479.9414829913982
 30
0.0
 10
-186.8392908315824
 20
479.9555108580457
 30
0.0
 10
-186.1562622083999
 20
480.0137756180698
 30
0.0
 10
-185.6641426106594
 20
480.1589153241345
 30
0.0
 10
-185.2486778595481
 20
480.3278968968191
 30
0.0
 10
-185.3715456120089
 20
480.7203623168846
 30
0.0
 10
-185.7592982409411
 20
480.897540764936
 30
0.0
 10
-186.2296035274529
 20
481.1272385083009
 30
0.0
 10
-186.8411019490461
 20
481.346795525675
 30
0.0
 10
-187.4761444079438
 20
481.4928279207728
 30
0.0
 10
-187.9884064205631
 20
481.8919673894733
 30
0.0
 10
-188.0575111707957
 20
482.3826245778617
 30
0.0
 10
-187.9859077668052
 20
482.8808250748305
 30
0.0
 10
-187.4912780533109
 20
483.2901444114262
 30
0.0
 10
-187.0594646253451
 20
483.4114750443465
 30
0.0
 10
-186.8287127193536
 20
483.4763115524037
 30
0.0
 11
-186.2810439334018
 21
478.4763115524038
 31
0.0
 11
-187.0085758214881
 21
478.4567397442953
 31
0.0
 11
-187.6095702073758
 21
478.5615453617505
 31
0.0
 11
-187.9574895888668
 21
478.915105830333
 31
0.0
 11
-188.0003837375054
 21
479.1965016833618
 31
0.0
 11
-187.9574895888668
 21
479.476311552404
 31
0.0
 11
-187.5613343768882
 21
479.8496700050914
 31
0.0
 11
-186.8779041433539
 21
479.9617836724414
 31
0.0
 11
-186.0704020926507
 21
480.0525717703869
 31
0.0
 11
-185.5938315232266
 21
480.1921982226737
 31
0.0
 11
-185.3120914659477
 21
480.3895987155879
 31
0.0
 11
-185.3670527934143
 21
480.6289045294542
 31
0.0
 11
-185.7122509569443
 21
480.8777467802245
 31
0.0
 11
-186.22599259629
 21
481.1142210235026
 31
0.0
 11
-186.7865843512039
 21
481.3164228148918
 31
0.0
 11
-187.5174767681593
 21
481.571232073831
 31
0.0
 11
-187.9574895888668
 21
481.9763115524038
 31
0.0
 11
-188.037281897024
 21
482.3793610416507
 31
0.0
 11
-187.9574895888668
 21
482.7909157001481
 31
0.0
 11
-187.5054261385276
 21
483.2272695229072
 31
0.0
 11
-186.8287127193536
 21
483.4763115524037
 31
0.0
  0
SPLINE
  5
1A2
330
1F
100
AcDbEntity
  8
1
  6
Continuous
 62
     7
100
AcDbSpline
210
0.0
220
0.0
230
1.0
 70
     8
 71
     3
 72
    61
 73
    57
 74
    55
 42
0.0000000001
 43
0.0000000001
 44
0.00000001
 40
0.0
 40
0.0
 40
0.0
 40
0.0
 40
0.4523272583992571
 40
0.7970223383271733
 40
1.067335986807457
 40
1.381268984499278
 40
1.613874858607794
 40
1.837364212502756
 40
2.138516670291498
 40
2.437502139837166
 40
2.702069140819016
 40
2.979704937559297
 40
3.193666497745058
 40
3.378477882971147
 40
3.702250052659145
 40
4.089669941167157
 40
4.302695501379627
 40
4.513436625066984
 40
4.771510873618083
 40
5.02686505315832
 40
5.381441195631703
 40
5.746752542984651
 40
6.025356887778962
 40
6.281991139706429
 40
6.461351423426544
 40
6.650235453267263
 40
6.960357599564976
 40
7.272282431641088
 40
7.68634103247685
 40
8.087418036733695
 40
8.326180026748734
 40
8.569482785933962
 40
8.892778104219737
 40
9.221279008006483
 40
9.504413000687114
 40
9.7629658046829
 40
9.943059522667728
 40
10.12859915817873
 40
10.3587415374913
 40
10.59425534349485
 40
10.85350788973214
 40
11.11451759953144
 40
11.48289872913747
 40
11.85065051576325
 40
12.1751377154834
 40
12.49939223769307
 40
12.83330869109065
 40
13.16622410835804
 40
13.44086053293295
 40
13.71870966874433
 40
13.98434969250708
 40
14.24110727230103
 40
14.47281964095767
 40
14.71125715187289
 40
14.89084091558215
 40
15.06845624592287
 40
15.06845624592287
 40
15.06845624592287
 40
15.06845624592287
 10
-167.4574895888669
 20
479.9763115524039
 30
0.0
 10
-167.3145468633362
 20
479.9372868647022
 30
0.0
 10
-167.0626749205474
 20
479.8685234920183
 30
0.0
 10
-166.6599932410931
 20
479.9160532802803
 30
0.0
 10
-166.5334743952847
 20
480.231238593685
 30
0.0
 10
-166.4936519878096
 20
480.4945270033345
 30
0.0
 10
-166.4602707433663
 20
480.7503302041741
 30
0.0
 10
-166.4419243957307
 20
481.0019792825919
 30
0.0
 10
-166.4449501667409
 20
481.276910329156
 30
0.0
 10
-166.488598962816
 20
481.5642878003316
 30
0.0
 10
-166.5913796855642
 20
481.8253697236191
 30
0.0
 10
-166.6620821922238
 20
482.0699153912245
 30
0.0
 10
-166.6751588930225
 20
482.2932793793594
 30
0.0
 10
-166.594316065712
 20
482.5481844525301
 30
0.0
 10
-166.2304890327918
 20
482.5594334769499
 30
0.0
 10
-165.9505955674063
 20
482.4176096727967
 30
0.0
 10
-165.8001635875236
 20
482.1825398672657
 30
0.0
 10
-165.7462871379335
 20
481.9608349554943
 30
0.0
 10
-165.6913980000313
 20
481.7260235121898
 30
0.0
 10
-165.6416512057391
 20
481.4406326695672
 30
0.0
 10
-165.6181185932221
 20
481.1157758056609
 30
0.0
 10
-165.6403022139534
 20
480.7815055449636
 30
0.0
 10
-165.6979242816438
 20
480.4890922498647
 30
0.0
 10
-165.6819732580283
 20
480.2389680377563
 30
0.0
 10
-165.5465598386754
 20
480.0709623351169
 30
0.0
 10
-165.3555927503576
 20
479.9460372120986
 30
0.0
 10
-165.0816006414371
 20
479.8868436721482
 30
0.0
 10
-164.735142160321
 20
479.9653265313111
 30
0.0
 10
-164.4311470651037
 20
480.2081384027154
 30
0.0
 10
-164.2721756017297
 20
480.543099149337
 30
0.0
 10
-164.2938109998783
 20
480.8419909082296
 30
0.0
 10
-164.3645543904555
 20
481.1008813885839
 30
0.0
 10
-164.4478451167246
 20
481.3872395696637
 30
0.0
 10
-164.574481178988
 20
481.6753671128357
 30
0.0
 10
-164.739150903934
 20
481.9109421708511
 30
0.0
 10
-164.817775920821
 20
482.156120929668
 30
0.0
 10
-164.7329471646682
 20
482.356687965129
 30
0.0
 10
-164.5875869087284
 20
482.5012836752691
 30
0.0
 10
-164.3630180008663
 20
482.5480894700665
 30
0.0
 10
-164.122507161675
 20
482.4882816548817
 30
0.0
 10
-163.9168923716072
 20
482.3320263590706
 30
0.0
 10
-163.7455842366907
 20
482.0874983127029
 30
0.0
 10
-163.6100734332625
 20
481.7820920475564
 30
0.0
 10
-163.5103738866839
 20
481.4426619094669
 30
0.0
 10
-163.4197115565935
 20
481.1162084139401
 30
0.0
 10
-163.3475131651722
 20
480.7964256486339
 30
0.0
 10
-163.3015472117215
 20
480.4688998242266
 30
0.0
 10
-163.2829400283796
 20
480.1552157096521
 30
0.0
 10
-163.2871109562626
 20
479.8601396379515
 30
0.0
 10
-163.2896698799404
 20
479.5871062918027
 30
0.0
 10
-163.2727080229367
 20
479.3215443281587
 30
0.0
 10
-163.3001317038244
 20
479.0664299008516
 30
0.0
 10
-163.4254517498513
 20
478.8528698657159
 30
0.0
 10
-163.5778219402502
 20
478.6976132221661
 30
0.0
 10
-163.7351128715096
 20
478.5759751973638
 30
0.0
 10
-163.8338429060386
 20
478.5094104936725
 30
0.0
 10
-163.8829358852468
 20
478.4763115524038
 30
0.0
 11
-167.4574895888669
 21
479.9763115524039
 31
0.0
 11
-167.0129353376465
 21
479.8928162446745
 31
0.0
 11
-166.6785056264758
 21
479.9763115524039
 31
0.0
 11
-166.5503517063436
 21
480.2143158408305
 31
0.0
 11
-166.4906610193578
 21
480.5225218578499
 31
0.0
 11
-166.4621440527471
 21
480.7533730551288
 31
0.0
 11
-166.4464622882718
 21
480.976311552404
 31
0.0
 11
-166.4520312267412
 21
481.2774125151333
 31
0.0
 11
-166.5017107021298
 21
481.572241721157
 31
0.0
 11
-166.5860799549949
 21
481.8229956387326
 31
0.0
 11
-166.6564062609327
 21
482.0915768114249
 31
0.0
 11
-166.6606583917733
 21
482.3054961154169
 31
0.0
 11
-166.5901081643028
 21
482.4763115524039
 31
0.0
 11
-166.2715467518294
 21
482.5341651983343
 31
0.0
 11
-165.9271271980038
 21
482.356769197945
 31
0.0
 11
-165.8111372843652
 21
482.1780900742681
 31
0.0
 11
-165.7503322736568
 21
481.9763115524038
 31
0.0
 11
-165.6935896272479
 21
481.7245525608191
 31
0.0
 11
-165.6508851287118
 21
481.472794576212
 31
0.0
 11
-165.6264719009312
 21
481.1190598802594
 31
0.0
 11
-165.6508851287118
 21
480.7545651960538
 31
0.0
 11
-165.6868137834579
 21
480.4782872332946
 31
0.0
 11
-165.6508851287118
 21
480.2241804230149
 31
0.0
 11
-165.5429621097232
 21
480.0809228460824
 31
0.0
 11
-165.3856927421917
 21
479.9763115524039
 31
0.0
 11
-165.0827490389327
 21
479.909972587383
 31
0.0
 11
-164.7779601897508
 21
479.9763115524039
 31
0.0
 11
-164.4526497225283
 21
480.2324709263132
 31
0.0
 11
-164.2917741477976
 21
480.5998696372509
 31
0.0
 11
-164.3011904189927
 21
480.8384458760357
 31
0.0
 11
-164.3580722444278
 21
481.0750059964329
 31
0.0
 11
-164.4541594922024
 21
481.3836920888319
 31
0.0
 11
-164.5901155826327
 21
481.6827385488739
 31
0.0
 11
-164.731918430157
 21
481.9278034591431
 31
0.0
 11
-164.7890098725229
 21
482.1799742735977
 31
0.0
 11
-164.7240998068
 21
482.3479636501232
 31
0.0
 11
-164.5901155826327
 21
482.4763115524039
 31
0.0
 11
-164.3663576087929
 21
482.530143549383
 31
0.0
 11
-164.1370785889949
 21
482.4763115524039
 31
0.0
 11
-163.9276128615984
 21
482.3235503276877
 31
0.0
 11
-163.7724390575299
 21
482.1136761769678
 31
0.0
 11
-163.6177117079346
 21
481.779364789281
 31
0.0
 11
-163.5072466710098
 21
481.428595845126
 31
0.0
 11
-163.4222419792268
 21
481.1154406996196
 31
0.0
 11
-163.3525511122067
 21
480.7987639271411
 31
0.0
 11
-163.3059511077874
 21
480.4681151142932
 31
0.0
 11
-163.2862530155769
 21
480.1357829608419
 31
0.0
 11
-163.2868797125455
 21
479.8611472513025
 31
0.0
 11
-163.2862530155769
 21
479.5832988222588
 31
0.0
 11
-163.2802950545476
 21
479.3177256215682
 31
0.0
 11
-163.3194020638918
 21
479.063963731991
 31
0.0
 11
-163.4313852351539
 21
478.8611081401466
 31
0.0
 11
-163.595644133184
 21
478.6882745177539
 31
0.0
 11
-163.7367457886205
 21
478.5771860349076
 31
0.0
 11
-163.8829358852468
 21
478.4763115524038
 31
0.0
  0
ARC
  5
1A3
330
1F
100
AcDbEntity
  8
1
  6
Continuous
 62
     7
100
AcDbCircle
 10
-149.9574895888667
 20
536.4763115524038
 30
0.0
 40
2.999999999999915
100
AcDbArc
 50
0.0
 51
90.0
  0
ARC
  5
1A4
330
1F
100
AcDbEntity
  8
1
  6
DASHED
 62
     2
100
AcDbCircle
 10
-169.4574895888668
 20
474.9763115524038
 30
0.0
 40
1.499999999999886
100
AcDbArc
 50
-90.0
 51
0.0
  0
ARC
  5
1A5
330
1F
100
AcDbEntity
  8
1
  6
Continuous
 62
     7
100
AcDbCircle
 10
-184.9574895888667
 20
466.4763115524038
 30
0.0
 40
3.000000000000085
100
AcDbArc
 50
180.0
 51
-90.0
  0
ARC
  5
1A6
330
1F
100
AcDbEntity
  8
1
  6
Continuous
 62
     7
100
AcDbCircle
 10
-171.4574895888668
 20
482.4763115524039
 30
0.0
 40
0.5000000000001137
100
AcDbArc
 50
90.0
 51
180.0
  0
ARC
  5
1A7
330
1F
100
AcDbEntity
  8
1
  6
Continuous
 62
     7
100
AcDbCircle
 10
-171.4574895888668
 20
482.4763115524039
 30
0.0
 40
0.5000000000000853
100
AcDbArc
 50
0.0
 51
90.0
  0
ARC
  5
1A8
330
1F
100
AcDbEntity
  8
1
  6
Continuous
 62
     7
100
AcDbCircle
 10
-163.9574895888667
 20
511.4763115524038
 30
0.0
 40
1.999999999999886
100
AcDbArc
 50
-90.0
 51
0.0
  0
ARC
  5
1A9
330
1F
100
AcDbEntity
  8
1
  6
Continuous
 62
     7
100
AcDbCircle
 10
-167.9574895888668
 20
501.9763115524039
 30
0.0
 40
2.0
100
AcDbArc
 50
90.0
 51
180.0
  0
ARC
  5
1AA
330
1F
100
AcDbEntity
  8
1
  6
Continuous
 62
     7
100
AcDbCircle
 10
-150.4574895888668
 20
504.4763115524038
 30
0.0
 40
0.4999999999998863
100
AcDbArc
 50
-90.0
 51
0.0
  0
ARC
  5
1AB
330
1F
100
AcDbEntity
  8
1
  6
Continuous
 62
     7
100
AcDbCircle
 10
-151.5140559184134
 20
505.8763115524038
 30
0.0
 40
0.3999999999999204
100
AcDbArc
 50
-90.0
 51
15.00000000002717
  0
ARC
  5
1AC
330
1F
100
AcDbEntity
  8
1
  6
Continuous
 62
     7
100
AcDbCircle
 10
-151.7211111544958
 20
505.8763115524038
 30
0.0
 40
0.3999999999997076
100
AcDbArc
 50
-164.9999999999859
 51
-90.0
  0
ARC
  5
1AD
330
1F
100
AcDbEntity
  8
1
  6
Continuous
 62
     7
100
AcDbCircle
 10
-153.5846082792336
 20
505.8763115524038
 30
0.0
 40
0.3999999999999204
100
AcDbArc
 50
-90.0
 51
15.00000000003033
  0
ARC
  5
1AE
330
1F
100
AcDbEntity
  8
1
  6
Continuous
 62
     7
100
AcDbCircle
 10
-153.7916635153158
 20
505.8763115524038
 30
0.0
 40
0.39999999999979
100
AcDbArc
 50
-164.9999999999891
 51
-90.0
  0
ARC
  5
1AF
330
1F
100
AcDbEntity
  8
1
  6
Continuous
 62
     7
100
AcDbCircle
 10
-155.6478836046924
 20
505.8763115524038
 30
0.0
 40
0.3999999999999204
100
AcDbArc
 50
-90.0
 51
14.22058743218742
  0
ARC
  5
1B0
330
1F
100
AcDbEntity
  8
1
  6
Continuous
 62
     7
100
AcDbCircle
 10
-157.5574895888668
 20
505.8763115524038
 30
0.0
 40
0.4000000000001194
100
AcDbArc
 50
180.0
 51
-90.0
  0
ARC
  5
1B1
330
1F
100
AcDbEntity
  8
1
  6
Continuous
 62
     7
100
AcDbCircle
 10
-159.3574895888668
 20
505.8763115524038
 30
0.0
 40
0.3999999999999204
100
AcDbArc
 50
-90.0
 51
0.0
  0
ARC
  5
1B2
330
1F
100
AcDbEntity
  8
1
  6
Continuous
 62
     7
100
AcDbCircle
 10
-160.3176239687868
 20
509.076311552404
 30
0.0
 40
0.3999999999999773
100
AcDbArc
 50
0.0
 51
90.0
  0
ARC
  5
1B3
330
1F
100
AcDbEntity
  8
1
  6
Continuous
 62
     7
100
AcDbCircle
 10
-160.3176239687868
 20
508.376311552404
 30
0.0
 40
0.4000000000000909
100
AcDbArc
 50
-90.0
 51
0.0
  0
ARC
  5
1B4
330
1F
100
AcDbEntity
  8
1
  6
Continuous
 62
     7
100
AcDbCircle
 10
-158.5574895888668
 20
510.8263115524038
 30
0.0
 40
0.4000000000000909
100
AcDbArc
 50
90.0
 51
180.0
  0
DIMENSION
  5
1C0
330
1F
100
AcDbEntity
  8
1
100
AcDbDimension
  2
*D1
 10
-169.9574895888668
 20
454.682975202577
 30
0.0
 11
-178.555341013345
 21
458.432975202577
 31
0.0
 70
    32
  1
18
 71
     5
 42
-1.0
 53
0.00013888888889
  3
ME10_DIM_10
100
AcDbAlignedDimension
 13
-187.9574895888668
 23
466.4763115524038
 33
0.0
 14
-169.9574895888669
 24
481.9763115524038
 34
0.0
100
AcDbRotatedDimension
  0
DIMENSION
  5
1CB
330
1F
100
AcDbEntity
  8
1
100
AcDbDimension
  2
*D2
 10
-169.9574895888668
 20
545.202187339696
 30
0.0
 11
-174.225697924705
 21
548.952187339696
 31
0.0
 70
    32
  1
11
 71
     5
 42
-1.0
 53
0.00013888888889
  3
ME10_DIM_11
100
AcDbAlignedDimension
 13
-180.9574895888668
 23
509.4763115524039
 33
0.0
 14
-169.9574895888669
 24
501.9763115524039
 34
0.0
100
AcDbRotatedDimension
  0
ENDSEC
  0
SECTION
  2
OBJECTS
  0
DICTIONARY
  5
C
330
0
100
AcDbDictionary
281
     1
  3
ACAD_GROUP
350
D
  3
ACAD_LAYOUT
350
1A
  3
ACAD_MLINESTYLE
350
17
  3
ACAD_PLOTSETTINGS
350
19
  3
ACAD_PLOTSTYLENAME
350
E
  0
DICTIONARY
  5
D
102
{ACAD_REACTORS
330
C
102
}
330
C
100
AcDbDictionary
281
     1
  0
DICTIONARY
  5
1A
102
{ACAD_REACTORS
330
C
102
}
330
C
100
AcDbDictionary
281
     1
  3
Layout1
350
1E
  3
Layout2
350
26
  3
Model
350
22
  0
DICTIONARY
  5
17
102
{ACAD_REACTORS
330
C
102
}
330
C
100
AcDbDictionary
281
     1
  3
Standard
350
18
  0
DICTIONARY
  5
19
102
{ACAD_REACTORS
330
C
102
}
330
C
100
AcDbDictionary
281
     1
  0
ACDBDICTIONARYWDFLT
  5
E
102
{ACAD_REACTORS
330
C
102
}
330
C
100
AcDbDictionary
281
     1
  3
Normal
350
F
100
AcDbDictionaryWithDefault
340
F
  0
LAYOUT
  5
1E
102
{ACAD_REACTORS
330
1A
102
}
330
1A
100
AcDbPlotSettings
  1

  2

  4

  6

 40
0.0
 41
0.0
 42
0.0
 43
0.0
 44
0.0
 45
0.0
 46
0.0
 47
0.0
 48
0.0
 49
0.0
140
0.0
141
0.0
142
1.0
143
1.0
 70
   688
 72
     0
 73
     0
 74
     5
  7

 75
    16
 76
     0
 77
     2
 78
   300
147
1.0
148
0.0
149
0.0
100
AcDbLayout
  1
Layout1
 70
     1
 71
     1
 10
0.0
 20
0.0
 11
0.0
 21
0.0
 12
0.0
 22
0.0
 32
0.0
 14
0.0
 24
0.0
 34
0.0
 15
0.0
 25
0.0
 35
0.0
146
0.0
 13
0.0
 23
0.0
 33
0.0
 16
1.0
 26
0.0
 36
0.0
 17
0.0
 27
1.0
 37
0.0
 76
     0
330
1B
  0
LAYOUT
  5
26
102
{ACAD_REACTORS
330
1A
102
}
330
1A
100
AcDbPlotSettings
  1

  2

  4

  6

 40
0.0
 41
0.0
 42
0.0
 43
0.0
 44
0.0
 45
0.0
 46
0.0
 47
0.0
 48
0.0
 49
0.0
140
0.0
141
0.0
142
1.0
143
1.0
 70
   688
 72
     0
 73
     0
 74
     5
  7

 75
    16
 76
     0
 77
     2
 78
   300
147
1.0
148
0.0
149
0.0
100
AcDbLayout
  1
Layout2
 70
     1
 71
     2
 10
0.0
 20
0.0
 11
0.0
 21
0.0
 12
0.0
 22
0.0
 32
0.0
 14
0.0
 24
0.0
 34
0.0
 15
0.0
 25
0.0
 35
0.0
146
0.0
 13
0.0
 23
0.0
 33
0.0
 16
1.0
 26
0.0
 36
0.0
 17
0.0
 27
1.0
 37
0.0
 76
     0
330
23
  0
LAYOUT
  5
22
102
{ACAD_REACTORS
330
1A
102
}
330
1A
100
AcDbPlotSettings
  1

  2

  4

  6

 40
0.0
 41
0.0
 42
0.0
 43
0.0
 44
0.0
 45
0.0
 46
0.0
 47
0.0
 48
0.0
 49
0.0
140
0.0
141
0.0
142
1.0
143
1.0
 70
  1712
 72
     0
 73
     0
 74
     0
  7

 75
     0
 76
     0
 77
     2
 78
   300
147
1.0
148
0.0
149
0.0
100
AcDbLayout
  1
Model
 70
     1
 71
     0
 10
0.0
 20
0.0
 11
0.0
 21
0.0
 12
0.0
 22
0.0
 32
0.0
 14
-226.9574895888669
 24
452.682975202577
 34
0.0
 15
-110.9574895888668
 25
550.702187339696
 35
0.0
146
0.0
 13
0.0
 23
0.0
 33
0.0
 16
1.0
 26
0.0
 36
0.0
 17
0.0
 27
1.0
 37
0.0
 76
     0
330
1F
  0
MLINESTYLE
  5
18
102
{ACAD_REACTORS
330
17
102
}
330
17
100
AcDbMlineStyle
  2
Standard
 70
     0
  3

 62
   256
 51
90.0
 52
90.0
 71
     2
 49
0.5
 62
   256
  6
BYLAYER
 49
-0.5
 62
   256
  6
BYLAYER
  0
ACDBPLACEHOLDER
  5
F
102
{ACAD_REACTORS
330
E
102
}
330
E
  0
ENDSEC
  0
EOF
